osu file format v14

[General]
AudioFilename: audio.mp3
AudioLeadIn: 0
PreviewTime: 51790
Countdown: 0
SampleSet: Normal
StackLeniency: 0.7
Mode: 1
LetterboxInBreaks: 0
WidescreenStoryboard: 0

[Editor]
DistanceSpacing: 1.6
BeatDivisor: 4
GridSize: 4
TimelineZoom: 1.9

[Metadata]
Title:Solar Storm
TitleUnicode:Solar Storm
Artist:xi
ArtistUnicode:xi
Creator:Chippy
Version:Eclipse
Source:Groove Coaster
Tags:
BeatmapID:1201359
BeatmapSetID:567182

[Difficulty]
HPDrainRate:6
CircleSize:4
OverallDifficulty:6
ApproachRate:9.4
SliderMultiplier:1.4
SliderTickRate:1

[Events]
//Background and Video events
0,0,"oser.jpg",0,0
//Break Periods
//Storyboard Layer 0 (Background)
//Storyboard Layer 1 (Fail)
//Storyboard Layer 2 (Pass)
//Storyboard Layer 3 (Foreground)
//Storyboard Sound Samples

[TimingPoints]
1390,300,4,1,0,80,1,0
51790,-100,4,1,0,80,0,1
75790,-100,4,1,0,80,0,0

[HitObjects]
256,192,1390,5,4,0:0:0:0:
256,192,1540,1,4,0:0:0:0:
256,192,1690,1,0,0:0:0:0:
256,192,1765,1,0,0:0:0:0:
256,192,1840,1,0,0:0:0:0:
256,192,1915,1,0,0:0:0:0:
256,192,1990,1,2,0:0:0:0:
256,192,2140,1,2,0:0:0:0:
256,192,2290,1,0,0:0:0:0:
256,192,2365,1,0,0:0:0:0:
256,192,2440,1,0,0:0:0:0:
256,192,2515,1,0,0:0:0:0:
256,192,2590,1,2,0:0:0:0:
256,192,2740,1,2,0:0:0:0:
256,192,2890,1,0,0:0:0:0:
256,192,2965,1,0,0:0:0:0:
256,192,3040,1,0,0:0:0:0:
256,192,3115,1,0,0:0:0:0:
256,192,3190,1,2,0:0:0:0:
256,192,3340,1,2,0:0:0:0:
256,192,3490,1,2,0:0:0:0:
256,192,3565,1,2,0:0:0:0:
256,192,3640,1,2,0:0:0:0:
256,192,3715,1,2,0:0:0:0:
256,192,3790,1,0,0:0:0:0:
256,192,3940,1,2,0:0:0:0:
256,192,4090,1,2,0:0:0:0:
256,192,4165,1,2,0:0:0:0:
256,192,4240,1,2,0:0:0:0:
256,192,4315,1,2,0:0:0:0:
256,192,4390,1,0,0:0:0:0:
256,192,4540,1,2,0:0:0:0:
256,192,4690,1,2,0:0:0:0:
256,192,4765,1,2,0:0:0:0:
256,192,4840,1,2,0:0:0:0:
256,192,4915,1,2,0:0:0:0:
256,192,4990,1,0,0:0:0:0:
256,192,5140,1,2,0:0:0:0:
256,192,5290,1,0,0:0:0:0:
256,192,5365,1,0,0:0:0:0:
256,192,5440,1,0,0:0:0:0:
256,192,5515,1,0,0:0:0:0:
256,192,5590,1,2,0:0:0:0:
256,192,5665,1,2,0:0:0:0:
256,192,5740,1,0,0:0:0:0:
256,192,5815,1,0,0:0:0:0:
256,192,5890,1,2,0:0:0:0:
256,192,5965,1,2,0:0:0:0:
256,192,6040,1,0,0:0:0:0:
256,192,6115,1,0,0:0:0:0:
256,192,6190,1,2,0:0:0:0:
256,192,6340,12,2,7090,0:0:0:0:
256,192,7390,5,2,0:0:0:0:
256,192,7465,1,2,0:0:0:0:
256,192,7540,1,2,0:0:0:0:
256,192,7615,1,2,0:0:0:0:
256,192,7690,1,2,0:0:0:0:
256,196,7765,1,2,0:0:0:0:
256,196,7840,1,2,0:0:0:0:
256,196,7915,1,2,0:0:0:0:
256,196,7990,1,2,0:0:0:0:
256,196,8065,1,2,0:0:0:0:
256,196,8140,1,2,0:0:0:0:
256,196,8215,1,2,0:0:0:0:
256,196,8290,1,2,0:0:0:0:
256,196,8365,1,2,0:0:0:0:
256,196,8440,1,2,0:0:0:0:
256,200,8515,1,2,0:0:0:0:
256,200,8590,1,0,0:0:0:0:
256,196,8890,1,2,0:0:0:0:
256,196,8965,1,0,0:0:0:0:
256,196,9040,1,2,0:0:0:0:
256,196,9115,1,0,0:0:0:0:
256,196,9190,1,2,0:0:0:0:
256,196,9265,1,0,0:0:0:0:
256,196,9340,1,2,0:0:0:0:
256,196,9415,1,0,0:0:0:0:
256,200,9490,1,2,0:0:0:0:
256,200,9565,1,0,0:0:0:0:
256,196,9640,1,2,0:0:0:0:
256,196,9715,1,0,0:0:0:0:
416,104,9790,2,0,P|464:216|324:284,1,280
256,192,10540,1,4,0:0:0:0:
256,196,10690,1,4,0:0:0:0:
256,192,10840,1,4,0:0:0:0:
256,192,10990,1,4,0:0:0:0:
256,192,11290,1,2,0:0:0:0:
256,196,11590,1,0,0:0:0:0:
256,192,11740,1,2,0:0:0:0:
256,192,12040,1,0,0:0:0:0:
256,196,12340,1,2,0:0:0:0:
256,192,12640,1,0,0:0:0:0:
256,192,12940,1,4,0:0:0:0:
256,196,13090,1,4,0:0:0:0:
256,192,13240,1,4,0:0:0:0:
256,192,13390,1,4,0:0:0:0:
256,192,13690,1,2,0:0:0:0:
256,196,13990,1,0,0:0:0:0:
256,192,14140,1,2,0:0:0:0:
256,192,14440,1,0,0:0:0:0:
256,196,14740,1,2,0:0:0:0:
256,192,15040,1,0,0:0:0:0:
256,192,15340,1,0,0:0:0:0:
256,192,15415,1,0,0:0:0:0:
260,192,15490,1,2,0:0:0:0:
264,192,15565,1,2,0:0:0:0:
264,192,15640,1,0,0:0:0:0:
264,192,15715,1,0,0:0:0:0:
256,192,15790,1,0,0:0:0:0:
256,192,16090,1,2,0:0:0:0:
256,196,16390,1,0,0:0:0:0:
256,192,16540,1,2,0:0:0:0:
256,192,16840,1,0,0:0:0:0:
256,196,17140,1,2,0:0:0:0:
256,192,17440,1,0,0:0:0:0:
256,192,17740,1,4,0:0:0:0:
256,196,17890,1,4,0:0:0:0:
256,192,18040,1,4,0:0:0:0:
256,192,18190,1,4,0:0:0:0:
256,192,18490,1,2,0:0:0:0:
256,196,18790,1,0,0:0:0:0:
256,192,18940,1,2,0:0:0:0:
256,192,19240,1,4,0:0:0:0:
256,196,19540,1,6,0:0:0:0:
256,192,19840,1,6,0:0:0:0:
256,192,20140,1,4,0:0:0:0:
256,196,20290,1,2,0:0:0:0:
256,196,20365,1,2,0:0:0:0:
256,196,20440,1,0,0:0:0:0:
256,196,20515,1,0,0:0:0:0:
256,192,20590,1,0,0:0:0:0:
256,192,20740,1,0,0:0:0:0:
256,192,20890,1,2,0:0:0:0:
256,192,21040,1,0,0:0:0:0:
256,192,21115,1,0,0:0:0:0:
256,196,21190,1,0,0:0:0:0:
256,196,21340,1,2,0:0:0:0:
256,196,21490,1,0,0:0:0:0:
256,192,21640,5,2,0:0:0:0:
256,192,21790,1,0,0:0:0:0:
256,192,21865,1,0,0:0:0:0:
256,192,21940,1,2,0:0:0:0:
256,192,22090,1,0,0:0:0:0:
256,196,22240,1,2,0:0:0:0:
256,196,22390,1,0,0:0:0:0:
256,196,22465,1,0,0:0:0:0:
256,196,22540,1,2,0:0:0:0:
256,196,22615,1,0,0:0:0:0:
256,196,22690,1,0,0:0:0:0:
256,196,22765,1,0,0:0:0:0:
256,196,22840,1,0,0:0:0:0:
256,192,22915,1,0,0:0:0:0:
256,192,22990,1,2,0:0:0:0:
256,196,23140,1,0,0:0:0:0:
256,196,23290,1,2,0:0:0:0:
256,196,23440,1,0,0:0:0:0:
256,196,23515,1,0,0:0:0:0:
256,196,23590,1,0,0:0:0:0:
256,196,23740,1,2,0:0:0:0:
256,192,23890,1,0,0:0:0:0:
256,196,24040,1,2,0:0:0:0:
256,196,24190,1,0,0:0:0:0:
256,196,24340,1,0,0:0:0:0:
256,196,24490,1,2,0:0:0:0:
256,196,24565,1,0,0:0:0:0:
256,196,24640,1,2,0:0:0:0:
256,204,24790,1,2,0:0:0:0:
256,204,24865,1,0,0:0:0:0:
256,204,24940,1,0,0:0:0:0:
256,204,25015,1,0,0:0:0:0:
256,204,25090,1,0,0:0:0:0:
256,204,25165,1,0,0:0:0:0:
256,204,25240,1,2,0:0:0:0:
256,204,25315,1,0,0:0:0:0:
256,204,25390,1,0,0:0:0:0:
256,204,25540,1,0,0:0:0:0:
256,204,25690,1,2,0:0:0:0:
256,204,25840,1,0,0:0:0:0:
256,204,25915,1,0,0:0:0:0:
256,204,25990,1,0,0:0:0:0:
256,204,26140,1,2,0:0:0:0:
256,204,26290,1,0,0:0:0:0:
256,204,26440,1,2,0:0:0:0:
256,204,26590,1,0,0:0:0:0:
256,204,26665,1,0,0:0:0:0:
256,204,26740,1,2,0:0:0:0:
256,204,26890,1,0,0:0:0:0:
256,204,27040,1,2,0:0:0:0:
264,200,27190,1,0,0:0:0:0:
256,204,27265,1,0,0:0:0:0:
256,204,27340,1,2,0:0:0:0:
256,204,27415,1,0,0:0:0:0:
256,200,27490,1,0,0:0:0:0:
256,200,27565,1,0,0:0:0:0:
256,200,27640,1,0,0:0:0:0:
256,200,27715,1,0,0:0:0:0:
256,192,27790,1,2,0:0:0:0:
256,204,27940,1,0,0:0:0:0:
256,204,28015,1,0,0:0:0:0:
256,204,28090,1,2,0:0:0:0:
256,200,28165,1,0,0:0:0:0:
256,200,28240,1,0,0:0:0:0:
256,204,28315,1,0,0:0:0:0:
256,192,28390,1,2,0:0:0:0:
256,200,28540,1,0,0:0:0:0:
256,200,28615,1,0,0:0:0:0:
256,200,28690,1,2,0:0:0:0:
260,200,28765,1,2,0:0:0:0:
256,196,28840,1,2,0:0:0:0:
256,200,28990,1,4,0:0:0:0:
256,200,29215,1,6,0:0:0:0:
256,200,29440,1,4,0:0:0:0:
256,196,29665,1,6,0:0:0:0:
256,200,29890,1,4,0:0:0:0:
256,200,30040,1,4,0:0:0:0:
136,16,30190,2,0,P|56:156|396:32,1,980
256,192,32440,1,0,0:0:0:0:
256,192,32515,1,0,0:0:0:0:
256,192,32590,1,0,0:0:0:0:
256,192,33190,1,0,0:0:0:0:
256,192,33790,1,2,0:0:0:0:
256,192,34690,1,2,0:0:0:0:
256,192,34990,1,0,0:0:0:0:
256,192,35290,1,0,0:0:0:0:
256,192,35590,1,0,0:0:0:0:
256,192,35890,1,0,0:0:0:0:
256,192,36190,1,2,0:0:0:0:
256,192,36790,1,0,0:0:0:0:
256,192,37390,1,0,0:0:0:0:
256,192,37990,1,0,0:0:0:0:
256,192,38590,1,2,0:0:0:0:
256,192,39490,1,2,0:0:0:0:
256,192,39790,1,0,0:0:0:0:
256,192,40090,1,2,0:0:0:0:
256,192,40390,1,2,0:0:0:0:
256,192,40690,1,0,0:0:0:0:
256,192,40990,1,2,0:0:0:0:
256,192,41590,1,0,0:0:0:0:
256,192,42190,5,0,0:0:0:0:
256,192,42265,1,0,0:0:0:0:
256,192,42340,1,2,0:0:0:0:
256,192,42415,1,2,0:0:0:0:
256,192,42490,1,0,0:0:0:0:
256,192,42565,1,0,0:0:0:0:
256,192,42640,1,2,0:0:0:0:
256,192,42715,1,2,0:0:0:0:
256,192,42790,1,2,0:0:0:0:
256,192,42865,1,2,0:0:0:0:
256,192,42940,1,2,0:0:0:0:
256,192,43015,1,2,0:0:0:0:
256,192,43090,1,0,0:0:0:0:
256,192,43165,1,0,0:0:0:0:
256,192,43240,1,0,0:0:0:0:
256,192,43315,1,0,0:0:0:0:
256,192,43390,5,0,0:0:0:0:
256,192,43465,1,0,0:0:0:0:
256,192,43540,1,2,0:0:0:0:
256,192,43615,1,2,0:0:0:0:
256,192,43690,1,0,0:0:0:0:
256,192,43765,1,0,0:0:0:0:
256,192,43840,1,2,0:0:0:0:
256,192,43915,1,2,0:0:0:0:
256,192,43990,1,2,0:0:0:0:
256,192,44065,1,2,0:0:0:0:
256,192,44140,1,2,0:0:0:0:
256,192,44215,1,2,0:0:0:0:
256,192,44290,1,0,0:0:0:0:
256,192,44365,1,0,0:0:0:0:
256,192,44440,1,0,0:0:0:0:
256,192,44515,1,0,0:0:0:0:
256,192,44590,1,0,0:0:0:0:
256,192,44665,1,0,0:0:0:0:
256,192,44740,1,2,0:0:0:0:
256,192,44815,1,2,0:0:0:0:
256,192,44890,1,0,0:0:0:0:
256,192,44965,1,0,0:0:0:0:
256,192,45040,1,2,0:0:0:0:
256,192,45115,1,2,0:0:0:0:
256,192,45190,1,2,0:0:0:0:
256,192,45265,1,2,0:0:0:0:
256,192,45340,1,2,0:0:0:0:
256,192,45415,1,2,0:0:0:0:
256,192,45490,1,0,0:0:0:0:
256,192,45565,1,0,0:0:0:0:
256,192,45640,1,0,0:0:0:0:
256,192,45715,1,0,0:0:0:0:
256,192,45790,1,0,0:0:0:0:
256,192,45865,1,0,0:0:0:0:
256,192,45940,1,2,0:0:0:0:
256,192,46015,1,2,0:0:0:0:
256,192,46090,1,0,0:0:0:0:
256,192,46165,1,0,0:0:0:0:
256,192,46240,1,2,0:0:0:0:
256,192,46315,1,2,0:0:0:0:
256,192,46390,1,2,0:0:0:0:
256,192,46465,1,2,0:0:0:0:
256,192,46540,1,2,0:0:0:0:
256,192,46615,1,2,0:0:0:0:
256,192,46690,1,0,0:0:0:0:
256,192,46765,1,0,0:0:0:0:
256,192,46840,1,0,0:0:0:0:
256,192,46915,1,0,0:0:0:0:
256,192,46990,1,2,0:0:0:0:
256,192,47065,1,0,0:0:0:0:
256,192,47140,1,0,0:0:0:0:
256,192,47215,1,0,0:0:0:0:
256,192,47290,1,0,0:0:0:0:
256,192,47365,1,0,0:0:0:0:
256,192,47440,1,0,0:0:0:0:
256,192,47515,1,0,0:0:0:0:
256,192,47590,1,0,0:0:0:0:
256,192,47665,1,0,0:0:0:0:
256,192,47740,1,0,0:0:0:0:
256,192,47815,1,0,0:0:0:0:
256,192,47890,1,0,0:0:0:0:
256,192,47965,1,0,0:0:0:0:
256,192,48040,1,0,0:0:0:0:
256,192,48115,1,0,0:0:0:0:
256,192,48190,1,2,0:0:0:0:
256,192,48265,1,0,0:0:0:0:
256,192,48340,1,0,0:0:0:0:
256,192,48415,1,0,0:0:0:0:
256,192,48490,1,0,0:0:0:0:
256,192,48565,1,0,0:0:0:0:
256,192,48640,1,0,0:0:0:0:
256,192,48715,1,0,0:0:0:0:
256,192,48790,1,0,0:0:0:0:
256,192,48865,1,0,0:0:0:0:
256,192,48940,1,0,0:0:0:0:
256,192,49015,1,0,0:0:0:0:
256,192,49090,1,0,0:0:0:0:
256,192,49165,1,0,0:0:0:0:
256,192,49240,1,0,0:0:0:0:
256,192,49315,1,0,0:0:0:0:
256,192,49390,1,2,0:0:0:0:
256,192,49465,1,0,0:0:0:0:
256,192,49540,1,0,0:0:0:0:
256,192,49615,1,0,0:0:0:0:
256,192,49690,1,0,0:0:0:0:
256,192,49765,1,0,0:0:0:0:
256,192,49840,1,0,0:0:0:0:
256,192,49915,1,0,0:0:0:0:
256,192,49990,1,2,0:0:0:0:
256,192,50065,1,0,0:0:0:0:
256,192,50140,1,0,0:0:0:0:
256,192,50215,1,0,0:0:0:0:
256,192,50290,1,0,0:0:0:0:
256,192,50365,1,0,0:0:0:0:
256,192,50440,1,0,0:0:0:0:
256,192,50515,1,0,0:0:0:0:
256,192,50590,1,2,0:0:0:0:
256,192,50665,1,0,0:0:0:0:
256,192,50740,1,0,0:0:0:0:
256,192,50815,1,0,0:0:0:0:
256,192,50890,1,2,0:0:0:0:
256,192,50965,1,0,0:0:0:0:
256,192,51040,1,0,0:0:0:0:
256,192,51115,1,0,0:0:0:0:
256,192,51190,1,2,0:0:0:0:
256,192,51265,1,2,0:0:0:0:
256,192,51340,1,0,0:0:0:0:
256,192,51415,1,0,0:0:0:0:
256,192,51490,1,2,0:0:0:0:
256,196,51640,1,0,0:0:0:0:
256,196,51790,1,4,0:0:0:0:
260,196,51940,1,4,0:0:0:0:
256,196,52090,1,0,0:0:0:0:
256,196,52165,1,0,0:0:0:0:
256,196,52240,1,0,0:0:0:0:
256,196,52315,1,0,0:0:0:0:
256,192,52390,1,2,0:0:0:0:
256,196,52540,1,0,0:0:0:0:
256,196,52615,1,2,0:0:0:0:
256,196,52765,1,0,0:0:0:0:
260,196,52840,1,2,0:0:0:0:
256,196,52990,1,2,0:0:0:0:
256,196,53140,1,0,0:0:0:0:
256,196,53215,1,0,0:0:0:0:
256,196,53290,1,2,0:0:0:0:
256,196,53440,1,0,0:0:0:0:
256,196,53515,1,0,0:0:0:0:
256,196,53590,1,2,0:0:0:0:
256,196,53740,1,0,0:0:0:0:
260,196,53815,1,0,0:0:0:0:
256,196,53890,1,2,0:0:0:0:
256,196,54040,1,0,0:0:0:0:
256,196,54115,1,0,0:0:0:0:
256,196,54190,1,2,0:0:0:0:
256,196,54340,1,0,0:0:0:0:
256,196,54415,1,0,0:0:0:0:
256,196,54490,1,2,0:0:0:0:
256,196,54565,1,2,0:0:0:0:
256,196,54640,1,0,0:0:0:0:
256,196,54715,1,0,0:0:0:0:
260,196,54790,1,2,0:0:0:0:
256,196,54940,1,0,0:0:0:0:
256,196,55015,1,0,0:0:0:0:
256,196,55090,1,2,0:0:0:0:
256,196,55165,1,2,0:0:0:0:
256,196,55240,1,0,0:0:0:0:
256,196,55315,1,0,0:0:0:0:
260,196,55390,1,2,0:0:0:0:
256,196,55540,1,0,0:0:0:0:
256,196,55615,1,0,0:0:0:0:
256,196,55690,1,2,0:0:0:0:
260,196,55765,1,0,0:0:0:0:
256,196,55840,1,0,0:0:0:0:
256,196,55915,1,2,0:0:0:0:
256,196,55990,1,2,0:0:0:0:
256,196,56065,1,2,0:0:0:0:
256,196,56140,1,0,0:0:0:0:
256,196,56215,1,2,0:0:0:0:
256,196,56290,1,2,0:0:0:0:
252,192,56365,1,0,0:0:0:0:
256,196,56440,1,2,0:0:0:0:
256,196,56515,1,2,0:0:0:0:
256,196,56590,1,0,0:0:0:0:
260,196,56740,1,0,0:0:0:0:
256,196,56890,1,0,0:0:0:0:
256,196,56965,1,0,0:0:0:0:
256,196,57040,1,0,0:0:0:0:
256,196,57115,1,0,0:0:0:0:
256,196,57190,1,2,0:0:0:0:
256,196,57340,1,0,0:0:0:0:
256,196,57415,1,2,0:0:0:0:
256,196,57565,1,0,0:0:0:0:
260,196,57640,1,2,0:0:0:0:
264,196,57790,1,2,0:0:0:0:
256,196,57940,1,0,0:0:0:0:
256,196,58015,1,2,0:0:0:0:
256,196,58090,1,2,0:0:0:0:
256,196,58240,1,0,0:0:0:0:
256,196,58315,1,2,0:0:0:0:
256,196,58390,1,2,0:0:0:0:
256,196,58540,1,0,0:0:0:0:
256,200,58615,1,2,0:0:0:0:
256,200,58690,1,2,0:0:0:0:
256,196,58840,1,0,0:0:0:0:
256,196,58915,1,0,0:0:0:0:
256,196,58990,1,2,0:0:0:0:
256,196,59140,1,0,0:0:0:0:
256,196,59215,1,0,0:0:0:0:
256,196,59290,1,2,0:0:0:0:
260,204,59365,1,0,0:0:0:0:
260,204,59440,1,0,0:0:0:0:
260,204,59515,1,0,0:0:0:0:
260,204,59590,1,2,0:0:0:0:
260,208,59740,1,0,0:0:0:0:
260,208,59890,1,0,0:0:0:0:
260,208,59965,1,0,0:0:0:0:
260,208,60040,1,2,0:0:0:0:
260,208,60115,1,0,0:0:0:0:
260,212,60190,1,6,0:0:0:0:
260,208,60415,1,6,0:0:0:0:
260,212,60640,1,6,0:0:0:0:
260,208,60865,1,6,0:0:0:0:
260,208,61090,1,0,0:0:0:0:
260,212,61165,1,0,0:0:0:0:
260,208,61240,1,0,0:0:0:0:
260,208,61315,1,0,0:0:0:0:
260,212,61390,1,2,0:0:0:0:
260,208,61540,1,2,0:0:0:0:
260,212,62290,1,2,0:0:0:0:
260,208,62440,1,2,0:0:0:0:
260,212,63190,1,2,0:0:0:0:
260,208,63340,1,2,0:0:0:0:
260,212,63490,1,0,0:0:0:0:
260,212,63565,1,0,0:0:0:0:
260,212,63640,1,0,0:0:0:0:
260,212,63790,1,6,0:0:0:0:
260,208,63940,1,2,0:0:0:0:
260,212,64690,1,6,0:0:0:0:
260,208,64840,1,2,0:0:0:0:
260,212,65590,1,6,0:0:0:0:
260,208,65740,1,2,0:0:0:0:
260,212,65890,1,0,0:0:0:0:
260,212,65965,1,0,0:0:0:0:
260,212,66040,1,0,0:0:0:0:
260,212,66190,1,6,0:0:0:0:
260,212,66340,1,6,0:0:0:0:
260,212,67090,1,6,0:0:0:0:
260,212,67240,1,6,0:0:0:0:
260,212,67990,1,6,0:0:0:0:
260,212,68140,1,6,0:0:0:0:
260,212,68290,1,2,0:0:0:0:
260,212,68365,1,0,0:0:0:0:
260,212,68440,1,0,0:0:0:0:
260,212,68590,1,2,0:0:0:0:
260,212,68690,1,2,0:0:0:0:
260,212,68890,1,2,0:0:0:0:
260,212,68990,1,2,0:0:0:0:
260,212,69190,1,2,0:0:0:0:
260,212,69290,1,2,0:0:0:0:
260,212,69490,1,2,0:0:0:0:
260,212,69590,1,2,0:0:0:0:
260,212,69790,1,2,0:0:0:0:
260,212,69890,1,2,0:0:0:0:
260,212,70090,1,2,0:0:0:0:
260,212,70190,1,2,0:0:0:0:
260,212,70390,1,2,0:0:0:0:
260,212,70490,1,2,0:0:0:0:
260,212,70690,1,2,0:0:0:0:
260,212,70790,1,2,0:0:0:0:
260,212,70990,1,2,0:0:0:0:
260,212,71090,1,2,0:0:0:0:
260,212,71290,1,2,0:0:0:0:
260,212,71390,1,2,0:0:0:0:
260,212,71590,1,2,0:0:0:0:
260,212,71690,1,2,0:0:0:0:
260,212,71890,1,2,0:0:0:0:
260,212,71990,1,2,0:0:0:0:
260,212,72190,1,2,0:0:0:0:
260,212,72290,1,2,0:0:0:0:
260,212,72490,1,2,0:0:0:0:
260,212,72590,1,2,0:0:0:0:
260,212,72790,1,2,0:0:0:0:
260,212,72890,1,2,0:0:0:0:
260,212,73090,1,2,0:0:0:0:
260,212,73190,1,0,0:0:0:0:
260,212,73290,1,0,0:0:0:0:
260,212,73390,1,2,0:0:0:0:
260,212,73690,1,2,0:0:0:0:
260,212,73765,1,2,0:0:0:0:
260,212,73840,1,2,0:0:0:0:
260,212,73915,1,2,0:0:0:0:
260,212,73990,1,2,0:0:0:0:
260,212,74065,1,2,0:0:0:0:
260,212,74140,1,2,0:0:0:0:
260,212,74215,1,2,0:0:0:0:
260,212,74290,1,2,0:0:0:0:
260,212,74365,1,2,0:0:0:0:
260,212,74440,1,2,0:0:0:0:
260,212,74515,1,2,0:0:0:0:
260,212,74590,1,0,0:0:0:0:
260,212,74690,1,0,0:0:0:0:
260,212,74790,1,2,0:0:0:0:
260,212,74890,1,0,0:0:0:0:
260,212,74990,1,0,0:0:0:0:
260,212,75090,1,2,0:0:0:0:
260,212,75190,1,0,0:0:0:0:
260,212,75340,1,0,0:0:0:0:
260,212,75415,1,0,0:0:0:0:
260,212,75490,1,0,0:0:0:0:
260,212,75565,1,0,0:0:0:0:
260,212,75640,1,0,0:0:0:0:
260,212,75715,1,0,0:0:0:0:
260,212,75790,1,2,0:0:0:0:
260,212,76090,1,2,0:0:0:0:
260,208,76390,1,0,0:0:0:0:
260,212,76540,1,2,0:0:0:0:
264,212,76840,1,0,0:0:0:0:
264,212,77140,1,0,0:0:0:0:
268,212,77290,1,2,0:0:0:0:
268,212,77440,1,0,0:0:0:0:
264,212,77590,1,0,0:0:0:0:
264,212,77740,1,0,0:0:0:0:
264,212,77815,1,0,0:0:0:0:
264,212,77890,1,2,0:0:0:0:
264,212,78040,1,0,0:0:0:0:
260,212,78190,1,0,0:0:0:0:
260,212,78490,1,2,0:0:0:0:
260,208,78790,1,0,0:0:0:0:
260,212,78940,1,2,0:0:0:0:
264,212,79240,1,0,0:0:0:0:
264,212,79540,1,0,0:0:0:0:
268,212,79690,1,2,0:0:0:0:
268,212,79840,1,0,0:0:0:0:
264,212,79990,1,2,0:0:0:0:
264,212,80140,1,2,0:0:0:0:
264,212,80215,1,0,0:0:0:0:
264,212,80290,1,0,0:0:0:0:
264,212,80440,1,0,0:0:0:0:
260,212,80590,1,0,0:0:0:0:
260,212,80890,1,2,0:0:0:0:
260,208,81190,1,0,0:0:0:0:
260,212,81340,1,2,0:0:0:0:
264,212,81640,1,0,0:0:0:0:
264,212,81940,1,0,0:0:0:0:
268,212,82090,1,2,0:0:0:0:
268,212,82240,1,0,0:0:0:0:
264,212,82390,1,0,0:0:0:0:
264,212,82540,1,0,0:0:0:0:
264,212,82615,1,0,0:0:0:0:
264,212,82690,1,2,0:0:0:0:
264,212,82840,1,0,0:0:0:0:
260,212,82990,1,0,0:0:0:0:
260,212,83290,1,2,0:0:0:0:
260,208,83590,1,0,0:0:0:0:
260,212,83740,1,2,0:0:0:0:
264,212,84040,1,0,0:0:0:0:
264,212,84190,1,4,0:0:0:0:
268,212,84415,1,6,0:0:0:0:
268,212,84640,1,6,0:0:0:0:
264,212,84865,1,4,0:0:0:0:
264,212,85090,1,0,0:0:0:0:
264,212,85165,1,0,0:0:0:0:
268,212,85240,1,0,0:0:0:0:
268,212,85315,1,0,0:0:0:0:
256,192,85390,12,0,86590,0:0:0:0:
256,192,86740,5,0,0:0:0:0:
256,192,86815,1,0,0:0:0:0:
260,196,86890,1,2,0:0:0:0:
264,196,86965,1,0,0:0:0:0:
264,196,87040,1,0,0:0:0:0:
264,196,87115,1,0,0:0:0:0:
264,196,87190,1,2,0:0:0:0:
264,196,87265,1,0,0:0:0:0:
264,196,87340,1,0,0:0:0:0:
264,196,87415,1,0,0:0:0:0:
264,196,87490,1,2,0:0:0:0:
264,196,87565,1,0,0:0:0:0:
264,196,87640,1,0,0:0:0:0:
264,196,87715,1,0,0:0:0:0:
264,196,87790,1,0,0:0:0:0:
260,196,87865,1,0,0:0:0:0:
264,196,87940,1,2,0:0:0:0:
264,196,88015,1,2,0:0:0:0:
264,196,88090,1,0,0:0:0:0:
260,196,88165,1,2,0:0:0:0:
264,196,88240,1,2,0:0:0:0:
264,196,88315,1,0,0:0:0:0:
264,196,88390,1,0,0:0:0:0:
264,196,88540,1,2,0:0:0:0:
260,196,88840,1,0,0:0:0:0:
260,196,89140,1,0,0:0:0:0:
264,196,89290,1,2,0:0:0:0:
264,196,89440,1,0,0:0:0:0:
260,196,89590,1,2,0:0:0:0:
260,196,89740,1,0,0:0:0:0:
260,196,89815,1,0,0:0:0:0:
260,196,89890,1,2,0:0:0:0:
260,196,90040,1,0,0:0:0:0:
256,192,90190,12,0,90640,0:0:0:0:
260,196,90790,5,0,0:0:0:0:
256,184,90865,1,0,0:0:0:0:
256,184,90940,1,2,0:0:0:0:
256,184,91015,1,0,0:0:0:0:
256,184,91090,1,0,0:0:0:0:
256,184,91165,1,2,0:0:0:0:
256,184,91240,1,0,0:0:0:0:
256,184,91315,1,0,0:0:0:0:
256,184,91390,1,2,0:0:0:0:
260,196,91465,1,0,0:0:0:0:
260,196,91540,1,0,0:0:0:0:
260,196,91615,1,0,0:0:0:0:
256,192,91690,1,2,0:0:0:0:
256,192,91765,1,0,0:0:0:0:
256,192,91840,1,0,0:0:0:0:
256,192,91915,1,0,0:0:0:0:
256,192,91990,1,2,0:0:0:0:
256,192,92065,1,0,0:0:0:0:
256,192,92140,1,0,0:0:0:0:
256,192,92215,1,0,0:0:0:0:
256,192,92290,1,2,0:0:0:0:
256,192,92365,1,0,0:0:0:0:
256,192,92440,1,0,0:0:0:0:
256,192,92515,1,2,0:0:0:0:
256,192,92590,1,0,0:0:0:0:
256,192,92665,1,2,0:0:0:0:
256,192,92740,1,0,0:0:0:0:
256,192,92815,1,2,0:0:0:0:
256,192,92890,1,0,0:0:0:0:
256,192,92965,1,2,0:0:0:0:
256,192,93040,1,0,0:0:0:0:
256,192,93115,1,2,0:0:0:0:
256,192,93190,1,0,0:0:0:0:
256,192,93265,1,2,0:0:0:0:
256,192,93340,1,0,0:0:0:0:
256,192,93415,1,2,0:0:0:0:
256,192,93490,1,0,0:0:0:0:
256,192,93565,1,2,0:0:0:0:
256,192,93640,1,0,0:0:0:0:
256,192,93715,1,2,0:0:0:0:
256,192,93790,1,0,0:0:0:0:
256,192,94015,1,6,0:0:0:0:
256,192,94240,1,6,0:0:0:0:
256,192,94465,1,4,0:0:0:0:
256,192,94690,1,0,0:0:0:0:
256,192,94765,1,2,0:0:0:0:
256,192,94840,1,2,0:0:0:0:
256,192,94990,1,0,0:0:0:0:
256,192,95140,1,0,0:0:0:0:
256,192,95215,1,0,0:0:0:0:
256,192,95290,1,0,0:0:0:0:
256,192,95365,1,0,0:0:0:0:
256,192,95440,1,0,0:0:0:0:
256,192,95515,1,0,0:0:0:0:
256,192,95590,1,2,0:0:0:0:
256,192,95740,1,0,0:0:0:0:
256,192,95815,1,0,0:0:0:0:
256,192,95890,1,0,0:0:0:0:
256,192,96040,1,2,0:0:0:0:
256,192,96340,1,0,0:0:0:0:
256,192,96490,1,0,0:0:0:0:
256,192,96565,1,0,0:0:0:0:
256,192,96640,1,2,0:0:0:0:
256,192,96715,1,2,0:0:0:0:
256,192,96790,1,0,0:0:0:0:
256,192,96865,1,0,0:0:0:0:
256,192,96940,1,2,0:0:0:0:
256,192,97015,1,2,0:0:0:0:
256,192,97090,1,0,0:0:0:0:
256,192,97165,1,0,0:0:0:0:
256,192,97240,1,2,0:0:0:0:
256,192,97315,1,0,0:0:0:0:
256,192,97590,1,4,0:0:0:0:
256,192,97790,1,4,0:0:0:0:
256,192,97990,1,6,0:0:0:0:
256,192,98190,1,4,0:0:0:0:
256,192,98390,1,6,0:0:0:0:
256,192,98590,1,6,0:0:0:0:
256,192,98790,1,4,0:0:0:0:
256,192,98990,1,6,0:0:0:0:
256,192,99190,1,6,0:0:0:0:
256,192,99390,1,4,0:0:0:0:
256,192,99590,1,6,0:0:0:0:
256,192,99790,1,6,0:0:0:0:
256,192,99940,1,6,0:0:0:0:
256,192,100090,1,0,0:0:0:0:
256,192,100165,1,0,0:0:0:0:
256,192,100240,1,0,0:0:0:0:
256,192,100315,1,0,0:0:0:0:
256,192,100390,1,2,0:0:0:0:
256,192,100540,1,0,0:0:0:0:
256,192,100615,1,0,0:0:0:0:
256,192,100690,1,0,0:0:0:0:
256,192,100840,1,2,0:0:0:0:
256,192,101140,1,6,0:0:0:0:
256,192,101290,1,6,0:0:0:0:
256,192,101440,1,0,0:0:0:0:
256,192,101590,1,0,0:0:0:0:
256,192,101665,1,0,0:0:0:0:
256,192,101740,1,2,0:0:0:0:
256,192,101815,1,2,0:0:0:0:
256,192,101890,1,0,0:0:0:0:
256,192,101965,1,0,0:0:0:0:
256,192,102040,1,0,0:0:0:0:
256,192,102115,1,0,0:0:0:0:
256,192,102190,1,0,0:0:0:0:
256,192,102340,1,0,0:0:0:0:
256,192,102490,1,0,0:0:0:0:
256,192,102565,1,0,0:0:0:0:
256,192,102640,1,2,0:0:0:0:
256,192,102715,1,2,0:0:0:0:
256,192,102790,1,0,0:0:0:0:
256,192,102865,1,0,0:0:0:0:
256,192,102940,1,2,0:0:0:0:
256,192,103015,1,2,0:0:0:0:
256,192,103090,1,0,0:0:0:0:
256,192,103165,1,0,0:0:0:0:
256,192,103240,1,2,0:0:0:0:
256,192,103315,1,2,0:0:0:0:
256,192,103390,1,0,0:0:0:0:
256,192,103465,1,0,0:0:0:0:
256,192,103540,1,0,0:0:0:0:
256,192,103615,1,0,0:0:0:0:
256,192,103690,1,2,0:0:0:0:
256,192,103840,1,2,0:0:0:0:
256,192,104140,1,0,0:0:0:0:
256,192,104215,1,0,0:0:0:0:
256,192,104290,1,2,0:0:0:0:
256,192,104365,1,0,0:0:0:0:
256,192,104440,1,2,0:0:0:0:
256,192,104515,1,0,0:0:0:0:
256,192,104590,1,0,0:0:0:0:
256,192,104665,1,0,0:0:0:0:
256,192,104740,1,2,0:0:0:0:
256,192,104815,1,0,0:0:0:0:
256,192,104890,1,0,0:0:0:0:
256,192,104965,1,2,0:0:0:0:
256,192,105040,1,0,0:0:0:0:
256,192,105115,1,2,0:0:0:0:
256,192,105190,1,2,0:0:0:0:
256,192,105265,1,0,0:0:0:0:
256,192,105340,1,2,0:0:0:0:
256,192,105415,1,2,0:0:0:0:
256,192,105490,1,2,0:0:0:0:
256,192,105565,1,2,0:0:0:0:
256,192,105640,1,2,0:0:0:0:
256,192,105715,1,2,0:0:0:0:
256,192,105790,1,2,0:0:0:0:
256,192,105865,1,0,0:0:0:0:
256,192,105940,1,0,0:0:0:0:
256,192,106015,1,0,0:0:0:0:
256,192,106090,1,2,0:0:0:0:
256,192,106165,1,0,0:0:0:0:
256,192,106240,1,0,0:0:0:0:
256,192,106315,1,0,0:0:0:0:
256,192,106390,1,2,0:0:0:0:
256,192,106465,1,0,0:0:0:0:
256,192,106540,1,0,0:0:0:0:
256,192,106615,1,0,0:0:0:0:
256,192,106690,1,0,0:0:0:0:
256,192,106840,1,4,0:0:0:0:
