osu file format v14

[General]
AudioFilename: audio.mp3
AudioLeadIn: 0
PreviewTime: 51270
Countdown: 0
SampleSet: Soft
StackLeniency: 0.7
Mode: 3
LetterboxInBreaks: 0
SpecialStyle: 0
WidescreenStoryboard: 1

[Editor]
DistanceSpacing: 1.2
BeatDivisor: 4
GridSize: 32
TimelineZoom: 1.6

[Metadata]
Title:Solar Storm
TitleUnicode:Solar Storm
Artist:xi
ArtistUnicode:xi
Creator:ByeForNow
Version:Hard
Source:GROOVE COASTER 2 HEAVENLY FESTIVAL
Tags:
BeatmapID:1445530
BeatmapSetID:664037

[Difficulty]
HPDrainRate:8
CircleSize:7
OverallDifficulty:8
ApproachRate:5
SliderMultiplier:1.4
SliderTickRate:1

[Events]
//Background and Video events
0,0,"sb.png",0,0
//Break Periods
2,3320,85470
//Storyboard Layer 0 (Background)
//Storyboard Layer 1 (Fail)
//Storyboard Layer 2 (Pass)
//Storyboard Layer 3 (Foreground)
//Storyboard Sound Samples

[TimingPoints]
1170,300,4,2,1,20,1,0
51570,-100,4,2,1,20,0,1
61170,-100,4,2,1,20,0,0
75570,-100,4,2,1,20,0,1
94770,-100,4,2,1,20,0,0
101970,-100,4,2,1,20,0,1
106620,-100,4,2,1,20,0,0

[HitObjects]
256,192,1170,5,0,0:0:0:0:
109,192,1170,1,0,0:0:0:0:
256,192,1320,1,0,0:0:0:0:
109,192,1320,1,0,0:0:0:0:
402,192,1470,1,0,0:0:0:0:
256,192,1545,1,0,0:0:0:0:
36,192,1620,1,0,0:0:0:0:
182,192,1695,1,0,0:0:0:0:
475,192,1770,1,0,0:0:0:0:
329,192,1770,1,0,0:0:0:0:
475,192,1920,1,0,0:0:0:0:
329,192,1920,1,0,0:0:0:0:
109,192,2070,1,0,0:0:0:0:
256,192,2145,1,0,0:0:0:0:
402,192,2220,1,0,0:0:0:0:
182,192,2295,1,0,0:0:0:0:
329,192,2370,1,0,0:0:0:0:
36,192,2370,1,0,0:0:0:0:
36,192,2520,1,0,0:0:0:0:
329,192,2520,1,0,0:0:0:0:
256,192,2670,1,0,0:0:0:0:
402,192,2745,1,0,0:0:0:0:
109,192,2820,1,0,0:0:0:0:
329,192,2895,1,0,0:0:0:0:
475,192,2970,1,0,0:0:0:0:
182,192,2970,1,0,0:0:0:0:
182,192,3120,1,0,0:0:0:0:
475,192,3120,1,0,0:0:0:0:
182,192,86670,5,0,0:0:0:0:
475,192,86670,1,0,0:0:0:0:
109,192,86745,1,0,0:0:0:0:
256,192,86820,1,0,0:0:0:0:
402,192,86820,1,0,0:0:0:0:
182,192,86895,1,0,0:0:0:0:
36,192,86970,1,0,0:0:0:0:
329,192,86970,1,0,0:0:0:0:
402,192,87045,1,0,0:0:0:0:
256,192,87120,1,0,0:0:0:0:
329,192,87195,1,0,0:0:0:0:
182,192,87270,1,0,0:0:0:0:
36,192,87270,1,0,0:0:0:0:
402,192,87345,1,0,0:0:0:0:
256,192,87420,1,0,0:0:0:0:
109,192,87495,1,0,0:0:0:0:
36,192,87570,1,0,0:0:0:0:
329,192,87570,1,0,0:0:0:0:
475,192,87570,1,0,0:0:0:0:
182,192,87645,1,0,0:0:0:0:
256,192,87720,1,0,0:0:0:0:
402,192,87795,1,0,0:0:0:0:
182,192,87870,1,0,0:0:0:0:
36,192,87870,1,0,0:0:0:0:
329,192,87945,1,0,0:0:0:0:
256,192,88020,1,0,0:0:0:0:
402,192,88095,1,0,0:0:0:0:
475,192,88170,1,0,0:0:0:0:
182,192,88170,1,0,0:0:0:0:
109,192,88170,1,0,0:0:0:0:
