osu file format v14

[General]
AudioFilename: audio.mp3
AudioLeadIn: 0
PreviewTime: 51270
Countdown: 0
SampleSet: Soft
StackLeniency: 0.7
Mode: 3
LetterboxInBreaks: 0
SpecialStyle: 0
WidescreenStoryboard: 0

[Editor]
DistanceSpacing: 1.2
BeatDivisor: 6
GridSize: 32
TimelineZoom: 1.8

[Metadata]
Title:Solar Storm
TitleUnicode:Solar Storm
Artist:xi
ArtistUnicode:xi
Creator:ByeForNow
Version:Black Another
Source:GROOVE COASTER 2 HEAVENLY FESTIVAL
Tags:
BeatmapID:1405447
BeatmapSetID:664037

[Difficulty]
HPDrainRate:8.5
CircleSize:7
OverallDifficulty:8
ApproachRate:5
SliderMultiplier:1.4
SliderTickRate:1

[Events]
//Background and Video events
0,0,"sb.png",0,0
//Break Periods
//Storyboard Layer 0 (Background)
//Storyboard Layer 1 (Fail)
//Storyboard Layer 2 (Pass)
//Storyboard Layer 3 (Foreground)
//Storyboard Sound Samples

[TimingPoints]
1170,300,4,2,1,20,1,0
32370,-133.333333333333,4,2,1,20,0,0
41970,-100,4,2,1,20,0,0
51570,-100,4,2,1,20,0,1
61170,-100,4,2,1,20,0,0
75570,-100,4,2,1,20,0,1
94770,-100,4,2,1,20,0,0
101970,-100,4,2,1,20,0,1
106620,-100,4,2,1,20,0,0

[HitObjects]
182,192,1170,5,0,0:0:0:0:
36,192,1170,1,0,0:0:0:0:
475,192,1170,1,0,0:0:0:0:
329,192,1170,1,0,0:0:0:0:
36,192,1320,1,0,0:0:0:0:
182,192,1320,1,0,0:0:0:0:
329,192,1320,1,0,0:0:0:0:
475,192,1320,1,0,0:0:0:0:
109,192,1470,1,0,0:0:0:0:
256,192,1545,1,0,0:0:0:0:
402,192,1620,1,0,0:0:0:0:
182,192,1695,1,0,0:0:0:0:
329,192,1770,1,0,0:0:0:0:
475,192,1770,1,0,0:0:0:0:
36,192,1770,1,0,0:0:0:0:
109,192,1770,1,0,0:0:0:0:
109,192,1920,1,0,0:0:0:0:
36,192,1920,1,0,0:0:0:0:
329,192,1920,1,0,0:0:0:0:
475,192,1920,1,0,0:0:0:0:
182,192,2070,1,0,0:0:0:0:
329,192,2145,1,0,0:0:0:0:
475,192,2220,1,0,0:0:0:0:
256,192,2295,1,0,0:0:0:0:
402,192,2370,1,0,0:0:0:0:
182,192,2370,1,0,0:0:0:0:
109,192,2370,1,0,0:0:0:0:
36,192,2370,1,0,0:0:0:0:
182,192,2520,1,0,0:0:0:0:
109,192,2520,1,0,0:0:0:0:
36,192,2520,1,0,0:0:0:0:
402,192,2520,1,0,0:0:0:0:
329,192,2670,1,0,0:0:0:0:
475,192,2745,1,0,0:0:0:0:
109,192,2820,1,0,0:0:0:0:
256,192,2895,1,0,0:0:0:0:
329,192,2970,1,0,0:0:0:0:
402,192,2970,1,0,0:0:0:0:
182,192,2970,1,0,0:0:0:0:
36,192,2970,1,0,0:0:0:0:
36,192,3120,1,0,0:0:0:0:
182,192,3120,1,0,0:0:0:0:
329,192,3120,1,0,0:0:0:0:
402,192,3120,1,0,0:0:0:0:
109,192,3270,1,0,0:0:0:0:
329,192,3345,1,0,0:0:0:0:
109,192,3420,1,0,0:0:0:0:
402,192,3495,1,0,0:0:0:0:
475,192,3570,1,0,0:0:0:0:
36,192,3570,1,0,0:0:0:0:
182,192,3570,1,0,0:0:0:0:
256,192,3570,1,0,0:0:0:0:
256,192,3720,1,0,0:0:0:0:
182,192,3720,1,0,0:0:0:0:
36,192,3720,1,0,0:0:0:0:
475,192,3720,1,0,0:0:0:0:
109,192,3870,1,0,0:0:0:0:
329,192,3945,1,0,0:0:0:0:
182,192,4020,1,0,0:0:0:0:
402,192,4095,1,0,0:0:0:0:
475,192,4170,1,0,0:0:0:0:
256,192,4170,1,0,0:0:0:0:
36,192,4170,1,0,0:0:0:0:
329,192,4170,1,0,0:0:0:0:
36,192,4320,1,0,0:0:0:0:
256,192,4320,1,0,0:0:0:0:
329,192,4320,1,0,0:0:0:0:
475,192,4320,1,0,0:0:0:0:
182,192,4470,1,0,0:0:0:0:
402,192,4545,1,0,0:0:0:0:
109,192,4620,1,0,0:0:0:0:
329,192,4695,1,0,0:0:0:0:
475,192,4770,1,0,0:0:0:0:
256,192,4770,1,0,0:0:0:0:
36,192,4770,1,0,0:0:0:0:
402,192,4770,1,0,0:0:0:0:
402,192,4920,1,0,0:0:0:0:
475,192,4920,1,0,0:0:0:0:
256,192,4920,1,0,0:0:0:0:
36,192,4920,1,0,0:0:0:0:
109,192,5070,1,0,0:0:0:0:
329,192,5145,1,0,0:0:0:0:
402,192,5220,1,0,0:0:0:0:
475,192,5295,1,0,0:0:0:0:
256,192,5370,1,0,0:0:0:0:
109,192,5370,1,0,0:0:0:0:
36,192,5370,1,0,0:0:0:0:
329,192,5370,1,0,0:0:0:0:
182,192,5445,1,0,0:0:0:0:
109,192,5520,1,0,0:0:0:0:
329,192,5595,1,0,0:0:0:0:
36,192,5670,1,0,0:0:0:0:
475,192,5670,1,0,0:0:0:0:
182,192,5670,1,0,0:0:0:0:
329,192,5745,1,0,0:0:0:0:
475,192,5820,1,0,0:0:0:0:
36,192,5820,1,0,0:0:0:0:
182,192,5820,1,0,0:0:0:0:
402,192,5895,1,0,0:0:0:0:
475,192,5970,1,0,0:0:0:0:
329,192,5970,1,0,0:0:0:0:
109,192,5970,1,0,0:0:0:0:
256,192,5970,1,0,0:0:0:0:
182,192,6045,1,0,0:0:0:0:
36,192,6120,1,0,0:0:0:0:
329,192,6195,1,0,0:0:0:0:
109,192,6270,1,0,0:0:0:0:
256,192,6345,1,0,0:0:0:0:
109,192,6420,1,0,0:0:0:0:
329,192,6495,1,0,0:0:0:0:
182,192,6570,1,0,0:0:0:0:
36,192,6570,1,0,0:0:0:0:
475,192,6570,1,0,0:0:0:0:
402,192,6645,1,0,0:0:0:0:
256,192,6720,1,0,0:0:0:0:
329,192,6795,1,0,0:0:0:0:
182,192,6870,1,0,0:0:0:0:
256,192,6945,1,0,0:0:0:0:
329,192,7020,1,0,0:0:0:0:
402,192,7095,1,0,0:0:0:0:
475,192,7170,1,0,0:0:0:0:
36,192,7170,1,0,0:0:0:0:
109,192,7170,1,0,0:0:0:0:
182,192,7170,1,0,0:0:0:0:
329,192,7245,1,0,0:0:0:0:
256,192,7320,1,0,0:0:0:0:
182,192,7395,1,0,0:0:0:0:
36,192,7470,1,0,0:0:0:0:
329,192,7470,1,0,0:0:0:0:
475,192,7470,1,0,0:0:0:0:
256,192,7545,1,0,0:0:0:0:
109,192,7620,1,0,0:0:0:0:
402,192,7695,1,0,0:0:0:0:
182,192,7770,1,0,0:0:0:0:
36,192,7770,1,0,0:0:0:0:
256,192,7807,1,0,0:0:0:0:
329,192,7845,1,0,0:0:0:0:
402,192,7882,1,0,0:0:0:0:
182,192,7920,1,0,0:0:0:0:
36,192,7995,1,0,0:0:0:0:
329,192,8070,1,0,0:0:0:0:
475,192,8070,1,0,0:0:0:0:
256,192,8107,1,0,0:0:0:0:
182,192,8145,1,0,0:0:0:0:
109,192,8182,1,0,0:0:0:0:
329,192,8220,1,0,0:0:0:0:
475,192,8295,1,0,0:0:0:0:
402,192,8370,1,0,0:0:0:0:
256,192,8370,1,0,0:0:0:0:
182,192,8370,1,0,0:0:0:0:
36,192,8370,1,0,0:0:0:0:
256,192,8670,1,0,0:0:0:0:
402,192,8745,1,0,0:0:0:0:
182,192,8820,1,0,0:0:0:0:
329,192,8895,1,0,0:0:0:0:
109,192,8970,1,0,0:0:0:0:
256,192,9045,1,0,0:0:0:0:
36,192,9120,1,0,0:0:0:0:
329,192,9195,1,0,0:0:0:0:
182,192,9270,1,0,0:0:0:0:
109,192,9345,1,0,0:0:0:0:
329,192,9420,1,0,0:0:0:0:
256,192,9495,1,0,0:0:0:0:
182,192,9570,1,0,0:0:0:0:
402,192,9570,1,0,0:0:0:0:
329,192,9645,1,0,0:0:0:0:
36,192,9645,1,0,0:0:0:0:
256,192,9720,1,0,0:0:0:0:
475,192,9720,1,0,0:0:0:0:
402,192,9795,1,0,0:0:0:0:
109,192,9795,1,0,0:0:0:0:
329,192,9870,1,0,0:0:0:0:
182,192,9870,1,0,0:0:0:0:
36,192,9945,1,0,0:0:0:0:
475,192,9945,1,0,0:0:0:0:
256,192,10020,1,0,0:0:0:0:
402,192,10020,1,0,0:0:0:0:
182,192,10095,1,0,0:0:0:0:
329,192,10095,1,0,0:0:0:0:
109,192,10170,1,0,0:0:0:0:
36,192,10170,1,0,0:0:0:0:
256,192,10320,1,0,0:0:0:0:
475,192,10320,1,0,0:0:0:0:
109,192,10470,1,0,0:0:0:0:
402,192,10470,1,0,0:0:0:0:
256,192,10545,1,0,0:0:0:0:
475,192,10620,1,0,0:0:0:0:
109,192,10620,1,0,0:0:0:0:
329,192,10695,1,0,0:0:0:0:
182,192,10770,1,0,0:0:0:0:
256,192,10770,1,0,0:0:0:0:
36,192,10770,1,0,0:0:0:0:
475,192,10770,1,0,0:0:0:0:
109,192,11070,1,0,0:0:0:0:
329,192,11070,1,0,0:0:0:0:
475,192,11070,1,0,0:0:0:0:
36,192,11370,1,0,0:0:0:0:
182,192,11370,1,0,0:0:0:0:
402,192,11370,1,0,0:0:0:0:
109,192,11520,1,0,0:0:0:0:
256,192,11520,1,0,0:0:0:0:
402,192,11520,1,0,0:0:0:0:
36,192,11820,1,0,0:0:0:0:
182,192,11820,1,0,0:0:0:0:
475,192,11820,1,0,0:0:0:0:
329,192,12120,1,0,0:0:0:0:
402,192,12120,1,0,0:0:0:0:
109,192,12120,1,0,0:0:0:0:
109,192,12420,1,0,0:0:0:0:
329,192,12420,1,0,0:0:0:0:
402,192,12420,1,0,0:0:0:0:
182,192,12720,1,0,0:0:0:0:
36,192,12720,1,0,0:0:0:0:
402,192,12720,1,0,0:0:0:0:
182,192,12870,1,0,0:0:0:0:
329,192,12870,1,0,0:0:0:0:
475,192,12870,1,0,0:0:0:0:
109,192,13020,1,0,0:0:0:0:
256,192,13020,1,0,0:0:0:0:
402,192,13020,1,0,0:0:0:0:
402,192,13170,1,0,0:0:0:0:
182,192,13170,1,0,0:0:0:0:
475,192,13170,1,0,0:0:0:0:
36,192,13170,1,0,0:0:0:0:
329,192,13470,1,0,0:0:0:0:
475,192,13470,1,0,0:0:0:0:
109,192,13470,1,0,0:0:0:0:
36,192,13770,1,0,0:0:0:0:
256,192,13770,1,0,0:0:0:0:
402,192,13770,1,0,0:0:0:0:
109,192,13920,1,0,0:0:0:0:
256,192,13920,1,0,0:0:0:0:
475,192,13920,1,0,0:0:0:0:
36,192,14220,1,0,0:0:0:0:
182,192,14220,1,0,0:0:0:0:
329,192,14220,1,0,0:0:0:0:
329,192,14520,1,0,0:0:0:0:
475,192,14520,1,0,0:0:0:0:
109,192,14520,1,0,0:0:0:0:
109,192,14820,1,0,0:0:0:0:
329,192,14820,1,0,0:0:0:0:
475,192,14820,1,0,0:0:0:0:
182,192,15120,1,0,0:0:0:0:
402,192,15120,1,0,0:0:0:0:
329,192,15195,1,0,0:0:0:0:
109,192,15270,1,0,0:0:0:0:
475,192,15270,1,0,0:0:0:0:
256,192,15345,1,0,0:0:0:0:
402,192,15420,1,0,0:0:0:0:
109,192,15420,1,0,0:0:0:0:
329,192,15495,1,0,0:0:0:0:
182,192,15570,1,0,0:0:0:0:
36,192,15570,1,0,0:0:0:0:
402,192,15570,1,0,0:0:0:0:
475,192,15570,1,0,0:0:0:0:
109,192,15870,1,0,0:0:0:0:
329,192,15870,1,0,0:0:0:0:
475,192,15870,1,0,0:0:0:0:
36,192,16170,1,0,0:0:0:0:
182,192,16170,1,0,0:0:0:0:
402,192,16170,1,0,0:0:0:0:
109,192,16320,1,0,0:0:0:0:
256,192,16320,1,0,0:0:0:0:
402,192,16320,1,0,0:0:0:0:
36,192,16620,1,0,0:0:0:0:
182,192,16620,1,0,0:0:0:0:
475,192,16620,1,0,0:0:0:0:
329,192,16920,1,0,0:0:0:0:
402,192,16920,1,0,0:0:0:0:
109,192,16920,1,0,0:0:0:0:
109,192,17220,1,0,0:0:0:0:
329,192,17220,1,0,0:0:0:0:
402,192,17220,1,0,0:0:0:0:
402,192,17520,1,0,0:0:0:0:
36,192,17520,1,0,0:0:0:0:
182,192,17520,1,0,0:0:0:0:
475,192,17670,1,0,0:0:0:0:
182,192,17670,1,0,0:0:0:0:
329,192,17670,1,0,0:0:0:0:
402,192,17820,1,0,0:0:0:0:
109,192,17820,1,0,0:0:0:0:
256,192,17820,1,0,0:0:0:0:
36,192,17970,1,0,0:0:0:0:
402,192,17970,1,0,0:0:0:0:
475,192,17970,1,0,0:0:0:0:
182,192,17970,1,0,0:0:0:0:
329,192,18270,1,0,0:0:0:0:
109,192,18270,1,0,0:0:0:0:
475,192,18270,1,0,0:0:0:0:
256,192,18570,1,0,0:0:0:0:
402,192,18570,1,0,0:0:0:0:
36,192,18570,1,0,0:0:0:0:
256,192,18720,1,0,0:0:0:0:
109,192,18720,1,0,0:0:0:0:
475,192,18720,1,0,0:0:0:0:
329,192,18870,1,0,0:0:0:0:
402,192,18870,1,0,0:0:0:0:
182,192,19020,1,0,0:0:0:0:
36,192,19020,1,0,0:0:0:0:
329,192,19020,1,0,0:0:0:0:
475,192,19020,1,0,0:0:0:0:
109,192,19320,1,0,0:0:0:0:
256,192,19320,1,0,0:0:0:0:
402,192,19320,1,0,0:0:0:0:
475,192,19320,1,0,0:0:0:0:
182,192,19620,1,0,0:0:0:0:
329,192,19620,1,0,0:0:0:0:
475,192,19620,1,0,0:0:0:0:
36,192,19620,1,0,0:0:0:0:
109,192,19920,1,0,0:0:0:0:
256,192,19920,1,0,0:0:0:0:
329,192,19920,1,0,0:0:0:0:
402,192,19995,1,0,0:0:0:0:
182,192,20070,1,0,0:0:0:0:
36,192,20070,1,0,0:0:0:0:
329,192,20145,1,0,0:0:0:0:
475,192,20145,1,0,0:0:0:0:
109,192,20220,1,0,0:0:0:0:
256,192,20220,1,0,0:0:0:0:
329,192,20295,1,0,0:0:0:0:
402,192,20295,1,0,0:0:0:0:
182,192,20370,1,0,0:0:0:0:
36,192,20370,1,0,0:0:0:0:
475,192,20370,1,0,0:0:0:0:
109,192,20370,1,0,0:0:0:0:
256,192,20520,1,0,0:0:0:0:
256,192,20670,1,0,0:0:0:0:
402,192,20670,1,0,0:0:0:0:
109,192,20670,1,0,0:0:0:0:
182,192,20820,1,0,0:0:0:0:
36,192,20970,1,0,0:0:0:0:
402,192,20970,1,0,0:0:0:0:
329,192,20970,1,0,0:0:0:0:
475,192,21120,1,0,0:0:0:0:
256,192,21120,1,0,0:0:0:0:
182,192,21120,1,0,0:0:0:0:
402,192,21270,1,0,0:0:0:0:
109,192,21270,1,0,0:0:0:0:
329,192,21345,1,0,0:0:0:0:
475,192,21420,1,0,0:0:0:0:
36,192,21420,1,0,0:0:0:0:
182,192,21420,1,0,0:0:0:0:
402,192,21495,1,0,0:0:0:0:
256,192,21570,1,0,0:0:0:0:
109,192,21720,1,0,0:0:0:0:
182,192,21720,1,0,0:0:0:0:
402,192,21720,1,0,0:0:0:0:
329,192,21870,1,0,0:0:0:0:
36,192,21870,1,0,0:0:0:0:
109,192,22020,1,0,0:0:0:0:
182,192,22020,1,0,0:0:0:0:
402,192,22020,1,0,0:0:0:0:
475,192,22095,1,0,0:0:0:0:
256,192,22170,1,0,0:0:0:0:
329,192,22245,1,0,0:0:0:0:
36,192,22320,1,0,0:0:0:0:
475,192,22320,1,0,0:0:0:0:
182,192,22320,1,0,0:0:0:0:
329,192,22395,1,0,0:0:0:0:
402,192,22470,1,0,0:0:0:0:
109,192,22470,1,0,0:0:0:0:
182,192,22470,1,0,0:0:0:0:
36,192,22620,1,0,0:0:0:0:
256,192,22620,1,0,0:0:0:0:
475,192,22620,1,0,0:0:0:0:
182,192,22770,1,0,0:0:0:0:
329,192,22770,1,0,0:0:0:0:
475,192,22770,1,0,0:0:0:0:
182,192,22920,1,0,0:0:0:0:
256,192,23070,1,0,0:0:0:0:
402,192,23070,1,0,0:0:0:0:
36,192,23070,1,0,0:0:0:0:
182,192,23220,1,0,0:0:0:0:
475,192,23370,1,0,0:0:0:0:
329,192,23370,1,0,0:0:0:0:
36,192,23370,1,0,0:0:0:0:
256,192,23520,1,0,0:0:0:0:
109,192,23520,1,0,0:0:0:0:
475,192,23520,1,0,0:0:0:0:
402,192,23670,1,0,0:0:0:0:
182,192,23670,1,0,0:0:0:0:
329,192,23745,1,0,0:0:0:0:
36,192,23820,1,0,0:0:0:0:
475,192,23820,1,0,0:0:0:0:
182,192,23820,1,0,0:0:0:0:
329,192,23895,1,0,0:0:0:0:
256,192,23970,1,0,0:0:0:0:
109,192,24120,1,0,0:0:0:0:
402,192,24120,1,0,0:0:0:0:
475,192,24120,1,0,0:0:0:0:
256,192,24195,1,0,0:0:0:0:
109,192,24270,1,0,0:0:0:0:
36,192,24270,1,0,0:0:0:0:
402,192,24420,1,0,0:0:0:0:
475,192,24420,1,0,0:0:0:0:
182,192,24420,1,0,0:0:0:0:
329,192,24495,1,0,0:0:0:0:
182,192,24570,1,0,0:0:0:0:
109,192,24570,1,0,0:0:0:0:
36,192,24720,1,0,0:0:0:0:
402,192,24720,1,0,0:0:0:0:
256,192,24720,1,0,0:0:0:0:
475,192,24795,1,0,0:0:0:0:
36,192,24870,1,0,0:0:0:0:
329,192,24870,1,0,0:0:0:0:
182,192,24870,1,0,0:0:0:0:
402,192,24945,1,0,0:0:0:0:
109,192,25020,1,0,0:0:0:0:
329,192,25020,1,0,0:0:0:0:
182,192,25095,1,0,0:0:0:0:
475,192,25170,1,0,0:0:0:0:
36,192,25170,1,0,0:0:0:0:
256,192,25170,1,0,0:0:0:0:
402,192,25170,1,0,0:0:0:0:
182,192,25320,1,0,0:0:0:0:
182,192,25470,1,0,0:0:0:0:
402,192,25470,1,0,0:0:0:0:
36,192,25470,1,0,0:0:0:0:
329,192,25620,1,0,0:0:0:0:
109,192,25770,1,0,0:0:0:0:
256,192,25770,1,0,0:0:0:0:
475,192,25770,1,0,0:0:0:0:
256,192,25920,1,0,0:0:0:0:
402,192,25920,1,0,0:0:0:0:
36,192,25920,1,0,0:0:0:0:
182,192,26070,1,0,0:0:0:0:
402,192,26070,1,0,0:0:0:0:
329,192,26145,1,0,0:0:0:0:
182,192,26220,1,0,0:0:0:0:
109,192,26220,1,0,0:0:0:0:
475,192,26220,1,0,0:0:0:0:
36,192,26220,1,0,0:0:0:0:
256,192,26520,1,0,0:0:0:0:
36,192,26520,1,0,0:0:0:0:
475,192,26520,1,0,0:0:0:0:
182,192,26670,1,0,0:0:0:0:
402,192,26670,1,0,0:0:0:0:
256,192,26820,1,0,0:0:0:0:
36,192,26820,1,0,0:0:0:0:
475,192,26820,1,0,0:0:0:0:
182,192,26970,1,0,0:0:0:0:
329,192,27045,1,0,0:0:0:0:
475,192,27120,1,0,0:0:0:0:
36,192,27120,1,0,0:0:0:0:
182,192,27120,1,0,0:0:0:0:
329,192,27195,1,0,0:0:0:0:
402,192,27270,1,0,0:0:0:0:
109,192,27270,1,0,0:0:0:0:
256,192,27270,1,0,0:0:0:0:
36,192,27420,1,0,0:0:0:0:
182,192,27420,1,0,0:0:0:0:
402,192,27420,1,0,0:0:0:0:
329,192,27570,1,0,0:0:0:0:
475,192,27570,1,0,0:0:0:0:
182,192,27570,1,0,0:0:0:0:
256,192,27570,1,0,0:0:0:0:
36,192,27720,1,0,0:0:0:0:
109,192,27720,1,0,0:0:0:0:
256,192,27870,1,0,0:0:0:0:
402,192,27870,1,0,0:0:0:0:
475,192,27870,1,0,0:0:0:0:
182,192,28020,1,0,0:0:0:0:
402,192,28020,1,0,0:0:0:0:
182,192,28170,1,0,0:0:0:0:
36,192,28170,1,0,0:0:0:0:
329,192,28170,1,0,0:0:0:0:
475,192,28170,1,0,0:0:0:0:
256,192,28320,1,0,0:0:0:0:
329,192,28320,1,0,0:0:0:0:
475,192,28320,1,0,0:0:0:0:
109,192,28395,1,0,0:0:0:0:
36,192,28395,1,0,0:0:0:0:
402,192,28470,1,0,0:0:0:0:
256,192,28470,1,0,0:0:0:0:
182,192,28545,1,0,0:0:0:0:
109,192,28545,1,0,0:0:0:0:
329,192,28620,1,0,0:0:0:0:
475,192,28620,1,0,0:0:0:0:
182,192,28695,1,0,0:0:0:0:
109,192,28695,1,0,0:0:0:0:
36,192,28770,1,0,0:0:0:0:
256,192,28770,1,0,0:0:0:0:
402,192,28770,1,0,0:0:0:0:
329,192,28770,1,0,0:0:0:0:
475,192,28770,1,0,0:0:0:0:
36,192,28995,1,0,0:0:0:0:
109,192,28995,1,0,0:0:0:0:
402,192,28995,1,0,0:0:0:0:
475,192,28995,1,0,0:0:0:0:
256,192,28995,1,0,0:0:0:0:
475,192,29220,1,0,0:0:0:0:
329,192,29220,1,0,0:0:0:0:
402,192,29220,1,0,0:0:0:0:
182,192,29220,1,0,0:0:0:0:
256,192,29220,1,0,0:0:0:0:
36,192,29445,1,0,0:0:0:0:
109,192,29445,1,0,0:0:0:0:
182,192,29445,1,0,0:0:0:0:
256,192,29445,1,0,0:0:0:0:
329,192,29445,1,0,0:0:0:0:
36,192,29670,1,0,0:0:0:0:
182,192,29670,1,0,0:0:0:0:
256,192,29670,1,0,0:0:0:0:
402,192,29670,1,0,0:0:0:0:
36,192,29820,1,0,0:0:0:0:
182,192,29820,1,0,0:0:0:0:
329,192,29820,1,0,0:0:0:0:
475,192,29820,1,0,0:0:0:0:
475,192,29970,1,0,0:0:0:0:
256,192,29970,1,0,0:0:0:0:
36,192,29970,1,0,0:0:0:0:
182,192,29970,1,0,0:0:0:0:
329,192,30045,1,0,0:0:0:0:
475,192,30120,1,0,0:0:0:0:
182,192,30195,1,0,0:0:0:0:
329,192,30270,1,0,0:0:0:0:
109,192,30345,1,0,0:0:0:0:
256,192,30420,1,0,0:0:0:0:
36,192,30495,1,0,0:0:0:0:
329,192,30570,1,0,0:0:0:0:
475,192,30570,1,0,0:0:0:0:
109,192,30645,1,0,0:0:0:0:
256,192,30720,1,0,0:0:0:0:
402,192,30795,1,0,0:0:0:0:
182,192,30870,1,0,0:0:0:0:
36,192,30870,1,0,0:0:0:0:
329,192,30945,1,0,0:0:0:0:
256,192,31020,1,0,0:0:0:0:
402,192,31095,1,0,0:0:0:0:
36,192,31170,1,0,0:0:0:0:
475,192,31170,1,0,0:0:0:0:
182,192,31245,1,0,0:0:0:0:
256,192,31320,1,0,0:0:0:0:
402,192,31320,1,0,0:0:0:0:
109,192,31395,1,0,0:0:0:0:
182,192,31470,1,0,0:0:0:0:
329,192,31470,1,0,0:0:0:0:
36,192,31545,1,0,0:0:0:0:
109,192,31620,1,0,0:0:0:0:
256,192,31620,1,0,0:0:0:0:
402,192,31695,1,0,0:0:0:0:
329,192,31770,1,0,0:0:0:0:
475,192,31770,1,0,0:0:0:0:
256,192,31845,1,0,0:0:0:0:
402,192,31845,1,0,0:0:0:0:
329,192,31920,1,0,0:0:0:0:
182,192,31920,1,0,0:0:0:0:
256,192,31995,1,0,0:0:0:0:
109,192,31995,1,0,0:0:0:0:
36,192,32070,1,0,0:0:0:0:
182,192,32070,1,0,0:0:0:0:
402,192,32070,1,0,0:0:0:0:
329,192,32220,1,0,0:0:0:0:
402,192,32220,1,0,0:0:0:0:
256,192,32295,1,0,0:0:0:0:
182,192,32295,1,0,0:0:0:0:
36,192,32370,128,0,32970:0:0:0:0:
329,192,32370,128,0,32970:0:0:0:0:
475,192,32370,128,0,33570:0:0:0:0:
109,192,32970,128,0,33570:0:0:0:0:
256,192,32970,128,0,33570:0:0:0:0:
329,192,33570,128,0,34470:0:0:0:0:
402,192,33570,128,0,34470:0:0:0:0:
36,192,33570,128,0,34770:0:0:0:0:
475,192,34470,128,0,34770:0:0:0:0:
256,192,34470,128,0,34770:0:0:0:0:
329,192,34770,128,0,35070:0:0:0:0:
182,192,34770,128,0,35070:0:0:0:0:
402,192,34770,128,0,35970:0:0:0:0:
256,192,35070,128,0,35370:0:0:0:0:
109,192,35070,128,0,35370:0:0:0:0:
36,192,35370,128,0,35670:0:0:0:0:
182,192,35370,128,0,35670:0:0:0:0:
109,192,35670,128,0,35970:0:0:0:0:
329,192,35670,128,0,35970:0:0:0:0:
256,192,35970,128,0,36570:0:0:0:0:
475,192,35970,128,0,36570:0:0:0:0:
36,192,35970,128,0,36570:0:0:0:0:
109,192,36570,128,0,37170:0:0:0:0:
182,192,36570,128,0,37170:0:0:0:0:
329,192,36570,128,0,37170:0:0:0:0:
475,192,37170,128,0,38370:0:0:0:0:
36,192,37170,128,0,37770:0:0:0:0:
256,192,37170,128,0,37770:0:0:0:0:
109,192,37770,128,0,38370:0:0:0:0:
329,192,37770,128,0,38370:0:0:0:0:
36,192,38370,128,0,39570:0:0:0:0:
182,192,38370,128,0,39270:0:0:0:0:
402,192,38370,128,0,39270:0:0:0:0:
256,192,39270,128,0,39570:0:0:0:0:
475,192,39270,128,0,39570:0:0:0:0:
109,192,39570,128,0,40770:0:0:0:0:
182,192,39570,128,0,39870:0:0:0:0:
402,192,39570,128,0,39870:0:0:0:0:
256,192,39870,128,0,40170:0:0:0:0:
475,192,39870,128,0,40470:0:0:0:0:
36,192,40170,128,0,40470:0:0:0:0:
329,192,40170,128,0,40470:0:0:0:0:
182,192,40170,128,0,40470:0:0:0:0:
402,192,40470,128,0,40770:0:0:0:0:
256,192,40470,128,0,40770:0:0:0:0:
182,192,40770,128,0,41370:0:0:0:0:
329,192,40770,128,0,41370:0:0:0:0:
475,192,40770,128,0,41370:0:0:0:0:
36,192,41370,128,0,41970:0:0:0:0:
256,192,41370,128,0,41970:0:0:0:0:
402,192,41370,128,0,41970:0:0:0:0:
182,192,41820,1,0,0:0:0:0:
109,192,41820,1,0,0:0:0:0:
329,192,41895,1,0,0:0:0:0:
182,192,41970,1,0,0:0:0:0:
109,192,41970,1,0,0:0:0:0:
475,192,41970,1,0,0:0:0:0:
329,192,42120,1,0,0:0:0:0:
402,192,42195,1,0,0:0:0:0:
36,192,42270,1,0,0:0:0:0:
256,192,42270,1,0,0:0:0:0:
109,192,42345,1,0,0:0:0:0:
329,192,42345,1,0,0:0:0:0:
182,192,42420,1,0,0:0:0:0:
402,192,42420,1,0,0:0:0:0:
256,192,42495,1,0,0:0:0:0:
36,192,42495,1,0,0:0:0:0:
475,192,42570,1,0,0:0:0:0:
329,192,42570,1,0,0:0:0:0:
182,192,42645,1,0,0:0:0:0:
402,192,42645,1,0,0:0:0:0:
109,192,42720,1,0,0:0:0:0:
329,192,42720,1,0,0:0:0:0:
36,192,42795,1,0,0:0:0:0:
256,192,42795,1,0,0:0:0:0:
182,192,42870,1,0,0:0:0:0:
402,192,42870,1,0,0:0:0:0:
329,192,42945,1,0,0:0:0:0:
256,192,43020,1,0,0:0:0:0:
182,192,43095,1,0,0:0:0:0:
109,192,43170,1,0,0:0:0:0:
36,192,43245,1,0,0:0:0:0:
109,192,43320,1,0,0:0:0:0:
256,192,43395,1,0,0:0:0:0:
36,192,43470,1,0,0:0:0:0:
329,192,43470,1,0,0:0:0:0:
402,192,43545,1,0,0:0:0:0:
109,192,43545,1,0,0:0:0:0:
475,192,43620,1,0,0:0:0:0:
182,192,43620,1,0,0:0:0:0:
256,192,43695,1,0,0:0:0:0:
329,192,43695,1,0,0:0:0:0:
182,192,43770,1,0,0:0:0:0:
402,192,43770,1,0,0:0:0:0:
109,192,43845,1,0,0:0:0:0:
329,192,43845,1,0,0:0:0:0:
36,192,43920,1,0,0:0:0:0:
256,192,43920,1,0,0:0:0:0:
475,192,43995,1,0,0:0:0:0:
182,192,43995,1,0,0:0:0:0:
109,192,44070,1,0,0:0:0:0:
329,192,44070,1,0,0:0:0:0:
256,192,44145,1,0,0:0:0:0:
182,192,44220,1,0,0:0:0:0:
109,192,44295,1,0,0:0:0:0:
182,192,44370,1,0,0:0:0:0:
256,192,44445,1,0,0:0:0:0:
109,192,44520,1,0,0:0:0:0:
329,192,44520,1,0,0:0:0:0:
182,192,44595,1,0,0:0:0:0:
402,192,44595,1,0,0:0:0:0:
256,192,44670,1,0,0:0:0:0:
36,192,44670,1,0,0:0:0:0:
329,192,44745,1,0,0:0:0:0:
109,192,44745,1,0,0:0:0:0:
402,192,44820,1,0,0:0:0:0:
182,192,44820,1,0,0:0:0:0:
256,192,44895,1,0,0:0:0:0:
475,192,44895,1,0,0:0:0:0:
402,192,44970,1,0,0:0:0:0:
109,192,44970,1,0,0:0:0:0:
329,192,45045,1,0,0:0:0:0:
182,192,45045,1,0,0:0:0:0:
475,192,45120,1,0,0:0:0:0:
256,192,45120,1,0,0:0:0:0:
402,192,45195,1,0,0:0:0:0:
182,192,45195,1,0,0:0:0:0:
329,192,45270,1,0,0:0:0:0:
109,192,45270,1,0,0:0:0:0:
256,192,45345,1,0,0:0:0:0:
182,192,45420,1,0,0:0:0:0:
109,192,45495,1,0,0:0:0:0:
36,192,45570,1,0,0:0:0:0:
109,192,45645,1,0,0:0:0:0:
182,192,45720,1,0,0:0:0:0:
402,192,45720,1,0,0:0:0:0:
475,192,45795,1,0,0:0:0:0:
256,192,45795,1,0,0:0:0:0:
329,192,45870,1,0,0:0:0:0:
109,192,45870,1,0,0:0:0:0:
402,192,45945,1,0,0:0:0:0:
182,192,45945,1,0,0:0:0:0:
475,192,46020,1,0,0:0:0:0:
256,192,46020,1,0,0:0:0:0:
329,192,46095,1,0,0:0:0:0:
182,192,46170,1,0,0:0:0:0:
402,192,46170,1,0,0:0:0:0:
329,192,46245,1,0,0:0:0:0:
109,192,46245,1,0,0:0:0:0:
256,192,46320,1,0,0:0:0:0:
36,192,46320,1,0,0:0:0:0:
475,192,46395,1,0,0:0:0:0:
182,192,46395,1,0,0:0:0:0:
402,192,46470,1,0,0:0:0:0:
329,192,46470,1,0,0:0:0:0:
256,192,46545,1,0,0:0:0:0:
182,192,46620,1,0,0:0:0:0:
109,192,46620,1,0,0:0:0:0:
329,192,46695,1,0,0:0:0:0:
402,192,46695,1,0,0:0:0:0:
256,192,46770,1,0,0:0:0:0:
182,192,46770,1,0,0:0:0:0:
36,192,46770,1,0,0:0:0:0:
475,192,46845,1,0,0:0:0:0:
329,192,46920,1,0,0:0:0:0:
109,192,46920,1,0,0:0:0:0:
36,192,46920,1,0,0:0:0:0:
475,192,46995,1,0,0:0:0:0:
329,192,47070,1,0,0:0:0:0:
109,192,47070,1,0,0:0:0:0:
36,192,47070,1,0,0:0:0:0:
475,192,47145,1,0,0:0:0:0:
329,192,47220,1,0,0:0:0:0:
109,192,47220,1,0,0:0:0:0:
182,192,47220,1,0,0:0:0:0:
475,192,47295,1,0,0:0:0:0:
329,192,47370,1,0,0:0:0:0:
36,192,47370,1,0,0:0:0:0:
182,192,47445,1,0,0:0:0:0:
402,192,47445,1,0,0:0:0:0:
36,192,47520,1,0,0:0:0:0:
182,192,47595,1,0,0:0:0:0:
36,192,47670,1,0,0:0:0:0:
475,192,47670,1,0,0:0:0:0:
329,192,47670,1,0,0:0:0:0:
182,192,47745,1,0,0:0:0:0:
36,192,47820,1,0,0:0:0:0:
182,192,47895,1,0,0:0:0:0:
36,192,47970,1,0,0:0:0:0:
329,192,47970,1,0,0:0:0:0:
256,192,47970,1,0,0:0:0:0:
475,192,48045,1,0,0:0:0:0:
329,192,48120,1,0,0:0:0:0:
109,192,48195,1,0,0:0:0:0:
475,192,48195,1,0,0:0:0:0:
182,192,48195,1,0,0:0:0:0:
329,192,48270,1,0,0:0:0:0:
475,192,48345,1,0,0:0:0:0:
109,192,48420,1,0,0:0:0:0:
329,192,48420,1,0,0:0:0:0:
182,192,48420,1,0,0:0:0:0:
475,192,48495,1,0,0:0:0:0:
329,192,48570,1,0,0:0:0:0:
36,192,48570,1,0,0:0:0:0:
182,192,48645,1,0,0:0:0:0:
402,192,48645,1,0,0:0:0:0:
36,192,48720,1,0,0:0:0:0:
182,192,48795,1,0,0:0:0:0:
36,192,48870,1,0,0:0:0:0:
475,192,48870,1,0,0:0:0:0:
329,192,48870,1,0,0:0:0:0:
182,192,48945,1,0,0:0:0:0:
36,192,49020,1,0,0:0:0:0:
182,192,49095,1,0,0:0:0:0:
36,192,49170,1,0,0:0:0:0:
402,192,49170,1,0,0:0:0:0:
329,192,49170,1,0,0:0:0:0:
109,192,49245,1,0,0:0:0:0:
402,192,49320,1,0,0:0:0:0:
256,192,49320,1,0,0:0:0:0:
109,192,49395,1,0,0:0:0:0:
402,192,49470,1,0,0:0:0:0:
256,192,49470,1,0,0:0:0:0:
36,192,49545,1,0,0:0:0:0:
402,192,49620,1,0,0:0:0:0:
182,192,49620,1,0,0:0:0:0:
329,192,49695,1,0,0:0:0:0:
109,192,49770,1,0,0:0:0:0:
256,192,49770,1,0,0:0:0:0:
475,192,49770,1,0,0:0:0:0:
36,192,49845,1,0,0:0:0:0:
329,192,49845,1,0,0:0:0:0:
182,192,49920,1,0,0:0:0:0:
402,192,49920,1,0,0:0:0:0:
109,192,49995,1,0,0:0:0:0:
256,192,49995,1,0,0:0:0:0:
329,192,50070,1,0,0:0:0:0:
475,192,50070,1,0,0:0:0:0:
36,192,50145,1,0,0:0:0:0:
182,192,50145,1,0,0:0:0:0:
402,192,50220,1,0,0:0:0:0:
256,192,50220,1,0,0:0:0:0:
109,192,50295,1,0,0:0:0:0:
329,192,50295,1,0,0:0:0:0:
256,192,50370,1,0,0:0:0:0:
475,192,50370,1,0,0:0:0:0:
36,192,50370,1,0,0:0:0:0:
402,192,50370,1,0,0:0:0:0:
182,192,50445,1,0,0:0:0:0:
109,192,50520,1,0,0:0:0:0:
329,192,50520,1,0,0:0:0:0:
36,192,50595,1,0,0:0:0:0:
256,192,50670,1,0,0:0:0:0:
475,192,50670,1,0,0:0:0:0:
109,192,50670,1,0,0:0:0:0:
329,192,50745,1,0,0:0:0:0:
402,192,50820,1,0,0:0:0:0:
182,192,50820,1,0,0:0:0:0:
475,192,50895,1,0,0:0:0:0:
256,192,50970,1,0,0:0:0:0:
36,192,50970,1,0,0:0:0:0:
402,192,50970,1,0,0:0:0:0:
109,192,50970,1,0,0:0:0:0:
182,192,51045,1,0,0:0:0:0:
475,192,51120,1,0,0:0:0:0:
402,192,51145,1,0,0:0:0:0:
329,192,51170,1,0,0:0:0:0:
256,192,51195,1,0,0:0:0:0:
182,192,51220,1,0,0:0:0:0:
109,192,51245,1,0,0:0:0:0:
36,192,51270,1,0,0:0:0:0:
329,192,51270,1,0,0:0:0:0:
402,192,51270,1,0,0:0:0:0:
475,192,51270,1,0,0:0:0:0:
36,192,51570,1,0,0:0:0:0:
256,192,51570,1,0,0:0:0:0:
475,192,51570,1,0,0:0:0:0:
182,192,51570,1,0,0:0:0:0:
329,192,51570,1,0,0:0:0:0:
36,192,51720,1,0,0:0:0:0:
182,192,51720,1,0,0:0:0:0:
256,192,51720,1,0,0:0:0:0:
329,192,51720,1,0,0:0:0:0:
109,192,51870,1,0,0:0:0:0:
475,192,51870,1,0,0:0:0:0:
402,192,51870,1,0,0:0:0:0:
182,192,51945,1,0,0:0:0:0:
329,192,51945,1,0,0:0:0:0:
109,192,52020,1,0,0:0:0:0:
402,192,52020,1,0,0:0:0:0:
36,192,52095,1,0,0:0:0:0:
256,192,52095,1,0,0:0:0:0:
402,192,52170,1,0,0:0:0:0:
475,192,52170,1,0,0:0:0:0:
182,192,52170,1,0,0:0:0:0:
329,192,52245,1,0,0:0:0:0:
256,192,52320,1,0,0:0:0:0:
109,192,52320,1,0,0:0:0:0:
402,192,52395,1,0,0:0:0:0:
475,192,52395,1,0,0:0:0:0:
329,192,52470,1,0,0:0:0:0:
256,192,52545,1,0,0:0:0:0:
109,192,52545,1,0,0:0:0:0:
475,192,52620,1,0,0:0:0:0:
329,192,52620,1,0,0:0:0:0:
182,192,52695,1,0,0:0:0:0:
36,192,52770,1,0,0:0:0:0:
256,192,52770,1,0,0:0:0:0:
402,192,52770,1,0,0:0:0:0:
109,192,52770,1,0,0:0:0:0:
256,192,52920,1,0,0:0:0:0:
182,192,52920,1,0,0:0:0:0:
475,192,52995,1,0,0:0:0:0:
402,192,52995,1,0,0:0:0:0:
182,192,53070,1,0,0:0:0:0:
109,192,53070,1,0,0:0:0:0:
329,192,53070,1,0,0:0:0:0:
109,192,53220,1,0,0:0:0:0:
182,192,53220,1,0,0:0:0:0:
329,192,53295,1,0,0:0:0:0:
402,192,53295,1,0,0:0:0:0:
109,192,53370,1,0,0:0:0:0:
36,192,53370,1,0,0:0:0:0:
256,192,53370,1,0,0:0:0:0:
475,192,53370,1,0,0:0:0:0:
329,192,53520,1,0,0:0:0:0:
182,192,53520,1,0,0:0:0:0:
475,192,53595,1,0,0:0:0:0:
402,192,53595,1,0,0:0:0:0:
182,192,53670,1,0,0:0:0:0:
36,192,53670,1,0,0:0:0:0:
256,192,53670,1,0,0:0:0:0:
109,192,53820,1,0,0:0:0:0:
475,192,53820,1,0,0:0:0:0:
402,192,53895,1,0,0:0:0:0:
329,192,53895,1,0,0:0:0:0:
475,192,53970,1,0,0:0:0:0:
256,192,53970,1,0,0:0:0:0:
182,192,53970,1,0,0:0:0:0:
36,192,53970,1,0,0:0:0:0:
329,192,54120,1,0,0:0:0:0:
182,192,54120,1,0,0:0:0:0:
109,192,54195,1,0,0:0:0:0:
402,192,54195,1,0,0:0:0:0:
182,192,54270,1,0,0:0:0:0:
329,192,54270,1,0,0:0:0:0:
36,192,54345,1,0,0:0:0:0:
475,192,54345,1,0,0:0:0:0:
256,192,54420,1,0,0:0:0:0:
402,192,54420,1,0,0:0:0:0:
109,192,54495,1,0,0:0:0:0:
329,192,54495,1,0,0:0:0:0:
256,192,54570,1,0,0:0:0:0:
402,192,54570,1,0,0:0:0:0:
475,192,54570,1,0,0:0:0:0:
182,192,54570,1,0,0:0:0:0:
182,192,54720,1,0,0:0:0:0:
109,192,54720,1,0,0:0:0:0:
402,192,54795,1,0,0:0:0:0:
475,192,54795,1,0,0:0:0:0:
256,192,54870,1,0,0:0:0:0:
36,192,54870,1,0,0:0:0:0:
182,192,54945,1,0,0:0:0:0:
402,192,54945,1,0,0:0:0:0:
256,192,55020,1,0,0:0:0:0:
36,192,55020,1,0,0:0:0:0:
182,192,55095,1,0,0:0:0:0:
475,192,55095,1,0,0:0:0:0:
329,192,55170,1,0,0:0:0:0:
109,192,55170,1,0,0:0:0:0:
36,192,55170,1,0,0:0:0:0:
402,192,55170,1,0,0:0:0:0:
182,192,55320,1,0,0:0:0:0:
402,192,55320,1,0,0:0:0:0:
256,192,55395,1,0,0:0:0:0:
475,192,55395,1,0,0:0:0:0:
36,192,55470,1,0,0:0:0:0:
402,192,55470,1,0,0:0:0:0:
109,192,55545,1,0,0:0:0:0:
256,192,55545,1,0,0:0:0:0:
182,192,55620,1,0,0:0:0:0:
329,192,55620,1,0,0:0:0:0:
256,192,55695,1,0,0:0:0:0:
402,192,55695,1,0,0:0:0:0:
475,192,55770,1,0,0:0:0:0:
329,192,55770,1,0,0:0:0:0:
109,192,55770,1,0,0:0:0:0:
36,192,55770,1,0,0:0:0:0:
182,192,55845,1,0,0:0:0:0:
402,192,55845,1,0,0:0:0:0:
109,192,55920,1,0,0:0:0:0:
329,192,55920,1,0,0:0:0:0:
256,192,55995,1,0,0:0:0:0:
36,192,55995,1,0,0:0:0:0:
182,192,56070,1,0,0:0:0:0:
475,192,56070,1,0,0:0:0:0:
256,192,56145,1,0,0:0:0:0:
402,192,56145,1,0,0:0:0:0:
182,192,56220,1,0,0:0:0:0:
329,192,56220,1,0,0:0:0:0:
256,192,56295,1,0,0:0:0:0:
109,192,56295,1,0,0:0:0:0:
36,192,56370,1,0,0:0:0:0:
402,192,56370,1,0,0:0:0:0:
475,192,56370,1,0,0:0:0:0:
182,192,56370,1,0,0:0:0:0:
182,192,56520,1,0,0:0:0:0:
402,192,56520,1,0,0:0:0:0:
475,192,56520,1,0,0:0:0:0:
36,192,56520,1,0,0:0:0:0:
475,192,56670,1,0,0:0:0:0:
402,192,56670,1,0,0:0:0:0:
182,192,56670,1,0,0:0:0:0:
256,192,56745,1,0,0:0:0:0:
109,192,56820,1,0,0:0:0:0:
329,192,56820,1,0,0:0:0:0:
182,192,56895,1,0,0:0:0:0:
36,192,56970,1,0,0:0:0:0:
329,192,56970,1,0,0:0:0:0:
475,192,56970,1,0,0:0:0:0:
402,192,56970,1,0,0:0:0:0:
182,192,57045,1,0,0:0:0:0:
402,192,57120,1,0,0:0:0:0:
256,192,57120,1,0,0:0:0:0:
36,192,57195,1,0,0:0:0:0:
329,192,57270,1,0,0:0:0:0:
182,192,57270,1,0,0:0:0:0:
256,192,57345,1,0,0:0:0:0:
402,192,57345,1,0,0:0:0:0:
475,192,57420,1,0,0:0:0:0:
109,192,57420,1,0,0:0:0:0:
182,192,57495,1,0,0:0:0:0:
329,192,57495,1,0,0:0:0:0:
256,192,57570,1,0,0:0:0:0:
402,192,57570,1,0,0:0:0:0:
36,192,57570,1,0,0:0:0:0:
475,192,57570,1,0,0:0:0:0:
182,192,57720,1,0,0:0:0:0:
329,192,57795,1,0,0:0:0:0:
475,192,57795,1,0,0:0:0:0:
256,192,57795,1,0,0:0:0:0:
182,192,57870,1,0,0:0:0:0:
36,192,57870,1,0,0:0:0:0:
402,192,57870,1,0,0:0:0:0:
329,192,58020,1,0,0:0:0:0:
256,192,58095,1,0,0:0:0:0:
182,192,58095,1,0,0:0:0:0:
475,192,58095,1,0,0:0:0:0:
109,192,58170,1,0,0:0:0:0:
36,192,58170,1,0,0:0:0:0:
329,192,58170,1,0,0:0:0:0:
402,192,58170,1,0,0:0:0:0:
256,192,58320,1,0,0:0:0:0:
109,192,58395,1,0,0:0:0:0:
402,192,58395,1,0,0:0:0:0:
329,192,58395,1,0,0:0:0:0:
475,192,58470,1,0,0:0:0:0:
36,192,58470,1,0,0:0:0:0:
182,192,58470,1,0,0:0:0:0:
329,192,58620,1,0,0:0:0:0:
182,192,58695,1,0,0:0:0:0:
109,192,58695,1,0,0:0:0:0:
256,192,58770,1,0,0:0:0:0:
402,192,58770,1,0,0:0:0:0:
475,192,58770,1,0,0:0:0:0:
36,192,58770,1,0,0:0:0:0:
182,192,58920,1,0,0:0:0:0:
329,192,58920,1,0,0:0:0:0:
256,192,58995,1,0,0:0:0:0:
402,192,58995,1,0,0:0:0:0:
329,192,59070,1,0,0:0:0:0:
475,192,59070,1,0,0:0:0:0:
36,192,59070,1,0,0:0:0:0:
109,192,59145,1,0,0:0:0:0:
256,192,59145,1,0,0:0:0:0:
36,192,59220,1,0,0:0:0:0:
402,192,59220,1,0,0:0:0:0:
329,192,59295,1,0,0:0:0:0:
182,192,59295,1,0,0:0:0:0:
475,192,59370,1,0,0:0:0:0:
402,192,59370,1,0,0:0:0:0:
109,192,59370,1,0,0:0:0:0:
256,192,59370,1,0,0:0:0:0:
256,192,59520,1,0,0:0:0:0:
36,192,59520,1,0,0:0:0:0:
329,192,59595,1,0,0:0:0:0:
182,192,59595,1,0,0:0:0:0:
475,192,59670,1,0,0:0:0:0:
36,192,59670,1,0,0:0:0:0:
109,192,59670,1,0,0:0:0:0:
256,192,59745,1,0,0:0:0:0:
402,192,59745,1,0,0:0:0:0:
109,192,59820,1,0,0:0:0:0:
182,192,59820,1,0,0:0:0:0:
329,192,59895,1,0,0:0:0:0:
475,192,59895,1,0,0:0:0:0:
402,192,59970,1,0,0:0:0:0:
256,192,59970,1,0,0:0:0:0:
182,192,59970,1,0,0:0:0:0:
109,192,59970,1,0,0:0:0:0:
36,192,59970,1,0,0:0:0:0:
256,192,60195,1,0,0:0:0:0:
475,192,60195,1,0,0:0:0:0:
402,192,60195,1,0,0:0:0:0:
109,192,60195,1,0,0:0:0:0:
329,192,60195,1,0,0:0:0:0:
475,192,60420,1,0,0:0:0:0:
329,192,60420,1,0,0:0:0:0:
256,192,60420,1,0,0:0:0:0:
182,192,60420,1,0,0:0:0:0:
36,192,60420,1,0,0:0:0:0:
36,192,60645,1,0,0:0:0:0:
109,192,60645,1,0,0:0:0:0:
256,192,60645,1,0,0:0:0:0:
329,192,60645,1,0,0:0:0:0:
475,192,60645,1,0,0:0:0:0:
182,192,60870,1,0,0:0:0:0:
329,192,60870,1,0,0:0:0:0:
475,192,60870,1,0,0:0:0:0:
109,192,60945,1,0,0:0:0:0:
256,192,60945,1,0,0:0:0:0:
402,192,60945,1,0,0:0:0:0:
329,192,61020,1,0,0:0:0:0:
182,192,61020,1,0,0:0:0:0:
36,192,61020,1,0,0:0:0:0:
109,192,61095,1,0,0:0:0:0:
256,192,61095,1,0,0:0:0:0:
402,192,61095,1,0,0:0:0:0:
329,192,61170,1,0,0:0:0:0:
182,192,61170,1,0,0:0:0:0:
36,192,61170,1,0,0:0:0:0:
475,192,61170,1,0,0:0:0:0:
36,192,61320,1,0,0:0:0:0:
182,192,61320,1,0,0:0:0:0:
329,192,61320,1,0,0:0:0:0:
475,192,61320,1,0,0:0:0:0:
109,192,61470,1,0,0:0:0:0:
402,192,61470,1,0,0:0:0:0:
256,192,61545,1,0,0:0:0:0:
329,192,61620,1,0,0:0:0:0:
475,192,61620,1,0,0:0:0:0:
182,192,61695,1,0,0:0:0:0:
329,192,61770,1,0,0:0:0:0:
109,192,61770,1,0,0:0:0:0:
402,192,61845,1,0,0:0:0:0:
36,192,61920,1,0,0:0:0:0:
182,192,61920,1,0,0:0:0:0:
256,192,61995,1,0,0:0:0:0:
329,192,62070,1,0,0:0:0:0:
182,192,62070,1,0,0:0:0:0:
475,192,62070,1,0,0:0:0:0:
109,192,62070,1,0,0:0:0:0:
109,192,62220,1,0,0:0:0:0:
182,192,62220,1,0,0:0:0:0:
329,192,62220,1,0,0:0:0:0:
475,192,62220,1,0,0:0:0:0:
402,192,62370,1,0,0:0:0:0:
109,192,62370,1,0,0:0:0:0:
256,192,62445,1,0,0:0:0:0:
182,192,62520,1,0,0:0:0:0:
36,192,62520,1,0,0:0:0:0:
329,192,62595,1,0,0:0:0:0:
182,192,62670,1,0,0:0:0:0:
402,192,62670,1,0,0:0:0:0:
109,192,62745,1,0,0:0:0:0:
475,192,62820,1,0,0:0:0:0:
329,192,62820,1,0,0:0:0:0:
256,192,62895,1,0,0:0:0:0:
182,192,62970,1,0,0:0:0:0:
36,192,62970,1,0,0:0:0:0:
402,192,62970,1,0,0:0:0:0:
475,192,62970,1,0,0:0:0:0:
475,192,63120,1,0,0:0:0:0:
402,192,63120,1,0,0:0:0:0:
182,192,63120,1,0,0:0:0:0:
36,192,63120,1,0,0:0:0:0:
109,192,63270,1,0,0:0:0:0:
402,192,63270,1,0,0:0:0:0:
256,192,63345,1,0,0:0:0:0:
329,192,63420,1,0,0:0:0:0:
109,192,63420,1,0,0:0:0:0:
182,192,63495,1,0,0:0:0:0:
402,192,63495,1,0,0:0:0:0:
475,192,63570,1,0,0:0:0:0:
36,192,63570,1,0,0:0:0:0:
329,192,63570,1,0,0:0:0:0:
109,192,63570,1,0,0:0:0:0:
329,192,63720,1,0,0:0:0:0:
475,192,63720,1,0,0:0:0:0:
109,192,63720,1,0,0:0:0:0:
36,192,63720,1,0,0:0:0:0:
182,192,63870,1,0,0:0:0:0:
402,192,63870,1,0,0:0:0:0:
256,192,63945,1,0,0:0:0:0:
475,192,64020,1,0,0:0:0:0:
329,192,64020,1,0,0:0:0:0:
109,192,64095,1,0,0:0:0:0:
182,192,64170,1,0,0:0:0:0:
329,192,64170,1,0,0:0:0:0:
402,192,64245,1,0,0:0:0:0:
36,192,64320,1,0,0:0:0:0:
109,192,64320,1,0,0:0:0:0:
256,192,64395,1,0,0:0:0:0:
329,192,64470,1,0,0:0:0:0:
109,192,64470,1,0,0:0:0:0:
475,192,64470,1,0,0:0:0:0:
182,192,64470,1,0,0:0:0:0:
329,192,64620,1,0,0:0:0:0:
475,192,64620,1,0,0:0:0:0:
36,192,64620,1,0,0:0:0:0:
182,192,64620,1,0,0:0:0:0:
402,192,64770,1,0,0:0:0:0:
109,192,64770,1,0,0:0:0:0:
256,192,64845,1,0,0:0:0:0:
182,192,64920,1,0,0:0:0:0:
36,192,64920,1,0,0:0:0:0:
402,192,64995,1,0,0:0:0:0:
329,192,65070,1,0,0:0:0:0:
182,192,65070,1,0,0:0:0:0:
109,192,65145,1,0,0:0:0:0:
402,192,65220,1,0,0:0:0:0:
475,192,65220,1,0,0:0:0:0:
256,192,65295,1,0,0:0:0:0:
36,192,65370,1,0,0:0:0:0:
329,192,65370,1,0,0:0:0:0:
475,192,65370,1,0,0:0:0:0:
109,192,65370,1,0,0:0:0:0:
475,192,65520,1,0,0:0:0:0:
109,192,65520,1,0,0:0:0:0:
329,192,65520,1,0,0:0:0:0:
36,192,65520,1,0,0:0:0:0:
402,192,65670,1,0,0:0:0:0:
109,192,65670,1,0,0:0:0:0:
256,192,65745,1,0,0:0:0:0:
36,192,65820,1,0,0:0:0:0:
329,192,65820,1,0,0:0:0:0:
182,192,65895,1,0,0:0:0:0:
402,192,65895,1,0,0:0:0:0:
256,192,65970,1,0,0:0:0:0:
475,192,65970,1,0,0:0:0:0:
329,192,65970,1,0,0:0:0:0:
109,192,65970,1,0,0:0:0:0:
256,192,66120,1,0,0:0:0:0:
329,192,66120,1,0,0:0:0:0:
475,192,66120,1,0,0:0:0:0:
109,192,66120,1,0,0:0:0:0:
182,192,66270,1,0,0:0:0:0:
36,192,66270,1,0,0:0:0:0:
475,192,66345,1,0,0:0:0:0:
256,192,66370,1,0,0:0:0:0:
402,192,66420,1,0,0:0:0:0:
109,192,66420,1,0,0:0:0:0:
329,192,66470,1,0,0:0:0:0:
182,192,66495,1,0,0:0:0:0:
475,192,66570,1,0,0:0:0:0:
256,192,66570,1,0,0:0:0:0:
109,192,66645,1,0,0:0:0:0:
329,192,66670,1,0,0:0:0:0:
182,192,66720,1,0,0:0:0:0:
36,192,66720,1,0,0:0:0:0:
402,192,66770,1,0,0:0:0:0:
256,192,66795,1,0,0:0:0:0:
329,192,66870,1,0,0:0:0:0:
475,192,66870,1,0,0:0:0:0:
36,192,66870,1,0,0:0:0:0:
109,192,66870,1,0,0:0:0:0:
36,192,67020,1,0,0:0:0:0:
109,192,67020,1,0,0:0:0:0:
329,192,67020,1,0,0:0:0:0:
475,192,67020,1,0,0:0:0:0:
329,192,67170,1,0,0:0:0:0:
475,192,67170,1,0,0:0:0:0:
36,192,67245,1,0,0:0:0:0:
256,192,67270,1,0,0:0:0:0:
109,192,67320,1,0,0:0:0:0:
402,192,67320,1,0,0:0:0:0:
182,192,67370,1,0,0:0:0:0:
329,192,67395,1,0,0:0:0:0:
36,192,67470,1,0,0:0:0:0:
256,192,67470,1,0,0:0:0:0:
402,192,67545,1,0,0:0:0:0:
182,192,67570,1,0,0:0:0:0:
329,192,67620,1,0,0:0:0:0:
475,192,67620,1,0,0:0:0:0:
109,192,67670,1,0,0:0:0:0:
256,192,67695,1,0,0:0:0:0:
182,192,67770,1,0,0:0:0:0:
36,192,67770,1,0,0:0:0:0:
475,192,67770,1,0,0:0:0:0:
402,192,67770,1,0,0:0:0:0:
475,192,67920,1,0,0:0:0:0:
402,192,67920,1,0,0:0:0:0:
182,192,67920,1,0,0:0:0:0:
36,192,67920,1,0,0:0:0:0:
256,192,68070,1,0,0:0:0:0:
402,192,68070,1,0,0:0:0:0:
182,192,68145,1,0,0:0:0:0:
109,192,68220,1,0,0:0:0:0:
329,192,68220,1,0,0:0:0:0:
256,192,68295,1,0,0:0:0:0:
402,192,68295,1,0,0:0:0:0:
329,192,68370,1,0,0:0:0:0:
475,192,68370,1,0,0:0:0:0:
182,192,68370,1,0,0:0:0:0:
36,192,68370,1,0,0:0:0:0:
109,192,68370,1,0,0:0:0:0:
109,192,68470,1,0,0:0:0:0:
402,192,68470,1,0,0:0:0:0:
109,192,68570,1,0,0:0:0:0:
402,192,68570,1,0,0:0:0:0:
475,192,68670,1,0,0:0:0:0:
329,192,68670,1,0,0:0:0:0:
182,192,68670,1,0,0:0:0:0:
256,192,68770,1,0,0:0:0:0:
36,192,68770,1,0,0:0:0:0:
256,192,68870,1,0,0:0:0:0:
36,192,68870,1,0,0:0:0:0:
109,192,68970,1,0,0:0:0:0:
329,192,68970,1,0,0:0:0:0:
475,192,68970,1,0,0:0:0:0:
402,192,68970,1,0,0:0:0:0:
402,192,69070,1,0,0:0:0:0:
182,192,69070,1,0,0:0:0:0:
402,192,69170,1,0,0:0:0:0:
182,192,69170,1,0,0:0:0:0:
256,192,69270,1,0,0:0:0:0:
475,192,69270,1,0,0:0:0:0:
36,192,69270,1,0,0:0:0:0:
329,192,69370,1,0,0:0:0:0:
109,192,69370,1,0,0:0:0:0:
109,192,69470,1,0,0:0:0:0:
329,192,69470,1,0,0:0:0:0:
402,192,69570,1,0,0:0:0:0:
475,192,69570,1,0,0:0:0:0:
36,192,69570,1,0,0:0:0:0:
256,192,69570,1,0,0:0:0:0:
475,192,69670,1,0,0:0:0:0:
182,192,69670,1,0,0:0:0:0:
475,192,69770,1,0,0:0:0:0:
182,192,69770,1,0,0:0:0:0:
402,192,69870,1,0,0:0:0:0:
256,192,69870,1,0,0:0:0:0:
36,192,69870,1,0,0:0:0:0:
109,192,69970,1,0,0:0:0:0:
329,192,69970,1,0,0:0:0:0:
109,192,70070,1,0,0:0:0:0:
329,192,70070,1,0,0:0:0:0:
475,192,70170,1,0,0:0:0:0:
36,192,70170,1,0,0:0:0:0:
182,192,70170,1,0,0:0:0:0:
256,192,70170,1,0,0:0:0:0:
402,192,70270,1,0,0:0:0:0:
256,192,70270,1,0,0:0:0:0:
402,192,70370,1,0,0:0:0:0:
256,192,70370,1,0,0:0:0:0:
109,192,70470,1,0,0:0:0:0:
329,192,70470,1,0,0:0:0:0:
475,192,70470,1,0,0:0:0:0:
36,192,70570,1,0,0:0:0:0:
182,192,70570,1,0,0:0:0:0:
36,192,70670,1,0,0:0:0:0:
182,192,70670,1,0,0:0:0:0:
329,192,70770,1,0,0:0:0:0:
402,192,70770,1,0,0:0:0:0:
475,192,70770,1,0,0:0:0:0:
256,192,70770,1,0,0:0:0:0:
36,192,70870,1,0,0:0:0:0:
182,192,70870,1,0,0:0:0:0:
109,192,70870,1,0,0:0:0:0:
36,192,70970,1,0,0:0:0:0:
182,192,70970,1,0,0:0:0:0:
109,192,70970,1,0,0:0:0:0:
402,192,71070,1,0,0:0:0:0:
475,192,71070,1,0,0:0:0:0:
256,192,71070,1,0,0:0:0:0:
109,192,71070,1,0,0:0:0:0:
182,192,71170,1,0,0:0:0:0:
256,192,71170,1,0,0:0:0:0:
329,192,71170,1,0,0:0:0:0:
182,192,71270,1,0,0:0:0:0:
256,192,71270,1,0,0:0:0:0:
329,192,71270,1,0,0:0:0:0:
36,192,71370,1,0,0:0:0:0:
475,192,71370,1,0,0:0:0:0:
402,192,71370,1,0,0:0:0:0:
182,192,71370,1,0,0:0:0:0:
329,192,71470,1,0,0:0:0:0:
402,192,71470,1,0,0:0:0:0:
475,192,71470,1,0,0:0:0:0:
475,192,71570,1,0,0:0:0:0:
402,192,71570,1,0,0:0:0:0:
329,192,71570,1,0,0:0:0:0:
36,192,71670,1,0,0:0:0:0:
182,192,71670,1,0,0:0:0:0:
475,192,71670,1,0,0:0:0:0:
329,192,71670,1,0,0:0:0:0:
109,192,71770,1,0,0:0:0:0:
256,192,71770,1,0,0:0:0:0:
402,192,71770,1,0,0:0:0:0:
402,192,71870,1,0,0:0:0:0:
256,192,71870,1,0,0:0:0:0:
109,192,71870,1,0,0:0:0:0:
36,192,71970,1,0,0:0:0:0:
475,192,71970,1,0,0:0:0:0:
182,192,71970,1,0,0:0:0:0:
329,192,71970,1,0,0:0:0:0:
256,192,71970,1,0,0:0:0:0:
109,192,72070,1,0,0:0:0:0:
182,192,72070,1,0,0:0:0:0:
256,192,72070,1,0,0:0:0:0:
109,192,72170,1,0,0:0:0:0:
182,192,72170,1,0,0:0:0:0:
256,192,72170,1,0,0:0:0:0:
475,192,72270,1,0,0:0:0:0:
402,192,72270,1,0,0:0:0:0:
329,192,72270,1,0,0:0:0:0:
109,192,72270,1,0,0:0:0:0:
36,192,72270,1,0,0:0:0:0:
182,192,72370,1,0,0:0:0:0:
256,192,72370,1,0,0:0:0:0:
329,192,72370,1,0,0:0:0:0:
182,192,72470,1,0,0:0:0:0:
256,192,72470,1,0,0:0:0:0:
329,192,72470,1,0,0:0:0:0:
182,192,72570,1,0,0:0:0:0:
109,192,72570,1,0,0:0:0:0:
36,192,72570,1,0,0:0:0:0:
402,192,72570,1,0,0:0:0:0:
475,192,72570,1,0,0:0:0:0:
256,192,72670,1,0,0:0:0:0:
329,192,72670,1,0,0:0:0:0:
402,192,72670,1,0,0:0:0:0:
256,192,72770,1,0,0:0:0:0:
329,192,72770,1,0,0:0:0:0:
402,192,72770,1,0,0:0:0:0:
182,192,72870,1,0,0:0:0:0:
36,192,72870,1,0,0:0:0:0:
329,192,72870,1,0,0:0:0:0:
475,192,72870,1,0,0:0:0:0:
36,192,72970,1,0,0:0:0:0:
182,192,72970,1,0,0:0:0:0:
329,192,72970,1,0,0:0:0:0:
475,192,72970,1,0,0:0:0:0:
36,192,73070,1,0,0:0:0:0:
182,192,73070,1,0,0:0:0:0:
329,192,73070,1,0,0:0:0:0:
475,192,73070,1,0,0:0:0:0:
182,192,73170,1,0,0:0:0:0:
256,192,73170,1,0,0:0:0:0:
329,192,73170,1,0,0:0:0:0:
402,192,73170,1,0,0:0:0:0:
109,192,73170,1,0,0:0:0:0:
475,192,73170,1,0,0:0:0:0:
182,192,73470,1,0,0:0:0:0:
329,192,73520,1,0,0:0:0:0:
182,192,73570,1,0,0:0:0:0:
329,192,73620,1,0,0:0:0:0:
182,192,73670,1,0,0:0:0:0:
329,192,73720,1,0,0:0:0:0:
182,192,73770,1,0,0:0:0:0:
329,192,73820,1,0,0:0:0:0:
182,192,73870,1,0,0:0:0:0:
329,192,73920,1,0,0:0:0:0:
182,192,73970,1,0,0:0:0:0:
329,192,74020,1,0,0:0:0:0:
182,192,74070,1,0,0:0:0:0:
329,192,74120,1,0,0:0:0:0:
182,192,74170,1,0,0:0:0:0:
329,192,74220,1,0,0:0:0:0:
182,192,74270,1,0,0:0:0:0:
329,192,74320,1,0,0:0:0:0:
475,192,74370,1,0,0:0:0:0:
109,192,74370,1,0,0:0:0:0:
36,192,74370,1,0,0:0:0:0:
329,192,74445,1,0,0:0:0:0:
182,192,74445,1,0,0:0:0:0:
109,192,74520,1,0,0:0:0:0:
256,192,74520,1,0,0:0:0:0:
36,192,74595,1,0,0:0:0:0:
182,192,74595,1,0,0:0:0:0:
109,192,74670,1,0,0:0:0:0:
329,192,74670,1,0,0:0:0:0:
475,192,74670,1,0,0:0:0:0:
402,192,74745,1,0,0:0:0:0:
256,192,74745,1,0,0:0:0:0:
109,192,74820,1,0,0:0:0:0:
329,192,74820,1,0,0:0:0:0:
256,192,74895,1,0,0:0:0:0:
36,192,74895,1,0,0:0:0:0:
182,192,74970,1,0,0:0:0:0:
109,192,74970,1,0,0:0:0:0:
402,192,74970,1,0,0:0:0:0:
475,192,74970,1,0,0:0:0:0:
256,192,75120,1,0,0:0:0:0:
36,192,75120,1,0,0:0:0:0:
402,192,75195,1,0,0:0:0:0:
36,192,75270,1,0,0:0:0:0:
182,192,75270,1,0,0:0:0:0:
475,192,75270,1,0,0:0:0:0:
329,192,75270,1,0,0:0:0:0:
109,192,75345,1,0,0:0:0:0:
256,192,75420,1,0,0:0:0:0:
402,192,75420,1,0,0:0:0:0:
475,192,75495,1,0,0:0:0:0:
329,192,75570,1,0,0:0:0:0:
182,192,75570,1,0,0:0:0:0:
109,192,75570,1,0,0:0:0:0:
36,192,75570,1,0,0:0:0:0:
402,192,75570,1,0,0:0:0:0:
256,192,75720,1,0,0:0:0:0:
109,192,75720,1,0,0:0:0:0:
475,192,75870,1,0,0:0:0:0:
256,192,75870,1,0,0:0:0:0:
402,192,75870,1,0,0:0:0:0:
109,192,76020,1,0,0:0:0:0:
329,192,76020,1,0,0:0:0:0:
36,192,76170,1,0,0:0:0:0:
182,192,76170,1,0,0:0:0:0:
402,192,76170,1,0,0:0:0:0:
329,192,76320,1,0,0:0:0:0:
475,192,76320,1,0,0:0:0:0:
182,192,76320,1,0,0:0:0:0:
256,192,76470,1,0,0:0:0:0:
109,192,76470,1,0,0:0:0:0:
329,192,76545,1,0,0:0:0:0:
182,192,76620,1,0,0:0:0:0:
36,192,76620,1,0,0:0:0:0:
475,192,76620,1,0,0:0:0:0:
329,192,76920,1,0,0:0:0:0:
475,192,76920,1,0,0:0:0:0:
109,192,76920,1,0,0:0:0:0:
36,192,77070,1,0,0:0:0:0:
475,192,77070,1,0,0:0:0:0:
256,192,77070,1,0,0:0:0:0:
109,192,77220,1,0,0:0:0:0:
329,192,77220,1,0,0:0:0:0:
402,192,77220,1,0,0:0:0:0:
182,192,77370,1,0,0:0:0:0:
36,192,77370,1,0,0:0:0:0:
475,192,77370,1,0,0:0:0:0:
109,192,77520,1,0,0:0:0:0:
329,192,77520,1,0,0:0:0:0:
182,192,77595,1,0,0:0:0:0:
402,192,77595,1,0,0:0:0:0:
256,192,77670,1,0,0:0:0:0:
36,192,77670,1,0,0:0:0:0:
475,192,77670,1,0,0:0:0:0:
109,192,77820,1,0,0:0:0:0:
256,192,77820,1,0,0:0:0:0:
402,192,77820,1,0,0:0:0:0:
36,192,77970,1,0,0:0:0:0:
182,192,77970,1,0,0:0:0:0:
329,192,77970,1,0,0:0:0:0:
402,192,78120,1,0,0:0:0:0:
182,192,78120,1,0,0:0:0:0:
475,192,78270,1,0,0:0:0:0:
402,192,78270,1,0,0:0:0:0:
109,192,78270,1,0,0:0:0:0:
256,192,78420,1,0,0:0:0:0:
329,192,78420,1,0,0:0:0:0:
36,192,78570,1,0,0:0:0:0:
182,192,78570,1,0,0:0:0:0:
475,192,78570,1,0,0:0:0:0:
329,192,78720,1,0,0:0:0:0:
475,192,78720,1,0,0:0:0:0:
109,192,78720,1,0,0:0:0:0:
402,192,78870,1,0,0:0:0:0:
256,192,78870,1,0,0:0:0:0:
182,192,78945,1,0,0:0:0:0:
329,192,79020,1,0,0:0:0:0:
36,192,79020,1,0,0:0:0:0:
475,192,79020,1,0,0:0:0:0:
109,192,79320,1,0,0:0:0:0:
475,192,79320,1,0,0:0:0:0:
329,192,79320,1,0,0:0:0:0:
475,192,79470,1,0,0:0:0:0:
182,192,79470,1,0,0:0:0:0:
36,192,79470,1,0,0:0:0:0:
256,192,79620,1,0,0:0:0:0:
109,192,79620,1,0,0:0:0:0:
402,192,79620,1,0,0:0:0:0:
329,192,79695,1,0,0:0:0:0:
475,192,79770,1,0,0:0:0:0:
182,192,79770,1,0,0:0:0:0:
36,192,79770,1,0,0:0:0:0:
182,192,79920,1,0,0:0:0:0:
329,192,79920,1,0,0:0:0:0:
402,192,79995,1,0,0:0:0:0:
256,192,79995,1,0,0:0:0:0:
475,192,80070,1,0,0:0:0:0:
329,192,80070,1,0,0:0:0:0:
109,192,80070,1,0,0:0:0:0:
36,192,80220,1,0,0:0:0:0:
256,192,80220,1,0,0:0:0:0:
402,192,80220,1,0,0:0:0:0:
109,192,80370,128,0,82170:0:0:0:0:
329,192,80370,1,0,0:0:0:0:
475,192,80370,1,0,0:0:0:0:
402,192,80370,1,0,0:0:0:0:
182,192,80370,1,0,0:0:0:0:
329,192,80520,1,0,0:0:0:0:
256,192,80520,1,0,0:0:0:0:
36,192,80670,1,0,0:0:0:0:
256,192,80670,1,0,0:0:0:0:
475,192,80670,1,0,0:0:0:0:
402,192,80820,1,0,0:0:0:0:
329,192,80820,1,0,0:0:0:0:
182,192,80970,1,0,0:0:0:0:
475,192,80970,1,0,0:0:0:0:
256,192,80970,1,0,0:0:0:0:
475,192,81120,1,0,0:0:0:0:
36,192,81120,1,0,0:0:0:0:
329,192,81120,1,0,0:0:0:0:
182,192,81270,1,0,0:0:0:0:
402,192,81270,1,0,0:0:0:0:
256,192,81345,1,0,0:0:0:0:
475,192,81420,1,0,0:0:0:0:
36,192,81420,1,0,0:0:0:0:
402,192,81720,1,0,0:0:0:0:
475,192,81720,1,0,0:0:0:0:
182,192,81720,1,0,0:0:0:0:
475,192,81870,1,0,0:0:0:0:
36,192,81870,1,0,0:0:0:0:
256,192,81870,1,0,0:0:0:0:
402,192,82020,1,0,0:0:0:0:
182,192,82020,1,0,0:0:0:0:
329,192,82020,1,0,0:0:0:0:
36,192,82170,1,0,0:0:0:0:
182,192,82170,1,0,0:0:0:0:
475,192,82170,1,0,0:0:0:0:
109,192,82320,1,0,0:0:0:0:
402,192,82320,1,0,0:0:0:0:
256,192,82395,1,0,0:0:0:0:
182,192,82395,1,0,0:0:0:0:
36,192,82470,1,0,0:0:0:0:
329,192,82470,1,0,0:0:0:0:
475,192,82470,1,0,0:0:0:0:
402,192,82620,1,0,0:0:0:0:
256,192,82620,1,0,0:0:0:0:
109,192,82620,1,0,0:0:0:0:
36,192,82770,128,0,83745:0:0:0:0:
182,192,82770,1,0,0:0:0:0:
256,192,82770,1,0,0:0:0:0:
475,192,82770,1,0,0:0:0:0:
402,192,82770,1,0,0:0:0:0:
109,192,82920,1,0,0:0:0:0:
329,192,82920,1,0,0:0:0:0:
256,192,83070,1,0,0:0:0:0:
329,192,83070,1,0,0:0:0:0:
475,192,83070,1,0,0:0:0:0:
402,192,83220,1,0,0:0:0:0:
182,192,83220,1,0,0:0:0:0:
109,192,83370,1,0,0:0:0:0:
182,192,83370,1,0,0:0:0:0:
329,192,83370,1,0,0:0:0:0:
475,192,83370,1,0,0:0:0:0:
256,192,83520,1,0,0:0:0:0:
475,192,83520,1,0,0:0:0:0:
329,192,83520,1,0,0:0:0:0:
109,192,83595,1,0,0:0:0:0:
182,192,83595,1,0,0:0:0:0:
475,192,83670,1,0,0:0:0:0:
402,192,83670,1,0,0:0:0:0:
256,192,83745,1,0,0:0:0:0:
109,192,83745,1,0,0:0:0:0:
475,192,83820,1,0,0:0:0:0:
329,192,83820,1,0,0:0:0:0:
182,192,83895,1,0,0:0:0:0:
36,192,83895,1,0,0:0:0:0:
256,192,83970,1,0,0:0:0:0:
475,192,83970,1,0,0:0:0:0:
109,192,83970,1,0,0:0:0:0:
329,192,83970,1,0,0:0:0:0:
402,192,83970,1,0,0:0:0:0:
402,192,84195,1,0,0:0:0:0:
475,192,84195,1,0,0:0:0:0:
329,192,84195,1,0,0:0:0:0:
182,192,84195,1,0,0:0:0:0:
36,192,84195,1,0,0:0:0:0:
182,192,84420,1,0,0:0:0:0:
109,192,84420,1,0,0:0:0:0:
36,192,84420,1,0,0:0:0:0:
256,192,84420,1,0,0:0:0:0:
402,192,84420,1,0,0:0:0:0:
36,192,84645,1,0,0:0:0:0:
109,192,84645,1,0,0:0:0:0:
182,192,84645,1,0,0:0:0:0:
329,192,84645,1,0,0:0:0:0:
475,192,84645,1,0,0:0:0:0:
402,192,84870,1,0,0:0:0:0:
475,192,84870,1,0,0:0:0:0:
36,192,84870,1,0,0:0:0:0:
256,192,84870,1,0,0:0:0:0:
109,192,84945,1,0,0:0:0:0:
182,192,84945,1,0,0:0:0:0:
475,192,85020,1,0,0:0:0:0:
329,192,85020,1,0,0:0:0:0:
36,192,85020,1,0,0:0:0:0:
182,192,85095,1,0,0:0:0:0:
256,192,85095,1,0,0:0:0:0:
475,192,85170,128,0,86370:0:0:0:0:
329,192,85170,1,0,0:0:0:0:
109,192,85170,1,0,0:0:0:0:
36,192,85170,1,0,0:0:0:0:
402,192,85170,1,0,0:0:0:0:
256,192,85320,1,0,0:0:0:0:
182,192,85470,1,0,0:0:0:0:
402,192,85470,1,0,0:0:0:0:
36,192,85470,1,0,0:0:0:0:
256,192,85620,1,0,0:0:0:0:
109,192,85770,1,0,0:0:0:0:
329,192,85770,1,0,0:0:0:0:
182,192,85770,1,0,0:0:0:0:
182,192,85920,1,0,0:0:0:0:
329,192,85920,1,0,0:0:0:0:
36,192,85920,1,0,0:0:0:0:
256,192,86070,1,0,0:0:0:0:
402,192,86070,1,0,0:0:0:0:
36,192,86220,1,0,0:0:0:0:
182,192,86220,1,0,0:0:0:0:
329,192,86220,128,0,86370:0:0:0:0:
109,192,86370,1,0,0:0:0:0:
256,192,86370,1,0,0:0:0:0:
182,192,86520,1,0,0:0:0:0:
402,192,86520,1,0,0:0:0:0:
329,192,86520,1,0,0:0:0:0:
256,192,86670,1,0,0:0:0:0:
475,192,86670,1,0,0:0:0:0:
36,192,86670,1,0,0:0:0:0:
402,192,86745,1,0,0:0:0:0:
182,192,86745,1,0,0:0:0:0:
329,192,86820,1,0,0:0:0:0:
109,192,86820,1,0,0:0:0:0:
36,192,86895,1,0,0:0:0:0:
182,192,86895,1,0,0:0:0:0:
109,192,86970,1,0,0:0:0:0:
475,192,86970,1,0,0:0:0:0:
329,192,86970,1,0,0:0:0:0:
256,192,87045,1,0,0:0:0:0:
402,192,87045,1,0,0:0:0:0:
329,192,87120,1,0,0:0:0:0:
182,192,87120,1,0,0:0:0:0:
109,192,87195,1,0,0:0:0:0:
256,192,87195,1,0,0:0:0:0:
36,192,87270,1,0,0:0:0:0:
475,192,87270,1,0,0:0:0:0:
182,192,87270,1,0,0:0:0:0:
256,192,87345,1,0,0:0:0:0:
402,192,87345,1,0,0:0:0:0:
182,192,87420,1,0,0:0:0:0:
475,192,87420,1,0,0:0:0:0:
329,192,87495,1,0,0:0:0:0:
109,192,87495,1,0,0:0:0:0:
36,192,87570,1,0,0:0:0:0:
256,192,87570,1,0,0:0:0:0:
402,192,87570,1,0,0:0:0:0:
475,192,87570,1,0,0:0:0:0:
329,192,87645,1,0,0:0:0:0:
109,192,87645,1,0,0:0:0:0:
402,192,87720,1,0,0:0:0:0:
182,192,87720,1,0,0:0:0:0:
475,192,87795,1,0,0:0:0:0:
329,192,87795,1,0,0:0:0:0:
36,192,87870,1,0,0:0:0:0:
402,192,87870,1,0,0:0:0:0:
182,192,87870,1,0,0:0:0:0:
109,192,87945,1,0,0:0:0:0:
256,192,87945,1,0,0:0:0:0:
182,192,88020,1,0,0:0:0:0:
329,192,88020,1,0,0:0:0:0:
402,192,88095,1,0,0:0:0:0:
36,192,88095,1,0,0:0:0:0:
475,192,88170,1,0,0:0:0:0:
109,192,88170,1,0,0:0:0:0:
182,192,88170,1,0,0:0:0:0:
329,192,88170,128,0,88320:0:0:0:0:
109,192,88320,1,0,0:0:0:0:
256,192,88320,1,0,0:0:0:0:
402,192,88320,128,0,88620:0:0:0:0:
475,192,88320,1,0,0:0:0:0:
182,192,88470,1,0,0:0:0:0:
329,192,88470,1,0,0:0:0:0:
36,192,88470,1,0,0:0:0:0:
109,192,88620,1,0,0:0:0:0:
256,192,88620,128,0,88770:0:0:0:0:
475,192,88770,1,0,0:0:0:0:
402,192,88795,1,0,0:0:0:0:
329,192,88820,1,0,0:0:0:0:
36,192,88845,1,0,0:0:0:0:
109,192,88870,1,0,0:0:0:0:
182,192,88895,1,0,0:0:0:0:
256,192,88920,1,0,0:0:0:0:
402,192,88920,1,0,0:0:0:0:
475,192,88920,1,0,0:0:0:0:
109,192,89070,1,0,0:0:0:0:
36,192,89070,1,0,0:0:0:0:
329,192,89070,1,0,0:0:0:0:
182,192,89070,1,0,0:0:0:0:
109,192,89220,1,0,0:0:0:0:
256,192,89220,1,0,0:0:0:0:
402,192,89220,1,0,0:0:0:0:
475,192,89220,1,0,0:0:0:0:
182,192,89370,1,0,0:0:0:0:
36,192,89370,1,0,0:0:0:0:
329,192,89370,1,0,0:0:0:0:
475,192,89370,1,0,0:0:0:0:
256,192,89520,1,0,0:0:0:0:
109,192,89520,1,0,0:0:0:0:
402,192,89520,1,0,0:0:0:0:
182,192,89595,1,0,0:0:0:0:
329,192,89595,1,0,0:0:0:0:
109,192,89670,1,0,0:0:0:0:
256,192,89670,1,0,0:0:0:0:
402,192,89670,1,0,0:0:0:0:
36,192,89670,1,0,0:0:0:0:
475,192,89670,1,0,0:0:0:0:
182,192,89820,1,0,0:0:0:0:
329,192,89820,1,0,0:0:0:0:
36,192,89820,1,0,0:0:0:0:
475,192,89820,1,0,0:0:0:0:
36,192,89970,1,0,0:0:0:0:
256,192,89970,1,0,0:0:0:0:
475,192,89970,1,0,0:0:0:0:
109,192,89970,1,0,0:0:0:0:
402,192,89970,1,0,0:0:0:0:
329,192,90120,1,0,0:0:0:0:
182,192,90120,1,0,0:0:0:0:
109,192,90120,1,0,0:0:0:0:
402,192,90270,1,0,0:0:0:0:
256,192,90270,1,0,0:0:0:0:
36,192,90270,1,0,0:0:0:0:
475,192,90420,1,0,0:0:0:0:
182,192,90420,1,0,0:0:0:0:
109,192,90420,1,0,0:0:0:0:
329,192,90420,1,0,0:0:0:0:
256,192,90495,1,0,0:0:0:0:
36,192,90570,1,0,0:0:0:0:
182,192,90570,1,0,0:0:0:0:
402,192,90570,1,0,0:0:0:0:
329,192,90645,1,0,0:0:0:0:
475,192,90645,1,0,0:0:0:0:
109,192,90720,1,0,0:0:0:0:
256,192,90720,1,0,0:0:0:0:
402,192,90795,1,0,0:0:0:0:
182,192,90795,1,0,0:0:0:0:
475,192,90870,1,0,0:0:0:0:
329,192,90870,1,0,0:0:0:0:
36,192,90945,1,0,0:0:0:0:
109,192,90945,1,0,0:0:0:0:
475,192,91020,1,0,0:0:0:0:
256,192,91020,1,0,0:0:0:0:
402,192,91095,1,0,0:0:0:0:
182,192,91095,1,0,0:0:0:0:
475,192,91170,1,0,0:0:0:0:
256,192,91170,1,0,0:0:0:0:
36,192,91170,1,0,0:0:0:0:
329,192,91170,1,0,0:0:0:0:
109,192,91170,1,0,0:0:0:0:
182,192,91245,1,0,0:0:0:0:
402,192,91245,1,0,0:0:0:0:
329,192,91320,1,0,0:0:0:0:
109,192,91320,1,0,0:0:0:0:
36,192,91395,1,0,0:0:0:0:
475,192,91395,1,0,0:0:0:0:
256,192,91470,1,0,0:0:0:0:
402,192,91470,1,0,0:0:0:0:
329,192,91545,1,0,0:0:0:0:
182,192,91545,1,0,0:0:0:0:
109,192,91620,1,0,0:0:0:0:
256,192,91657,1,0,0:0:0:0:
402,192,91695,1,0,0:0:0:0:
475,192,91732,1,0,0:0:0:0:
36,192,91770,1,0,0:0:0:0:
109,192,91770,1,0,0:0:0:0:
182,192,91807,1,0,0:0:0:0:
329,192,91845,1,0,0:0:0:0:
402,192,91882,1,0,0:0:0:0:
475,192,91920,1,0,0:0:0:0:
36,192,91920,1,0,0:0:0:0:
256,192,91920,128,0,92070:0:0:0:0:
182,192,91995,1,0,0:0:0:0:
402,192,92070,128,0,92370:0:0:0:0:
109,192,92070,1,0,0:0:0:0:
329,192,92070,1,0,0:0:0:0:
475,192,92220,1,0,0:0:0:0:
182,192,92220,1,0,0:0:0:0:
36,192,92220,1,0,0:0:0:0:
329,192,92295,1,0,0:0:0:0:
182,192,92370,1,0,0:0:0:0:
36,192,92370,1,0,0:0:0:0:
475,192,92370,1,0,0:0:0:0:
256,192,92370,1,0,0:0:0:0:
109,192,92445,1,0,0:0:0:0:
329,192,92445,1,0,0:0:0:0:
182,192,92520,1,0,0:0:0:0:
402,192,92520,1,0,0:0:0:0:
36,192,92595,1,0,0:0:0:0:
475,192,92595,1,0,0:0:0:0:
256,192,92670,1,0,0:0:0:0:
109,192,92670,1,0,0:0:0:0:
329,192,92670,1,0,0:0:0:0:
182,192,92745,1,0,0:0:0:0:
475,192,92745,1,0,0:0:0:0:
329,192,92820,1,0,0:0:0:0:
36,192,92820,1,0,0:0:0:0:
182,192,92895,1,0,0:0:0:0:
402,192,92895,1,0,0:0:0:0:
256,192,92970,1,0,0:0:0:0:
475,192,92970,1,0,0:0:0:0:
109,192,92970,1,0,0:0:0:0:
36,192,92970,1,0,0:0:0:0:
329,192,93007,1,0,0:0:0:0:
402,192,93045,1,0,0:0:0:0:
182,192,93082,1,0,0:0:0:0:
475,192,93120,1,0,0:0:0:0:
109,192,93120,1,0,0:0:0:0:
36,192,93120,1,0,0:0:0:0:
329,192,93120,1,0,0:0:0:0:
256,192,93195,1,0,0:0:0:0:
402,192,93195,1,0,0:0:0:0:
329,192,93270,1,0,0:0:0:0:
109,192,93270,1,0,0:0:0:0:
182,192,93345,1,0,0:0:0:0:
402,192,93420,1,0,0:0:0:0:
256,192,93420,1,0,0:0:0:0:
36,192,93420,1,0,0:0:0:0:
475,192,93420,1,0,0:0:0:0:
182,192,93457,1,0,0:0:0:0:
109,192,93495,1,0,0:0:0:0:
329,192,93532,1,0,0:0:0:0:
475,192,93570,1,0,0:0:0:0:
36,192,93570,1,0,0:0:0:0:
182,192,93570,1,0,0:0:0:0:
402,192,93570,1,0,0:0:0:0:
256,192,93570,1,0,0:0:0:0:
109,192,93795,1,0,0:0:0:0:
182,192,93795,1,0,0:0:0:0:
329,192,93795,1,0,0:0:0:0:
402,192,93795,1,0,0:0:0:0:
475,192,93795,1,0,0:0:0:0:
36,192,93795,1,0,0:0:0:0:
109,192,94020,1,0,0:0:0:0:
256,192,94020,1,0,0:0:0:0:
182,192,94020,1,0,0:0:0:0:
329,192,94020,1,0,0:0:0:0:
402,192,94020,1,0,0:0:0:0:
475,192,94020,1,0,0:0:0:0:
402,192,94245,1,0,0:0:0:0:
329,192,94245,1,0,0:0:0:0:
256,192,94245,1,0,0:0:0:0:
182,192,94245,1,0,0:0:0:0:
109,192,94245,1,0,0:0:0:0:
36,192,94245,1,0,0:0:0:0:
36,192,94470,1,0,0:0:0:0:
182,192,94470,1,0,0:0:0:0:
329,192,94470,1,0,0:0:0:0:
475,192,94470,1,0,0:0:0:0:
402,192,94545,1,0,0:0:0:0:
256,192,94545,1,0,0:0:0:0:
109,192,94545,1,0,0:0:0:0:
36,192,94620,1,0,0:0:0:0:
182,192,94620,1,0,0:0:0:0:
329,192,94620,1,0,0:0:0:0:
475,192,94620,1,0,0:0:0:0:
256,192,94695,1,0,0:0:0:0:
402,192,94695,1,0,0:0:0:0:
109,192,94770,1,0,0:0:0:0:
182,192,94770,1,0,0:0:0:0:
329,192,94770,1,0,0:0:0:0:
36,192,94770,1,0,0:0:0:0:
475,192,94770,1,0,0:0:0:0:
109,192,94920,1,0,0:0:0:0:
182,192,94920,1,0,0:0:0:0:
329,192,94920,1,0,0:0:0:0:
475,192,94920,1,0,0:0:0:0:
36,192,95070,1,0,0:0:0:0:
256,192,95070,1,0,0:0:0:0:
109,192,95145,1,0,0:0:0:0:
329,192,95145,1,0,0:0:0:0:
182,192,95220,1,0,0:0:0:0:
402,192,95220,1,0,0:0:0:0:
329,192,95295,1,0,0:0:0:0:
36,192,95295,1,0,0:0:0:0:
475,192,95370,1,0,0:0:0:0:
256,192,95370,1,0,0:0:0:0:
109,192,95370,1,0,0:0:0:0:
402,192,95370,1,0,0:0:0:0:
475,192,95520,1,0,0:0:0:0:
256,192,95520,1,0,0:0:0:0:
402,192,95595,1,0,0:0:0:0:
182,192,95595,1,0,0:0:0:0:
329,192,95670,1,0,0:0:0:0:
109,192,95670,1,0,0:0:0:0:
475,192,95745,1,0,0:0:0:0:
182,192,95745,1,0,0:0:0:0:
109,192,95820,1,0,0:0:0:0:
256,192,95820,1,0,0:0:0:0:
402,192,95820,1,0,0:0:0:0:
36,192,95820,1,0,0:0:0:0:
182,192,96120,1,0,0:0:0:0:
109,192,96120,1,0,0:0:0:0:
402,192,96120,1,0,0:0:0:0:
475,192,96120,1,0,0:0:0:0:
329,192,96120,1,0,0:0:0:0:
109,192,96270,1,0,0:0:0:0:
182,192,96270,1,0,0:0:0:0:
402,192,96270,1,0,0:0:0:0:
329,192,96270,1,0,0:0:0:0:
36,192,96420,1,0,0:0:0:0:
256,192,96420,1,0,0:0:0:0:
329,192,96495,1,0,0:0:0:0:
182,192,96495,1,0,0:0:0:0:
402,192,96570,1,0,0:0:0:0:
475,192,96570,1,0,0:0:0:0:
36,192,96570,1,0,0:0:0:0:
109,192,96570,1,0,0:0:0:0:
256,192,96645,1,0,0:0:0:0:
109,192,96720,1,0,0:0:0:0:
329,192,96720,1,0,0:0:0:0:
475,192,96720,1,0,0:0:0:0:
182,192,96795,1,0,0:0:0:0:
402,192,96795,1,0,0:0:0:0:
256,192,96795,1,0,0:0:0:0:
329,192,96870,1,0,0:0:0:0:
475,192,96870,1,0,0:0:0:0:
36,192,96870,1,0,0:0:0:0:
182,192,96945,1,0,0:0:0:0:
109,192,97020,1,0,0:0:0:0:
36,192,97095,1,0,0:0:0:0:
256,192,97170,1,0,0:0:0:0:
402,192,97170,1,0,0:0:0:0:
109,192,97370,1,0,0:0:0:0:
36,192,97370,1,0,0:0:0:0:
475,192,97370,1,0,0:0:0:0:
182,192,97370,1,0,0:0:0:0:
329,192,97370,1,0,0:0:0:0:
36,192,97570,1,0,0:0:0:0:
109,192,97570,1,0,0:0:0:0:
182,192,97570,1,0,0:0:0:0:
329,192,97570,1,0,0:0:0:0:
475,192,97570,1,0,0:0:0:0:
36,192,97770,1,0,0:0:0:0:
256,192,97770,1,0,0:0:0:0:
475,192,97770,1,0,0:0:0:0:
402,192,97770,1,0,0:0:0:0:
182,192,97770,1,0,0:0:0:0:
36,192,97970,1,0,0:0:0:0:
109,192,97970,1,0,0:0:0:0:
182,192,97970,1,0,0:0:0:0:
329,192,97970,1,0,0:0:0:0:
402,192,97970,1,0,0:0:0:0:
36,192,98170,1,0,0:0:0:0:
182,192,98170,1,0,0:0:0:0:
256,192,98170,1,0,0:0:0:0:
402,192,98170,1,0,0:0:0:0:
475,192,98170,1,0,0:0:0:0:
109,192,98370,1,0,0:0:0:0:
256,192,98370,1,0,0:0:0:0:
36,192,98370,1,0,0:0:0:0:
475,192,98370,1,0,0:0:0:0:
329,192,98370,1,0,0:0:0:0:
109,192,98570,1,0,0:0:0:0:
329,192,98570,1,0,0:0:0:0:
475,192,98570,1,0,0:0:0:0:
182,192,98570,1,0,0:0:0:0:
402,192,98570,1,0,0:0:0:0:
475,192,98770,1,0,0:0:0:0:
256,192,98770,1,0,0:0:0:0:
329,192,98770,1,0,0:0:0:0:
36,192,98770,1,0,0:0:0:0:
109,192,98770,1,0,0:0:0:0:
109,192,98970,1,0,0:0:0:0:
36,192,98970,1,0,0:0:0:0:
256,192,98970,1,0,0:0:0:0:
402,192,98970,1,0,0:0:0:0:
475,192,98970,1,0,0:0:0:0:
36,192,99170,1,0,0:0:0:0:
182,192,99170,1,0,0:0:0:0:
256,192,99170,1,0,0:0:0:0:
329,192,99170,1,0,0:0:0:0:
475,192,99170,1,0,0:0:0:0:
256,192,99370,1,0,0:0:0:0:
475,192,99370,1,0,0:0:0:0:
36,192,99370,1,0,0:0:0:0:
109,192,99370,1,0,0:0:0:0:
402,192,99370,1,0,0:0:0:0:
36,192,99570,1,0,0:0:0:0:
182,192,99570,1,0,0:0:0:0:
256,192,99570,1,0,0:0:0:0:
402,192,99570,1,0,0:0:0:0:
475,192,99570,1,0,0:0:0:0:
256,192,99720,1,0,0:0:0:0:
182,192,99720,1,0,0:0:0:0:
402,192,99720,1,0,0:0:0:0:
475,192,99720,1,0,0:0:0:0:
329,192,99870,1,0,0:0:0:0:
36,192,99870,1,0,0:0:0:0:
182,192,99945,1,0,0:0:0:0:
475,192,99945,1,0,0:0:0:0:
109,192,100020,1,0,0:0:0:0:
402,192,100020,1,0,0:0:0:0:
256,192,100095,1,0,0:0:0:0:
36,192,100095,1,0,0:0:0:0:
475,192,100170,1,0,0:0:0:0:
329,192,100170,1,0,0:0:0:0:
182,192,100170,1,0,0:0:0:0:
402,192,100170,1,0,0:0:0:0:
475,192,100320,1,0,0:0:0:0:
182,192,100320,1,0,0:0:0:0:
36,192,100395,1,0,0:0:0:0:
329,192,100395,1,0,0:0:0:0:
109,192,100470,1,0,0:0:0:0:
402,192,100470,1,0,0:0:0:0:
256,192,100545,1,0,0:0:0:0:
475,192,100545,1,0,0:0:0:0:
329,192,100620,1,0,0:0:0:0:
36,192,100620,1,0,0:0:0:0:
109,192,100620,1,0,0:0:0:0:
182,192,100620,1,0,0:0:0:0:
329,192,100920,1,0,0:0:0:0:
475,192,100920,1,0,0:0:0:0:
109,192,100920,1,0,0:0:0:0:
36,192,100920,1,0,0:0:0:0:
256,192,100920,1,0,0:0:0:0:
109,192,101070,1,0,0:0:0:0:
329,192,101070,1,0,0:0:0:0:
36,192,101070,1,0,0:0:0:0:
475,192,101070,1,0,0:0:0:0:
182,192,101220,1,0,0:0:0:0:
402,192,101220,1,0,0:0:0:0:
329,192,101295,1,0,0:0:0:0:
256,192,101295,1,0,0:0:0:0:
36,192,101370,1,0,0:0:0:0:
109,192,101370,1,0,0:0:0:0:
475,192,101370,1,0,0:0:0:0:
402,192,101370,1,0,0:0:0:0:
329,192,101445,1,0,0:0:0:0:
36,192,101520,1,0,0:0:0:0:
182,192,101520,1,0,0:0:0:0:
475,192,101520,1,0,0:0:0:0:
109,192,101595,1,0,0:0:0:0:
256,192,101595,1,0,0:0:0:0:
402,192,101595,1,0,0:0:0:0:
36,192,101670,1,0,0:0:0:0:
182,192,101670,1,0,0:0:0:0:
329,192,101670,1,0,0:0:0:0:
402,192,101745,1,0,0:0:0:0:
475,192,101745,1,0,0:0:0:0:
256,192,101820,1,0,0:0:0:0:
182,192,101820,1,0,0:0:0:0:
109,192,101895,1,0,0:0:0:0:
36,192,101895,1,0,0:0:0:0:
182,192,101970,1,0,0:0:0:0:
329,192,101970,1,0,0:0:0:0:
402,192,101970,1,0,0:0:0:0:
475,192,101970,1,0,0:0:0:0:
36,192,102120,1,0,0:0:0:0:
182,192,102120,1,0,0:0:0:0:
329,192,102120,1,0,0:0:0:0:
402,192,102120,1,0,0:0:0:0:
109,192,102270,1,0,0:0:0:0:
475,192,102270,1,0,0:0:0:0:
256,192,102270,1,0,0:0:0:0:
182,192,102345,1,0,0:0:0:0:
329,192,102345,1,0,0:0:0:0:
256,192,102420,1,0,0:0:0:0:
36,192,102420,1,0,0:0:0:0:
402,192,102420,1,0,0:0:0:0:
109,192,102495,1,0,0:0:0:0:
475,192,102495,1,0,0:0:0:0:
182,192,102570,1,0,0:0:0:0:
329,192,102570,1,0,0:0:0:0:
36,192,102570,1,0,0:0:0:0:
256,192,102645,1,0,0:0:0:0:
402,192,102645,1,0,0:0:0:0:
329,192,102720,1,0,0:0:0:0:
475,192,102720,1,0,0:0:0:0:
109,192,102720,1,0,0:0:0:0:
36,192,102795,1,0,0:0:0:0:
182,192,102795,1,0,0:0:0:0:
109,192,102870,1,0,0:0:0:0:
329,192,102870,1,0,0:0:0:0:
475,192,102870,1,0,0:0:0:0:
182,192,102945,1,0,0:0:0:0:
402,192,102945,1,0,0:0:0:0:
256,192,103020,1,0,0:0:0:0:
36,192,103020,1,0,0:0:0:0:
475,192,103020,1,0,0:0:0:0:
329,192,103095,1,0,0:0:0:0:
182,192,103095,1,0,0:0:0:0:
475,192,103170,1,0,0:0:0:0:
402,192,103170,1,0,0:0:0:0:
109,192,103170,1,0,0:0:0:0:
256,192,103245,1,0,0:0:0:0:
36,192,103245,1,0,0:0:0:0:
182,192,103320,1,0,0:0:0:0:
402,192,103320,1,0,0:0:0:0:
475,192,103320,1,0,0:0:0:0:
109,192,103395,1,0,0:0:0:0:
329,192,103395,1,0,0:0:0:0:
256,192,103470,1,0,0:0:0:0:
475,192,103470,1,0,0:0:0:0:
36,192,103470,1,0,0:0:0:0:
182,192,103470,1,0,0:0:0:0:
402,192,103470,1,0,0:0:0:0:
329,192,103620,128,0,103920:0:0:0:0:
475,192,103620,128,0,103920:0:0:0:0:
256,192,103620,1,0,0:0:0:0:
36,192,103620,1,0,0:0:0:0:
182,192,103620,1,0,0:0:0:0:
402,192,103770,1,0,0:0:0:0:
109,192,103770,1,0,0:0:0:0:
182,192,103920,1,0,0:0:0:0:
36,192,103920,1,0,0:0:0:0:
256,192,103995,1,0,0:0:0:0:
402,192,103995,1,0,0:0:0:0:
329,192,104070,1,0,0:0:0:0:
475,192,104070,1,0,0:0:0:0:
109,192,104070,1,0,0:0:0:0:
182,192,104145,1,0,0:0:0:0:
402,192,104145,1,0,0:0:0:0:
329,192,104220,1,0,0:0:0:0:
475,192,104220,1,0,0:0:0:0:
36,192,104220,1,0,0:0:0:0:
109,192,104295,1,0,0:0:0:0:
256,192,104295,1,0,0:0:0:0:
475,192,104370,1,0,0:0:0:0:
182,192,104370,1,0,0:0:0:0:
36,192,104370,1,0,0:0:0:0:
402,192,104370,1,0,0:0:0:0:
329,192,104445,1,0,0:0:0:0:
109,192,104445,1,0,0:0:0:0:
182,192,104520,1,0,0:0:0:0:
475,192,104520,1,0,0:0:0:0:
256,192,104595,1,0,0:0:0:0:
402,192,104595,1,0,0:0:0:0:
36,192,104670,1,0,0:0:0:0:
182,192,104670,1,0,0:0:0:0:
475,192,104670,1,0,0:0:0:0:
329,192,104670,1,0,0:0:0:0:
109,192,104745,1,0,0:0:0:0:
256,192,104745,1,0,0:0:0:0:
182,192,104820,1,0,0:0:0:0:
402,192,104820,1,0,0:0:0:0:
36,192,104820,1,0,0:0:0:0:
475,192,104895,1,0,0:0:0:0:
256,192,104895,1,0,0:0:0:0:
402,192,104970,1,0,0:0:0:0:
109,192,104970,1,0,0:0:0:0:
36,192,104970,1,0,0:0:0:0:
329,192,104970,1,0,0:0:0:0:
475,192,105045,1,0,0:0:0:0:
256,192,105045,1,0,0:0:0:0:
402,192,105120,1,0,0:0:0:0:
36,192,105120,1,0,0:0:0:0:
109,192,105120,1,0,0:0:0:0:
329,192,105195,1,0,0:0:0:0:
182,192,105195,1,0,0:0:0:0:
402,192,105270,1,0,0:0:0:0:
475,192,105270,1,0,0:0:0:0:
256,192,105270,1,0,0:0:0:0:
109,192,105270,1,0,0:0:0:0:
329,192,105345,1,0,0:0:0:0:
36,192,105345,1,0,0:0:0:0:
182,192,105345,1,0,0:0:0:0:
109,192,105420,1,0,0:0:0:0:
256,192,105420,1,0,0:0:0:0:
475,192,105420,1,0,0:0:0:0:
182,192,105495,1,0,0:0:0:0:
329,192,105495,1,0,0:0:0:0:
402,192,105495,1,0,0:0:0:0:
256,192,105570,1,0,0:0:0:0:
475,192,105570,1,0,0:0:0:0:
36,192,105570,1,0,0:0:0:0:
402,192,105645,1,0,0:0:0:0:
182,192,105645,1,0,0:0:0:0:
329,192,105720,1,0,0:0:0:0:
109,192,105720,1,0,0:0:0:0:
475,192,105720,1,0,0:0:0:0:
402,192,105795,1,0,0:0:0:0:
36,192,105795,1,0,0:0:0:0:
256,192,105795,1,0,0:0:0:0:
475,192,105870,1,0,0:0:0:0:
182,192,105870,1,0,0:0:0:0:
329,192,105870,1,0,0:0:0:0:
109,192,105945,1,0,0:0:0:0:
256,192,105945,1,0,0:0:0:0:
182,192,106020,1,0,0:0:0:0:
36,192,106020,1,0,0:0:0:0:
402,192,106020,1,0,0:0:0:0:
256,192,106095,1,0,0:0:0:0:
109,192,106095,1,0,0:0:0:0:
329,192,106170,1,0,0:0:0:0:
36,192,106170,1,0,0:0:0:0:
182,192,106170,1,0,0:0:0:0:
402,192,106207,1,0,0:0:0:0:
475,192,106245,1,0,0:0:0:0:
182,192,106282,1,0,0:0:0:0:
256,192,106320,1,0,0:0:0:0:
329,192,106357,1,0,0:0:0:0:
36,192,106395,1,0,0:0:0:0:
109,192,106432,1,0,0:0:0:0:
182,192,106470,1,0,0:0:0:0:
256,192,106470,1,0,0:0:0:0:
402,192,106470,1,0,0:0:0:0:
475,192,106470,1,0,0:0:0:0:
109,192,106620,1,0,0:0:0:0:
402,192,106620,1,0,0:0:0:0:
36,192,106620,1,0,0:0:0:0:
475,192,106620,1,0,0:0:0:0:
182,192,106620,1,0,0:0:0:0:
256,192,106620,1,0,0:0:0:0:
