osu file format v14

[General]
AudioFilename: Sedap Malam.mp3
AudioLeadIn: 0
PreviewTime: 106659
Countdown: 0
SampleSet: Normal
StackLeniency: 0.6
Mode: 1
LetterboxInBreaks: 0
WidescreenStoryboard: 1

[Editor]
Bookmarks: 779,42642,88203,89803,96203,101003,106025,108185,113785,136730,137330
DistanceSpacing: 1
BeatDivisor: 4
GridSize: 32
TimelineZoom: 2.799999

[Metadata]
Title:Sedap Malam
TitleUnicode:Sedap Malam
Artist:xi
ArtistUnicode:xi
Creator:Pyrozen
Version:Collab Oni
Source:
Tags:100sec records parousia flanremisariel instrumental Alwaysyukaz
BeatmapID:1252299
BeatmapSetID:591822

[Difficulty]
HPDrainRate:6
CircleSize:2
OverallDifficulty:7
ApproachRate:6
SliderMultiplier:2.01599984550476
SliderTickRate:1

[Events]
//Background and Video events
0,0,"1432086809112.jpg",0,0
//Break Periods
2,50842,54910
//Storyboard Layer 0 (Background)
//Storyboard Layer 1 (Fail)
//Storyboard Layer 2 (Pass)
//Storyboard Layer 3 (Foreground)
//Storyboard Layer 4 (Overlay)
//Storyboard Sound Samples

[TimingPoints]
3513,400,4,1,0,70,1,0
22713,416.666666666667,4,1,0,70,1,0
26036,447.761194029851,4,1,0,70,1,0
30192,389.61038961039,4,1,0,85,1,0
30242,400,4,1,0,85,1,0
52673,410.958904109589,4,1,0,90,1,0
55960,400,4,1,0,90,1,0
65560,405.405405405405,4,1,0,90,1,0
68803,400,4,1,0,90,1,0
105603,422.535211267606,4,1,0,90,1,0
107285,400,4,1,0,90,1,0
107285,-100,4,1,0,95,0,1
119285,422.535211267606,4,1,0,85,1,0
120130,400,4,1,0,75,1,0
120130,-100,4,1,0,95,0,1
132930,-100,4,1,0,70,0,0
158530,416.666666666667,4,1,0,75,1,0
160184,468.75,4,1,0,75,1,0
162059,400,4,1,0,70,1,0
174059,422.535211267606,4,1,0,95,1,0
174904,400,4,1,0,75,1,0
186104,441.176470588235,4,1,0,55,1,0
187868,400,4,1,0,45,1,0
187868,-100,4,1,0,70,0,1
199868,416.666666666667,4,1,0,70,1,1
199868,-100,4,1,0,80,0,1
200701,400,4,1,0,70,1,0
200701,-100,4,1,0,70,0,1
213501,-100,4,1,0,70,0,0
235901,413.793103448276,4,1,0,70,1,0
241694,500,4,1,0,55,1,0
243687,576.923076923077,4,1,0,55,1,0

[Colours]
Combo1 : 0,255,255
Combo2 : 0,255,255
Combo3 : 0,255,255
Combo4 : 0,128,192
Combo5 : 0,0,255

[HitObjects]
256,192,3513,5,0,0:0:0:0:
256,192,5113,1,8,0:0:0:0:
256,192,6713,1,0,0:0:0:0:
256,192,8313,1,8,0:0:0:0:
256,192,9313,1,0,0:0:0:0:
256,192,9513,1,0,0:0:0:0:
256,192,9713,1,0,0:0:0:0:
256,192,9913,1,8,0:0:0:0:
256,192,11513,1,0,0:0:0:0:
256,192,13113,1,0,0:0:0:0:
256,192,14713,1,8,0:0:0:0:
256,192,16313,5,0,0:0:0:0:
256,192,17913,1,8,0:0:0:0:
256,192,19513,1,0,0:0:0:0:
256,192,21113,1,8,0:0:0:0:
256,192,22313,1,0,0:0:0:0:
256,192,22713,1,8,0:0:0:0:
256,192,24379,1,0,0:0:0:0:
256,192,26036,1,8,0:0:0:0:
256,192,27827,1,14,0:0:0:0:
256,192,30242,5,0,0:0:0:0:
256,192,30642,1,0,0:0:0:0:
256,192,30842,1,0,0:0:0:0:
256,192,31042,1,8,0:0:0:0:
256,192,31442,1,4,0:0:0:0:
256,192,34242,1,0,0:0:0:0:
256,192,35042,1,0,0:0:0:0:
256,192,35842,1,8,0:0:0:0:
256,192,36642,5,0,0:0:0:0:
256,192,37842,1,4,0:0:0:0:
256,192,40242,1,0,0:0:0:0:
256,192,40642,1,0,0:0:0:0:
256,192,41042,1,0,0:0:0:0:
256,192,41442,1,8,0:0:0:0:
256,192,41842,1,0,0:0:0:0:
256,192,42242,1,8,0:0:0:0:
256,192,42642,1,0,0:0:0:0:
256,192,43042,5,0,0:0:0:0:
256,192,44242,1,4,0:0:0:0:
256,192,47042,1,0,0:0:0:0:
256,192,47442,1,4,0:0:0:0:
256,192,47842,1,0,0:0:0:0:
256,192,48242,1,0,0:0:0:0:
256,192,48642,1,8,0:0:0:0:
256,192,49042,1,14,0:0:0:0:
256,192,49442,5,0,0:0:0:0:
344,112,50642,1,4,0:0:0:0:
332,136,55960,5,4,0:0:0:0:
180,141,56160,1,0,0:0:0:0:
180,141,56260,1,0,0:0:0:0:
185,141,56360,1,8,0:0:0:0:
255,190,56560,1,8,0:0:0:0:
255,190,56760,1,8,0:0:0:0:
382,179,56960,1,0,0:0:0:0:
378,175,57160,1,0,0:0:0:0:
346,247,57360,1,8,0:0:0:0:
346,247,57560,1,0,0:0:0:0:
42,156,57960,1,0,0:0:0:0:
42,156,58160,1,0,0:0:0:0:
209,161,58760,1,0,0:0:0:0:
209,161,58960,1,8,0:0:0:0:
255,187,59160,1,4,0:0:0:0:
180,141,59360,1,0,0:0:0:0:
180,141,59460,1,0,0:0:0:0:
185,141,59560,1,8,0:0:0:0:
255,190,59760,1,8,0:0:0:0:
255,190,59960,1,8,0:0:0:0:
382,179,60160,1,0,0:0:0:0:
378,175,60360,1,0,0:0:0:0:
346,247,60560,1,8,0:0:0:0:
346,247,60760,1,0,0:0:0:0:
255,190,61160,1,8,0:0:0:0:
166,162,61560,1,0,0:0:0:0:
166,162,61960,1,8,0:0:0:0:
166,162,62160,1,0,0:0:0:0:
166,162,62360,1,14,0:0:0:0:
180,141,62560,1,0,0:0:0:0:
180,141,62660,1,0,0:0:0:0:
185,141,62760,1,8,0:0:0:0:
255,190,62960,1,8,0:0:0:0:
255,190,63160,1,8,0:0:0:0:
382,179,63360,1,0,0:0:0:0:
378,175,63560,1,0,0:0:0:0:
346,247,63760,1,8,0:0:0:0:
346,247,63960,1,0,0:0:0:0:
255,190,64160,1,8,0:0:0:0:
255,190,64360,1,8,0:0:0:0:
166,162,64560,1,0,0:0:0:0:
166,162,64960,1,8,0:0:0:0:
166,162,65060,1,0,0:0:0:0:
166,162,65160,1,8,0:0:0:0:
166,162,65360,1,0,0:0:0:0:
166,162,65560,1,14,0:0:0:0:
166,162,65762,1,8,0:0:0:0:
166,162,65864,1,0,0:0:0:0:
180,141,65965,1,8,0:0:0:0:
180,141,66066,1,0,0:0:0:0:
185,141,66168,1,8,0:0:0:0:
185,141,66370,1,8,0:0:0:0:
249,195,66573,1,0,0:0:0:0:
249,195,66776,1,8,0:0:0:0:
249,195,66978,1,8,0:0:0:0:
249,195,67181,1,8,0:0:0:0:
249,195,67384,1,0,0:0:0:0:
249,195,67587,1,0,0:0:0:0:
249,195,67789,1,8,0:0:0:0:
249,195,67992,1,8,0:0:0:0:
249,195,68397,1,0,0:0:0:0:
249,195,68600,1,8,0:0:0:0:
249,195,68803,1,14,0:0:0:0:
180,141,69003,1,0,0:0:0:0:
180,141,69103,1,0,0:0:0:0:
185,141,69203,1,8,0:0:0:0:
255,190,69403,1,8,0:0:0:0:
255,190,69603,1,8,0:0:0:0:
382,179,69803,1,0,0:0:0:0:
378,175,70003,1,0,0:0:0:0:
346,247,70203,1,8,0:0:0:0:
42,156,70803,1,0,0:0:0:0:
42,156,71003,1,0,0:0:0:0:
209,161,71603,1,0,0:0:0:0:
209,161,71803,1,8,0:0:0:0:
255,187,72003,1,4,0:0:0:0:
180,141,72203,1,0,0:0:0:0:
180,141,72303,1,0,0:0:0:0:
185,141,72403,1,8,0:0:0:0:
255,190,72603,1,8,0:0:0:0:
255,190,72803,1,8,0:0:0:0:
382,179,73003,1,0,0:0:0:0:
378,175,73203,1,0,0:0:0:0:
346,247,73403,1,8,0:0:0:0:
346,247,73603,1,8,0:0:0:0:
255,190,73803,1,8,0:0:0:0:
255,190,74003,1,8,0:0:0:0:
166,162,74203,1,0,0:0:0:0:
166,162,74403,1,0,0:0:0:0:
166,162,74603,1,8,0:0:0:0:
166,162,74703,1,0,0:0:0:0:
166,162,74803,1,8,0:0:0:0:
166,162,75003,1,0,0:0:0:0:
166,162,75203,1,14,0:0:0:0:
180,141,75403,1,0,0:0:0:0:
180,141,75503,1,0,0:0:0:0:
185,141,75603,1,8,0:0:0:0:
255,190,75803,1,8,0:0:0:0:
255,190,76003,1,8,0:0:0:0:
382,179,76203,1,0,0:0:0:0:
378,175,76403,1,0,0:0:0:0:
346,247,76603,1,8,0:0:0:0:
346,247,76803,1,8,0:0:0:0:
255,190,77003,1,8,0:0:0:0:
255,190,77203,1,8,0:0:0:0:
166,162,77403,1,0,0:0:0:0:
166,162,77603,1,0,0:0:0:0:
166,162,77803,1,8,0:0:0:0:
166,162,77903,1,0,0:0:0:0:
166,162,78003,1,8,0:0:0:0:
166,162,78203,1,0,0:0:0:0:
166,162,78403,1,14,0:0:0:0:
166,162,78603,1,8,0:0:0:0:
166,162,78703,1,0,0:0:0:0:
180,141,78803,1,0,0:0:0:0:
180,141,78903,1,0,0:0:0:0:
185,141,79003,1,8,0:0:0:0:
185,141,79203,1,8,0:0:0:0:
249,195,79403,1,0,0:0:0:0:
249,195,79603,1,8,0:0:0:0:
249,195,79803,1,8,0:0:0:0:
249,195,80003,1,8,0:0:0:0:
249,195,80203,1,0,0:0:0:0:
249,195,80403,1,0,0:0:0:0:
249,195,80603,1,8,0:0:0:0:
249,195,80803,1,8,0:0:0:0:
249,195,81003,1,0,0:0:0:0:
249,195,81203,1,0,0:0:0:0:
249,195,81403,1,8,0:0:0:0:
249,195,81603,1,8,0:0:0:0:
249,195,81803,5,0,0:0:0:0:
249,195,81903,1,0,0:0:0:0:
249,195,82003,1,8,0:0:0:0:
249,195,82203,5,8,0:0:0:0:
249,195,82303,1,0,0:0:0:0:
249,195,82403,1,8,0:0:0:0:
249,195,82603,5,0,0:0:0:0:
249,195,82703,1,0,0:0:0:0:
249,195,82803,1,8,0:0:0:0:
249,195,83003,1,4,0:0:0:0:
249,195,83203,1,8,0:0:0:0:
249,195,83403,5,0,0:0:0:0:
249,195,83503,1,0,0:0:0:0:
249,195,83603,1,8,0:0:0:0:
249,195,83803,5,0,0:0:0:0:
249,195,83903,1,0,0:0:0:0:
249,195,84003,1,8,0:0:0:0:
249,195,84203,5,8,0:0:0:0:
249,195,84303,1,0,0:0:0:0:
249,195,84403,1,8,0:0:0:0:
249,195,84603,1,4,0:0:0:0:
249,195,84803,1,8,0:0:0:0:
249,195,85003,5,0,0:0:0:0:
249,195,85103,1,0,0:0:0:0:
249,195,85203,1,8,0:0:0:0:
249,195,85403,5,8,0:0:0:0:
249,195,85503,1,0,0:0:0:0:
249,195,85603,1,8,0:0:0:0:
249,195,85803,5,8,0:0:0:0:
249,195,85903,1,0,0:0:0:0:
249,195,86003,1,8,0:0:0:0:
249,195,86203,1,4,0:0:0:0:
249,195,86403,1,8,0:0:0:0:
246,115,86603,1,0,0:0:0:0:
246,115,86703,1,0,0:0:0:0:
246,115,86803,1,8,0:0:0:0:
246,115,87003,1,0,0:0:0:0:
246,115,87103,1,0,0:0:0:0:
246,115,87203,1,8,0:0:0:0:
210,200,87403,5,0,0:0:0:0:
210,200,87503,1,0,0:0:0:0:
210,200,87603,1,8,0:0:0:0:
210,200,87703,1,0,0:0:0:0:
210,200,87803,1,0,0:0:0:0:
210,200,87903,1,8,0:0:0:0:
210,200,88003,1,8,0:0:0:0:
249,195,88203,5,0,0:0:0:0:
249,195,88303,1,8,0:0:0:0:
249,195,88403,1,0,0:0:0:0:
249,195,88603,5,8,0:0:0:0:
249,195,88703,1,0,0:0:0:0:
249,195,88803,1,8,0:0:0:0:
249,195,89003,5,0,0:0:0:0:
249,195,89103,1,0,0:0:0:0:
249,195,89203,1,8,0:0:0:0:
249,195,89403,1,4,0:0:0:0:
249,195,89603,1,8,0:0:0:0:
249,195,89803,5,8,0:0:0:0:
249,195,89903,1,0,0:0:0:0:
249,195,90003,1,8,0:0:0:0:
249,195,90203,5,0,0:0:0:0:
249,195,90303,1,8,0:0:0:0:
249,195,90403,1,8,0:0:0:0:
249,195,90603,5,8,0:0:0:0:
249,195,90703,1,8,0:0:0:0:
249,195,90803,1,8,0:0:0:0:
249,195,91003,1,4,0:0:0:0:
249,195,91203,1,8,0:0:0:0:
249,195,91403,5,0,0:0:0:0:
249,195,91503,1,0,0:0:0:0:
249,195,91603,1,0,0:0:0:0:
249,195,91803,5,8,0:0:0:0:
249,195,91903,1,0,0:0:0:0:
249,195,92003,1,8,0:0:0:0:
249,195,92203,5,0,0:0:0:0:
249,195,92303,1,8,0:0:0:0:
249,195,92403,1,0,0:0:0:0:
249,195,92603,1,4,0:0:0:0:
249,195,92803,1,14,0:0:0:0:
246,115,93003,1,0,0:0:0:0:
246,115,93103,1,0,0:0:0:0:
246,115,93203,1,8,0:0:0:0:
246,115,93403,1,8,0:0:0:0:
246,115,93503,1,0,0:0:0:0:
246,115,93603,1,8,0:0:0:0:
210,200,93803,5,0,0:0:0:0:
210,200,93903,1,0,0:0:0:0:
210,200,94003,1,8,0:0:0:0:
210,200,94103,1,0,0:0:0:0:
210,200,94203,1,0,0:0:0:0:
210,200,94303,1,8,0:0:0:0:
210,200,94403,1,14,0:0:0:0:
249,195,94603,5,8,0:0:0:0:
249,195,94703,1,8,0:0:0:0:
249,195,94803,1,8,0:0:0:0:
249,195,95003,5,0,0:0:0:0:
249,195,95103,1,0,0:0:0:0:
249,195,95203,1,0,0:0:0:0:
249,195,95403,5,0,0:0:0:0:
249,195,95503,1,0,0:0:0:0:
249,195,95603,1,8,0:0:0:0:
249,195,95803,1,4,0:0:0:0:
249,195,96003,1,14,0:0:0:0:
249,195,96203,5,8,0:0:0:0:
249,195,96303,1,8,0:0:0:0:
249,195,96403,1,8,0:0:0:0:
249,195,96603,5,8,0:0:0:0:
249,195,96703,1,8,0:0:0:0:
249,195,96803,1,8,0:0:0:0:
249,195,97003,5,0,0:0:0:0:
249,195,97103,1,0,0:0:0:0:
249,195,97203,1,0,0:0:0:0:
249,195,97403,1,4,0:0:0:0:
249,195,97603,1,14,0:0:0:0:
249,195,97803,5,0,0:0:0:0:
249,195,97903,1,0,0:0:0:0:
249,195,98003,1,8,0:0:0:0:
249,195,98203,5,8,0:0:0:0:
249,195,98303,1,0,0:0:0:0:
249,195,98403,1,8,0:0:0:0:
249,195,98603,5,0,0:0:0:0:
249,195,98703,1,8,0:0:0:0:
249,195,98803,1,8,0:0:0:0:
249,195,99003,1,4,0:0:0:0:
249,195,99203,1,14,0:0:0:0:
246,115,99403,1,8,0:0:0:0:
246,115,99503,1,0,0:0:0:0:
246,115,99603,1,8,0:0:0:0:
246,115,99803,1,8,0:0:0:0:
246,115,99903,1,0,0:0:0:0:
246,115,100003,1,0,0:0:0:0:
210,200,100203,5,0,0:0:0:0:
210,200,100303,1,0,0:0:0:0:
210,200,100403,1,8,0:0:0:0:
210,200,100503,1,0,0:0:0:0:
210,200,100603,1,0,0:0:0:0:
210,200,100703,1,8,0:0:0:0:
210,200,100803,1,14,0:0:0:0:
249,195,101003,5,0,0:0:0:0:
249,195,101103,1,8,0:0:0:0:
249,195,101203,1,8,0:0:0:0:
249,195,101403,5,0,0:0:0:0:
249,195,101503,1,0,0:0:0:0:
249,195,101603,1,8,0:0:0:0:
249,195,101803,5,8,0:0:0:0:
249,195,101903,1,0,0:0:0:0:
249,195,102003,1,8,0:0:0:0:
249,195,102203,1,4,0:0:0:0:
249,195,102403,1,14,0:0:0:0:
249,195,102603,5,0,0:0:0:0:
249,195,102703,1,8,0:0:0:0:
249,195,102803,1,8,0:0:0:0:
249,195,103003,5,8,0:0:0:0:
249,195,103103,1,0,0:0:0:0:
249,195,103203,1,8,0:0:0:0:
249,195,103403,5,0,0:0:0:0:
249,195,103503,1,0,0:0:0:0:
249,195,103603,1,8,0:0:0:0:
249,195,103803,1,4,0:0:0:0:
249,195,104003,1,14,0:0:0:0:
246,115,104203,1,0,0:0:0:0:
246,115,104303,1,8,0:0:0:0:
246,115,104403,1,8,0:0:0:0:
246,115,104603,1,8,0:0:0:0:
246,115,104703,1,0,0:0:0:0:
246,115,104803,1,8,0:0:0:0:
210,200,105003,5,0,0:0:0:0:
210,200,105103,1,0,0:0:0:0:
210,200,105203,1,8,0:0:0:0:
210,200,105303,1,0,0:0:0:0:
210,200,105403,1,0,0:0:0:0:
210,200,105503,1,8,0:0:0:0:
210,200,105603,1,14,0:0:0:0:
224,160,106659,1,8,0:0:0:0:
224,160,106870,1,8,0:0:0:0:
224,160,107081,1,0,0:0:0:0:
224,160,107187,1,8,0:0:0:0:
224,160,107285,1,8,0:0:0:0:
207,137,107485,5,0,0:0:0:0:
207,137,107585,1,0,0:0:0:0:
207,137,107685,1,8,0:0:0:0:
207,137,107785,1,0,0:0:0:0:
207,137,107885,1,0,0:0:0:0:
207,137,107985,1,0,0:0:0:0:
214,142,108085,1,8,0:0:0:0:
261,191,108285,1,0,0:0:0:0:
261,191,108385,1,0,0:0:0:0:
261,191,108485,1,8,0:0:0:0:
261,191,108685,1,4,0:0:0:0:
261,191,108885,1,8,0:0:0:0:
186,196,109085,5,8,0:0:0:0:
186,196,109185,1,0,0:0:0:0:
186,196,109285,1,8,0:0:0:0:
186,196,109485,5,8,0:0:0:0:
186,196,109585,1,8,0:0:0:0:
186,196,109685,1,8,0:0:0:0:
186,196,109885,5,0,0:0:0:0:
186,196,109985,1,0,0:0:0:0:
186,196,110085,1,0,0:0:0:0:
252,187,110285,1,4,0:0:0:0:
255,182,110485,1,14,0:0:0:0:
105,217,110685,5,0,0:0:0:0:
105,217,110785,1,8,0:0:0:0:
105,217,110885,1,8,0:0:0:0:
251,196,111085,1,4,0:0:0:0:
251,196,111285,1,8,0:0:0:0:
105,217,111485,5,8,0:0:0:0:
105,217,111585,1,8,0:0:0:0:
105,217,111685,1,8,0:0:0:0:
251,196,111885,1,4,0:0:0:0:
251,196,112085,1,8,0:0:0:0:
105,217,112285,5,0,0:0:0:0:
105,217,112385,1,0,0:0:0:0:
105,217,112485,1,0,0:0:0:0:
251,196,112685,1,4,0:0:0:0:
251,196,112885,1,8,0:0:0:0:
210,200,113085,5,0,0:0:0:0:
210,200,113185,1,0,0:0:0:0:
210,200,113285,1,8,0:0:0:0:
210,200,113385,1,0,0:0:0:0:
210,200,113485,1,0,0:0:0:0:
210,200,113585,1,8,0:0:0:0:
210,200,113685,1,8,0:0:0:0:
258,186,113885,1,0,0:0:0:0:
258,186,113985,1,0,0:0:0:0:
258,186,114085,1,8,0:0:0:0:
258,186,114185,1,0,0:0:0:0:
258,186,114285,1,0,0:0:0:0:
258,186,114385,1,0,0:0:0:0:
258,186,114485,1,8,0:0:0:0:
258,186,114685,1,8,0:0:0:0:
258,186,114785,1,0,0:0:0:0:
258,186,114885,1,8,0:0:0:0:
258,186,115085,1,0,0:0:0:0:
258,186,115185,1,8,0:0:0:0:
258,186,115285,1,8,0:0:0:0:
258,186,115485,1,0,0:0:0:0:
258,186,115585,1,0,0:0:0:0:
258,186,115685,1,0,0:0:0:0:
258,186,115885,1,8,0:0:0:0:
258,186,115985,1,8,0:0:0:0:
258,186,116085,1,8,0:0:0:0:
258,186,116285,1,8,0:0:0:0:
258,186,116385,1,0,0:0:0:0:
258,186,116485,1,8,0:0:0:0:
258,186,116685,1,4,0:0:0:0:
258,186,116885,1,8,0:0:0:0:
258,186,117085,1,0,0:0:0:0:
258,186,117185,1,8,0:0:0:0:
258,186,117285,1,8,0:0:0:0:
258,186,117485,1,8,0:0:0:0:
258,186,117585,1,0,0:0:0:0:
258,186,117685,1,0,0:0:0:0:
258,186,117885,1,0,0:0:0:0:
258,186,117985,1,0,0:0:0:0:
258,186,118085,1,8,0:0:0:0:
258,186,118285,1,0,0:0:0:0:
258,186,118385,1,0,0:0:0:0:
258,186,118485,1,8,0:0:0:0:
258,186,118685,1,0,0:0:0:0:
258,186,118785,1,0,0:0:0:0:
258,186,118885,1,8,0:0:0:0:
258,186,119085,1,0,0:0:0:0:
258,186,119185,1,0,0:0:0:0:
258,186,119285,1,8,0:0:0:0:
210,200,119496,5,0,0:0:0:0:
210,200,119601,1,0,0:0:0:0:
210,200,119707,1,8,0:0:0:0:
210,200,119813,1,0,0:0:0:0:
210,200,119918,1,0,0:0:0:0:
210,200,120024,1,8,0:0:0:0:
210,200,120130,1,8,0:0:0:0:
255,188,120330,5,0,0:0:0:0:
255,188,120430,1,0,0:0:0:0:
255,188,120530,1,8,0:0:0:0:
255,188,120630,1,0,0:0:0:0:
255,188,120730,1,0,0:0:0:0:
255,188,120830,1,0,0:0:0:0:
255,188,120930,1,8,0:0:0:0:
258,186,121130,1,0,0:0:0:0:
258,186,121230,1,0,0:0:0:0:
258,186,121330,1,8,0:0:0:0:
258,186,121530,1,0,0:0:0:0:
258,186,121630,1,0,0:0:0:0:
258,186,121730,1,8,0:0:0:0:
258,186,121930,1,0,0:0:0:0:
258,186,122030,1,0,0:0:0:0:
258,186,122130,1,8,0:0:0:0:
258,186,122330,1,0,0:0:0:0:
258,186,122430,1,0,0:0:0:0:
258,186,122530,1,8,0:0:0:0:
258,186,122730,1,0,0:0:0:0:
258,186,122830,1,0,0:0:0:0:
258,186,122930,1,8,0:0:0:0:
258,186,123130,1,4,0:0:0:0:
258,186,123330,1,8,0:0:0:0:
258,186,123530,1,0,0:0:0:0:
258,186,123630,1,0,0:0:0:0:
258,186,123730,1,8,0:0:0:0:
258,186,123930,1,0,0:0:0:0:
258,186,124030,1,0,0:0:0:0:
258,186,124130,1,8,0:0:0:0:
258,186,124330,1,0,0:0:0:0:
258,186,124430,1,0,0:0:0:0:
258,186,124530,1,8,0:0:0:0:
258,186,124730,1,0,0:0:0:0:
258,186,124830,1,0,0:0:0:0:
258,186,124930,1,8,0:0:0:0:
258,186,125130,1,0,0:0:0:0:
258,186,125230,1,0,0:0:0:0:
258,186,125330,1,8,0:0:0:0:
258,186,125530,1,0,0:0:0:0:
258,186,125630,1,0,0:0:0:0:
258,186,125730,1,8,0:0:0:0:
210,200,125930,5,0,0:0:0:0:
210,200,126030,1,0,0:0:0:0:
210,200,126130,1,8,0:0:0:0:
210,200,126230,1,0,0:0:0:0:
210,200,126330,1,0,0:0:0:0:
210,200,126430,1,8,0:0:0:0:
210,200,126530,1,8,0:0:0:0:
258,186,126730,1,0,0:0:0:0:
258,186,126830,1,0,0:0:0:0:
258,186,126930,1,8,0:0:0:0:
258,186,127130,1,0,0:0:0:0:
258,186,127230,1,0,0:0:0:0:
258,186,127330,1,8,0:0:0:0:
258,186,127530,1,0,0:0:0:0:
258,186,127630,1,0,0:0:0:0:
258,186,127730,1,8,0:0:0:0:
258,186,127930,1,0,0:0:0:0:
258,186,128030,1,0,0:0:0:0:
258,186,128130,1,8,0:0:0:0:
258,186,128330,1,0,0:0:0:0:
258,186,128430,1,0,0:0:0:0:
258,186,128530,1,8,0:0:0:0:
258,186,128730,1,4,0:0:0:0:
258,186,128930,1,8,0:0:0:0:
258,186,129130,1,0,0:0:0:0:
258,186,129230,1,0,0:0:0:0:
258,186,129330,1,8,0:0:0:0:
258,186,129530,1,0,0:0:0:0:
258,186,129630,1,0,0:0:0:0:
258,186,129730,1,8,0:0:0:0:
258,186,129930,1,0,0:0:0:0:
258,186,130030,1,0,0:0:0:0:
258,186,130130,1,8,0:0:0:0:
258,186,130330,1,0,0:0:0:0:
258,186,130430,1,0,0:0:0:0:
258,186,130530,1,8,0:0:0:0:
258,186,130730,1,0,0:0:0:0:
258,186,130830,1,0,0:0:0:0:
258,186,130930,1,8,0:0:0:0:
258,186,131130,1,0,0:0:0:0:
258,186,131230,1,0,0:0:0:0:
258,186,131330,1,8,0:0:0:0:
258,186,131530,1,0,0:0:0:0:
258,186,131630,1,0,0:0:0:0:
258,186,131730,1,8,0:0:0:0:
258,186,131830,1,0,0:0:0:0:
258,186,131930,1,0,0:0:0:0:
258,186,132030,1,0,0:0:0:0:
258,186,132130,1,8,0:0:0:0:
210,200,132330,5,0,0:0:0:0:
210,200,132430,1,0,0:0:0:0:
210,200,132530,1,8,0:0:0:0:
210,200,132630,1,0,0:0:0:0:
210,200,132730,1,0,0:0:0:0:
210,200,132830,1,8,0:0:0:0:
210,200,132930,1,14,0:0:0:0:
250,189,133130,1,0,0:0:0:0:
250,189,133230,1,0,0:0:0:0:
253,190,133330,1,14,0:0:0:0:
250,189,133530,5,0,0:0:0:0:
250,189,133630,1,0,0:0:0:0:
250,189,133730,1,8,0:0:0:0:
250,189,133930,5,0,0:0:0:0:
250,189,134030,1,0,0:0:0:0:
250,189,134130,1,8,0:0:0:0:
250,189,134330,5,0,0:0:0:0:
250,189,134430,1,0,0:0:0:0:
250,189,134530,1,8,0:0:0:0:
250,189,134730,5,0,0:0:0:0:
250,189,134830,1,0,0:0:0:0:
250,189,134930,1,8,0:0:0:0:
250,189,135130,5,0,0:0:0:0:
250,189,135230,1,0,0:0:0:0:
250,189,135330,1,8,0:0:0:0:
250,189,135530,5,0,0:0:0:0:
250,189,135630,1,0,0:0:0:0:
250,189,135730,1,8,0:0:0:0:
250,189,135930,5,0,0:0:0:0:
250,189,136030,1,0,0:0:0:0:
250,189,136130,1,8,0:0:0:0:
250,189,136330,5,0,0:0:0:0:
250,189,136430,1,0,0:0:0:0:
250,189,136530,1,8,0:0:0:0:
258,186,136730,1,0,0:0:0:0:
258,186,136830,1,0,0:0:0:0:
258,186,136930,1,8,0:0:0:0:
258,186,137030,1,0,0:0:0:0:
258,186,137130,1,0,0:0:0:0:
258,186,137230,1,0,0:0:0:0:
258,186,137330,1,8,0:0:0:0:
210,200,137530,5,0,0:0:0:0:
210,200,137630,1,0,0:0:0:0:
210,200,137730,1,8,0:0:0:0:
210,200,137830,1,0,0:0:0:0:
210,200,137930,1,0,0:0:0:0:
210,200,138030,1,8,0:0:0:0:
210,200,138130,1,14,0:0:0:0:
257,193,138330,1,0,0:0:0:0:
252,188,138430,1,0,0:0:0:0:
252,188,138530,1,8,0:0:0:0:
252,188,138630,1,8,0:0:0:0:
252,188,138730,1,0,0:0:0:0:
252,188,138830,1,0,0:0:0:0:
252,188,138930,1,14,0:0:0:0:
251,185,139130,1,4,0:0:0:0:
251,185,139330,1,14,0:0:0:0:
252,188,139530,1,14,0:0:0:0:
252,188,139730,1,4,0:0:0:0:
252,188,139930,1,14,0:0:0:0:
251,185,140130,5,0,0:0:0:0:
251,185,140230,1,0,0:0:0:0:
251,185,140330,1,0,0:0:0:0:
252,188,140430,1,8,0:0:0:0:
252,188,140530,1,0,0:0:0:0:
252,188,140630,1,0,0:0:0:0:
252,188,140730,1,8,0:0:0:0:
252,188,140830,1,0,0:0:0:0:
252,188,140930,1,14,0:0:0:0:
252,188,141130,1,0,0:0:0:0:
252,188,141230,1,0,0:0:0:0:
252,188,141330,1,8,0:0:0:0:
252,188,141430,1,0,0:0:0:0:
252,188,141530,1,0,0:0:0:0:
251,185,141630,1,8,0:0:0:0:
251,185,141730,1,14,0:0:0:0:
251,185,141930,1,4,0:0:0:0:
251,185,142130,1,14,0:0:0:0:
252,188,142330,1,14,0:0:0:0:
252,188,142530,1,14,0:0:0:0:
252,188,142730,5,0,0:0:0:0:
252,188,142830,1,0,0:0:0:0:
252,188,142930,1,8,0:0:0:0:
252,188,143130,5,0,0:0:0:0:
252,188,143230,1,0,0:0:0:0:
252,188,143330,1,8,0:0:0:0:
252,188,143530,5,0,0:0:0:0:
252,188,143630,1,0,0:0:0:0:
252,188,143730,1,8,0:0:0:0:
252,188,143930,5,0,0:0:0:0:
252,188,144030,1,0,0:0:0:0:
252,188,144130,1,8,0:0:0:0:
252,188,144330,5,0,0:0:0:0:
252,188,144430,1,0,0:0:0:0:
252,188,144530,1,8,0:0:0:0:
252,188,144730,5,0,0:0:0:0:
252,188,144830,1,0,0:0:0:0:
252,188,144930,1,8,0:0:0:0:
252,188,145130,5,0,0:0:0:0:
252,188,145230,1,0,0:0:0:0:
252,188,145330,1,8,0:0:0:0:
252,188,145430,5,0,0:0:0:0:
252,188,145530,1,0,0:0:0:0:
252,188,145630,1,8,0:0:0:0:
252,188,145730,5,0,0:0:0:0:
252,188,145830,1,0,0:0:0:0:
252,188,145930,1,8,0:0:0:0:
240,104,146130,5,0,0:0:0:0:
240,104,146230,1,0,0:0:0:0:
240,104,146330,1,8,0:0:0:0:
252,188,146530,5,0,0:0:0:0:
252,188,146630,1,0,0:0:0:0:
252,188,146730,1,8,0:0:0:0:
252,188,146930,5,0,0:0:0:0:
252,188,147030,1,0,0:0:0:0:
252,188,147130,1,8,0:0:0:0:
252,188,147330,5,0,0:0:0:0:
252,188,147430,1,0,0:0:0:0:
252,188,147530,1,8,0:0:0:0:
252,188,147730,5,0,0:0:0:0:
252,188,147830,1,0,0:0:0:0:
252,188,147930,1,8,0:0:0:0:
252,188,148130,5,0,0:0:0:0:
252,188,148230,1,0,0:0:0:0:
252,188,148330,1,8,0:0:0:0:
252,188,148530,5,0,0:0:0:0:
252,188,148630,1,0,0:0:0:0:
252,188,148730,1,8,0:0:0:0:
252,188,148930,5,0,0:0:0:0:
252,188,149030,1,0,0:0:0:0:
252,188,149130,1,8,0:0:0:0:
252,188,149230,5,0,0:0:0:0:
252,188,149330,1,0,0:0:0:0:
252,188,149430,1,8,0:0:0:0:
252,188,149530,5,0,0:0:0:0:
252,188,149630,1,0,0:0:0:0:
252,188,149730,1,8,0:0:0:0:
240,104,149830,5,0,0:0:0:0:
240,104,149930,1,0,0:0:0:0:
240,104,150030,1,0,0:0:0:0:
240,104,150130,1,8,0:0:0:0:
252,188,150330,1,4,0:0:0:0:
252,188,150530,1,14,0:0:0:0:
188,180,150730,5,0,0:0:0:0:
188,180,150830,1,0,0:0:0:0:
188,180,150930,1,8,0:0:0:0:
188,180,151030,1,0,0:0:0:0:
188,180,151130,1,0,0:0:0:0:
188,180,151230,1,8,0:0:0:0:
188,180,151330,1,14,0:0:0:0:
252,188,151530,1,14,0:0:0:0:
252,188,151730,1,4,0:0:0:0:
252,188,151930,1,2,0:0:0:0:
252,188,152030,1,2,0:0:0:0:
252,188,152130,1,14,0:0:0:0:
252,188,152330,1,14,0:0:0:0:
252,188,152530,1,14,0:0:0:0:
271,122,152730,5,0,0:0:0:0:
271,122,152830,1,0,0:0:0:0:
271,122,152930,1,8,0:0:0:0:
271,122,153030,1,0,0:0:0:0:
271,122,153130,1,0,0:0:0:0:
271,122,153230,1,0,0:0:0:0:
271,122,153330,1,8,0:0:0:0:
252,188,153530,1,0,0:0:0:0:
252,188,153630,1,0,0:0:0:0:
252,188,153730,1,8,0:0:0:0:
252,188,153930,1,0,0:0:0:0:
252,188,154030,1,0,0:0:0:0:
252,188,154130,1,8,0:0:0:0:
252,188,154330,1,0,0:0:0:0:
252,188,154430,1,0,0:0:0:0:
252,188,154530,1,8,0:0:0:0:
252,188,154730,1,4,0:0:0:0:
252,188,154930,1,4,0:0:0:0:
252,188,155130,1,14,0:0:0:0:
252,188,155330,1,14,0:0:0:0:
236,107,155530,1,0,0:0:0:0:
236,107,155630,1,0,0:0:0:0:
236,107,155730,1,8,0:0:0:0:
236,107,155830,1,0,0:0:0:0:
236,107,155930,1,0,0:0:0:0:
236,107,156030,1,8,0:0:0:0:
236,107,156130,1,14,0:0:0:0:
337,145,156330,1,0,0:0:0:0:
337,145,156430,1,0,0:0:0:0:
337,145,156530,1,8,0:0:0:0:
337,145,156630,1,0,0:0:0:0:
337,145,156730,1,0,0:0:0:0:
337,145,156830,1,0,0:0:0:0:
337,145,156930,1,8,0:0:0:0:
337,145,157130,1,0,0:0:0:0:
337,145,157230,1,0,0:0:0:0:
337,145,157330,1,8,0:0:0:0:
337,145,157430,1,0,0:0:0:0:
337,145,157530,1,0,0:0:0:0:
337,145,157630,1,0,0:0:0:0:
337,145,157730,1,0,0:0:0:0:
337,145,157830,1,0,0:0:0:0:
337,145,157930,1,8,0:0:0:0:
337,145,158030,1,0,0:0:0:0:
337,145,158130,1,0,0:0:0:0:
337,145,158230,1,0,0:0:0:0:
337,145,158330,1,0,0:0:0:0:
337,145,158430,1,0,0:0:0:0:
337,145,158530,1,14,0:0:0:0:
248,193,158738,1,8,0:0:0:0:
248,193,158946,1,8,0:0:0:0:
248,193,159155,1,8,0:0:0:0:
248,193,159363,1,14,0:0:0:0:
248,193,159467,1,8,0:0:0:0:
248,193,159571,1,8,0:0:0:0:
248,193,159780,1,8,0:0:0:0:
248,193,159988,1,8,0:0:0:0:
248,193,160184,1,14,0:0:0:0:
207,137,160418,5,0,0:0:0:0:
207,137,160535,1,0,0:0:0:0:
207,137,160652,1,8,0:0:0:0:
207,137,160769,1,0,0:0:0:0:
207,137,160887,1,0,0:0:0:0:
214,142,161004,1,8,0:0:0:0:
207,137,161121,5,0,0:0:0:0:
207,137,161238,1,0,0:0:0:0:
207,137,161355,1,0,0:0:0:0:
207,137,161473,1,8,0:0:0:0:
207,137,161590,1,0,0:0:0:0:
207,137,161707,1,0,0:0:0:0:
214,142,161824,1,0,0:0:0:0:
244,184,161941,1,8,0:0:0:0:
244,184,162059,1,14,0:0:0:0:
340,145,162259,5,0,0:0:0:0:
340,145,162359,1,0,0:0:0:0:
340,145,162459,1,8,0:0:0:0:
340,145,162559,1,0,0:0:0:0:
340,145,162659,1,0,0:0:0:0:
340,145,162759,1,0,0:0:0:0:
340,145,162859,1,8,0:0:0:0:
261,191,163059,1,0,0:0:0:0:
261,191,163159,1,0,0:0:0:0:
261,191,163259,1,8,0:0:0:0:
261,191,163459,1,4,0:0:0:0:
261,191,163659,1,14,0:0:0:0:
186,196,163859,5,0,0:0:0:0:
186,196,163959,1,0,0:0:0:0:
186,196,164059,1,8,0:0:0:0:
186,196,164259,5,0,0:0:0:0:
186,196,164359,1,0,0:0:0:0:
186,196,164459,1,8,0:0:0:0:
186,196,164659,5,0,0:0:0:0:
186,196,164759,1,0,0:0:0:0:
186,196,164859,1,8,0:0:0:0:
252,187,165059,1,4,0:0:0:0:
255,182,165259,1,14,0:0:0:0:
105,217,165459,5,0,0:0:0:0:
105,217,165559,1,0,0:0:0:0:
105,217,165659,1,8,0:0:0:0:
251,196,165859,1,4,0:0:0:0:
251,196,166059,1,14,0:0:0:0:
105,217,166259,5,0,0:0:0:0:
105,217,166359,1,0,0:0:0:0:
105,217,166459,1,8,0:0:0:0:
251,196,166659,1,4,0:0:0:0:
251,196,166859,1,14,0:0:0:0:
105,217,167059,5,0,0:0:0:0:
105,217,167159,1,0,0:0:0:0:
105,217,167259,1,8,0:0:0:0:
251,196,167459,1,4,0:0:0:0:
251,196,167659,1,14,0:0:0:0:
210,200,167859,5,0,0:0:0:0:
210,200,167959,1,0,0:0:0:0:
210,200,168059,1,8,0:0:0:0:
210,200,168159,1,0,0:0:0:0:
210,200,168259,1,0,0:0:0:0:
210,200,168359,1,8,0:0:0:0:
210,200,168459,1,14,0:0:0:0:
258,186,168659,1,0,0:0:0:0:
258,186,168759,1,0,0:0:0:0:
258,186,168859,1,8,0:0:0:0:
258,186,168959,1,0,0:0:0:0:
258,186,169059,1,0,0:0:0:0:
258,186,169159,1,0,0:0:0:0:
258,186,169259,1,8,0:0:0:0:
258,186,169459,1,0,0:0:0:0:
258,186,169559,1,0,0:0:0:0:
258,186,169659,1,8,0:0:0:0:
258,186,169859,1,0,0:0:0:0:
258,186,169959,1,0,0:0:0:0:
258,186,170059,1,8,0:0:0:0:
258,186,170259,1,0,0:0:0:0:
258,186,170359,1,0,0:0:0:0:
258,186,170459,1,8,0:0:0:0:
258,186,170659,1,0,0:0:0:0:
258,186,170759,1,0,0:0:0:0:
258,186,170859,1,8,0:0:0:0:
258,186,171059,1,0,0:0:0:0:
258,186,171159,1,0,0:0:0:0:
258,186,171259,1,8,0:0:0:0:
258,186,171459,1,4,0:0:0:0:
258,186,171659,1,14,0:0:0:0:
258,186,171859,1,0,0:0:0:0:
258,186,171959,1,0,0:0:0:0:
258,186,172059,1,8,0:0:0:0:
258,186,172259,1,0,0:0:0:0:
258,186,172359,1,0,0:0:0:0:
258,186,172459,1,8,0:0:0:0:
258,186,172659,1,0,0:0:0:0:
258,186,172759,1,0,0:0:0:0:
258,186,172859,1,8,0:0:0:0:
258,186,173059,1,0,0:0:0:0:
258,186,173159,1,0,0:0:0:0:
258,186,173259,1,8,0:0:0:0:
258,186,173459,1,0,0:0:0:0:
258,186,173559,1,0,0:0:0:0:
258,186,173659,1,8,0:0:0:0:
258,186,173859,1,0,0:0:0:0:
258,186,173959,1,0,0:0:0:0:
258,186,174059,1,8,0:0:0:0:
210,200,174270,5,0,0:0:0:0:
210,200,174375,1,0,0:0:0:0:
210,200,174481,1,8,0:0:0:0:
210,200,174587,1,0,0:0:0:0:
210,200,174692,1,0,0:0:0:0:
210,200,174798,1,8,0:0:0:0:
210,200,174904,1,14,0:0:0:0:
255,188,175104,5,0,0:0:0:0:
255,188,175204,1,0,0:0:0:0:
255,188,175304,1,8,0:0:0:0:
255,188,175404,1,0,0:0:0:0:
255,188,175504,1,0,0:0:0:0:
255,188,175604,1,0,0:0:0:0:
255,188,175704,1,8,0:0:0:0:
258,186,175904,1,0,0:0:0:0:
258,186,176004,1,0,0:0:0:0:
258,186,176104,1,8,0:0:0:0:
258,186,176304,1,0,0:0:0:0:
258,186,176404,1,0,0:0:0:0:
258,186,176504,1,8,0:0:0:0:
258,186,176704,1,0,0:0:0:0:
258,186,176804,1,0,0:0:0:0:
258,186,176904,1,8,0:0:0:0:
258,186,177104,1,0,0:0:0:0:
258,186,177204,1,0,0:0:0:0:
258,186,177304,1,8,0:0:0:0:
258,186,177504,1,0,0:0:0:0:
258,186,177604,1,0,0:0:0:0:
258,186,177704,1,8,0:0:0:0:
258,186,177904,1,4,0:0:0:0:
258,186,178104,1,14,0:0:0:0:
258,186,178304,1,0,0:0:0:0:
258,186,178404,1,0,0:0:0:0:
258,186,178504,1,8,0:0:0:0:
258,186,178704,1,0,0:0:0:0:
258,186,178804,1,0,0:0:0:0:
258,186,178904,1,8,0:0:0:0:
258,186,179104,1,0,0:0:0:0:
258,186,179204,1,0,0:0:0:0:
258,186,179304,1,8,0:0:0:0:
258,186,179504,1,0,0:0:0:0:
258,186,179604,1,0,0:0:0:0:
258,186,179704,1,8,0:0:0:0:
258,186,179904,1,0,0:0:0:0:
258,186,180004,1,0,0:0:0:0:
258,186,180104,1,8,0:0:0:0:
258,186,180304,1,0,0:0:0:0:
258,186,180404,1,0,0:0:0:0:
258,186,180504,1,8,0:0:0:0:
210,200,180704,5,0,0:0:0:0:
210,200,180804,1,0,0:0:0:0:
210,200,180904,1,8,0:0:0:0:
210,200,181004,1,0,0:0:0:0:
210,200,181104,1,0,0:0:0:0:
210,200,181204,1,8,0:0:0:0:
210,200,181304,1,14,0:0:0:0:
258,186,181504,1,0,0:0:0:0:
258,186,181604,1,0,0:0:0:0:
258,186,181704,1,8,0:0:0:0:
258,186,181904,1,0,0:0:0:0:
258,186,182004,1,0,0:0:0:0:
258,186,182104,1,8,0:0:0:0:
258,186,182304,1,0,0:0:0:0:
258,186,182404,1,0,0:0:0:0:
258,186,182504,1,8,0:0:0:0:
258,186,182704,1,0,0:0:0:0:
258,186,182804,1,0,0:0:0:0:
258,186,182904,1,8,0:0:0:0:
258,186,183104,1,0,0:0:0:0:
258,186,183204,1,0,0:0:0:0:
258,186,183304,1,8,0:0:0:0:
258,186,183504,1,4,0:0:0:0:
258,186,183704,1,14,0:0:0:0:
258,186,183904,1,0,0:0:0:0:
258,186,184004,1,0,0:0:0:0:
258,186,184104,1,8,0:0:0:0:
258,186,184304,1,0,0:0:0:0:
258,186,184404,1,0,0:0:0:0:
258,186,184504,1,8,0:0:0:0:
258,186,184704,1,0,0:0:0:0:
258,186,184804,1,0,0:0:0:0:
258,186,184904,1,8,0:0:0:0:
258,186,185104,1,0,0:0:0:0:
258,186,185204,1,0,0:0:0:0:
258,186,185304,1,8,0:0:0:0:
258,186,185504,1,0,0:0:0:0:
258,186,185604,1,0,0:0:0:0:
258,186,185704,1,8,0:0:0:0:
258,186,185904,1,0,0:0:0:0:
258,186,186004,1,0,0:0:0:0:
258,186,186104,1,8,0:0:0:0:
258,186,186324,1,0,0:0:0:0:
258,186,186434,1,0,0:0:0:0:
258,186,186545,1,8,0:0:0:0:
258,186,186655,1,0,0:0:0:0:
258,186,186765,1,0,0:0:0:0:
258,186,186876,1,14,0:0:0:0:
161,138,186986,1,0,0:0:0:0:
161,138,187096,1,0,0:0:0:0:
161,138,187206,1,2,0:0:0:0:
161,138,187317,1,0,0:0:0:0:
161,138,187427,1,0,0:0:0:0:
271,123,187537,1,0,0:0:0:0:
161,138,187648,1,8,0:0:0:0:
161,138,187758,1,0,0:0:0:0:
161,138,187868,1,14,0:0:0:0:
207,137,188068,5,0,0:0:0:0:
207,137,188168,1,0,0:0:0:0:
207,137,188268,1,8,0:0:0:0:
207,137,188368,1,0,0:0:0:0:
207,137,188468,1,0,0:0:0:0:
207,137,188568,1,0,0:0:0:0:
214,142,188668,1,8,0:0:0:0:
261,191,188868,1,0,0:0:0:0:
261,191,188968,1,0,0:0:0:0:
261,191,189068,1,8,0:0:0:0:
261,191,189268,1,4,0:0:0:0:
261,191,189468,1,14,0:0:0:0:
186,196,189668,5,0,0:0:0:0:
186,196,189768,1,0,0:0:0:0:
186,196,189868,1,8,0:0:0:0:
186,196,190068,5,0,0:0:0:0:
186,196,190168,1,0,0:0:0:0:
186,196,190268,1,8,0:0:0:0:
186,196,190468,5,0,0:0:0:0:
186,196,190568,1,0,0:0:0:0:
186,196,190668,1,8,0:0:0:0:
252,187,190868,1,4,0:0:0:0:
255,182,191068,1,14,0:0:0:0:
105,217,191268,5,0,0:0:0:0:
105,217,191368,1,0,0:0:0:0:
105,217,191468,1,8,0:0:0:0:
251,196,191668,1,4,0:0:0:0:
251,196,191868,1,14,0:0:0:0:
105,217,192068,5,0,0:0:0:0:
105,217,192168,1,0,0:0:0:0:
105,217,192268,1,8,0:0:0:0:
251,196,192468,1,4,0:0:0:0:
251,196,192668,1,14,0:0:0:0:
105,217,192868,5,0,0:0:0:0:
105,217,192968,1,0,0:0:0:0:
105,217,193068,1,8,0:0:0:0:
251,196,193268,1,4,0:0:0:0:
251,196,193468,1,14,0:0:0:0:
210,200,193668,5,0,0:0:0:0:
210,200,193768,1,0,0:0:0:0:
210,200,193868,1,8,0:0:0:0:
210,200,193968,1,0,0:0:0:0:
210,200,194068,1,0,0:0:0:0:
210,200,194168,1,8,0:0:0:0:
210,200,194268,1,14,0:0:0:0:
258,186,194468,1,0,0:0:0:0:
258,186,194568,1,0,0:0:0:0:
258,186,194668,1,8,0:0:0:0:
258,186,194768,1,0,0:0:0:0:
258,186,194868,1,0,0:0:0:0:
258,186,194968,1,0,0:0:0:0:
258,186,195068,1,8,0:0:0:0:
258,186,195268,1,0,0:0:0:0:
258,186,195368,1,0,0:0:0:0:
258,186,195468,1,8,0:0:0:0:
258,186,195668,1,0,0:0:0:0:
258,186,195768,1,0,0:0:0:0:
258,186,195868,1,8,0:0:0:0:
258,186,196068,1,0,0:0:0:0:
258,186,196168,1,0,0:0:0:0:
258,186,196268,1,8,0:0:0:0:
258,186,196468,1,0,0:0:0:0:
258,186,196568,1,0,0:0:0:0:
258,186,196668,1,8,0:0:0:0:
258,186,196868,1,0,0:0:0:0:
258,186,196968,1,0,0:0:0:0:
258,186,197068,1,8,0:0:0:0:
258,186,197268,1,4,0:0:0:0:
258,186,197468,1,14,0:0:0:0:
258,186,197668,1,0,0:0:0:0:
258,186,197768,1,0,0:0:0:0:
258,186,197868,1,8,0:0:0:0:
258,186,198068,1,0,0:0:0:0:
258,186,198168,1,0,0:0:0:0:
258,186,198268,1,8,0:0:0:0:
258,186,198468,1,0,0:0:0:0:
258,186,198568,1,0,0:0:0:0:
258,186,198668,1,8,0:0:0:0:
258,186,198868,1,0,0:0:0:0:
258,186,198968,1,0,0:0:0:0:
258,186,199068,1,8,0:0:0:0:
258,186,199268,1,0,0:0:0:0:
258,186,199368,1,0,0:0:0:0:
258,186,199468,1,8,0:0:0:0:
258,186,199668,1,0,0:0:0:0:
258,186,199768,1,0,0:0:0:0:
258,186,199868,1,8,0:0:0:0:
210,200,200076,5,0,0:0:0:0:
210,200,200180,1,0,0:0:0:0:
210,200,200284,1,8,0:0:0:0:
210,200,200388,1,0,0:0:0:0:
210,200,200493,1,0,0:0:0:0:
210,200,200597,1,8,0:0:0:0:
210,200,200701,1,14,0:0:0:0:
207,137,200901,5,0,0:0:0:0:
207,137,201001,1,0,0:0:0:0:
207,137,201101,1,8,0:0:0:0:
207,137,201201,1,0,0:0:0:0:
207,137,201301,1,0,0:0:0:0:
207,137,201401,1,0,0:0:0:0:
214,142,201501,1,8,0:0:0:0:
261,191,201701,1,0,0:0:0:0:
261,191,201801,1,0,0:0:0:0:
261,191,201901,1,8,0:0:0:0:
261,191,202101,1,4,0:0:0:0:
261,191,202301,1,14,0:0:0:0:
186,196,202501,5,0,0:0:0:0:
186,196,202601,1,0,0:0:0:0:
186,196,202701,1,8,0:0:0:0:
186,196,202901,5,0,0:0:0:0:
186,196,203001,1,0,0:0:0:0:
186,196,203101,1,8,0:0:0:0:
186,196,203301,5,0,0:0:0:0:
186,196,203401,1,0,0:0:0:0:
186,196,203501,1,8,0:0:0:0:
252,187,203701,1,4,0:0:0:0:
255,182,203901,1,14,0:0:0:0:
105,217,204101,5,0,0:0:0:0:
105,217,204201,1,0,0:0:0:0:
105,217,204301,1,8,0:0:0:0:
251,196,204501,1,4,0:0:0:0:
251,196,204701,1,14,0:0:0:0:
105,217,204901,5,0,0:0:0:0:
105,217,205001,1,0,0:0:0:0:
105,217,205101,1,8,0:0:0:0:
251,196,205301,1,4,0:0:0:0:
251,196,205501,1,14,0:0:0:0:
105,217,205701,5,0,0:0:0:0:
105,217,205801,1,0,0:0:0:0:
105,217,205901,1,8,0:0:0:0:
251,196,206101,1,4,0:0:0:0:
251,196,206301,1,14,0:0:0:0:
210,200,206501,5,0,0:0:0:0:
210,200,206601,1,0,0:0:0:0:
210,200,206701,1,8,0:0:0:0:
210,200,206801,1,0,0:0:0:0:
210,200,206901,1,0,0:0:0:0:
210,200,207001,1,8,0:0:0:0:
210,200,207101,1,14,0:0:0:0:
258,186,207301,1,0,0:0:0:0:
258,186,207401,1,0,0:0:0:0:
258,186,207501,1,8,0:0:0:0:
258,186,207601,1,0,0:0:0:0:
258,186,207701,1,0,0:0:0:0:
258,186,207801,1,0,0:0:0:0:
258,186,207901,1,8,0:0:0:0:
258,186,208101,1,0,0:0:0:0:
258,186,208201,1,0,0:0:0:0:
258,186,208301,1,8,0:0:0:0:
258,186,208501,1,0,0:0:0:0:
258,186,208601,1,0,0:0:0:0:
258,186,208701,1,8,0:0:0:0:
258,186,208901,1,0,0:0:0:0:
258,186,209001,1,0,0:0:0:0:
258,186,209101,1,8,0:0:0:0:
258,186,209301,1,0,0:0:0:0:
258,186,209401,1,0,0:0:0:0:
258,186,209501,1,8,0:0:0:0:
258,186,209701,1,0,0:0:0:0:
258,186,209801,1,0,0:0:0:0:
258,186,209901,1,8,0:0:0:0:
258,186,210101,1,4,0:0:0:0:
258,186,210301,1,14,0:0:0:0:
258,186,210501,1,0,0:0:0:0:
258,186,210601,1,0,0:0:0:0:
258,186,210701,1,8,0:0:0:0:
258,186,210901,1,0,0:0:0:0:
258,186,211001,1,0,0:0:0:0:
258,186,211101,1,8,0:0:0:0:
258,186,211301,1,0,0:0:0:0:
258,186,211401,1,0,0:0:0:0:
258,186,211501,1,8,0:0:0:0:
258,186,211701,1,0,0:0:0:0:
258,186,211801,1,0,0:0:0:0:
258,186,211901,1,8,0:0:0:0:
258,186,212101,1,0,0:0:0:0:
258,186,212201,1,0,0:0:0:0:
258,186,212301,1,8,0:0:0:0:
258,186,212501,1,0,0:0:0:0:
258,186,212601,1,0,0:0:0:0:
258,186,212701,1,8,0:0:0:0:
210,200,212901,5,0,0:0:0:0:
210,200,213001,1,0,0:0:0:0:
210,200,213101,1,8,0:0:0:0:
210,200,213201,1,0,0:0:0:0:
210,200,213301,1,0,0:0:0:0:
210,200,213401,1,8,0:0:0:0:
210,200,213501,1,14,0:0:0:0:
128,120,213901,5,0,0:0:0:0:
204,200,214301,1,0,0:0:0:0:
288,184,214501,1,0,0:0:0:0:
256,140,214701,1,8,0:0:0:0:
344,112,215101,1,4,0:0:0:0:
260,196,217501,1,0,0:0:0:0:
280,180,218301,1,0,0:0:0:0:
96,112,219101,1,8,0:0:0:0:
128,120,219901,5,0,0:0:0:0:
344,112,221101,1,4,0:0:0:0:
376,172,223501,1,0,0:0:0:0:
260,196,223901,1,0,0:0:0:0:
384,256,224301,1,4,0:0:0:0:
280,180,224701,1,0,0:0:0:0:
156,208,225101,1,0,0:0:0:0:
96,112,225501,1,8,0:0:0:0:
332,136,225901,1,14,0:0:0:0:
128,120,226301,5,0,0:0:0:0:
344,112,227501,1,4,0:0:0:0:
260,196,230301,1,0,0:0:0:0:
280,180,231101,1,0,0:0:0:0:
96,112,231901,1,8,0:0:0:0:
128,120,232701,5,0,0:0:0:0:
344,112,233901,1,4,0:0:0:0:
376,172,236314,1,0,0:0:0:0:
260,196,236728,1,0,0:0:0:0:
384,256,237142,1,4,0:0:0:0:
280,180,237556,1,0,0:0:0:0:
156,208,237969,1,0,0:0:0:0:
96,112,238383,1,8,0:0:0:0:
256,228,238797,1,8,0:0:0:0:
332,136,239211,1,14,0:0:0:0:
181,129,239625,5,0,0:0:0:0:
294,133,240038,1,8,0:0:0:0:
294,133,240452,1,8,0:0:0:0:
181,129,240866,5,8,0:0:0:0:
263,203,241280,1,8,0:0:0:0:
263,203,241694,1,8,0:0:0:0:
263,203,242194,1,8,0:0:0:0:
253,204,242694,1,8,0:0:0:0:
253,204,243194,1,8,0:0:0:0:
253,204,243444,1,8,0:0:0:0:
251,200,243687,1,8,0:0:0:0:
253,204,244263,1,12,0:0:0:0:
253,204,244840,1,14,0:0:0:0:
