osu file format v14

[General]
AudioFilename: 495.mp3
AudioLeadIn: 0
PreviewTime: 113600
Countdown: 0
SampleSet: Soft
StackLeniency: 0.7
Mode: 3
LetterboxInBreaks: 0
SpecialStyle: 0
WidescreenStoryboard: 1

[Editor]
DistanceSpacing: 1.1
BeatDivisor: 8
GridSize: 32
TimelineZoom: 1.8

[Metadata]
Title:Q.E.D.-Ripples of 495 years-
TitleUnicode:Q.E.D.-Ripples of 495 years-
Artist:xi
ArtistUnicode:xi
Creator:ExNeko
Version:HITSOUND
Source:東方Project
Tags:ExInyf Touhou Flandre Scarlet U.N. Owen was her Diverse System thE4.5
BeatmapID:1363846
BeatmapSetID:643343

[Difficulty]
HPDrainRate:5
CircleSize:3
OverallDifficulty:5
ApproachRate:5
SliderMultiplier:1.4
SliderTickRate:1

[Events]
//Background and Video events
0,0,"248433.png",0,0
//Break Periods
2,1581,31887
2,33418,45800
//Storyboard Layer 0 (Background)
//Storyboard Layer 1 (Fail)
//Storyboard Layer 2 (Pass)
//Storyboard Layer 3 (Foreground)
//Storyboard Sound Samples

[TimingPoints]
200,300,4,2,1,50,1,0
115400,-100,4,2,1,50,0,1
133400,-100,4,2,1,50,0,0

[HitObjects]
85,192,200,5,0,0:0:0:0:
256,192,200,1,0,0:0:0:0:
426,192,200,1,0,0:0:0:0:
426,192,218,1,0,0:0:0:0:
256,192,218,1,0,0:0:0:0:
85,192,218,1,0,0:0:0:0:
85,192,237,1,0,0:0:0:0:
256,192,237,1,0,0:0:0:0:
426,192,237,1,0,0:0:0:0:
426,192,256,1,0,0:0:0:0:
256,192,256,1,0,0:0:0:0:
85,192,256,1,0,0:0:0:0:
426,192,275,1,0,0:0:0:0:
256,192,275,1,0,0:0:0:0:
85,192,275,1,0,0:0:0:0:
256,192,293,1,0,0:0:0:0:
85,192,293,1,0,0:0:0:0:
426,192,293,1,0,0:0:0:0:
426,192,312,1,0,0:0:0:0:
256,192,312,1,0,0:0:0:0:
85,192,312,1,0,0:0:0:0:
426,192,331,1,0,0:0:0:0:
256,192,331,1,0,0:0:0:0:
85,192,331,1,0,0:0:0:0:
85,192,350,1,0,0:0:0:0:
256,192,350,1,0,0:0:0:0:
426,192,350,1,0,0:0:0:0:
426,192,368,1,0,0:0:0:0:
85,192,368,1,0,0:0:0:0:
256,192,368,1,0,0:0:0:0:
426,192,387,1,0,0:0:0:0:
256,192,387,1,0,0:0:0:0:
85,192,387,1,0,0:0:0:0:
256,192,406,1,0,0:0:0:0:
426,192,406,1,0,0:0:0:0:
85,192,406,1,0,0:0:0:0:
256,192,425,1,0,0:0:0:0:
426,192,425,1,0,0:0:0:0:
85,192,425,1,0,0:0:0:0:
85,192,443,1,0,0:0:0:0:
426,192,443,1,0,0:0:0:0:
256,192,443,1,0,0:0:0:0:
256,192,462,1,0,0:0:0:0:
85,192,462,1,0,0:0:0:0:
426,192,462,1,0,0:0:0:0:
85,192,481,1,0,0:0:0:0:
256,192,481,1,0,0:0:0:0:
426,192,481,1,0,0:0:0:0:
426,192,500,1,0,0:0:0:0:
256,192,500,1,0,0:0:0:0:
85,192,500,1,0,0:0:0:0:
256,192,518,1,0,0:0:0:0:
85,192,518,1,0,0:0:0:0:
426,192,518,1,0,0:0:0:0:
85,192,537,1,0,0:0:0:0:
256,192,537,1,0,0:0:0:0:
426,192,537,1,0,0:0:0:0:
85,192,556,1,0,0:0:0:0:
426,192,556,1,0,0:0:0:0:
256,192,556,1,0,0:0:0:0:
85,192,575,1,0,0:0:0:0:
426,192,575,1,0,0:0:0:0:
256,192,575,1,0,0:0:0:0:
256,192,593,1,0,0:0:0:0:
426,192,593,1,0,0:0:0:0:
85,192,593,1,0,0:0:0:0:
426,192,612,1,0,0:0:0:0:
85,192,612,1,0,0:0:0:0:
256,192,612,1,0,0:0:0:0:
426,192,631,1,0,0:0:0:0:
256,192,631,1,0,0:0:0:0:
85,192,631,1,0,0:0:0:0:
85,192,650,1,0,0:0:0:0:
256,192,650,1,0,0:0:0:0:
426,192,650,1,0,0:0:0:0:
426,192,668,1,0,0:0:0:0:
85,192,668,1,0,0:0:0:0:
256,192,668,1,0,0:0:0:0:
426,192,687,1,0,0:0:0:0:
256,192,687,1,0,0:0:0:0:
85,192,687,1,0,0:0:0:0:
256,192,706,1,0,0:0:0:0:
426,192,706,1,0,0:0:0:0:
85,192,706,1,0,0:0:0:0:
256,192,725,1,0,0:0:0:0:
426,192,725,1,0,0:0:0:0:
85,192,725,1,0,0:0:0:0:
85,192,743,1,0,0:0:0:0:
426,192,743,1,0,0:0:0:0:
256,192,743,1,0,0:0:0:0:
256,192,762,1,0,0:0:0:0:
85,192,762,1,0,0:0:0:0:
426,192,762,1,0,0:0:0:0:
85,192,781,1,0,0:0:0:0:
256,192,781,1,0,0:0:0:0:
426,192,781,1,0,0:0:0:0:
426,192,800,1,0,0:0:0:0:
256,192,800,1,0,0:0:0:0:
85,192,800,1,0,0:0:0:0:
256,192,818,1,0,0:0:0:0:
85,192,818,1,0,0:0:0:0:
426,192,818,1,0,0:0:0:0:
85,192,837,1,0,0:0:0:0:
256,192,837,1,0,0:0:0:0:
426,192,837,1,0,0:0:0:0:
85,192,856,1,0,0:0:0:0:
426,192,856,1,0,0:0:0:0:
256,192,856,1,0,0:0:0:0:
85,192,875,1,0,0:0:0:0:
426,192,875,1,0,0:0:0:0:
256,192,875,1,0,0:0:0:0:
256,192,893,1,0,0:0:0:0:
426,192,893,1,0,0:0:0:0:
85,192,893,1,0,0:0:0:0:
426,192,912,1,0,0:0:0:0:
85,192,912,1,0,0:0:0:0:
256,192,912,1,0,0:0:0:0:
426,192,931,1,0,0:0:0:0:
256,192,931,1,0,0:0:0:0:
85,192,931,1,0,0:0:0:0:
85,192,950,1,0,0:0:0:0:
256,192,950,1,0,0:0:0:0:
426,192,950,1,0,0:0:0:0:
426,192,968,1,0,0:0:0:0:
85,192,968,1,0,0:0:0:0:
256,192,968,1,0,0:0:0:0:
426,192,987,1,0,0:0:0:0:
256,192,987,1,0,0:0:0:0:
85,192,987,1,0,0:0:0:0:
256,192,1006,1,0,0:0:0:0:
426,192,1006,1,0,0:0:0:0:
85,192,1006,1,0,0:0:0:0:
256,192,1025,1,0,0:0:0:0:
426,192,1025,1,0,0:0:0:0:
85,192,1025,1,0,0:0:0:0:
85,192,1043,1,0,0:0:0:0:
426,192,1043,1,0,0:0:0:0:
256,192,1043,1,0,0:0:0:0:
256,192,1062,1,0,0:0:0:0:
85,192,1062,1,0,0:0:0:0:
426,192,1062,1,0,0:0:0:0:
85,192,1081,1,0,0:0:0:0:
256,192,1081,1,0,0:0:0:0:
426,192,1081,1,0,0:0:0:0:
426,192,1100,1,0,0:0:0:0:
256,192,1100,1,0,0:0:0:0:
85,192,1100,1,0,0:0:0:0:
256,192,1118,1,0,0:0:0:0:
85,192,1118,1,0,0:0:0:0:
426,192,1118,1,0,0:0:0:0:
85,192,1137,1,0,0:0:0:0:
256,192,1137,1,0,0:0:0:0:
426,192,1137,1,0,0:0:0:0:
85,192,1156,1,0,0:0:0:0:
426,192,1156,1,0,0:0:0:0:
256,192,1156,1,0,0:0:0:0:
85,192,1175,1,0,0:0:0:0:
426,192,1175,1,0,0:0:0:0:
256,192,1175,1,0,0:0:0:0:
256,192,1193,1,0,0:0:0:0:
426,192,1193,1,0,0:0:0:0:
85,192,1193,1,0,0:0:0:0:
426,192,1212,1,0,0:0:0:0:
85,192,1212,1,0,0:0:0:0:
256,192,1212,1,0,0:0:0:0:
426,192,1231,1,0,0:0:0:0:
256,192,1231,1,0,0:0:0:0:
85,192,1231,1,0,0:0:0:0:
85,192,1250,1,0,0:0:0:0:
256,192,1250,1,0,0:0:0:0:
426,192,1250,1,0,0:0:0:0:
426,192,1268,1,0,0:0:0:0:
85,192,1268,1,0,0:0:0:0:
256,192,1268,1,0,0:0:0:0:
426,192,1287,1,0,0:0:0:0:
256,192,1287,1,0,0:0:0:0:
85,192,1287,1,0,0:0:0:0:
256,192,1306,1,0,0:0:0:0:
426,192,1306,1,0,0:0:0:0:
85,192,1306,1,0,0:0:0:0:
256,192,1325,1,0,0:0:0:0:
426,192,1325,1,0,0:0:0:0:
85,192,1325,1,0,0:0:0:0:
85,192,1343,1,0,0:0:0:0:
426,192,1343,1,0,0:0:0:0:
256,192,1343,1,0,0:0:0:0:
256,192,1362,1,0,0:0:0:0:
85,192,1362,1,0,0:0:0:0:
426,192,1362,1,0,0:0:0:0:
85,192,1381,1,0,0:0:0:0:
256,192,1381,1,0,0:0:0:0:
426,192,1381,1,0,0:0:0:0:
426,192,33087,5,8,0:0:0:0:
85,192,47000,5,2,0:0:0:0:
256,192,47000,1,12,0:0:0:0:
426,192,47600,1,8,0:0:0:0:
426,192,48800,1,8,0:0:0:0:
426,192,50000,1,8,0:0:0:0:
426,192,51200,1,8,0:0:0:0:
85,192,51800,1,2,0:0:0:0:
256,192,51800,1,12,0:0:0:0:
426,192,52400,1,8,0:0:0:0:
256,192,53000,1,12,0:0:0:0:
426,192,53600,1,8,0:0:0:0:
85,192,54200,1,2,0:0:0:0:
256,192,54200,1,12,0:0:0:0:
426,192,54800,1,8,0:0:0:0:
85,192,55400,1,2,0:0:0:0:
256,192,55400,1,12,0:0:0:0:
85,192,55700,1,2,0:0:0:0:
85,192,56000,1,2,0:0:0:0:
426,192,56150,1,8,0:0:0:0:
85,192,56600,1,2,0:0:0:0:
256,192,56600,1,12,0:0:0:0:
426,192,56900,1,8,0:0:0:0:
85,192,57350,1,2,0:0:0:0:
426,192,57500,1,8,0:0:0:0:
85,192,57650,1,2,0:0:0:0:
426,192,58100,1,8,0:0:0:0:
85,192,58400,1,2,0:0:0:0:
426,192,58700,1,8,0:0:0:0:
85,192,58850,1,2,0:0:0:0:
426,192,59300,1,8,0:0:0:0:
85,192,59750,1,2,0:0:0:0:
426,192,59900,1,8,0:0:0:0:
85,192,60050,1,2,0:0:0:0:
426,192,60500,1,8,0:0:0:0:
85,192,60950,1,2,0:0:0:0:
85,192,60987,1,2,0:0:0:0:
85,192,61025,1,2,0:0:0:0:
85,192,61062,1,2,0:0:0:0:
426,192,61100,1,8,0:0:0:0:
85,192,61175,1,2,0:0:0:0:
85,192,61250,1,2,0:0:0:0:
85,192,61325,1,2,0:0:0:0:
85,192,61400,1,2,0:0:0:0:
256,192,61400,1,12,0:0:0:0:
426,192,61700,1,8,0:0:0:0:
85,192,62150,1,2,0:0:0:0:
426,192,62300,1,8,0:0:0:0:
85,192,62450,1,2,0:0:0:0:
426,192,62900,1,8,0:0:0:0:
85,192,63200,1,2,0:0:0:0:
426,192,63500,1,8,0:0:0:0:
85,192,63650,1,2,0:0:0:0:
426,192,64100,1,8,0:0:0:0:
85,192,64550,1,2,0:0:0:0:
426,192,64700,1,8,0:0:0:0:
85,192,64850,1,2,0:0:0:0:
85,192,65150,1,2,0:0:0:0:
426,192,65300,1,8,0:0:0:0:
85,192,65450,1,2,0:0:0:0:
85,192,65525,1,2,0:0:0:0:
85,192,65600,1,2,0:0:0:0:
85,192,65750,1,2,0:0:0:0:
85,192,65825,1,2,0:0:0:0:
426,192,65900,1,8,0:0:0:0:
85,192,65975,1,2,0:0:0:0:
85,192,66050,1,2,0:0:0:0:
85,192,66125,1,2,0:0:0:0:
85,192,66200,1,2,0:0:0:0:
256,192,66200,1,12,0:0:0:0:
426,192,66500,1,8,0:0:0:0:
85,192,66950,1,2,0:0:0:0:
426,192,67100,1,8,0:0:0:0:
85,192,67250,1,2,0:0:0:0:
426,192,67700,1,8,0:0:0:0:
85,192,68000,1,2,0:0:0:0:
426,192,68300,1,8,0:0:0:0:
85,192,68450,1,2,0:0:0:0:
426,192,68900,1,8,0:0:0:0:
85,192,69350,1,2,0:0:0:0:
426,192,69500,1,8,0:0:0:0:
85,192,69650,1,2,0:0:0:0:
426,192,70100,1,8,0:0:0:0:
85,192,70400,1,2,0:0:0:0:
85,192,70550,1,2,0:0:0:0:
85,192,70625,1,2,0:0:0:0:
426,192,70700,1,8,0:0:0:0:
85,192,70775,1,2,0:0:0:0:
85,192,70850,1,2,0:0:0:0:
85,192,70925,1,2,0:0:0:0:
85,192,71000,1,2,0:0:0:0:
256,192,71000,1,12,0:0:0:0:
426,192,71300,1,8,0:0:0:0:
85,192,71600,1,2,0:0:0:0:
85,192,71750,1,2,0:0:0:0:
426,192,71900,1,8,0:0:0:0:
85,192,72050,1,2,0:0:0:0:
85,192,72200,1,2,0:0:0:0:
256,192,72200,1,12,0:0:0:0:
426,192,72500,1,8,0:0:0:0:
85,192,72800,1,2,0:0:0:0:
426,192,73100,1,8,0:0:0:0:
85,192,73250,1,2,0:0:0:0:
256,192,73400,1,12,0:0:0:0:
85,192,73550,1,2,0:0:0:0:
426,192,73700,1,8,0:0:0:0:
85,192,73850,1,2,0:0:0:0:
85,192,73925,1,2,0:0:0:0:
85,192,74000,1,2,0:0:0:0:
85,192,74150,1,2,0:0:0:0:
85,192,74300,1,2,0:0:0:0:
85,192,74450,1,2,0:0:0:0:
85,192,74600,1,2,0:0:0:0:
256,192,74600,1,12,0:0:0:0:
85,192,74675,1,2,0:0:0:0:
85,192,74750,1,2,0:0:0:0:
85,192,74825,1,2,0:0:0:0:
426,192,74900,1,8,0:0:0:0:
85,192,74975,1,2,0:0:0:0:
85,192,75050,1,2,0:0:0:0:
85,192,75125,1,2,0:0:0:0:
426,192,75200,1,8,0:0:0:0:
85,192,75425,1,2,0:0:0:0:
426,192,75500,1,8,0:0:0:0:
85,192,75650,1,2,0:0:0:0:
85,192,75800,1,2,0:0:0:0:
256,192,75800,1,12,0:0:0:0:
85,192,80600,1,2,0:0:0:0:
85,192,85400,1,2,0:0:0:0:
426,192,88400,1,8,0:0:0:0:
426,192,89600,1,8,0:0:0:0:
85,192,90200,1,2,0:0:0:0:
426,192,90800,1,8,0:0:0:0:
426,192,92000,1,8,0:0:0:0:
426,192,93200,1,8,0:0:0:0:
426,192,94400,1,8,0:0:0:0:
85,192,95000,1,2,0:0:0:0:
256,192,95000,1,12,0:0:0:0:
85,192,95300,1,2,0:0:0:0:
426,192,95600,1,8,0:0:0:0:
85,192,96500,1,2,0:0:0:0:
426,192,96800,1,8,0:0:0:0:
85,192,97400,1,2,0:0:0:0:
85,192,97700,1,2,0:0:0:0:
426,192,98000,1,8,0:0:0:0:
85,192,98900,1,2,0:0:0:0:
426,192,99200,1,8,0:0:0:0:
85,192,99350,1,2,0:0:0:0:
85,192,99800,1,2,0:0:0:0:
256,192,99800,1,12,0:0:0:0:
85,192,100100,1,2,0:0:0:0:
426,192,100400,1,8,0:0:0:0:
85,192,101300,1,2,0:0:0:0:
426,192,101600,1,8,0:0:0:0:
85,192,102200,1,2,0:0:0:0:
85,192,102500,1,2,0:0:0:0:
426,192,102800,1,8,0:0:0:0:
85,192,103700,1,2,0:0:0:0:
426,192,104000,1,8,0:0:0:0:
85,192,104600,1,2,0:0:0:0:
256,192,104600,1,12,0:0:0:0:
85,192,104900,1,2,0:0:0:0:
426,192,105200,1,8,0:0:0:0:
85,192,106100,1,2,0:0:0:0:
426,192,106400,1,8,0:0:0:0:
85,192,107000,1,2,0:0:0:0:
256,192,107000,1,12,0:0:0:0:
85,192,107300,1,2,0:0:0:0:
426,192,107600,1,8,0:0:0:0:
85,192,108500,1,2,0:0:0:0:
426,192,108800,1,8,0:0:0:0:
85,192,108950,1,2,0:0:0:0:
85,192,109400,1,2,0:0:0:0:
256,192,109400,1,12,0:0:0:0:
85,192,109700,1,2,0:0:0:0:
426,192,110000,1,8,0:0:0:0:
85,192,110600,1,2,0:0:0:0:
256,192,110600,1,12,0:0:0:0:
426,192,111200,1,8,0:0:0:0:
85,192,111800,1,2,0:0:0:0:
256,192,111800,1,12,0:0:0:0:
85,192,112250,1,2,0:0:0:0:
256,192,112400,1,12,0:0:0:0:
426,192,112400,1,8,0:0:0:0:
85,192,112850,1,2,0:0:0:0:
85,192,113000,1,2,0:0:0:0:
256,192,113000,1,12,0:0:0:0:
85,192,113300,1,2,0:0:0:0:
256,192,113300,1,12,0:0:0:0:
85,192,114200,1,2,0:0:0:0:
426,192,115100,1,8,0:0:0:0:
85,192,115400,1,2,0:0:0:0:
256,192,115400,1,12,0:0:0:0:
426,192,115700,1,8,0:0:0:0:
85,192,115850,1,2,0:0:0:0:
85,192,116150,1,2,0:0:0:0:
426,192,116300,1,8,0:0:0:0:
85,192,116600,1,2,0:0:0:0:
426,192,116900,1,8,0:0:0:0:
85,192,117350,1,2,0:0:0:0:
426,192,117500,1,8,0:0:0:0:
85,192,117800,1,2,0:0:0:0:
426,192,118100,1,8,0:0:0:0:
85,192,118250,1,2,0:0:0:0:
85,192,118550,1,2,0:0:0:0:
426,192,118700,1,8,0:0:0:0:
85,192,118850,1,2,0:0:0:0:
85,192,119000,1,2,0:0:0:0:
426,192,119300,1,8,0:0:0:0:
85,192,119750,1,2,0:0:0:0:
426,192,119900,1,8,0:0:0:0:
85,192,120200,1,2,0:0:0:0:
426,192,120500,1,8,0:0:0:0:
85,192,120650,1,2,0:0:0:0:
85,192,120950,1,2,0:0:0:0:
426,192,121100,1,8,0:0:0:0:
85,192,121400,1,2,0:0:0:0:
426,192,121700,1,8,0:0:0:0:
85,192,122150,1,2,0:0:0:0:
426,192,122300,1,8,0:0:0:0:
85,192,122600,1,2,0:0:0:0:
426,192,122900,1,8,0:0:0:0:
85,192,123050,1,2,0:0:0:0:
256,192,123200,1,12,0:0:0:0:
426,192,123200,1,8,0:0:0:0:
256,192,123425,1,12,0:0:0:0:
426,192,123425,1,8,0:0:0:0:
256,192,123650,1,12,0:0:0:0:
426,192,123650,1,8,0:0:0:0:
85,192,123800,1,2,0:0:0:0:
256,192,123800,1,12,0:0:0:0:
426,192,124100,1,8,0:0:0:0:
85,192,124550,1,2,0:0:0:0:
426,192,124700,1,8,0:0:0:0:
85,192,125000,1,2,0:0:0:0:
426,192,125300,1,8,0:0:0:0:
85,192,125450,1,2,0:0:0:0:
85,192,125750,1,2,0:0:0:0:
426,192,125900,1,8,0:0:0:0:
85,192,126200,1,2,0:0:0:0:
426,192,126500,1,8,0:0:0:0:
85,192,126950,1,2,0:0:0:0:
426,192,127100,1,8,0:0:0:0:
85,192,127400,1,2,0:0:0:0:
426,192,127700,1,8,0:0:0:0:
85,192,127850,1,2,0:0:0:0:
85,192,128150,1,2,0:0:0:0:
426,192,128300,1,8,0:0:0:0:
85,192,128450,1,2,0:0:0:0:
85,192,128600,1,2,0:0:0:0:
256,192,128600,1,12,0:0:0:0:
426,192,128900,1,8,0:0:0:0:
85,192,129200,1,2,0:0:0:0:
426,192,129500,1,8,0:0:0:0:
85,192,129800,1,2,0:0:0:0:
256,192,129800,1,12,0:0:0:0:
426,192,130100,1,8,0:0:0:0:
85,192,130400,1,2,0:0:0:0:
426,192,130700,1,8,0:0:0:0:
85,192,131000,1,2,0:0:0:0:
256,192,131000,1,12,0:0:0:0:
426,192,131300,1,8,0:0:0:0:
85,192,131600,1,2,0:0:0:0:
256,192,131600,1,12,0:0:0:0:
426,192,131900,1,8,0:0:0:0:
85,192,132200,1,2,0:0:0:0:
256,192,132200,1,12,0:0:0:0:
85,192,132275,1,2,0:0:0:0:
85,192,132350,1,2,0:0:0:0:
85,192,132425,1,2,0:0:0:0:
426,192,132500,1,8,0:0:0:0:
85,192,132575,1,2,0:0:0:0:
85,192,132650,1,2,0:0:0:0:
85,192,132725,1,2,0:0:0:0:
256,192,132800,1,12,0:0:0:0:
426,192,132800,1,8,0:0:0:0:
256,192,133025,1,12,0:0:0:0:
426,192,133025,1,8,0:0:0:0:
256,192,133250,1,12,0:0:0:0:
426,192,133250,1,8,0:0:0:0:
85,192,133400,1,2,0:0:0:0:
256,192,133400,1,12,0:0:0:0:
