osu file format v14

[General]
AudioFilename: flandre.mp3
AudioLeadIn: 0
PreviewTime: 67022
Countdown: 0
SampleSet: Soft
StackLeniency: 0.7
Mode: 0
LetterboxInBreaks: 1
EpilepsyWarning: 1
WidescreenStoryboard: 1

[Editor]
Bookmarks: 70472,112322,134072,154472,175922
DistanceSpacing: 1
BeatDivisor: 4
GridSize: 4
TimelineZoom: 4.199998

[Metadata]
Title:Q.E.D. -Ripples of 495 years-
TitleUnicode:Q.E.D. -Ripples of 495 years-
Artist:xi
ArtistUnicode:xi
Creator:moonlightleaf
Version:Lunatic
Source:東方紅魔郷 ~ the Embodiment of Scarlet Devil.
Tags:the4.5 video game Diverse System U.N.オーエンは彼女なのか? Flandre Scarlet theme Touhou QED u.n.owen was her? electronic instrumental 東方Project
BeatmapID:526054
BeatmapSetID:224756

[Difficulty]
HPDrainRate:7
CircleSize:4
OverallDifficulty:7.5
ApproachRate:9
SliderMultiplier:1.6
SliderTickRate:1

[Events]
//Background and Video events
0,0,"bg.jpg",0,0
//Break Periods
2,34107,37507
2,76847,78422
2,79247,80822
2,81647,83222
2,84047,85622
2,86447,88022
2,88847,90422
2,91247,92822
2,93647,95222
//Storyboard Layer 0 (Background)
//Storyboard Layer 1 (Fail)
//Storyboard Layer 2 (Pass)
//Storyboard Layer 3 (Foreground)
//Storyboard Layer 4 (Overlay)
//Storyboard Sound Samples

[TimingPoints]
2767,600,3,2,1,50,1,0
26167,652.173913043478,3,2,1,50,1,0
28153,722.89156626506,3,2,1,50,1,0
28875,759.493670886076,3,2,1,50,1,0
29634,821.917808219178,3,2,1,50,1,0
30455,952.380952380952,3,2,1,50,1,0
31407,1250,3,2,1,50,1,0
32657,1492.53731343284,3,2,1,50,1,0
33907,300,3,2,1,50,1,0
38222,300,4,2,1,60,1,0
38222,-192.307692307692,4,2,1,60,0,0
47822,-100,4,2,1,70,0,0
47897,-100,4,1,2,70,0,0
52022,-192.307692307692,4,1,2,70,0,0
52322,-100,4,1,2,50,0,0
52622,-100,4,1,2,70,0,0
56972,-100,4,1,4,80,0,0
57122,-100,4,2,1,5,0,0
57422,-100,4,1,2,80,0,1
68822,-83.3333333333333,4,1,2,80,0,1
68972,-100,4,1,2,80,0,1
76022,-100,4,1,2,70,0,1
76622,-100,4,2,2,70,0,0
95822,-200,4,2,2,60,0,0
105122,-200,4,2,1,40,0,0
105422,-200,4,2,2,60,0,0
114422,-100,4,2,2,60,0,0
115922,-100,4,1,4,90,0,1
115997,-100,4,1,2,80,0,1
116822,-83.3333333333333,4,1,2,80,0,1
117272,-100,4,1,2,80,0,1
119522,-83.3333333333333,4,1,2,80,0,1
119822,-100,4,1,2,80,0,1
124622,-83.3333333333333,4,1,2,80,0,1
125072,-100,4,1,2,80,0,1
134222,-100,4,2,1,70,0,0
143897,-100,4,1,2,70,0,0
148322,-100,4,1,2,50,0,0
148622,-100,4,2,1,70,0,0
148697,-100,4,1,2,70,0,0
149822,-100,4,2,1,70,0,0
149897,-100,4,1,2,70,0,0
151022,-100,4,2,1,70,0,0
151097,-100,4,1,2,70,0,0
151622,-100,4,2,1,70,0,0
151697,-100,4,1,2,70,0,0
152222,-83.3333333333333,4,2,1,70,0,0
152297,-83.3333333333333,4,1,2,70,0,0
153572,-83.3333333333333,4,1,2,5,0,0
154622,-83.3333333333333,4,2,1,70,0,0
160622,-100,4,1,2,80,0,1
165272,-83.3333333333333,4,1,2,80,0,1
165572,-100,4,1,2,80,0,1
174422,-100,4,1,2,50,0,1
175022,-100,4,1,2,80,0,1
193622,-83.3333333333333,4,1,2,50,0,1
194222,-100,4,1,2,70,0,0
203522,-100,4,1,2,80,0,1
212222,-95.2380952380952,4,1,2,70,0,0
215807,600,3,2,1,40,1,0
217007,645.161290322581,3,2,1,40,1,0
217652,645.161290322581,3,2,1,40,1,0
218297,666.666666666667,3,2,1,40,1,0
218963,674.157303370787,3,2,1,40,1,0
219637,674.157303370787,3,2,1,40,1,0
220311,731.707317073171,3,2,1,40,1,0
221042,750,3,2,1,40,1,0
221792,789.473684210526,3,2,1,40,1,0
222581,937.5,3,2,1,40,1,0
223518,1090.90909090909,3,2,1,40,1,0
224608,1304.34782608696,3,2,1,40,1,0
225912,1714.28571428571,3,2,1,40,1,0
227626,2222.22222222222,3,2,1,40,1,0
228737,2702.7027027027,3,2,1,40,1,0
230088,1492.53731343284,3,2,1,40,1,0

[Colours]
Combo1 : 2,196,244
Combo2 : 244,128,64
Combo3 : 226,10,91
Combo4 : 228,189,3

[HitObjects]
146,176,2767,6,0,P|149:215|162:253,1,80,2|0,0:0|0:0,0:0:0:0:
204,124,3367,2,0,P|168:104|128:100,1,80,2|0,0:0|0:0,0:0:0:0:
228,200,3967,1,0,0:0:0:0:
202,36,4267,1,2,0:0:0:0:
79,148,4567,6,0,P|47:219|60:297,2,160,2|2|2,0:0|0:0|0:0,0:0:0:0:
285,136,6367,6,0,P|245:136|209:120,1,80,2|0,0:0|0:0,0:0:0:0:
345,93,6967,2,0,P|355:131|352:171,1,80,2|0,0:0|0:0,0:0:0:0:
212,204,7567,1,0,0:0:0:0:
264,56,7867,1,2,0:0:0:0:
352,172,8167,6,0,P|382:242|337:304,2,160,2|2|2,0:0|0:0|0:0,0:0:0:0:
304,232,9967,5,2,0:0:0:0:
312,320,10267,1,0,0:0:0:0:
220,196,10567,1,2,0:0:0:0:
376,176,10867,1,0,0:0:0:0:
232,284,11167,1,0,0:0:0:0:
292,144,11467,1,2,0:0:0:0:
400,268,11767,5,2,0:0:0:0:
164,336,12367,1,2,0:0:0:0:
204,96,12967,1,2,0:0:0:0:
150,206,13567,6,0,P|117:185|97:151,1,80,2|0,0:0|0:0,0:0:0:0:
231,195,14167,2,0,P|226:234|205:268,1,80,2|0,0:0|0:0,0:0:0:0:
108,308,14767,1,0,0:0:0:0:
8,172,15067,1,2,0:0:0:0:
176,127,15367,6,0,P|252:121|302:180,2,160,2|2|2,0:0|0:0|0:0,0:0:0:0:
104,208,17167,5,2,0:0:0:0:
96,132,17467,1,0,0:0:0:0:
172,160,17767,1,2,0:0:0:0:
34,182,18067,2,0,P|19:146|21:107,1,80,0|0,0:0|0:0,0:0:0:0:
87,42,18667,1,2,0:0:0:0:
168,76,18967,6,0,P|244:92|311:52,2,160,2|2|2,0:0|0:0|0:0,0:0:0:0:
268,149,20767,5,2,0:0:0:0:
336,206,21067,1,0,0:0:0:0:
352,118,21367,2,0,P|332:86|285:56,1,80,2|0,0:0|0:0,0:0:0:0:
194,164,21967,2,0,P|233:167|269:150,1,80,0|2,0:0|0:0,0:0:0:0:
420,80,22567,5,2,0:0:0:0:
415,251,23167,2,0,P|392:282|383:321,1,80,0|2,0:0|0:0,0:0:0:0:
383,321,23767,1,2,0:0:0:0:
194,227,24367,6,0,P|217:259|220:299,1,80,2|0,0:0|0:0,0:0:0:0:
96,338,24967,2,0,P|113:305|162:284,1,80,2|2,0:0|0:0,0:0:0:0:
292,276,25567,1,0,0:0:0:0:
384,317,25867,1,2,0:0:0:0:
331,194,26167,6,0,P|254:192|203:249,2,160,2|2|0,0:0|0:0|0:0,0:0:0:0:
256,192,28153,12,0,33907,0:0:0:0:
264,80,38222,6,0,L|317:79,1,41.5999997460938,2|0,0:0|0:0,0:0:0:0:
415,132,38522,2,0,L|373:132,1,41.5999997460938,2|0,0:0|0:0,0:0:0:0:
276,165,38822,1,2,0:0:0:0:
276,165,38972,2,0,L|275:206,1,41.5999997460938,2|0,0:0|0:0,0:0:0:0:
350,313,39272,2,0,L|348:271,1,41.5999997460938,2|0,0:0|0:0,0:0:0:0:
242,288,39572,5,2,0:0:0:0:
242,288,39647,1,0,0:0:0:0:
242,288,39722,2,0,L|182:288,1,41.5999997460938,0|0,0:0|0:0,0:0:0:0:
111,206,40022,2,0,L|111:247,1,41.5999997460938,2|0,0:0|0:0,0:0:0:0:
189,171,40322,2,0,L|188:116,1,41.5999997460938,2|0,0:0|0:0,0:0:0:0:
281,55,40622,6,0,L|239:57,1,41.5999997460938,2|0,0:0|0:0,0:0:0:0:
112,57,40922,2,0,L|153:57,1,41.5999997460938,2|0,0:0|0:0,0:0:0:0:
266,134,41222,1,2,0:0:0:0:
266,134,41372,2,0,L|267:194,1,41.5999997460938,2|0,0:0|0:0,0:0:0:0:
335,274,41672,2,0,L|334:232,1,41.5999997460938,2|0,0:0|0:0,0:0:0:0:
404,142,41972,5,2,0:0:0:0:
404,142,42047,1,0,0:0:0:0:
404,142,42122,2,0,L|407:199,1,41.5999997460938,0|0,0:0|0:0,0:0:0:0:
484,235,42422,2,0,B|467:261|467:261|467:293|467:293|446:313|446:313|445:346,1,124.799999238281,2|0,0:0|0:0,0:0:0:0:
353,327,43022,6,0,L|312:316,1,41.5999997460938,2|0,0:0|0:0,0:0:0:0:
196,341,43322,2,0,L|236:350,1,41.5999997460938,2|0,0:0|0:0,0:0:0:0:
249,265,43622,1,2,0:0:0:0:
191,159,43772,2,0,L|191:200,1,41.5999997460938,2|0,0:0|0:0,0:0:0:0:
113,283,44072,2,0,L|112:241,1,41.5999997460938,2|0,0:0|0:0,0:0:0:0:
61,156,44372,5,2,0:0:0:0:
61,156,44447,1,0,0:0:0:0:
61,156,44522,2,0,L|19:155,1,41.5999997460938,0|0,0:0|0:0,0:0:0:0:
93,74,44822,2,0,L|135:73,1,41.5999997460938,2|0,0:0|0:0,0:0:0:0:
240,119,45122,2,0,L|198:118,1,41.5999997460938,2|0,0:0|0:0,0:0:0:0:
142,186,45422,6,0,L|153:226,1,41.5999997460938,2|0,0:0|0:0,0:0:0:0:
211,328,45722,2,0,L|217:286,1,41.5999997460938,2|0,0:0|0:0,0:0:0:0:
263,206,46022,1,2,0:0:0:0:
361,280,46172,2,0,L|319:275,1,41.5999997460938,2|0,0:0|0:0,0:0:0:0:
340,167,46472,2,0,L|380:156,1,41.5999997460938,2|0,0:0|0:0,0:0:0:0:
462,138,46772,5,2,0:0:0:0:
470,154,46847,1,0,0:0:0:0:
478,174,46922,1,0,0:0:0:0:
481,272,47072,1,0,0:0:0:0:
464,285,47147,1,0,0:0:0:0:
447,298,47222,1,2,0:0:0:0:
361,280,47372,5,0,0:0:0:0:
337,276,47447,1,0,0:0:0:0:
317,272,47522,1,0,0:0:0:0:
297,268,47597,1,0,0:0:0:0:
277,264,47672,1,0,0:0:0:0:
257,260,47747,1,0,0:0:0:0:
235,256,47822,6,0,P|201:275|179:308,1,80,4|0,0:0|0:0,0:0:0:0:
15,338,48122,2,0,P|52:351|91:348,1,80,8|0,0:0|0:0,0:0:0:0:
55,203,48422,1,2,0:0:0:0:
55,203,48572,2,0,L|102:267,1,80,8|0,0:0|0:0,0:0:0:0:
284,189,48872,6,0,P|247:176|207:175,1,80,2|0,0:0|0:0,0:0:0:0:
55,203,49172,1,2,0:0:0:0:
55,203,49247,1,0,0:0:0:0:
55,203,49322,2,0,L|55:123,1,80,8|0,0:0|0:0,0:0:0:0:
149,1,49622,2,0,L|149:81,1,80,8|0,0:0|0:0,0:0:0:0:
231,217,49922,2,0,L|230:132,1,80,8|0,0:0|0:0,0:0:0:0:
359,128,50222,6,0,P|323:112|293:86,1,80,2|0,0:0|0:0,0:0:0:0:
429,82,50522,2,0,P|421:43|425:4,1,80,8|0,0:0|0:0,0:0:0:0:
441,163,50822,1,2,0:0:0:0:
441,163,50972,2,0,P|420:196|385:216,1,80,8|0,0:0|0:0,0:0:0:0:
298,343,51272,6,0,L|286:263,1,80,2|0,0:0|0:0,0:0:0:0:
221,165,51572,1,2,0:0:0:0:
221,165,51647,1,0,0:0:0:0:
220,164,51722,2,0,P|190:189|171:224,1,80,8|0,0:0|0:0,0:0:0:0:
80,332,52022,6,0,L|66:207,1,124.799999238281,8|10,0:0|0:0,0:0:0:0:
77,51,52622,6,0,L|77:134,1,80,4|0,0:0|0:0,0:0:0:0:
174,232,52922,2,0,L|174:152,1,80,8|0,0:0|0:0,0:0:0:0:
232,65,53222,1,2,0:0:0:0:
327,166,53372,2,0,L|247:163,1,80,8|0,0:0|0:0,0:0:0:0:
384,71,53672,6,0,P|414:96|431:132,1,80,2|0,0:0|0:0,0:0:0:0:
440,257,53972,1,2,0:0:0:0:
440,257,54047,1,0,0:0:0:0:
440,257,54122,2,0,P|428:295|402:324,1,80,0|0,0:0|0:0,0:0:0:0:
248,224,54422,2,0,L|326:237,1,80,8|0,0:0|0:0,0:0:0:0:
239,340,54722,2,0,L|159:327,1,80,8|0,0:0|0:0,0:0:0:0:
51,250,55022,6,0,L|130:243,1,80,4|0,0:0|0:0,0:0:0:0:
79,141,55322,2,0,L|0:148,1,80,8|0,0:0|0:0,0:0:0:0:
74,21,55622,1,2,0:0:0:0:
165,77,55772,2,0,L|172:164,1,80,8|0,0:0|0:0,0:0:0:0:
273,201,56072,6,0,L|282:121,1,80,2|0,0:0|0:0,0:0:0:0:
392,60,56372,1,2,0:0:0:0:
392,60,56447,1,0,0:0:0:0:
392,60,56522,2,0,L|405:150,1,80,8|0,0:0|0:0,0:0:0:0:
377,248,56822,1,8,0:0:0:0:
273,201,56972,2,0,L|199:170,1,80,12|0,0:0|0:0,0:0:0:0:
199,170,57422,6,0,P|190:208|201:246,1,80,4|0,0:0|0:0,0:0:0:0:
310,326,57722,1,8,0:0:0:0:
273,201,57872,1,0,0:0:0:0:
223,328,58022,1,2,0:0:0:0:
349,248,58172,2,0,L|428:253,1,80,8|0,0:0|0:0,0:0:0:0:
286,112,58472,6,0,P|209:97|149:146,1,160,4|2,0:0|0:0,0:0:0:0:
102,296,58922,1,10,0:0:0:0:
45,178,59072,1,0,0:0:0:0:
171,233,59222,2,0,P|208:218|232:187,1,80,8|0,0:0|0:0,0:0:0:0:
141,62,59522,1,2,0:0:0:0:
44,178,59672,6,0,P|32:215|31:255,1,80,4|0,0:0|0:0,0:0:0:0:
148,180,59972,1,2,0:0:0:0:
163,322,60122,2,0,P|200:333|239:327,1,80,8|0,0:0|0:0,0:0:0:0:
256,174,60422,2,0,P|228:197|206:249,1,80,8|0,0:0|0:0,0:0:0:0:
319,350,60722,1,8,0:0:0:0:
478,281,60872,6,0,P|413:237|337:252,1,160,4|2,0:0|0:0,0:0:0:0:
198,268,61322,2,0,L|231:355,1,80,8|0,0:0|0:0,0:0:0:0:
252,188,61622,2,0,P|177:172|116:219,1,160,2|2,0:0|0:0,0:0:0:0:
39,361,62072,1,0,0:0:0:0:
39,361,62147,1,0,0:0:0:0:
39,361,62222,6,0,L|23:265,1,80,2|0,0:0|0:0,0:0:0:0:
53,89,62522,2,0,L|63:168,1,80,8|0,0:0|0:0,0:0:0:0:
165,318,62822,1,2,0:0:0:0:
283,201,62972,2,0,P|250:180|211:180,1,80,8|0,0:0|0:0,0:0:0:0:
306,301,63272,6,0,P|371:260|384:183,1,160,4|0,0:0|0:0,0:0:0:0:
297,58,63722,1,8,0:0:0:0:
456,96,63872,1,0,0:0:0:0:
456,96,63947,1,0,0:0:0:0:
456,96,64022,2,0,B|469:137|469:137|473:173,1,80,4|0,0:0|0:0,0:0:0:0:
372,261,64322,1,8,0:0:0:0:
235,110,64472,6,0,P|291:58|367:70,1,160,4|0,0:0|0:0,0:0:0:0:
247,200,64922,2,0,P|207:196|173:176,1,80,8|0,0:0|0:0,0:0:0:0:
77,73,65222,1,0,0:0:0:0:
58,234,65372,2,0,L|68:313,1,80,2|2,0:0|0:0,0:0:0:0:
280,265,65672,2,0,P|210:232|139:263,1,160,4|8,0:0|0:0,0:0:0:0:
210,365,66122,6,0,L|210:325,1,40,8|0,0:0|0:0,0:0:0:0:
223,193,66272,1,2,0:0:0:0:
258,174,66347,1,0,0:0:0:0:
297,170,66422,1,2,0:0:0:0:
336,181,66497,1,0,0:0:0:0:
367,205,66572,1,2,0:0:0:0:
387,240,66647,1,0,0:0:0:0:
391,279,66722,2,0,L|388:325,1,40,2|0,0:0|0:0,0:0:0:0:
490,353,66872,2,0,L|490:313,1,40,2|0,0:0|0:0,0:0:0:0:
467,197,67022,6,0,B|466:271|466:271|490:353,1,160,4|8,0:0|0:0,0:0:0:0:
391,279,67472,1,0,0:0:0:0:
512,191,67622,1,2,0:0:0:0:
349,353,67772,2,0,P|323:324|307:282,1,80,8|0,0:0|0:0,0:0:0:0:
276,125,68072,6,0,P|353:121|411:173,1,160,2|2,0:0|0:0,0:0:0:0:
418,210,68447,1,0,0:0:0:0:
418,210,68522,1,8,0:0:0:0:
379,337,68672,1,0,0:0:0:0:
184,256,68822,2,0,L|279:254,1,95.9999970703126,4|0,0:0|0:0,0:0:0:0:
247,122,69122,1,8,0:0:0:0:
417,209,69272,2,0,P|420:249|405:286,1,80,4|0,0:0|0:0,0:0:0:0:
236,324,69572,5,0,0:0:0:0:
192,182,69722,1,8,0:0:0:0:
325,165,69872,1,0,0:0:0:0:
151,262,70022,2,0,P|121:237|105:200,1,80,4|0,0:0|0:0,0:0:0:0:
186,40,70322,1,8,0:0:0:0:
384,160,70472,2,0,B|325:166|325:166|264:155|264:155|226:165,1,160,4|0,0:0|0:0,0:0:0:0:
61,266,70922,6,0,P|98:253|138:254,1,80,10|0,0:0|0:0,0:0:0:0:
272,345,71222,2,0,P|242:319|223:284,1,80,0|0,0:0|0:0,0:0:0:0:
243,122,71522,2,0,P|236:161|216:195,1,80,8|0,0:0|0:0,0:0:0:0:
67,104,71822,6,0,L|146:94,1,80,4|0,0:0|0:0,0:0:0:0:
300,22,72122,2,0,L|221:35,1,80,8|0,0:0|0:0,0:0:0:0:
216,195,72422,1,2,0:0:0:0:
399,159,72572,2,0,P|368:135|330:125,1,80,8|2,0:0|0:0,0:0:0:0:
285,291,72872,1,4,0:0:0:0:
285,291,72947,1,0,0:0:0:0:
285,290,73022,6,0,P|306:257|315:218,1,80,0|0,0:0|0:0,0:0:0:0:
373,54,73322,1,8,0:0:0:0:
483,191,73472,1,0,0:0:0:0:
483,191,73547,1,0,0:0:0:0:
483,191,73622,2,0,L|472:270,1,80,2|0,0:0|0:0,0:0:0:0:
315,218,73922,1,8,0:0:0:0:
363,332,74072,1,4,0:0:0:0:
394,180,74222,6,0,P|395:140|380:103,1,80,2|0,0:0|0:0,0:0:0:0:
182,136,74522,2,0,L|260:150,1,80,8|0,0:0|0:0,0:0:0:0:
380,103,74822,1,12,0:0:0:0:
182,136,74972,1,0,0:0:0:0:
318,225,75122,1,8,0:0:0:0:
266,38,75272,1,4,0:0:0:0:
213,243,75422,2,0,B|204:322,1,80,10|10,0:0|0:0,0:0:0:0:
108,167,75722,2,0,B|31:142,1,80,10|10,0:0|0:0,0:0:0:0:
17,338,76022,5,2,0:0:0:0:
56,332,76097,1,0,0:0:0:0:
91,312,76172,1,0,0:0:0:0:
117,282,76247,1,0,0:0:0:0:
131,245,76322,2,0,L|128:187,1,40,8|0,0:0|0:0,0:0:0:0:
166,122,76472,1,0,0:0:0:0:
318,225,76622,5,4,0:0:0:0:
128,144,79022,5,2,0:0:0:0:
256,312,81422,5,2,0:0:0:0:
328,204,83822,5,2,0:0:0:0:
184,136,86222,5,2,0:0:0:0:
184,264,88622,5,2,0:0:0:0:
348,132,91022,5,2,0:0:0:0:
256,192,93422,5,2,0:0:0:0:
156,98,95822,6,0,P|194:88|233:94,1,80,2|2,0:0|0:0,0:0:0:0:
307,278,96422,1,8,0:0:0:0:
233,194,96722,1,2,0:0:0:0:
407,101,97022,2,0,P|378:129|354:161,1,80,2|2,0:0|0:0,0:0:0:0:
408,319,97622,1,8,0:0:0:0:
500,214,97922,1,2,0:0:0:0:
322,262,98222,6,0,L|242:261,1,80,2|2,0:0|0:0,0:0:0:0:
157,100,98822,1,8,0:0:0:0:
93,210,99122,1,2,0:0:0:0:
13,13,99422,2,0,L|9:93,1,80,2|2,0:0|0:0,0:0:0:0:
28,265,100022,1,8,0:0:0:0:
168,181,100322,1,2,0:0:0:0:
223,346,100622,6,0,L|153:307,1,80,4|2,0:0|0:0,0:0:0:0:
50,149,101222,2,0,L|93:216,1,80,8|2,0:0|0:0,0:0:0:0:
234,171,101822,2,0,L|175:225,1,80,2|2,0:0|0:0,0:0:0:0:
13,345,102422,2,0,L|84:290,1,80,8|2,0:0|0:0,0:0:0:0:
182,151,103022,5,2,0:0:0:0:
327,267,103322,1,2,0:0:0:0:
161,243,103622,1,8,0:0:0:0:
338,169,103922,1,2,0:0:0:0:
247,346,104222,5,2,0:0:0:0:
213,188,104522,1,2,0:0:0:0:
397,296,104822,1,8,0:0:0:0:
202,277,105122,1,2,0:0:0:0:
265,116,105422,6,0,P|227:102|187:103,1,80,4|2,0:0|0:0,0:0:0:0:
124,184,105872,1,0,0:0:0:0:
76,90,106022,2,0,L|73:50,1,40,8|0,0:0|0:0,0:0:0:0:
0,152,106322,2,0,L|1:191,1,40,2|0,0:0|0:0,0:0:0:0:
62,327,106622,6,0,L|76:248,1,80,2|2,0:0|0:0,0:0:0:0:
179,176,107072,1,0,0:0:0:0:
229,286,107222,2,0,L|233:325,1,40,8|0,0:0|0:0,0:0:0:0:
317,237,107522,2,0,L|321:197,1,40,2|0,0:0|0:0,0:0:0:0:
459,112,107822,6,0,P|424:92|385:88,1,80,2|2,0:0|0:0,0:0:0:0:
285,69,108272,1,0,0:0:0:0:
182,111,108422,2,0,L|184:151,1,40,8|0,0:0|0:0,0:0:0:0:
205,296,108722,2,0,L|206:256,1,40,2|0,0:0|0:0,0:0:0:0:
305,190,109022,6,0,L|383:207,1,80,2|2,0:0|0:0,0:0:0:0:
452,340,109472,1,0,0:0:0:0:
294,355,109622,2,0,P|285:316|288:276,1,80,8|2,0:0|0:0,0:0:0:0:
456,177,110072,1,2,0:0:0:0:
254,132,110222,6,0,L|175:115,1,80,4|2,0:0|0:0,0:0:0:0:
73,188,110672,1,0,0:0:0:0:
139,343,110822,2,0,P|154:306|161:266,1,80,8|2,0:0|0:0,0:0:0:0:
97,109,111272,1,0,0:0:0:0:
233,209,111422,6,0,L|311:224,1,80,2|2,0:0|0:0,0:0:0:0:
428,144,111872,1,0,0:0:0:0:
446,302,112022,2,0,L|405:233,1,80,8|2,0:0|0:0,0:0:0:0:
328,124,112472,1,0,0:0:0:0:
165,179,112622,6,0,L|244:177,1,80,4|2,0:0|0:0,0:0:0:0:
297,53,113072,1,0,0:0:0:0:
420,149,113222,2,0,L|426:69,1,80,8|2,0:0|0:0,0:0:0:0:
326,146,113822,5,2,0:0:0:0:
363,225,114122,1,2,0:0:0:0:
415,160,114422,6,0,L|454:152,3,40,2|0|0|0,0:0|0:0|0:0|0:0,0:0:0:0:
440,237,114722,2,0,L|479:243,3,40,2|0|0|0,0:0|0:0|0:0|0:0,0:0:0:0:
392,296,115022,6,0,P|387:335|394:374,1,80,4|0,0:3|0:0,0:0:0:0:
304,241,115322,2,0,P|309:280|304:320,1,80,0|0,0:0|0:0,0:0:0:0:
208,202,115622,2,0,P|261:145|339:143,1,160,0|8,0:0|0:0,0:0:0:0:
339,143,116222,5,4,0:0:0:0:
304,241,116372,1,0,0:0:0:0:
208,202,116522,2,0,L|135:167,1,80,8|0,0:0|0:0,0:0:0:0:
100,148,116747,1,0,0:0:0:0:
100,148,116822,2,0,B|94:213|94:213|118:267|118:267|117:334,1,191.999994140625,2|8,0:0|0:0,0:0:0:0:
225,364,117272,1,0,0:0:0:0:
279,273,117422,6,0,P|294:237|324:212,1,80,2|0,0:0|0:0,0:0:0:0:
424,333,117722,2,0,P|387:317|362:286,1,80,8|0,0:0|0:0,0:0:0:0:
418,151,118022,1,2,0:0:0:0:
434,252,118172,1,2,0:0:0:0:
326,128,118322,2,0,P|288:118|250:127,1,80,8|0,0:0|0:0,0:0:0:0:
205,232,118622,1,2,0:0:0:0:
324,212,118772,1,0,0:0:0:0:
250,127,118922,1,8,0:0:0:0:
280,281,119072,1,0,0:0:0:0:
280,281,119147,1,0,0:0:0:0:
280,281,119222,2,0,P|297:316|301:356,1,80,2|2,0:0|0:0,0:0:0:0:
159,286,119522,6,0,L|116:267,3,47.9999985351563,8|0|0|0,0:0|0:0|0:0|0:0,0:0:0:0:
80,285,119822,2,0,P|78:246|72:206,1,80,2|0,0:0|0:0,0:0:0:0:
152,87,120122,2,0,P|145:126|144:166,1,80,8|0,0:0|0:0,0:0:0:0:
6,121,120422,2,0,B|46:91|46:91|102:104|102:104|152:87,1,160,2|8,0:0|0:0,0:0:0:0:
335,94,120872,1,0,0:0:0:0:
215,138,121022,5,2,0:0:0:0:
307,236,121172,1,0,0:0:0:0:
452,112,121322,1,8,0:0:0:0:
428,90,121397,1,0,0:0:0:0:
397,81,121472,1,0,0:0:0:0:
365,82,121547,1,0,0:0:0:0:
334,94,121622,2,0,P|292:159|307:236,1,160,2|8,0:0|0:0,0:0:0:0:
387,316,122072,1,0,0:0:0:0:
470,162,122222,6,0,P|430:165|394:181,1,80,2|0,0:0|0:0,0:0:0:0:
230,279,122522,2,0,P|259:306|298:317,1,80,8|0,0:0|0:0,0:0:0:0:
428,248,122822,1,2,0:0:0:0:
370,102,122972,1,2,0:0:0:0:
302,227,123122,1,8,0:0:0:0:
470,162,123272,1,0,0:0:0:0:
314,308,123422,6,0,P|241:285|221:211,1,160,2|8,0:0|0:0,0:0:0:0:
219,179,123797,1,0,0:0:0:0:
219,179,123872,1,0,0:0:0:0:
219,179,123947,1,0,0:0:0:0:
219,179,124022,5,4,0:0:0:0:
161,319,124247,1,6,0:0:0:0:
65,154,124472,1,0,0:0:0:0:
219,178,124622,6,0,P|310:160|384:216,1,191.999994140625,2|8,0:0|0:0,0:0:0:0:
435,353,125072,1,0,0:0:0:0:
295,318,125222,2,0,B|285:253|285:253|308:162,1,160,2|8,0:0|0:0,0:0:0:0:
398,42,125672,1,0,0:0:0:0:
264,91,125822,5,2,0:0:0:0:
430,160,125972,1,0,0:0:0:0:
316,242,126122,1,8,0:0:0:0:
284,242,126197,1,0,0:0:0:0:
255,227,126272,1,0,0:0:0:0:
232,204,126347,1,0,0:0:0:0:
220,173,126422,2,0,B|236:209|236:209|224:245|224:245|232:285|232:285|232:332,1,160,2|8,0:0|0:0,0:0:0:0:
308,156,126872,1,0,0:0:0:0:
138,180,127022,6,0,P|103:163|74:135,1,80,2|0,0:0|0:0,0:0:0:0:
63,256,127322,2,0,P|64:295|50:333,1,80,8|0,0:0|0:0,0:0:0:0:
0,157,127622,2,0,P|15:81|90:58,1,160,2|8,0:0|0:0,0:0:0:0:
191,103,128072,1,0,0:0:0:0:
227,211,128222,6,0,B|282:210|328:248|328:248|376:237,1,160,2|8,0:0|0:0,0:0:0:0:
408,232,128597,1,0,0:0:0:0:
437,219,128672,1,0,0:0:0:0:
460,196,128747,1,0,0:0:0:0:
478,169,128822,1,2,0:0:0:0:
372,104,128972,1,2,0:0:0:0:
484,289,129122,1,8,0:0:0:0:
298,227,129272,1,0,0:0:0:0:
298,227,129347,1,0,0:0:0:0:
298,227,129422,6,0,B|247:231|247:231|181:257|181:257|143:252,1,160,2|8,0:0|0:0,0:0:0:0:
55,143,129872,1,0,0:0:0:0:
215,183,130022,2,0,P|244:255|211:326,1,160,2|8,0:0|0:0,0:0:0:0:
72,342,130472,1,0,0:0:0:0:
33,219,130622,6,0,P|39:179|55:143,1,80,2|0,0:0|0:0,0:0:0:0:
195,81,130922,1,8,0:0:0:0:
195,81,130997,1,0,0:0:0:0:
195,81,131072,1,0,0:0:0:0:
195,81,131147,1,0,0:0:0:0:
195,81,131222,2,0,P|218:154|176:219,1,160,2|8,0:0|0:0,0:0:0:0:
131,141,131672,1,0,0:0:0:0:
282,213,131822,6,0,P|320:220|359:210,1,80,2|0,0:0|0:0,0:0:0:0:
431,67,132122,2,0,P|416:104|413:144,1,80,8|0,0:0|0:0,0:0:0:0:
471,295,132422,2,0,P|462:256|440:223,1,80,2|2,0:0|0:0,0:0:0:0:
282,213,132722,2,0,L|283:310,1,80,8|0,0:0|0:0,0:0:0:0:
192,154,133022,5,2,0:0:0:0:
192,154,133322,1,8,0:0:0:0:
192,154,133397,1,0,0:0:0:0:
192,154,133472,1,0,0:0:0:0:
192,154,133547,1,0,0:0:0:0:
192,154,133622,5,4,0:0:0:0:
160,290,133847,1,4,0:0:0:0:
64,158,134072,1,4,0:0:0:0:
248,236,134222,6,0,P|325:235|376:177,2,160,2|2|2,0:0|0:0|0:0,0:0:0:0:
228,105,134972,2,0,P|262:124|286:156,1,80,2|0,0:0|0:0,0:0:0:0:
326,318,135272,2,0,P|288:327|249:318,1,80,2|0,0:0|0:0,0:0:0:0:
112,169,135572,5,2,0:0:0:0:
112,169,135647,1,0,0:0:0:0:
112,169,135722,2,0,L|123:248,1,80,0|0,0:0|0:0,0:0:0:0:
0,319,136022,2,0,P|38:310|77:319,1,80,2|0,0:0|0:0,0:0:0:0:
253,320,136322,2,0,P|214:328|175:319,1,80,2|0,0:0|0:0,0:0:0:0:
192,131,136622,6,0,P|230:122|270:129,1,80,2|0,0:0|0:0,0:0:0:0:
370,279,136922,2,0,P|332:266|304:238,1,80,2|0,0:0|0:0,0:0:0:0:
192,131,137222,1,2,0:0:0:0:
171,274,137372,2,0,L|179:353,1,80,2|0,0:0|0:0,0:0:0:0:
80,193,137672,6,0,L|91:113,1,80,2|0,0:0|0:0,0:0:0:0:
170,271,137972,1,2,0:0:0:0:
142,287,138047,1,0,0:0:0:0:
114,305,138122,2,0,P|76:314|36:310,1,80,0|0,0:0|0:0,0:0:0:0:
165,199,138422,2,0,B|217:191|217:191|253:203|253:203|293:191|293:191|349:203|349:203|398:195,1,240,2|0,0:0|0:0,0:0:0:0:
448,333,139022,6,0,P|413:312|394:278,1,80,2|0,0:0|0:0,0:0:0:0:
428,119,139322,2,0,P|462:139|481:173,1,80,2|0,0:0|0:0,0:0:0:0:
369,288,139622,1,2,0:0:0:0:
245,123,139772,2,0,B|273:119|273:119|322:134,1,80,2|0,0:0|0:0,0:0:0:0:
218,216,140072,6,0,P|159:222|108:192,1,120,2|0,0:0|0:0,0:0:0:0:
92,176,140372,1,2,0:0:0:0:
84,200,140447,1,0,0:0:0:0:
76,224,140522,2,0,L|53:300,1,80,0|0,0:0|0:0,0:0:0:0:
176,144,140822,2,0,L|198:67,1,80,2|0,0:0|0:0,0:0:0:0:
283,183,141122,2,0,P|288:222|277:260,1,80,2|0,0:0|0:0,0:0:0:0:
135,253,141422,6,0,P|162:225|200:212,1,80,2|0,0:0|0:0,0:0:0:0:
264,344,141722,2,0,P|227:328|204:296,1,80,2|0,0:0|0:0,0:0:0:0:
176,144,142022,1,2,0:0:0:0:
362,170,142172,2,0,L|283:183,1,80,0|0,0:0|0:0,0:0:0:0:
353,304,142472,6,0,P|409:286|447:240,1,120,2|0,0:0|0:0,0:0:0:0:
460,217,142772,1,2,0:0:0:0:
468,193,142847,1,0,0:0:0:0:
476,169,142922,2,0,L|498:92,1,80,0|0,0:0|0:0,0:0:0:0:
492,64,143147,1,0,0:0:0:0:
469,64,143222,5,2,0:0:0:0:
447,64,143297,1,0,0:0:0:0:
424,62,143372,1,2,0:0:0:0:
402,60,143447,1,2,0:0:0:0:
380,56,143522,2,0,L|335:53,1,40,2|2,0:0|0:0,0:0:0:0:
288,104,143672,2,0,L|255:126,1,40,2|2,0:0|0:0,0:0:0:0:
219,51,143822,6,0,P|180:47|140:46,1,80,4|0,0:0|0:0,0:0:0:0:
119,183,144122,2,0,P|150:158|174:127,1,80,8|0,0:0|0:0,0:0:0:0:
59,75,144422,1,2,0:0:0:0:
52,228,144572,2,0,P|81:254|119:264,1,80,8|0,0:0|0:0,0:0:0:0:
279,208,144872,2,0,P|280:247|288:286,1,80,2|0,0:0|0:0,0:0:0:0:
289,124,145172,5,0,0:0:0:0:
252,131,145247,1,0,0:0:0:0:
218,151,145322,2,0,P|200:186|198:225,1,80,8|0,0:0|0:0,0:0:0:0:
348,344,145622,2,0,P|366:308|368:269,1,80,2|0,0:0|0:0,0:0:0:0:
367,110,145922,2,0,L|289:124,1,80,8|0,0:0|0:0,0:0:0:0:
125,180,146222,6,0,L|202:198,1,80,2|0,0:0|0:0,0:0:0:0:
288,286,146522,2,0,L|213:314,1,80,8|0,0:0|0:0,0:0:0:0:
100,352,146822,1,2,0:0:0:0:
3,206,146972,2,0,P|14:169|42:141,1,80,8|0,0:0|0:0,0:0:0:0:
153,184,147272,2,0,P|119:204|79:206,1,80,2|0,0:0|0:0,0:0:0:0:
146,75,147572,5,0,0:0:0:0:
173,91,147647,1,0,0:0:0:0:
204,97,147722,2,0,P|242:108|282:108,1,80,8|0,0:0|0:0,0:0:0:0:
355,44,148022,2,0,P|394:46|431:61,1,80,2|0,0:0|0:0,0:0:0:0:
442,84,148247,1,0,0:0:0:0:
450,105,148322,1,0,0:0:0:0:
457,126,148397,1,0,0:0:0:0:
462,148,148472,1,0,0:0:0:0:
465,170,148547,1,0,0:0:0:0:
467,193,148622,6,0,P|467:230|463:273,1,80,4|0,0:0|0:0,0:0:0:0:
376,232,148922,2,0,P|343:251|300:270,1,80,8|0,0:0|0:0,0:0:0:0:
372,144,149222,1,2,0:0:0:0:
287,176,149372,2,0,P|253:156|219:135,1,80,8|0,0:0|0:0,0:0:0:0:
223,237,149672,6,0,L|66:193,1,160,2|0,0:0|0:0,0:0:0:0:
22,206,150047,1,0,0:0:0:0:
22,206,150122,2,0,L|21:299,1,80,8|0,0:0|0:0,0:0:0:0:
146,356,150422,2,0,P|181:344|224:299,1,80,0|0,0:0|0:0,0:0:0:0:
238,114,150722,2,0,P|211:143|197:181,1,80,2|0,0:0|0:0,0:0:0:0:
329,212,151022,6,0,L|406:192,1,80,4|0,0:0|0:0,0:0:0:0:
364,58,151322,2,0,L|286:37,1,80,8|0,0:0|0:0,0:0:0:0:
140,68,151622,1,2,0:0:0:0:
197,181,151772,2,0,P|202:220|200:260,1,80,8|0,0:0|0:0,0:0:0:0:
100,348,152072,1,2,0:0:0:0:
100,348,152147,1,0,0:0:0:0:
100,348,152222,5,4,0:0:0:0:
56,176,152447,1,4,0:0:0:0:
192,292,152672,1,4,0:0:0:0:
20,280,152897,1,4,0:0:0:0:
167,183,153122,1,4,0:0:0:0:
167,183,153272,1,4,0:0:0:0:
276,218,153422,6,0,P|316:194|346:157,1,95.9999970703126,2|0,0:0|2:0,0:0:0:0:
404,144,154622,6,0,L|403:191,2,47.9999985351563,2|0|0,0:0|0:0|0:0,0:0:0:0:
372,72,154922,2,0,L|276:72,1,95.9999970703126,2|0,0:0|0:0,0:0:0:0:
196,72,155222,2,0,L|148:72,2,47.9999985351563,2|0|0,0:0|0:0|0:0,0:0:0:0:
236,144,155522,2,0,L|236:240,1,95.9999970703126,2|0,0:0|0:0,0:0:0:0:
237,334,155822,5,4,0:0:0:0:
328,256,156572,5,4,0:0:0:0:
192,208,156872,1,4,0:0:0:0:
312,72,157622,5,4,0:0:0:0:
140,144,157922,1,0,0:0:0:0:
140,144,158072,1,4,0:0:0:0:
254,196,158372,1,0,0:0:0:0:
376,208,158822,5,4,0:0:0:0:
236,316,159122,1,0,0:0:0:0:
236,316,159272,1,4,0:0:0:0:
104,132,159572,5,0,0:0:0:0:
104,132,159647,1,0,0:0:0:0:
104,132,159722,2,0,L|92:186,1,47.9999985351563,2|0,0:0|0:0,0:0:0:0:
136,307,159872,2,0,L|136:259,1,47.9999985351563,2|0,0:0|0:0,0:0:0:0:
198,142,160022,2,0,L|207:189,1,47.9999985351563,2|0,0:0|0:0,0:0:0:0:
243,308,160172,2,0,L|249:260,1,47.9999985351563,2|0,0:0|0:0,0:0:0:0:
298,168,160322,2,0,P|344:161|387:182,1,95.9999970703126,8|0,0:0|0:0,0:0:0:0:
363,326,160622,6,0,P|341:292|334:253,1,80,4|0,0:0|0:0,0:0:0:0:
477,199,160922,2,0,P|461:235|432:262,1,80,8|0,0:0|0:0,0:0:0:0:
298,168,161222,1,2,0:0:0:0:
242,308,161372,2,0,P|207:326|168:331,1,80,8|0,0:0|0:0,0:0:0:0:
84,224,161672,6,0,B|76:208|76:208|80:172|80:172|64:156|64:156|68:128|68:128|56:108|56:108|56:76,1,160,2|0,0:0|0:0,0:0:0:0:
0,217,162122,1,8,0:0:0:0:
140,132,162272,1,0,0:0:0:0:
160,136,162347,1,0,0:0:0:0:
183,143,162422,2,0,P|218:160|246:189,1,80,4|0,0:0|0:0,0:0:0:0:
364,323,162722,2,0,P|386:290|397:252,1,80,8|4,0:0|0:0,0:0:0:0:
444,104,163022,6,0,P|389:113|326:84,1,120,0|0,0:0|0:0,0:0:0:0:
296,22,163322,2,0,P|261:53|278:150,1,120,8|0,0:0|0:0,0:0:0:0:
314,185,163622,1,2,0:0:0:0:
313,185,163772,2,0,P|238:201|184:147,1,160,8|4,0:0|0:0,0:0:0:0:
173,53,164222,5,0,0:0:0:0:
92,188,164372,1,0,0:0:0:0:
236,201,164522,1,8,0:0:0:0:
89,91,164672,1,0,0:0:0:0:
257,107,164822,1,0,0:0:0:0:
156,245,164972,1,8,0:0:0:0:
89,91,165122,1,2,0:0:0:0:
242,209,165272,1,0,0:0:0:0:
242,209,165347,1,0,0:0:0:0:
242,208,165422,6,0,P|288:200|335:210,1,95.9999970703126,4|0,0:0|0:0,0:0:0:0:
417,347,165722,1,8,0:0:0:0:
498,236,165872,1,0,0:0:0:0:
498,236,165947,1,0,0:0:0:0:
498,236,166022,1,2,0:0:0:0:
433,69,166172,2,0,L|424:149,1,80,8|0,0:0|0:0,0:0:0:0:
256,112,166472,6,0,P|294:122|334:124,1,80,4|0,0:0|0:0,0:0:0:0:
161,43,166772,1,0,0:0:0:0:
75,116,166922,1,8,0:0:0:0:
216,209,167072,1,0,0:0:0:0:
111,209,167222,2,0,P|90:243|84:282,1,80,4|0,0:0|0:0,0:0:0:0:
256,112,167522,1,8,0:0:0:0:
216,209,167672,6,0,P|212:248|216:288,1,80,4|0,0:0|0:0,0:0:0:0:
378,281,167972,2,0,P|341:264|302:257,1,80,0|8,0:0|0:0,0:0:0:0:
148,344,168272,1,0,0:0:0:0:
148,344,168347,1,0,0:0:0:0:
148,344,168422,2,0,P|110:357|70:360,1,80,4|0,0:0|0:0,0:0:0:0:
12,252,168722,1,2,0:0:0:0:
58,76,168872,6,0,P|103:138|81:212,1,160,4|0,0:0|0:0,0:0:0:0:
15,155,169322,2,0,L|173:135,1,160,8|2,0:0|0:0,0:0:0:0:
304,120,169772,1,0,0:0:0:0:
326,122,169847,1,0,0:0:0:0:
347,129,169922,1,8,0:0:0:0:
382,273,170072,1,0,0:0:0:0:
451,142,170222,6,0,P|400:178|390:239,1,120,4|0,0:0|0:0,0:0:0:0:
450,280,170522,2,0,L|317:272,1,120,8|0,0:0|0:0,0:0:0:0:
267,319,170822,1,2,0:0:0:0:
267,319,170972,2,0,P|259:243|319:196,1,160,8|2,0:0|0:0,0:0:0:0:
450,280,171422,5,0,0:0:0:0:
362,353,171572,1,0,0:0:0:0:
362,353,171647,1,0,0:0:0:0:
362,353,171722,1,8,0:0:0:0:
225,289,171872,1,0,0:0:0:0:
225,289,171947,1,0,0:0:0:0:
225,289,172022,2,0,L|212:374,1,80,4|0,0:0|0:0,0:0:0:0:
114,285,172322,1,2,0:0:0:0:
60,164,172472,6,0,L|87:322,1,160,4|0,0:0|0:0,0:0:0:0:
138,123,172922,2,0,P|177:126|216:118,1,80,4|0,0:0|0:0,0:0:0:0:
367,101,173222,1,4,0:0:0:0:
330,240,173372,1,2,0:0:0:0:
442,166,173522,1,4,0:0:0:0:
298,160,173672,1,2,0:0:0:0:
420,252,173822,6,0,P|430:290|423:329,1,80,10|10,0:0|0:0,0:0:0:0:
348,294,174047,1,0,0:0:0:0:
348,294,174122,2,0,L|309:284,1,40,10|0,0:0|0:0,0:0:0:0:
199,307,174272,2,0,L|238:315,1,40,10|8,0:0|0:0,0:0:0:0:
250,237,174422,5,2,0:0:0:0:
214,219,174497,1,0,0:0:0:0:
174,221,174572,1,0,0:0:0:0:
140,241,174647,1,0,0:0:0:0:
119,274,174722,2,0,L|99:210,1,40,10|2,0:0|0:0,0:0:0:0:
35,166,174872,2,0,L|31:205,1,40,2|2,0:0|0:0,0:0:0:0:
32,322,175022,6,0,L|147:305,1,80,4|0,0:0|0:0,0:0:0:0:
290,329,175322,2,0,L|201:320,1,80,8|0,0:0|0:0,0:0:0:0:
118,163,175622,1,2,0:0:0:0:
250,237,175772,2,0,L|262:140,1,80,8|2,0:0|0:0,0:0:0:0:
362,43,176072,2,0,L|368:129,1,80,4|0,0:0|0:0,0:0:0:0:
385,259,176372,5,0,0:0:0:0:
463,184,176522,1,8,0:0:0:0:
259,157,176672,1,0,0:0:0:0:
384,221,176822,2,0,L|264:231,1,120,4|0,0:0|0:0,0:0:0:0:
215,236,177122,1,8,0:0:0:0:
133,101,177272,2,0,L|133:181,1,80,4|0,0:0|0:0,0:0:0:0:
113,348,177572,5,0,0:0:0:0:
72,260,177722,1,8,0:0:0:0:
213,323,177872,1,0,0:0:0:0:
250,160,178022,2,0,L|225:277,1,120,4|0,0:0|0:0,0:0:0:0:
213,323,178322,1,10,0:0:0:0:
394,300,178472,2,0,L|305:279,1,80,4|0,0:0|0:0,0:0:0:0:
163,216,178772,5,0,0:0:0:0:
135,343,178922,1,8,0:0:0:0:
44,226,179072,1,0,0:0:0:0:
44,226,179147,1,0,0:0:0:0:
44,226,179222,1,0,0:0:0:0:
44,226,179297,1,0,0:0:0:0:
44,226,179372,2,0,L|48:265,1,40,2|0,0:0|0:0,0:0:0:0:
135,343,179522,2,0,L|131:304,1,40,8|0,0:0|0:0,0:0:0:0:
167,176,179672,2,0,L|163:215,1,40,0|0,0:0|0:0,0:0:0:0:
162,105,179822,6,0,P|216:83|272:101,1,120,4|0,0:0|0:0,0:0:0:0:
255,172,180122,2,0,P|249:230|281:280,1,120,8|0,0:0|0:0,0:0:0:0:
354,310,180422,1,2,0:0:0:0:
408,188,180572,2,0,L|330:208,1,80,8|0,0:0|0:0,0:0:0:0:
413,111,180872,6,0,P|478:150|476:226,1,160,4|0,0:0|0:0,0:0:0:0:
430,296,181322,1,8,0:0:0:0:
330,208,181472,1,0,0:0:0:0:
330,208,181547,1,0,0:0:0:0:
330,208,181622,6,0,L|191:201,1,120,4|0,0:0|0:0,0:0:0:0:
130,196,181922,2,0,P|141:158|170:132,1,80,8|0,0:0|0:0,0:0:0:0:
200,277,182222,2,0,P|165:316|76:298,1,120,0|0,0:0|0:0,0:0:0:0:
30,287,182522,2,0,L|3:169,1,120,8|0,0:0|0:0,0:0:0:0:
0,90,182822,1,2,0:0:0:0:
0,90,182972,2,0,L|117:67,1,120,4|0,0:0|0:0,0:0:0:0:
190,59,183272,2,0,L|208:160,1,80,4|0,0:0|0:0,0:0:0:0:
332,338,183572,5,0,0:0:0:0:
386,205,183722,1,8,0:0:0:0:
243,223,183872,1,0,0:0:0:0:
399,286,184022,1,0,0:0:0:0:
310,172,184172,1,8,0:0:0:0:
249,307,184322,1,2,0:0:0:0:
399,286,184472,1,0,0:0:0:0:
243,223,184622,6,0,L|159:243,1,80,4|0,0:0|0:0,0:0:0:0:
22,249,184922,2,0,P|48:278|85:292,1,80,8|0,0:0|0:0,0:0:0:0:
205,323,185222,1,2,0:0:0:0:
150,155,185372,2,0,P|114:171|90:203,1,80,8|0,0:0|0:0,0:0:0:0:
256,356,185672,6,0,L|230:198,1,160,4|0,0:0|0:0,0:0:0:0:
161,59,186122,1,8,0:0:0:0:
301,105,186272,1,0,0:0:0:0:
213,211,186422,2,0,L|225:290,1,80,4|0,0:0|0:0,0:0:0:0:
301,105,186722,1,8,0:0:0:0:
401,256,186872,2,0,L|406:170,1,80,4|0,0:0|0:0,0:0:0:0:
456,52,187172,1,0,0:0:0:0:
493,143,187322,1,8,0:0:0:0:
301,105,187472,6,0,L|380:105,1,80,4|0,0:0|0:0,0:0:0:0:
237,186,187772,2,0,L|157:185,1,80,4|0,0:0|0:0,0:0:0:0:
286,275,188072,1,4,0:0:0:0:
347,355,188222,5,0,0:0:0:0:
344,195,188372,1,0,0:0:0:0:
190,297,188522,1,8,0:0:0:0:
196,76,188672,1,0,0:0:0:0:
196,76,188747,1,0,0:0:0:0:
196,76,188822,2,0,L|220:173,1,80,2|0,0:0|0:0,0:0:0:0:
97,260,189122,1,2,0:0:0:0:
19,149,189272,1,0,0:0:0:0:
229,232,189422,6,0,L|360:206,1,120,4|0,0:0|0:0,0:0:0:0:
408,256,189722,2,0,P|423:200|399:146,1,120,8|0,0:0|0:0,0:0:0:0:
321,114,190022,1,2,0:0:0:0:
229,232,190172,2,0,L|245:310,1,80,4|0,0:0|0:0,0:0:0:0:
150,198,190472,1,4,0:0:0:0:
91,326,190622,5,0,0:0:0:0:
11,215,190772,1,0,0:0:0:0:
11,215,190847,1,0,0:0:0:0:
11,215,190922,1,8,0:0:0:0:
170,77,191072,1,0,0:0:0:0:
170,77,191147,1,0,0:0:0:0:
170,77,191222,2,0,L|189:207,1,120,0|0,0:0|0:0,0:0:0:0:
196,239,191522,1,8,0:0:0:0:
404,145,191672,6,0,P|339:101|265:122,1,160,4|0,0:0|0:0,0:0:0:0:
274,260,192122,2,0,P|305:235|321:199,1,80,8|0,0:0|0:0,0:0:0:0:
187,256,192422,2,0,P|193:295|216:327,1,80,4|2,0:0|0:0,0:0:0:0:
235,178,192722,2,0,P|197:164|158:167,1,80,4|2,0:0|0:0,0:0:0:0:
85,280,193022,5,10,0:0:0:0:
43,127,193172,1,8,0:0:0:0:
107,354,193322,1,10,0:0:0:0:
64,204,193472,1,10,0:0:0:0:
199,256,193622,6,0,B|224:252|224:252|248:232|248:232|280:228|280:228|328:232|328:232|381:219,1,191.999994140625,2|2,0:0|0:0,0:0:0:0:
494,287,194072,1,2,0:0:0:0:
494,287,194147,1,2,0:0:0:0:
494,287,194222,6,0,P|431:334|354:325,1,160,4|0,0:0|0:0,0:0:0:0:
279,231,194672,1,0,0:0:0:0:
216,333,194822,2,0,P|140:342|86:287,1,160,2|0,0:0|0:0,0:0:0:0:
36,175,195272,1,2,0:0:0:0:
125,94,195422,6,0,B|185:122|185:122|277:108,1,160,2|0,0:0|0:0,0:0:0:0:
389,62,195872,1,0,0:0:0:0:
434,172,196022,2,0,B|453:233|453:233|441:329,1,160,2|0,0:0|0:0,0:0:0:0:
322,348,196472,1,2,0:0:0:0:
249,251,196622,6,0,P|174:269|105:231,1,160,4|0,0:0|0:0,0:0:0:0:
71,116,197072,1,0,0:0:0:0:
166,43,197222,2,0,L|245:51,1,80,2|0,0:0|0:0,0:0:0:0:
363,29,197522,1,0,0:0:0:0:
477,64,197672,1,2,0:0:0:0:
376,130,197822,6,0,B|373:289,1,160,2|0,0:0|0:0,0:0:0:0:
480,344,198272,1,0,0:0:0:0:
486,223,198422,2,0,L|477:64,1,160,2|0,0:0|0:0,0:0:0:0:
325,62,198872,1,2,0:0:0:0:
325,62,198947,1,0,0:0:0:0:
325,62,199022,6,0,P|264:111|254:189,1,160,4|0,0:0|0:0,0:0:0:0:
366,167,199472,1,0,0:0:0:0:
300,263,199622,2,0,P|224:272|170:217,1,160,2|0,0:0|0:0,0:0:0:0:
136,96,200072,1,2,0:0:0:0:
252,80,200222,6,0,B|344:72|344:72|407:94,1,160,2|8,0:0|0:0,0:0:0:0:
408,260,200672,1,0,0:0:0:0:
408,260,200822,2,0,B|312:248|312:248|251:267,1,160,2|0,0:0|0:0,0:0:0:0:
152,316,201272,1,2,0:0:0:0:
64,232,201422,6,0,B|48:184|48:184|44:132|44:132|20:79,1,160,2|0,0:0|0:0,0:0:0:0:
120,24,201872,1,0,0:0:0:0:
156,138,202022,2,0,P|208:110|247:64,1,120,8|0,0:0|0:0,0:0:0:0:
272,20,202322,1,0,0:0:0:0:
276,172,202472,1,2,0:0:0:0:
340,92,202622,6,0,B|368:160|368:160|352:220|352:220|353:244,1,160,4|0,0:0|0:0,0:0:0:0:
416,72,203072,1,0,0:0:0:0:
452,228,203222,1,2,0:0:0:0:
276,172,203372,1,0,0:0:0:0:
276,172,203447,1,0,0:0:0:0:
276,172,203522,1,8,0:0:0:0:
276,172,203822,5,2,0:0:0:0:
226,337,203972,1,0,0:0:0:0:
226,337,204047,1,0,0:0:0:0:
226,337,204122,1,0,0:0:0:0:
317,279,204272,1,0,0:0:0:0:
276,172,204422,2,0,P|204:143|131:172,1,160,2|0,0:0|0:0,0:0:0:0:
63,279,204872,1,2,0:0:0:0:
194,310,205022,5,2,0:0:0:0:
58,199,205172,1,0,0:0:0:0:
58,199,205247,1,0,0:0:0:0:
58,199,205322,1,0,0:0:0:0:
200,227,205472,1,0,0:0:0:0:
308,119,205622,2,0,P|257:61|179:58,1,160,2|0,0:0|0:0,0:0:0:0:
138,178,206072,1,2,0:0:0:0:
288,209,206222,6,0,P|359:195|391:106,1,160,2|0,0:0|0:0,0:0:0:0:
218,147,206672,1,0,0:0:0:0:
218,147,206822,2,0,P|196:221|234:289,1,160,2|0,0:0|0:0,0:0:0:0:
307,119,207272,1,2,0:0:0:0:
307,119,207422,6,0,P|255:62|177:59,1,160,2|0,0:0|0:0,0:0:0:0:
88,251,207872,1,0,0:0:0:0:
88,251,208022,2,0,L|62:86,1,160,2|0,0:0|0:0,0:0:0:0:
188,172,208472,1,2,0:0:0:0:
220,305,208622,5,2,0:0:0:0:
347,228,208772,1,0,0:0:0:0:
270,95,208922,2,0,L|274:174,1,80,0|0,0:0|0:0,0:0:0:0:
336,324,209222,1,2,0:0:0:0:
447,200,209372,1,0,0:0:0:0:
274,174,209522,2,0,L|194:177,1,80,0|2,0:0|0:0,0:0:0:0:
74,268,209822,6,0,L|73:347,2,80,2|0|0,0:0|0:0|0:0,0:0:0:0:
24,144,210272,1,0,0:0:0:0:
176,101,210422,2,0,L|255:103,2,80,2|0|0,0:0|0:0|0:0,0:0:0:0:
63,32,210872,1,2,0:0:0:0:
63,32,210947,1,0,0:0:0:0:
63,32,211022,5,2,0:0:0:0:
124,172,211172,1,0,0:0:0:0:
221,25,211322,1,0,0:0:0:0:
145,89,211472,1,0,0:0:0:0:
251,215,211622,5,2,0:0:0:0:
321,70,211772,1,0,0:0:0:0:
237,126,211922,1,0,0:0:0:0:
370,186,212072,1,2,0:0:0:0:
416,13,212222,6,0,L|416:96,1,83.9999974365235,2|0,0:0|0:0,0:0:0:0:
319,333,212522,2,0,L|319:249,1,83.9999974365235,2|0,0:0|0:0,0:0:0:0:
321,70,212822,5,2,0:0:0:0:
135,101,213047,1,2,0:0:0:0:
228,258,213272,1,2,0:0:0:0:
238,144,213722,5,4,0:0:0:0:
