osu file format v14

[General]
AudioFilename: flandre.mp3
AudioLeadIn: 0
PreviewTime: 67022
Countdown: 0
SampleSet: Soft
StackLeniency: 0.7
Mode: 0
LetterboxInBreaks: 1
EpilepsyWarning: 1
WidescreenStoryboard: 1

[Editor]
DistanceSpacing: 1.2
BeatDivisor: 4
GridSize: 4
TimelineZoom: 5.699996

[Metadata]
Title:Q.E.D. -Ripples of 495 years-
TitleUnicode:Q.E.D. -Ripples of 495 years-
Artist:xi
ArtistUnicode:xi
Creator:moonlightleaf
Version:Hard
Source:東方紅魔郷 ~ the Embodiment of Scarlet Devil.
Tags:the4.5 video game Diverse System U.N.オーエンは彼女なのか? Flandre Scarlet theme Touhou QED u.n.owen was her? electronic instrumental 東方Project
BeatmapID:525212
BeatmapSetID:224756

[Difficulty]
HPDrainRate:6
CircleSize:3.5
OverallDifficulty:6
ApproachRate:8
SliderMultiplier:1.4
SliderTickRate:1

[Events]
//Background and Video events
0,0,"bg.jpg",0,0
//Break Periods
2,34107,37357
2,76847,78272
2,79247,80672
2,81647,83072
2,84047,85472
2,86447,87872
2,88847,90272
2,91247,92672
2,93647,95072
//Storyboard Layer 0 (Background)
//Storyboard Layer 1 (Fail)
//Storyboard Layer 2 (Pass)
//Storyboard Layer 3 (Foreground)
//Storyboard Layer 4 (Overlay)
//Storyboard Sound Samples

[TimingPoints]
2767,600,3,2,1,50,1,0
26167,652.173913043478,3,2,1,50,1,0
28153,722.89156626506,3,2,1,50,1,0
28875,759.493670886076,3,2,1,50,1,0
29634,821.917808219178,3,2,1,50,1,0
30455,952.380952380952,3,2,1,50,1,0
31407,1250,3,2,1,50,1,0
32657,1492.53731343284,3,2,1,50,1,0
33907,300,3,2,1,50,1,0
38222,300,4,2,1,60,1,0
42422,-133.333333333333,4,2,1,60,0,0
42872,-100,4,2,1,60,0,0
47822,-100,4,2,1,70,0,0
47897,-100,4,1,2,70,0,0
52322,-100,4,1,2,50,0,0
52622,-100,4,1,2,70,0,0
56972,-100,4,1,4,80,0,0
57122,-100,4,2,1,50,0,0
57422,-100,4,1,2,80,0,1
76022,-100,4,1,2,70,0,1
76622,-100,4,1,2,70,0,0
79022,-200,4,1,2,70,0,0
86222,-166.666666666667,4,1,2,70,0,0
95822,-200,4,2,2,60,0,0
105122,-200,4,2,1,40,0,0
105422,-200,4,2,2,60,0,0
114422,-133.333333333333,4,2,2,60,0,0
115022,-100,4,2,2,60,0,0
115922,-100,4,1,4,90,0,1
115997,-100,4,1,2,80,0,1
124022,-100,4,1,2,80,0,1
124622,-100,4,1,2,80,0,1
134222,-100,4,2,1,70,0,0
138422,-133.333333333333,4,2,1,70,0,0
138872,-100,4,2,1,70,0,0
143897,-100,4,1,2,70,0,0
148322,-100,4,1,2,50,0,0
148622,-100,4,2,1,70,0,0
148697,-100,4,1,2,70,0,0
149822,-100,4,2,1,70,0,0
149897,-100,4,1,2,70,0,0
151022,-100,4,2,1,70,0,0
151097,-100,4,1,2,70,0,0
151622,-100,4,2,1,70,0,0
151697,-100,4,1,2,70,0,0
152222,-100,4,2,1,70,0,0
152297,-100,4,1,2,70,0,0
154622,-100,4,1,2,5,0,0
155747,-100,4,1,2,70,0,0
160622,-100,4,1,2,80,0,1
174422,-100,4,1,2,50,0,1
175022,-100,4,1,2,80,0,1
179822,-100,4,1,2,80,0,1
193622,-100,4,1,2,50,0,1
194222,-100,4,1,2,70,0,0
203522,-100,4,1,2,80,0,1
212222,-100,4,1,2,70,0,0
215807,600,3,2,1,40,1,0
217007,645.161290322581,3,2,1,40,1,0
217652,645.161290322581,3,2,1,40,1,0
218297,666.666666666667,3,2,1,40,1,0
218963,674.157303370787,3,2,1,40,1,0
219637,674.157303370787,3,2,1,40,1,0
220311,731.707317073171,3,2,1,40,1,0
221042,750,3,2,1,40,1,0
221792,789.473684210526,3,2,1,40,1,0
222581,937.5,3,2,1,40,1,0
223518,1090.90909090909,3,2,1,40,1,0
224608,1304.34782608696,3,2,1,40,1,0
225912,1714.28571428571,3,2,1,40,1,0
227626,2222.22222222222,3,2,1,40,1,0
228737,2702.7027027027,3,2,1,40,1,0
230088,1492.53731343284,3,2,1,40,1,0

[Colours]
Combo1 : 2,196,244
Combo2 : 244,128,64
Combo3 : 226,10,91
Combo4 : 228,189,3

[HitObjects]
224,131,2767,6,0,P|258:127|293:131,1,70,2|0,0:0|0:0,0:0:0:0:
328,208,3367,2,0,P|293:212|258:208,1,70,2|0,0:0|0:0,0:0:0:0:
176,204,3967,1,0,0:0:0:0:
108,152,4267,1,2,0:0:0:0:
31,184,4567,2,0,P|15:251|25:320,2,140,2|2|2,0:0|0:0|0:0,0:0:0:0:
191,336,6367,6,0,P|210:306|235:282,1,70,2|0,0:0|0:0,0:0:0:0:
315,260,6967,2,0,P|350:260|385:257,1,70,2|0,0:0|0:0,0:0:0:0:
460,220,7567,1,0,0:0:0:0:
496,144,7867,1,2,0:0:0:0:
451,71,8167,2,0,P|382:70|317:45,2,140,2|2|2,0:0|0:0|0:0,0:0:0:0:
183,147,9967,6,0,P|191:182|188:216,1,70,2|0,0:0|0:0,0:0:0:0:
116,260,10567,2,0,P|108:225|111:190,1,70,2|0,0:0|0:0,0:0:0:0:
112,108,11167,1,0,0:0:0:0:
112,108,11467,1,2,0:0:0:0:
184,64,11767,2,0,P|245:93|265:158,2,140,2|2|2,0:0|0:0|0:0,0:0:0:0:
323,315,13567,6,0,P|358:322|391:314,1,70,2|0,0:0|0:0,0:0:0:0:
424,236,14167,2,0,P|389:229|356:237,1,70,2|0,0:0|0:0,0:0:0:0:
272,248,14767,1,0,0:0:0:0:
236,324,15067,1,2,0:0:0:0:
187,255,15367,2,0,P|206:190|268:163,2,140,2|2|2,0:0|0:0|0:0,0:0:0:0:
436,168,17167,5,2,0:0:0:0:
436,252,17467,1,0,0:0:0:0:
355,276,17767,2,0,P|353:241|364:208,1,70,2|0,0:0|0:0,0:0:0:0:
435,167,18367,2,0,P|413:141|381:128,1,70,0|2,0:0|0:0,0:0:0:0:
300,155,18967,2,0,P|235:179|168:163,2,140,2|2|2,0:0|0:0|0:0,0:0:0:0:
0,172,20767,5,2,0:0:0:0:
0,256,21067,1,0,0:0:0:0:
80,280,21367,2,0,P|82:245|71:212,1,70,2|0,0:0|0:0,0:0:0:0:
54,131,21967,2,0,P|22:144|0:171,1,70,0|2,0:0|0:0,0:0:0:0:
71,212,22567,2,0,P|127:173|136:106,1,140,2|0,0:0|0:0,0:0:0:0:
136,106,23467,1,2,0:0:0:0:
136,106,23767,1,2,0:0:0:0:
247,231,24367,6,0,P|282:237|316:230,1,70,2|0,0:0|0:0,0:0:0:0:
392,196,24967,1,2,0:0:0:0:
428,120,25267,1,2,0:0:0:0:
344,128,25567,2,0,P|315:107|281:100,1,70,0|2,0:0|0:0,0:0:0:0:
204,111,26167,6,0,P|148:153|120:217,2,140,2|2|0,0:0|0:0|0:0,0:0:0:0:
256,192,28153,12,0,33907,0:0:0:0:
187,64,38222,6,0,P|250:36|316:55,1,140,2|2,0:0|0:0,0:0:0:0:
396,200,38822,2,0,P|333:227|267:208,1,140,2|0,0:0|0:0,0:0:0:0:
245,127,39272,2,0,P|190:167|186:235,1,140,2|2,0:0|0:0,0:0:0:0:
250,291,39722,1,0,0:0:0:0:
396,200,40022,1,2,0:0:0:0:
316,56,40322,1,2,0:0:0:0:
148,68,40622,6,0,B|96:104|96:104|69:176,1,140,2|2,0:0|0:0,0:0:0:0:
56,340,41222,2,0,B|108:304|108:304|134:231,1,140,2|0,0:0|0:0,0:0:0:0:
188,168,41672,2,0,P|255:152|323:166,1,140,2|2,0:0|0:0,0:0:0:0:
323,166,42122,1,0,0:0:0:0:
260,320,42422,6,0,B|286:242|231:242|257:166,1,157.500006008148,2|0,0:0|0:0,0:0:0:0:
257,166,43022,5,2,0:0:0:0:
92,164,43322,1,2,0:0:0:0:
124,321,43622,2,0,P|192:336|260:319,1,140,2|0,0:0|0:0,0:0:0:0:
336,284,44072,1,2,0:0:0:0:
460,168,44372,2,0,B|460:244,1,70,2|0,0:0|0:0,0:0:0:0:
376,92,44822,2,0,L|376:16,1,70,2|0,0:0|0:0,0:0:0:0:
288,112,45122,2,0,L|288:188,1,70,2|0,0:0|0:0,0:0:0:0:
216,224,45422,6,0,P|148:219|107:164,2,140,2|2|2,0:0|0:0|0:0,0:0:0:0:
192,144,46172,1,2,0:0:0:0:
192,144,46472,2,0,L|120:264,1,140,2|2,0:0|0:0,0:0:0:0:
140,348,46922,1,0,0:0:0:0:
241,347,47072,1,0,0:0:0:0:
241,347,47147,1,0,0:0:0:0:
241,347,47222,1,2,0:0:0:0:
288,268,47372,1,0,0:0:0:0:
288,268,47447,1,0,0:0:0:0:
288,268,47522,2,0,L|298:198,1,70,0|0,0:0|0:0,0:0:0:0:
379,178,47822,6,0,L|389:248,1,70,4|0,0:0|0:0,0:0:0:0:
399,331,48122,1,8,0:0:0:0:
476,180,48422,1,2,0:0:0:0:
476,180,48572,1,8,0:0:0:0:
364,52,48872,1,2,0:0:0:0:
212,76,49172,1,2,0:0:0:0:
212,76,49247,1,0,0:0:0:0:
212,76,49322,1,8,0:0:0:0:
306,216,49622,1,8,0:0:0:0:
152,284,49922,1,8,0:0:0:0:
56,144,50222,5,2,0:0:0:0:
212,76,50522,1,8,0:0:0:0:
232,244,50822,2,0,L|236:328,1,70,2|8,0:0|0:0,0:0:0:0:
404,300,51272,2,0,B|376:234|428:226|412:165,1,140,2|2,0:0|0:0,0:0:0:0:
381,86,51722,1,8,0:0:0:0:
381,86,52022,2,0,P|321:52|252:44,1,140,8|0,0:0|0:0,0:0:0:0:
245,211,52622,6,0,L|247:141,1,70,4|0,0:0|0:0,0:0:0:0:
252,44,52922,1,8,0:0:0:0:
245,211,53222,1,2,0:0:0:0:
245,211,53372,2,0,L|175:211,1,70,8|0,0:0|0:0,0:0:0:0:
92,216,53672,2,0,P|122:276|188:291,1,140,2|2,0:0|0:0,0:0:0:0:
245,211,54122,2,0,L|265:139,1,70,0|0,0:0|0:0,0:0:0:0:
336,228,54422,2,0,L|354:160,1,70,8|0,0:0|0:0,0:0:0:0:
440,196,54722,2,0,L|420:268,1,70,8|0,0:0|0:0,0:0:0:0:
348,340,55022,6,0,B|300:324|300:324|211:337,1,140,4|8,0:0|0:0,0:0:0:0:
28,232,55622,2,0,B|76:248|76:248|164:234,1,140,2|0,0:0|0:0,0:0:0:0:
248,243,56072,2,0,P|227:177|165:150,1,140,2|2,0:0|0:0,0:0:0:0:
248,244,56522,2,0,L|317:243,1,70,8|0,0:0|0:0,0:0:0:0:
396,212,56822,1,8,0:0:0:0:
460,156,56972,2,0,L|467:86,1,70,12|0,0:0|0:0,0:0:0:0:
324,176,57422,6,0,L|324:106,1,70,4|0,0:0|0:0,0:0:0:0:
244,84,57722,2,0,L|244:154,1,70,8|0,0:0|0:0,0:0:0:0:
248,244,58022,2,0,B|224:292|224:292|141:317,1,140,2|0,0:0|0:0,0:0:0:0:
60,296,58472,6,0,B|84:248|84:248|166:222,1,140,4|2,0:0|0:0,0:0:0:0:
248,244,58922,2,0,L|314:267,1,70,10|0,0:0|0:0,0:0:0:0:
436,228,59222,2,0,L|369:204,1,70,8|0,0:0|0:0,0:0:0:0:
336,128,59522,1,2,0:0:0:0:
284,60,59672,6,0,B|244:48|244:48|152:82,1,140,4|2,0:0|0:0,0:0:0:0:
88,140,60122,1,8,0:0:0:0:
132,212,60272,1,0,0:0:0:0:
76,276,60422,2,0,P|54:248|44:215,2,70,8|0|8,0:0|0:0|0:0,0:0:0:0:
132,212,60872,6,0,P|162:272|138:336,1,140,4|2,0:0|0:0,0:0:0:0:
76,276,61322,2,0,L|215:260,1,140,8|2,0:0|0:0,0:0:0:0:
293,288,61772,1,0,0:0:0:0:
361,236,61922,1,2,0:0:0:0:
361,236,62222,6,0,L|361:156,1,70,2|0,0:0|0:0,0:0:0:0:
281,136,62522,2,0,L|281:206,1,70,8|0,0:0|0:0,0:0:0:0:
293,288,62822,1,2,0:0:0:0:
372,316,62972,2,0,P|405:303|428:277,1,70,8|0,0:0|0:0,0:0:0:0:
471,204,63272,6,0,B|473:62,1,140,4|0,0:0|0:0,0:0:0:0:
391,83,63722,2,0,L|390:152,2,70,8|0|4,0:0|0:0|0:0,0:0:0:0:
304,227,64322,1,8,0:0:0:0:
304,227,64472,6,0,P|238:246|179:212,1,140,4|0,0:0|0:0,0:0:0:0:
139,139,64922,2,0,L|70:139,1,70,8|0,0:0|0:0,0:0:0:0:
98,60,65222,2,0,L|28:60,2,70,0|2|2,0:0|0:0|0:0,0:0:0:0:
182,64,65672,6,0,B|212:104|212:104|226:192,1,140,4|8,0:0|0:0,0:0:0:0:
168,256,66122,1,8,0:0:0:0:
84,272,66272,2,0,L|49:268,2,35,2|0|2,0:0|0:0|0:0,0:0:0:0:
68,188,66572,2,0,L|33:184,2,35,2|0|2,0:0|0:0|0:0,0:0:0:0:
152,176,66872,1,2,0:0:0:0:
187,291,67022,6,0,P|252:312|316:287,1,140,4|8,0:0|0:0,0:0:0:0:
336,188,67472,1,0,0:0:0:0:
268,135,67622,2,0,P|252:166|251:201,2,70,2|8|0,0:0|0:0|0:0,0:0:0:0:
346,104,68072,6,0,P|406:136|418:203,1,140,2|2,0:0|0:0,0:0:0:0:
364,268,68522,2,0,L|294:268,1,70,8|0,0:0|0:0,0:0:0:0:
216,236,68822,2,0,L|208:167,2,70,4|0|8,0:0|0:0|0:0,0:0:0:0:
224,319,69272,1,4,0:0:0:0:
108,300,69572,5,0,0:0:0:0:
108,300,69722,2,0,L|100:231,1,70,8|0,0:0|0:0,0:0:0:0:
20,204,70022,2,0,L|27:273,1,70,4|0,0:0|0:0,0:0:0:0:
87,144,70322,1,8,0:0:0:0:
87,144,70472,6,0,P|117:82|179:52,1,140,4|0,0:0|0:0,0:0:0:0:
268,116,70922,2,0,P|297:134|331:143,1,70,10|0,0:0|0:0,0:0:0:0:
412,172,71222,2,0,P|412:137|404:103,1,70,0|0,0:0|0:0,0:0:0:0:
384,20,71522,2,0,P|353:36|328:60,1,70,8|0,0:0|0:0,0:0:0:0:
268,116,71822,6,0,P|233:111|201:97,1,70,4|0,0:0|0:0,0:0:0:0:
120,74,72122,2,0,L|114:172,1,70,8|0,0:0|0:0,0:0:0:0:
113,227,72422,1,2,0:0:0:0:
131,308,72572,2,0,P|162:321|197:323,1,70,8|2,0:0|0:0,0:0:0:0:
302,328,72872,6,0,B|296:282|296:282|310:235|310:235|308:190,1,140,4|0,0:0|0:0,0:0:0:0:
268,116,73322,1,8,0:0:0:0:
184,127,73472,1,0,0:0:0:0:
184,127,73547,1,0,0:0:0:0:
184,127,73622,1,2,0:0:0:0:
275,267,73922,1,8,0:0:0:0:
309,190,74072,1,4,0:0:0:0:
353,119,74222,6,0,P|387:116|422:118,1,70,2|0,0:0|0:0,0:0:0:0:
477,211,74522,2,0,P|442:213|407:211,1,70,8|0,0:0|0:0,0:0:0:0:
353,119,74822,2,0,P|350:84|352:49,1,70,12|0,0:0|0:0,0:0:0:0:
407,211,75122,2,0,P|409:245|407:280,1,70,8|4,0:0|0:0,0:0:0:0:
323,268,75422,6,0,L|287:268,3,35,10|0|10|0,0:0|0:0|0:0|0:0,0:0:0:0:
275,228,75722,2,0,L|239:228,3,35,10|0|10|0,0:0|0:0|0:0|0:0,0:0:0:0:
209,199,76022,2,0,B|201:127|241:67|241:67|169:67,1,210,2|0,0:0|0:0,0:0:0:0:
69,67,76622,1,4,0:0:0:0:
188,136,79022,5,2,0:0:0:0:
322,128,81422,5,2,0:0:0:0:
376,216,83822,5,2,0:0:0:0:
220,208,86222,5,2,0:0:0:0:
256,72,88622,5,2,0:0:0:0:
388,172,91022,5,2,0:0:0:0:
348,208,93422,5,2,0:0:0:0:
176,55,95822,6,0,P|142:66|114:86,2,70,2|2|8,0:0|0:0|0:0,0:0:0:0:
251,87,96722,2,0,P|286:94|321:96,1,70,2|2,0:0|0:0,0:0:0:0:
404,104,97322,1,2,0:0:0:0:
383,187,97622,2,0,L|372:256,1,70,8|2,0:0|0:0,0:0:0:0:
346,336,98222,6,0,P|376:353|410:359,2,70,2|2|8,0:0|0:0|0:0,0:0:0:0:
264,355,99122,1,2,0:0:0:0:
186,322,99422,1,2,0:0:0:0:
106,350,99722,1,2,0:0:0:0:
29,314,100022,2,0,L|19:350,2,35,8|2|2,0:0|0:0|0:0,0:0:0:0:
68,239,100622,6,0,P|55:206|32:179,1,70,4|2,0:0|0:0,0:0:0:0:
73,106,101222,2,0,P|107:111|141:105,1,70,8|2,0:0|0:0,0:0:0:0:
188,176,101822,1,2,0:0:0:0:
229,103,102122,1,2,0:0:0:0:
277,171,102422,2,0,P|308:186|343:188,1,70,8|2,0:0|0:0,0:0:0:0:
395,254,103022,6,0,P|380:285|373:319,1,70,2|2,0:0|0:0,0:0:0:0:
294,349,103622,1,8,0:0:0:0:
214,320,103922,1,2,0:0:0:0:
244,241,104222,2,0,P|239:206|233:171,1,70,2|2,0:0|0:0,0:0:0:0:
166,120,104822,1,8,0:0:0:0:
241,82,105122,1,2,0:0:0:0:
319,110,105422,6,0,L|391:132,1,70,4|2,0:0|0:0,0:0:0:0:
447,187,106022,1,8,0:0:0:0:
419,266,106322,1,2,0:0:0:0:
455,341,106622,1,2,0:0:0:0:
371,337,106922,2,0,L|288:346,2,70,2|8|2,0:0|0:0|0:0,0:0:0:0:
419,266,107822,5,2,0:0:0:0:
374,195,108122,1,2,0:0:0:0:
290,186,108422,1,8,0:0:0:0:
241,117,108722,1,2,0:0:0:0:
272,39,109022,1,2,0:0:0:0:
188,46,109322,2,0,L|108:54,1,70,2|8,0:0|0:0,0:0:0:0:
45,105,109922,1,2,0:0:0:0:
45,105,110072,1,2,0:0:0:0:
45,105,110222,6,0,L|42:174,1,70,4|2,0:0|0:0,0:0:0:0:
31,258,110822,2,0,L|99:244,1,70,8|2,0:0|0:0,0:0:0:0:
139,317,111422,2,0,L|208:331,1,70,2|2,0:0|0:0,0:0:0:0:
263,268,112022,2,0,L|331:254,1,70,8|2,0:0|0:0,0:0:0:0:
386,190,112622,5,4,0:0:0:0:
443,251,112922,1,2,0:0:0:0:
490,181,113222,1,8,0:0:0:0:
434,117,113522,1,2,0:0:0:0:
386,190,113822,1,2,0:0:0:0:
306,162,114122,1,2,0:0:0:0:
343,83,114422,6,0,P|342:56|343:30,1,52.5000020027161,2|0,0:0|0:0,0:0:0:0:
434,64,114722,2,0,P|435:90|434:116,1,52.5000020027161,2|0,0:0|0:0,0:0:0:0:
436,200,115022,6,0,L|436:276,2,70,4|0|0,0:3|0:0|0:0,0:0:0:0:
359,164,115472,1,0,0:0:0:0:
328,244,115622,2,0,L|281:296,1,70,0|0,0:0|0:0,0:0:0:0:
200,320,115922,6,0,B|148:320|148:320|104:243,1,140,8|4,0:0|0:0,0:0:0:0:
84,160,116372,1,0,0:0:0:0:
162,118,116522,2,0,P|171:151|168:186,1,70,8|0,0:0|0:0,0:0:0:0:
84,160,116822,2,0,L|224:152,1,140,2|8,0:0|0:0,0:0:0:0:
292,104,117272,6,0,L|301:70,2,35,0|0|2,0:0|0:0|0:0,0:0:0:0:
336,176,117572,1,0,0:0:0:0:
412,140,117722,2,0,L|435:74,2,70,8|0|2,0:0|0:0|0:0,0:0:0:0:
456,212,118172,1,2,0:0:0:0:
383,256,118322,2,0,P|381:290|383:325,1,70,8|0,0:0|0:0,0:0:0:0:
460,292,118622,6,0,L|320:292,1,140,2|8,0:0|0:0,0:0:0:0:
256,236,119072,1,0,0:0:0:0:
184,280,119222,1,2,0:0:0:0:
184,280,119522,2,0,L|134:230,1,70,8|0,0:0|0:0,0:0:0:0:
76,168,119822,6,0,P|51:143|42:109,2,70,2|0|8,0:0|0:0|0:0,0:0:0:0:
160,152,120272,1,0,0:0:0:0:
216,92,120422,2,0,P|235:121|244:154,1,70,2|2,0:0|0:0,0:0:0:0:
257,236,120722,2,0,P|266:269|285:298,1,70,8|0,0:0|0:0,0:0:0:0:
340,236,121022,6,0,B|380:239|408:223|429:193|429:193|465:189,1,140,2|8,0:0|0:0,0:0:0:0:
492,108,121472,1,0,0:0:0:0:
504,24,121622,2,0,B|464:20|436:36|415:66|415:66|379:70,1,140,2|8,0:0|0:0,0:0:0:0:
353,151,122072,1,0,0:0:0:0:
340,236,122222,6,0,P|328:269|311:299,1,70,2|0,0:0|0:0,0:0:0:0:
256,236,122522,2,0,P|221:243|186:243,1,70,8|0,0:0|0:0,0:0:0:0:
208,160,122822,2,0,P|184:133|167:103,1,70,2|2,0:0|0:0,0:0:0:0:
248,84,123122,2,0,P|259:50|276:20,1,70,8|0,0:0|0:0,0:0:0:0:
336,80,123422,6,0,B|348:149|348:149|412:176,1,140,2|8,0:0|0:0,0:0:0:0:
476,232,123872,1,0,0:0:0:0:
412,284,124022,2,0,P|371:316|319:320,2,105,4|6|0,0:0|0:0|0:0,0:0:0:0:
340,236,124622,6,0,P|306:244|271:241,1,70,2|0,0:0|0:0,0:0:0:0:
208,176,124922,2,0,P|174:168|139:171,1,70,8|0,0:0|0:0,0:0:0:0:
80,112,125222,2,0,P|54:175|83:236,1,140,2|8,0:0|0:0,0:0:0:0:
168,248,125672,1,0,0:0:0:0:
208,175,125822,6,0,P|264:137|332:145,1,140,2|8,0:0|0:0,0:0:0:0:
412,180,126272,1,0,0:0:0:0:
412,180,126347,1,0,0:0:0:0:
412,180,126422,2,0,P|408:215|409:250,1,70,2|2,0:0|0:0,0:0:0:0:
487,280,126722,2,0,P|491:242|489:206,1,70,8|0,0:0|0:0,0:0:0:0:
412,180,127022,6,0,P|378:183|342:180,1,70,2|0,0:0|0:0,0:0:0:0:
293,111,127322,1,8,0:0:0:0:
228,164,127472,1,0,0:0:0:0:
203,84,127622,2,0,P|139:68|64:85,1,140,2|8,0:0|0:0,0:0:0:0:
20,152,128072,1,0,0:0:0:0:
91,195,128222,6,0,P|96:230|94:265,1,70,2|0,0:0|0:0,0:0:0:0:
20,304,128522,2,0,P|15:269|17:234,1,70,8|0,0:0|0:0,0:0:0:0:
91,195,128822,2,0,B|143:183|143:183|207:240,1,140,2|8,0:0|0:0,0:0:0:0:
260,308,129272,6,0,L|260:343,2,35,0|0|2,0:0|0:0|0:0,0:0:0:0:
289,229,129572,1,0,0:0:0:0:
255,152,129722,2,0,P|252:117|253:82,1,70,8|0,0:0|0:0,0:0:0:0:
319,29,130022,2,0,P|353:34|388:31,1,70,2|0,0:0|0:0,0:0:0:0:
454,82,130322,2,0,L|458:151,1,70,8|0,0:0|0:0,0:0:0:0:
443,234,130622,6,0,P|412:218|377:214,1,70,2|0,0:0|0:0,0:0:0:0:
294,231,130922,1,8,0:0:0:0:
294,231,130997,1,0,0:0:0:0:
294,231,131072,1,0,0:0:0:0:
260,308,131222,2,0,P|225:312|190:308,1,70,2|2,0:0|0:0,0:0:0:0:
136,244,131522,2,0,P|101:240|66:244,1,70,8|0,0:0|0:0,0:0:0:0:
100,324,131822,6,0,L|100:184,1,140,2|8,0:0|0:0,0:0:0:0:
164,128,132272,1,0,0:0:0:0:
250,124,132422,2,0,P|223:62|158:40,1,140,2|8,0:0|0:0,0:0:0:0:
92,96,132872,1,0,0:0:0:0:
20,139,133022,6,0,P|12:174|13:208,1,70,2|0,0:0|0:0,0:0:0:0:
79,262,133322,2,0,L|154:259,1,70,8|0,0:0|0:0,0:0:0:0:
212,203,133622,2,0,B|266:201|266:201|314:215,2,105,4|4|4,0:0|0:0|0:0,0:0:0:0:
186,63,134222,6,0,P|249:35|311:63,1,140,2|2,0:0|0:0,0:0:0:0:
418,191,134822,2,0,L|418:267,1,70,2|2,0:0|0:0,0:0:0:0:
332,152,135272,2,0,L|332:292,1,140,2|2,0:0|0:0,0:0:0:0:
332,292,135722,1,0,0:0:0:0:
184,216,136022,1,2,0:0:0:0:
220,52,136322,1,2,0:0:0:0:
388,56,136622,6,0,B|440:92|440:92|467:164,1,140,2|2,0:0|0:0,0:0:0:0:
472,316,137222,2,0,B|420:280|420:280|394:207,1,140,2|0,0:0|0:0,0:0:0:0:
324,164,137672,2,0,P|256:178|188:162,1,140,2|2,0:0|0:0,0:0:0:0:
188,162,138122,1,0,0:0:0:0:
256,48,138422,6,0,B|230:126|285:126|259:202,1,157.500006008148,2|0,0:0|0:0,0:0:0:0:
259,201,139022,5,2,0:0:0:0:
144,320,139322,1,2,0:0:0:0:
88,164,139622,1,2,0:0:0:0:
88,164,139772,2,0,B|88:94,1,70,2|0,0:0|0:0,0:0:0:0:
172,76,140072,1,2,0:0:0:0:
260,200,140372,2,0,B|260:270,1,70,2|0,0:0|0:0,0:0:0:0:
424,304,140822,2,0,L|478:259,1,70,2|0,0:0|0:0,0:0:0:0:
412,204,141122,2,0,L|357:248,1,70,2|0,0:0|0:0,0:0:0:0:
388,115,141422,6,0,P|455:123|499:176,2,140,2|2|2,0:0|0:0|0:0,0:0:0:0:
336,180,142172,1,0,0:0:0:0:
219,211,142472,2,0,P|177:159|109:158,1,140,2|2,0:0|0:0,0:0:0:0:
28,188,142922,1,0,0:0:0:0:
44,104,143072,2,0,L|44:69,2,35,0|0|2,0:0|0:0|0:0,0:0:0:0:
109,158,143372,1,2,0:0:0:0:
109,158,143522,2,0,L|187:153,1,70,2|2,0:0|0:0,0:0:0:0:
258,179,143822,6,0,L|266:275,1,70,4|0,0:0|0:0,0:0:0:0:
284,329,144122,2,0,P|316:314|339:288,1,70,8|0,0:0|0:0,0:0:0:0:
368,208,144422,1,2,0:0:0:0:
355,124,144572,2,0,P|348:89|336:56,1,70,8|0,0:0|0:0,0:0:0:0:
257,29,144872,2,0,P|222:34|193:52,2,70,2|0|0,0:0|0:0|0:0,0:0:0:0:
252,111,145322,2,0,P|222:129|188:136,1,70,8|0,0:0|0:0,0:0:0:0:
120,92,145622,2,0,P|101:135|102:164,1,70,2|0,0:0|0:0,0:0:0:0:
37,212,145922,2,0,P|19:181|14:147,1,70,8|0,0:0|0:0,0:0:0:0:
36,64,146222,6,0,P|61:28|88:13,1,70,2|0,0:0|0:0,0:0:0:0:
164,31,146522,2,0,P|187:58|196:92,1,70,8|0,0:0|0:0,0:0:0:0:
218,173,146822,1,2,0:0:0:0:
233,255,146972,2,0,L|233:325,1,70,8|0,0:0|0:0,0:0:0:0:
328,356,147272,2,0,B|356:290|304:282|320:221,1,140,2|0,0:0|0:0,0:0:0:0:
341,132,147722,1,8,0:0:0:0:
341,132,148022,2,0,P|375:130|410:137,1,70,2|0,0:0|0:0,0:0:0:0:
446,61,148322,2,0,P|412:51|377:51,1,70,0|0,0:0|0:0,0:0:0:0:
292,51,148622,6,0,P|259:60|224:62,1,70,4|0,0:0|0:0,0:0:0:0:
139,71,148922,2,0,P|114:95|103:128,1,70,8|0,0:0|0:0,0:0:0:0:
96,212,149222,1,2,0:0:0:0:
96,212,149372,2,0,L|165:211,1,70,8|0,0:0|0:0,0:0:0:0:
112,292,149672,2,0,P|46:278|16:218,1,140,2|0,0:0|0:0,0:0:0:0:
48,140,150122,2,0,L|88:80,1,70,8|0,0:0|0:0,0:0:0:0:
168,60,150422,2,0,L|184:127,1,70,0|0,0:0|0:0,0:0:0:0:
256,172,150722,2,0,L|296:112,1,70,2|0,0:0|0:0,0:0:0:0:
380,104,151022,6,0,B|393:193|393:193|377:241,1,140,4|8,0:0|0:0,0:0:0:0:
228,316,151622,2,0,B|142:288|142:288|106:253,1,140,2|0,0:0|0:0,0:0:0:0:
256,172,152222,6,0,B|244:144|244:144|245:102|245:102|229:64,1,105,4|4,0:0|0:0,0:0:0:0:
110,64,152672,2,0,B|98:92|98:92|99:134|99:134|83:172,1,105,4|4,0:0|0:0,0:0:0:0:
167,307,153122,2,0,L|166:238,1,70,4|4,0:0|0:0,0:0:0:0:
256,192,153422,12,2,154622,0:0:0:0:
282,251,155822,6,0,B|242:263|242:263|145:252,2,140,4|0|0,0:0|0:0|0:0,0:0:0:0:
325,178,156572,1,4,0:0:0:0:
325,178,156872,6,0,L|129:104,1,210,4|0,0:0|0:0,0:0:0:0:
92,28,157472,1,0,0:0:0:0:
92,28,157622,2,0,P|47:79|54:146,1,140,4|0,0:0|0:0,0:0:0:0:
88,224,158072,5,4,0:0:0:0:
120,304,158222,2,0,L|120:374,1,70,0|0,0:0|0:0,0:0:0:0:
192,272,158522,2,0,L|192:202,1,70,0|0,0:0|0:0,0:0:0:0:
260,156,158822,2,0,L|260:86,1,70,4|0,0:0|0:0,0:0:0:0:
352,56,159122,1,0,0:0:0:0:
432,32,159272,6,0,B|460:77|460:77|445:162,1,140,4|0,0:0|0:0,0:0:0:0:
379,216,159722,2,0,P|357:242|342:273,1,70,2|2,0:0|0:0,0:0:0:0:
275,328,160022,2,0,P|243:340|209:347,1,70,2|2,0:0|0:0,0:0:0:0:
120,304,160322,1,8,0:0:0:0:
132,136,160622,6,0,L|212:136,1,70,4|0,0:0|0:0,0:0:0:0:
232,56,160922,2,0,L|162:56,1,70,8|0,0:0|0:0,0:0:0:0:
80,68,161222,1,2,0:0:0:0:
51,147,161372,2,0,P|65:180|90:203,1,70,8|0,0:0|0:0,0:0:0:0:
184,236,161672,6,0,B|236:224|236:224|286:153,1,140,2|0,0:0|0:0,0:0:0:0:
301,55,162122,2,0,P|266:49|232:55,2,70,8|0|4,0:0|0:0|0:0,0:0:0:0:
411,180,162722,1,8,0:0:0:0:
411,180,162872,6,0,P|353:142|286:153,1,140,4|0,0:0|0:0,0:0:0:0:
219,195,163322,2,0,L|149:195,1,70,8|0,0:0|0:0,0:0:0:0:
153,283,163622,1,2,0:0:0:0:
153,283,163772,2,0,L|235:283,1,70,8|0,0:0|0:0,0:0:0:0:
316,344,164072,6,0,P|366:298|367:230,1,140,4|0,0:0|0:0,0:0:0:0:
336,152,164522,1,8,0:0:0:0:
256,124,164672,2,0,L|221:119,2,35,0|0|0,0:0|0:0|0:0,0:0:0:0:
236,40,164972,2,0,L|201:35,2,35,8|0|2,0:0|0:0|0:0,0:0:0:0:
320,56,165272,1,0,0:0:0:0:
414,81,165422,6,0,B|437:137|437:137|447:218,1,140,4|8,0:0|0:0,0:0:0:0:
451,300,165872,1,0,0:0:0:0:
384,352,166022,1,2,0:0:0:0:
320,291,166172,2,0,P|349:270|383:263,1,70,8|0,0:0|0:0,0:0:0:0:
308,373,166472,6,0,P|250:339|237:272,1,140,4|0,0:0|0:0,0:0:0:0:
292,211,166922,2,0,L|363:186,1,70,8|0,0:0|0:0,0:0:0:0:
427,141,167222,2,0,L|435:72,2,70,4|0|8,0:0|0:0|0:0,0:0:0:0:
358,187,167672,6,0,L|292:211,1,70,4|0,0:0|0:0,0:0:0:0:
268,132,167972,1,0,0:0:0:0:
268,132,168122,2,0,L|199:124,1,70,8|0,0:0|0:0,0:0:0:0:
253,47,168422,2,0,L|184:40,1,70,4|0,0:0|0:0,0:0:0:0:
116,128,168722,1,2,0:0:0:0:
116,127,168872,6,0,P|54:157|35:222,1,140,4|0,0:0|0:0,0:0:0:0:
120,212,169322,2,0,P|146:233|166:261,1,70,8|0,0:0|0:0,0:0:0:0:
221,327,169622,2,0,P|188:338|153:343,1,70,2|0,0:0|0:0,0:0:0:0:
69,352,169922,2,0,P|73:317|87:285,1,70,8|0,0:0|0:0,0:0:0:0:
119,212,170222,6,0,P|152:198|187:195,1,70,4|0,0:0|0:0,0:0:0:0:
255,242,170522,2,0,P|289:252|324:250,1,70,8|0,0:0|0:0,0:0:0:0:
406,231,170822,1,2,0:0:0:0:
475,277,170972,2,0,L|467:346,1,70,8|0,0:0|0:0,0:0:0:0:
384,363,171272,1,2,0:0:0:0:
302,343,171422,6,0,L|291:273,1,70,0|0,0:0|0:0,0:0:0:0:
278,190,171722,1,8,0:0:0:0:
278,190,171797,1,0,0:0:0:0:
278,190,171872,1,0,0:0:0:0:
341,134,172022,1,4,0:0:0:0:
231,6,172322,1,2,0:0:0:0:
209,87,172472,1,4,0:0:0:0:
124,87,172622,6,0,L|54:87,1,70,0|0,0:0|0:0,0:0:0:0:
20,168,172922,2,0,L|89:168,1,70,4|0,0:0|0:0,0:0:0:0:
164,212,173222,2,0,P|167:247|165:282,1,70,4|2,0:0|0:0,0:0:0:0:
88,320,173522,2,0,P|86:286|88:251,1,70,4|2,0:0|0:0,0:0:0:0:
164,212,173822,6,0,L|200:212,3,35,10|0|10|0,0:0|0:0|0:0|0:0,0:0:0:0:
240,212,174122,2,0,L|276:212,3,35,10|0|10|8,0:0|0:0|0:0|0:0,0:0:0:0:
316,212,174422,2,0,B|324:284|284:344|284:344|356:344,1,210,2|2,0:0|0:0,0:0:0:0:
440,344,175022,6,0,L|448:274,1,70,4|0,0:0|0:0,0:0:0:0:
484,197,175322,2,0,L|481:126,1,70,8|0,0:0|0:0,0:0:0:0:
431,58,175622,1,2,0:0:0:0:
347,56,175772,2,0,P|330:87|323:121,1,70,8|2,0:0|0:0,0:0:0:0:
264,182,176072,6,0,P|194:178|115:66,1,210,4|8,0:0|0:0,0:0:0:0:
178,17,176672,1,0,0:0:0:0:
245,64,176822,2,0,P|280:68|315:64,1,70,4|0,0:0|0:0,0:0:0:0:
376,123,177122,1,8,0:0:0:0:
401,202,177272,6,0,P|402:236|398:271,1,70,4|0,0:0|0:0,0:0:0:0:
352,343,177572,1,0,0:0:0:0:
268,346,177722,2,0,L|199:332,1,70,8|0,0:0|0:0,0:0:0:0:
167,242,178022,2,0,L|304:269,1,140,4|10,0:0|0:0,0:0:0:0:
352,343,178472,6,0,L|420:356,2,70,4|0|0,0:0|0:0|0:0,0:0:0:0:
304,269,178922,2,0,P|284:141|155:131,1,280,8|8,0:0|0:0,0:0:0:0:
105,200,179672,1,0,0:0:0:0:
92,283,179822,6,0,P|90:317|94:352,1,70,4|0,0:0|0:0,0:0:0:0:
171,317,180122,2,0,P|175:282|172:247,1,70,8|0,0:0|0:0,0:0:0:0:
105,200,180422,1,2,0:0:0:0:
55,132,180572,2,0,L|55:62,1,70,8|0,0:0|0:0,0:0:0:0:
133,34,180872,6,0,P|202:34|253:80,1,140,4|0,0:0|0:0,0:0:0:0:
253,165,181322,1,8,0:0:0:0:
253,165,181397,1,0,0:0:0:0:
253,165,181472,1,0,0:0:0:0:
213,238,181622,2,0,P|208:272|211:307,1,70,4|0,0:0|0:0,0:0:0:0:
280,354,181922,2,0,P|312:341|347:336,1,70,8|0,0:0|0:0,0:0:0:0:
430,349,182222,6,0,P|438:316|436:281,1,70,0|0,0:0|0:0,0:0:0:0:
383,216,182522,2,0,P|378:181|385:147,1,70,8|0,0:0|0:0,0:0:0:0:
429,75,182822,1,2,0:0:0:0:
347,52,182972,2,0,P|305:47|269:47,1,70,4|2,0:0|0:0,0:0:0:0:
214,102,183272,6,0,B|219:171,1,70,4|0,0:0|0:0,0:0:0:0:
246,251,183572,1,0,0:0:0:0:
323,283,183722,2,0,L|393:275,1,70,8|0,0:0|0:0,0:0:0:0:
433,201,184022,2,0,L|363:193,1,70,0|8,0:0|0:0,0:0:0:0:
325,118,184322,2,0,L|395:110,1,70,2|0,0:0|0:0,0:0:0:0:
435,36,184622,6,0,B|384:25|384:25|297:38,1,140,4|8,0:0|0:0,0:0:0:0:
218,69,185072,1,0,0:0:0:0:
151,120,185222,2,0,B|173:162|173:162|160:253,1,140,2|0,0:0|0:0,0:0:0:0:
148,336,185672,6,0,L|215:356,1,70,4|0,0:0|0:0,0:0:0:0:
260,285,185972,1,0,0:0:0:0:
299,360,186122,2,0,L|366:339,1,70,8|0,0:0|0:0,0:0:0:0:
447,320,186422,1,4,0:0:0:0:
339,192,186722,1,8,0:0:0:0:
260,215,186872,6,0,L|260:285,1,70,4|0,0:0|0:0,0:0:0:0:
215,356,187172,1,0,0:0:0:0:
144,310,187322,1,8,0:0:0:0:
121,229,187472,2,0,P|114:193|121:160,1,70,4|0,0:0|0:0,0:0:0:0:
133,77,187772,2,0,P|165:87|191:111,1,70,4|0,0:0|0:0,0:0:0:0:
261,160,188072,2,0,P|234:184|201:195,1,70,4|0,0:0|0:0,0:0:0:0:
53,274,188522,6,0,L|35:305,2,35,8|0|0,0:0|0:0|0:0,0:0:0:0:
113,334,188822,2,0,L|95:365,2,35,2|0|0,0:0|0:0|0:0,0:0:0:0:
176,277,189122,2,0,L|247:275,1,70,2|0,0:0|0:0,0:0:0:0:
328,295,189422,6,0,L|392:322,1,70,4|0,0:0|0:0,0:0:0:0:
473,345,189722,2,0,L|479:275,1,70,8|0,0:0|0:0,0:0:0:0:
472,192,190022,1,2,0:0:0:0:
392,219,190172,1,4,0:0:0:0:
344,149,190322,1,0,0:0:0:0:
398,85,190472,1,4,0:0:0:0:
469,122,190622,6,0,L|471:191,1,70,0|0,0:0|0:0,0:0:0:0:
479,275,190922,1,8,0:0:0:0:
479,275,190997,1,0,0:0:0:0:
479,275,191072,1,0,0:0:0:0:
415,329,191222,1,0,0:0:0:0:
247,335,191522,1,8,0:0:0:0:
324,303,191672,1,4,0:0:0:0:
364,229,191822,6,0,P|362:194|348:162,1,70,0|0,0:0|0:0,0:0:0:0:
306,88,192122,2,0,P|277:109|263:140,1,70,8|0,0:0|0:0,0:0:0:0:
248,224,192422,2,0,L|204:228,3,35,4|0|2|0,0:0|0:0|0:0|0:0,0:0:0:0:
172,232,192722,2,0,L|128:256,3,35,4|0|2|0,0:0|0:0|0:0|0:0,0:0:0:0:
124,288,193022,6,0,L|80:292,3,35,10|0|8|0,0:0|0:0|0:0|0:0,0:0:0:0:
48,296,193322,2,0,L|4:320,3,35,10|0|10|0,0:0|0:0|0:0|0:0,0:0:0:0:
20,270,193622,2,0,B|20:164|20:164|84:152|99:105,1,210,2|2,0:0|0:0,0:0:0:0:
20,76,194222,6,0,B|99:107|99:107|149:84,1,140,4|0,0:0|0:0,0:0:0:0:
277,28,194822,1,2,0:0:0:0:
416,27,195122,1,0,0:0:0:0:
463,158,195422,2,0,P|442:224|440:294,1,140,2|0,0:0|0:0,0:0:0:0:
317,359,196022,1,2,0:0:0:0:
196,287,196322,1,0,0:0:0:0:
72,352,196622,6,0,P|53:285|75:220,1,140,4|0,0:0|0:0,0:0:0:0:
199,154,197222,1,2,0:0:0:0:
319,224,197522,1,0,0:0:0:0:
450,175,197822,2,0,P|457:107|430:43,1,140,2|0,0:0|0:0,0:0:0:0:
290,35,198422,1,2,0:0:0:0:
175,115,198722,1,0,0:0:0:0:
200,252,199022,6,0,P|266:270|334:253,1,140,4|0,0:0|0:0,0:0:0:0:
450,175,199622,1,2,0:0:0:0:
459,314,199922,1,0,0:0:0:0:
322,343,200222,2,0,P|254:359|187:341,1,140,2|8,0:0|0:0,0:0:0:0:
132,212,200822,1,2,0:0:0:0:
219,103,201122,1,0,0:0:0:0:
360,115,201422,6,0,P|326:176|336:244,2,140,2|0|8,0:0|0:0|0:0,0:0:0:0:
469,203,202322,1,0,0:0:0:0:
402,326,202622,2,0,P|340:351|269:326,2,140,4|0|2,0:0|0:0|0:0,0:0:0:0:
448,269,203372,2,0,L|469:202,1,70,0|8,0:0|0:0,0:0:0:0:
360,113,203822,6,0,P|292:123|234:85,1,140,2|0,0:0|0:0,0:0:0:0:
204,68,204272,1,0,0:0:0:0:
204,68,204422,2,0,P|175:127|174:210,1,140,2|0,0:0|0:0,0:0:0:0:
219,331,205022,2,0,P|280:299|348:311,1,140,2|0,0:0|0:0,0:0:0:0:
385,331,205472,1,0,0:0:0:0:
385,331,205622,2,0,L|390:189,1,140,2|0,0:0|0:0,0:0:0:0:
489,53,206222,6,0,P|421:63|357:38,1,140,2|0,0:0|0:0,0:0:0:0:
319,15,206672,1,0,0:0:0:0:
319,15,206822,2,0,P|329:84|308:150,1,140,2|0,0:0|0:0,0:0:0:0:
177,202,207422,2,0,P|169:133|195:68,1,140,2|0,0:0|0:0,0:0:0:0:
63,114,208022,2,0,P|89:178|81:247,1,140,2|0,0:0|0:0,0:0:0:0:
188,337,208622,6,0,L|332:327,1,140,2|0,0:0|0:0,0:0:0:0:
369,328,209072,1,0,0:0:0:0:
369,328,209222,2,0,P|350:262|379:200,1,140,2|0,0:0|0:0,0:0:0:0:
416,180,209672,1,2,0:0:0:0:
416,180,209822,2,0,B|371:162|371:162|250:184,1,140,2|0,0:0|0:0,0:0:0:0:
239,186,210272,1,0,0:0:0:0:
239,186,210422,2,0,P|207:128|204:29,1,140,2|0,0:0|0:0,0:0:0:0:
208,14,210872,1,2,0:0:0:0:
208,14,211022,5,2,0:0:0:0:
346,31,211322,1,0,0:0:0:0:
378,167,211622,1,2,0:0:0:0:
278,265,211922,1,0,0:0:0:0:
173,170,212222,2,0,P|140:230|142:299,1,140,2|2,0:0|0:0,0:0:0:0:
271,351,212822,2,0,L|376:351,2,105,2|2|2,0:0|0:0|0:0,0:0:0:0:
173,170,213722,5,4,0:0:0:0:
