osu file format v14

[General]
AudioFilename: audio.mp3
AudioLeadIn: 0
PreviewTime: 80866
Countdown: 0
SampleSet: Normal
StackLeniency: 0.7
Mode: 1
LetterboxInBreaks: 0
WidescreenStoryboard: 0

[Editor]
Bookmarks: 42511,94157
DistanceSpacing: 1.3
BeatDivisor: 4
GridSize: 32
TimelineZoom: 1

[Metadata]
Title:Parousia
TitleUnicode:Parousia
Artist:xi
ArtistUnicode:xi
Creator:Nardoxyribonucleic
Version:Oni
Source:THE BMS OF FIGHTERS 2011 - Intersection of conflict -
Tags:Taiko Featured Artist FA Mappers' Guild MG Electronic Instrumental BOF2011 APOCALYPSIS JOHANNIS παρουσία arrival piano dubstep
BeatmapID:3525815
BeatmapSetID:1712783

[Difficulty]
HPDrainRate:5.5
CircleSize:5
OverallDifficulty:5.5
ApproachRate:6
SliderMultiplier:1.4
SliderTickRate:1

[Events]
//Background and Video events
0,0,"bg.jpg",0,-75
//Break Periods
//Storyboard Layer 0 (Background)
//Storyboard Layer 1 (Fail)
//Storyboard Layer 2 (Pass)
//Storyboard Layer 3 (Foreground)
//Storyboard Layer 4 (Overlay)
//Storyboard Sound Samples

[TimingPoints]
3018,379.746835443038,4,1,0,50,1,0
3018,-111.111111111111,4,1,0,50,0,0
14410,-108.695652173913,4,1,0,50,0,0
14600,-106.382978723404,4,1,0,50,0,0
14695,-105.263157894737,4,1,0,50,0,0
14790,-104.166666666667,4,1,0,50,0,0
14980,-102.040816326531,4,1,0,50,0,0
15169,-100,4,1,0,80,0,0
30359,-94.3396226415094,4,1,0,70,0,0
54663,-94.3396226415094,4,1,0,55,0,0
55802,-125,4,1,0,55,0,0
66815,-117.647058823529,4,1,0,65,0,0
67195,-116.279069767442,4,1,0,65,0,0
67574,-114.942528735632,4,1,0,65,0,0
67954,-113.636363636364,4,1,0,65,0,0
68334,-112.359550561798,4,1,0,65,0,0
68714,-111.111111111111,4,1,0,65,0,0
69093,-109.89010989011,4,1,0,65,0,0
69473,-108.695652173913,4,1,0,65,0,0
69853,-107.52688172043,4,1,0,65,0,0
70233,-106.382978723404,4,1,0,65,0,0
70612,-105.263157894737,4,1,0,65,0,0
70992,-104.166666666667,4,1,0,65,0,0
71372,-103.092783505155,4,1,0,65,0,0
71752,-102.040816326531,4,1,0,65,0,0
72131,-101.010101010101,4,1,0,65,0,0
72511,-100,4,1,0,65,0,0
72891,-92.5925925925926,4,1,0,75,0,0
74410,-86.2068965517241,4,1,0,75,0,0
75929,-80.6451612903226,4,1,0,75,0,0
77638,-86.2068965517241,4,1,0,75,0,0
77733,-86.9565217391304,4,1,0,75,0,0
77828,-87.719298245614,4,1,0,75,0,0
77954,-88.4955752212389,4,1,0,75,0,0
78081,-89.2857142857143,4,1,0,75,0,0
78207,-90.0900900900901,4,1,0,75,0,0
78397,-91.743119266055,4,1,0,75,0,0
78492,-92.5925925925926,4,1,0,75,0,0
78587,-93.4579439252336,4,1,0,75,0,0
78777,-95.2380952380952,4,1,0,75,0,0
78872,-96.1538461538461,4,1,0,75,0,0
78967,-97.0873786407767,4,1,0,75,0,0
79062,-98.0392156862745,4,1,0,75,0,0
79157,-99.009900990099,4,1,0,75,0,0
79252,-100,4,1,0,75,0,0
79347,-101.010101010101,4,1,0,75,0,0
79536,-103.092783505155,4,1,0,75,0,0
79631,-104.166666666667,4,1,0,75,0,0
79726,-105.263157894737,4,1,0,75,0,0
79853,-106.382978723404,4,1,0,75,0,0
79980,-107.52688172043,4,1,0,75,0,0
80106,-108.695652173913,4,1,0,75,0,0
80296,-106.382978723404,4,1,0,75,0,0
80391,-105.263157894737,4,1,0,75,0,0
80486,-104.166666666667,4,1,0,75,0,0
80676,-102.040816326531,4,1,0,75,0,0
80866,-100,4,1,0,75,0,0
81055,-98.0392156862745,4,1,0,75,0,0
81150,-97.0873786407767,4,1,0,75,0,0
81245,-96.1538461538461,4,1,0,75,0,0
81372,-95.2380952380952,4,1,0,75,0,0
81499,-94.3396226415094,4,1,0,75,0,0
81625,-93.4579439252336,4,1,0,75,0,0
82005,-89.2857142857143,4,1,0,90,0,1
90359,-71.4285714285714,4,1,0,90,0,1
90612,-75.7575757575758,4,1,0,90,0,1
90866,-80.6451612903226,4,1,0,90,0,1
91119,-86.2068965517241,4,1,0,90,0,1
91309,-89.2857142857143,4,1,0,90,0,1
98714,-71.4285714285714,4,1,0,90,0,1
98967,-75.7575757575758,4,1,0,90,0,1
99220,-80.6451612903226,4,1,0,90,0,1
99473,-86.2068965517241,4,1,0,90,0,1
99726,-80.6451612903226,4,1,0,90,0,1
99980,-75.7575757575758,4,1,0,90,0,1
100233,-71.4285714285714,4,1,0,90,0,1
100423,-79.3650793650794,4,1,0,90,0,1
100612,-89.2857142857143,4,1,0,90,0,1
106119,-94.3396226415094,4,1,0,90,0,1
106309,-100,4,1,0,75,0,0
111245,-99.009900990099,4,1,0,75,0,0
111372,-98.0392156862745,4,1,0,75,0,0
111499,-97.0873786407767,4,1,0,75,0,0
111625,-96.1538461538461,4,1,0,75,0,0
111720,-95.2380952380952,4,1,0,75,0,0
111815,-94.3396226415094,4,1,0,75,0,0
111910,-93.4579439252336,4,1,0,75,0,0
112005,-92.5925925925926,4,1,0,75,0,0
112100,-91.743119266055,4,1,0,75,0,0
112195,-90.9090909090909,4,1,0,75,0,0
112385,-89.2857142857143,4,1,0,90,0,1
118650,-90.0900900900901,4,1,0,90,0,1
118745,-90.9090909090909,4,1,0,90,0,1
118840,-91.743119266055,4,1,0,90,0,1
119030,-92.5925925925926,4,1,0,90,0,1
119125,-93.4579439252336,4,1,0,90,0,1
119220,-94.3396226415094,4,1,0,90,0,1
119315,-95.2380952380952,4,1,0,90,0,1
119410,-96.1538461538461,4,1,0,90,0,1
119600,-97.0873786407767,4,1,0,90,0,1
119695,-98.0392156862745,4,1,0,90,0,1
119790,-99.009900990099,4,1,0,90,0,1
119980,389.61038961039,4,1,0,70,1,0
119980,-97.4658869395711,4,1,0,70,0,0
120759,-102.595670462706,4,1,0,65,0,0
121538,400,4,1,0,60,1,0
121538,-105.485232067511,4,1,0,60,0,0
122338,-111.694404110354,4,1,0,55,0,0
123138,410.958904109589,4,1,0,50,1,0
123138,-115.500115500115,4,1,0,50,0,0
123959,-123.213405618531,4,1,0,45,0,0
124781,422.535211267606,4,1,0,40,1,0
124781,-128.386185646424,4,1,0,40,0,0
125626,465.116279069767,4,1,0,35,1,8
125626,-125.612360256249,4,1,0,35,0,0
126556,379.746835443038,4,1,0,30,1,0
126556,-111.111111111111,4,1,0,30,0,0

[HitObjects]
256,192,3018,5,0,0:0:0:0:
256,192,3777,1,8,0:0:0:0:
256,192,4536,1,8,0:0:0:0:
256,192,5296,1,0,0:0:0:0:
256,192,6055,1,8,0:0:0:0:
256,192,6815,1,0,0:0:0:0:
256,192,8334,1,0,0:0:0:0:
256,192,8714,1,0,0:0:0:0:
256,192,9093,1,8,0:0:0:0:
256,192,10233,1,8,0:0:0:0:
256,192,10612,1,0,0:0:0:0:
256,192,11372,1,0,0:0:0:0:
256,192,12131,1,8,0:0:0:0:
256,192,13650,1,8,0:0:0:0:
256,192,14410,1,0,0:0:0:0:
256,192,14600,1,0,0:0:0:0:
256,192,14695,1,0,0:0:0:0:
256,192,14790,1,8,0:0:0:0:
256,192,14980,1,8,0:0:0:0:
256,192,15169,1,4,0:0:0:0:
256,192,15359,1,8,0:0:0:0:
256,192,15549,1,0,0:0:0:0:
256,192,15739,1,8,0:0:0:0:
256,192,15834,1,0,0:0:0:0:
256,192,15929,1,8,0:0:0:0:
256,192,16119,1,0,0:0:0:0:
256,192,16214,1,8,0:0:0:0:
256,192,16309,1,0,0:0:0:0:
256,192,16499,1,8,0:0:0:0:
256,192,16593,1,0,0:0:0:0:
256,192,16688,1,8,0:0:0:0:
256,192,16783,1,8,0:0:0:0:
256,192,16878,1,0,0:0:0:0:
256,192,17068,1,0,0:0:0:0:
256,192,17258,1,8,0:0:0:0:
256,192,17448,1,0,0:0:0:0:
256,192,17638,1,8,0:0:0:0:
256,192,17733,1,0,0:0:0:0:
256,192,17828,1,0,0:0:0:0:
256,192,17923,1,0,0:0:0:0:
256,192,18018,1,8,0:0:0:0:
256,192,18207,1,8,0:0:0:0:
256,192,18397,1,0,0:0:0:0:
256,192,18587,1,8,0:0:0:0:
256,192,18777,1,8,0:0:0:0:
256,192,18872,1,8,0:0:0:0:
256,192,18967,1,0,0:0:0:0:
256,192,19157,1,0,0:0:0:0:
256,192,19252,1,8,0:0:0:0:
256,192,19347,1,0,0:0:0:0:
256,192,19442,1,0,0:0:0:0:
256,192,19536,1,8,0:0:0:0:
256,192,19726,1,0,0:0:0:0:
256,192,19821,1,8,0:0:0:0:
256,192,19916,1,0,0:0:0:0:
256,192,20106,1,8,0:0:0:0:
256,192,20201,1,8,0:0:0:0:
256,192,20296,1,0,0:0:0:0:
256,192,20486,1,0,0:0:0:0:
256,192,20676,1,0,0:0:0:0:
256,192,20866,1,8,0:0:0:0:
256,192,21055,1,0,0:0:0:0:
256,192,21245,1,12,0:0:0:0:
256,192,21625,1,0,0:0:0:0:
256,192,21815,1,0,0:0:0:0:
256,192,21910,1,0,0:0:0:0:
256,192,22005,1,0,0:0:0:0:
256,192,22195,1,0,0:0:0:0:
256,192,22385,1,8,0:0:0:0:
256,192,22574,1,0,0:0:0:0:
256,192,22764,1,12,0:0:0:0:
256,192,23144,1,0,0:0:0:0:
256,192,23334,1,0,0:0:0:0:
256,192,23429,1,0,0:0:0:0:
256,192,23524,1,0,0:0:0:0:
256,192,23714,1,0,0:0:0:0:
256,192,23809,1,0,0:0:0:0:
256,192,23904,1,8,0:0:0:0:
256,192,23999,1,0,0:0:0:0:
256,192,24093,1,8,0:0:0:0:
256,192,24283,1,12,0:0:0:0:
256,192,24473,1,0,0:0:0:0:
256,192,24568,1,0,0:0:0:0:
256,192,24663,1,0,0:0:0:0:
256,192,24853,1,0,0:0:0:0:
256,192,25043,1,8,0:0:0:0:
256,192,25138,1,8,0:0:0:0:
256,192,25233,1,0,0:0:0:0:
256,192,25328,1,0,0:0:0:0:
256,192,25423,1,8,0:0:0:0:
256,192,25518,1,8,0:0:0:0:
256,192,25612,1,8,0:0:0:0:
256,192,25802,1,4,0:0:0:0:
256,192,25992,1,0,0:0:0:0:
256,192,26182,1,8,0:0:0:0:
256,192,26372,1,0,0:0:0:0:
256,192,26467,1,0,0:0:0:0:
256,192,26562,1,8,0:0:0:0:
256,192,26752,1,8,0:0:0:0:
256,192,26847,1,8,0:0:0:0:
256,192,26942,1,0,0:0:0:0:
256,192,27036,1,8,0:0:0:0:
256,192,27131,1,0,0:0:0:0:
256,192,27321,1,4,0:0:0:0:
256,192,27511,1,0,0:0:0:0:
256,192,27606,1,8,0:0:0:0:
256,192,27701,1,0,0:0:0:0:
256,192,27891,1,8,0:0:0:0:
256,192,27986,1,8,0:0:0:0:
256,192,28081,1,0,0:0:0:0:
256,192,28176,1,0,0:0:0:0:
256,192,28271,1,8,0:0:0:0:
256,192,28461,1,0,0:0:0:0:
256,192,28555,1,0,0:0:0:0:
256,192,28650,1,8,0:0:0:0:
256,192,28745,1,0,0:0:0:0:
256,192,28840,1,8,0:0:0:0:
256,192,29030,1,8,0:0:0:0:
256,192,29125,1,0,0:0:0:0:
256,192,29220,1,8,0:0:0:0:
256,192,29315,1,8,0:0:0:0:
256,192,29410,1,0,0:0:0:0:
256,192,29505,1,0,0:0:0:0:
256,192,29600,1,8,0:0:0:0:
256,192,29790,1,8,0:0:0:0:
256,192,29885,1,0,0:0:0:0:
256,192,29980,1,8,0:0:0:0:
256,192,30074,1,0,0:0:0:0:
256,192,30169,1,8,0:0:0:0:
256,192,30359,1,4,0:0:0:0:
256,192,30739,1,8,0:0:0:0:
256,192,30929,1,0,0:0:0:0:
256,192,31024,1,0,0:0:0:0:
256,192,31119,1,8,0:0:0:0:
256,192,31214,1,8,0:0:0:0:
256,192,31309,1,0,0:0:0:0:
256,192,31435,1,8,0:0:0:0:
256,192,31562,1,0,0:0:0:0:
256,192,31688,1,8,0:0:0:0:
256,192,31878,1,0,0:0:0:0:
256,192,32163,1,0,0:0:0:0:
256,192,32448,1,0,0:0:0:0:
256,192,32638,1,8,0:0:0:0:
256,192,32733,1,8,0:0:0:0:
256,192,32828,1,8,0:0:0:0:
256,192,32923,1,8,0:0:0:0:
256,192,33018,1,0,0:0:0:0:
256,192,33207,1,8,0:0:0:0:
256,192,33302,1,0,0:0:0:0:
256,192,33397,1,8,0:0:0:0:
256,192,33524,1,0,0:0:0:0:
256,192,33650,1,0,0:0:0:0:
256,192,33777,1,8,0:0:0:0:
256,192,33967,1,0,0:0:0:0:
256,192,34062,1,0,0:0:0:0:
256,192,34157,1,8,0:0:0:0:
256,192,34252,1,8,0:0:0:0:
256,192,34347,1,0,0:0:0:0:
256,192,34473,1,8,0:0:0:0:
256,192,34600,1,8,0:0:0:0:
256,192,34726,1,0,0:0:0:0:
256,192,34916,1,0,0:0:0:0:
256,192,35106,1,12,0:0:0:0:
256,192,35486,1,0,0:0:0:0:
256,192,35676,1,4,0:0:0:0:
256,192,35866,1,8,0:0:0:0:
256,192,36055,1,8,0:0:0:0:
256,192,36150,1,8,0:0:0:0:
256,192,36245,1,0,0:0:0:0:
256,192,36435,1,12,0:0:0:0:
256,192,36625,1,0,0:0:0:0:
256,192,36720,1,8,0:0:0:0:
256,192,36815,1,0,0:0:0:0:
256,192,37005,1,0,0:0:0:0:
256,192,37195,1,8,0:0:0:0:
256,192,37290,1,8,0:0:0:0:
256,192,37385,1,0,0:0:0:0:
256,192,37480,1,0,0:0:0:0:
256,192,37574,1,8,0:0:0:0:
256,192,37701,1,0,0:0:0:0:
256,192,37828,1,8,0:0:0:0:
256,192,37954,1,0,0:0:0:0:
256,192,38239,1,0,0:0:0:0:
256,192,38524,1,0,0:0:0:0:
256,192,38714,1,8,0:0:0:0:
256,192,38809,1,0,0:0:0:0:
256,192,38904,1,0,0:0:0:0:
256,192,38999,1,0,0:0:0:0:
256,192,39093,1,8,0:0:0:0:
256,192,39283,1,0,0:0:0:0:
256,192,39473,1,8,0:0:0:0:
256,192,39568,1,0,0:0:0:0:
256,192,39663,1,8,0:0:0:0:
256,192,39853,1,0,0:0:0:0:
256,192,39948,1,0,0:0:0:0:
256,192,40043,1,0,0:0:0:0:
256,192,40138,1,0,0:0:0:0:
256,192,40233,1,8,0:0:0:0:
256,192,40423,1,8,0:0:0:0:
256,192,40612,1,0,0:0:0:0:
256,192,40707,1,8,0:0:0:0:
256,192,40802,1,8,0:0:0:0:
256,192,40897,1,8,0:0:0:0:
256,192,40992,1,0,0:0:0:0:
256,192,41182,1,8,0:0:0:0:
256,192,41277,1,8,0:0:0:0:
256,192,41372,1,0,0:0:0:0:
256,192,41562,1,0,0:0:0:0:
256,192,41657,1,0,0:0:0:0:
256,192,41752,1,8,0:0:0:0:
256,192,41847,1,8,0:0:0:0:
256,192,41942,1,0,0:0:0:0:
256,192,42036,1,0,0:0:0:0:
256,192,42131,1,8,0:0:0:0:
256,192,42321,1,0,0:0:0:0:
256,192,42511,1,12,0:0:0:0:
256,192,42891,1,8,0:0:0:0:
256,192,43081,1,0,0:0:0:0:
256,192,43176,1,0,0:0:0:0:
256,192,43271,1,8,0:0:0:0:
256,192,43461,1,0,0:0:0:0:
256,192,43650,1,8,0:0:0:0:
256,192,43745,1,8,0:0:0:0:
256,192,43840,1,0,0:0:0:0:
256,192,43935,1,0,0:0:0:0:
256,192,44030,1,8,0:0:0:0:
256,192,44220,1,8,0:0:0:0:
256,192,44315,1,0,0:0:0:0:
256,192,44410,1,0,0:0:0:0:
256,192,44536,1,8,0:0:0:0:
256,192,44663,1,0,0:0:0:0:
256,192,44790,1,8,0:0:0:0:
256,192,44980,1,0,0:0:0:0:
256,192,45074,1,8,0:0:0:0:
256,192,45169,1,8,0:0:0:0:
256,192,45359,1,0,0:0:0:0:
256,192,45454,1,8,0:0:0:0:
256,192,45549,1,0,0:0:0:0:
256,192,45739,1,12,0:0:0:0:
256,192,46119,1,0,0:0:0:0:
256,192,46309,1,12,0:0:0:0:
256,192,46688,1,0,0:0:0:0:
256,192,46783,1,8,0:0:0:0:
256,192,46878,1,0,0:0:0:0:
256,192,46973,1,8,0:0:0:0:
256,192,47068,1,0,0:0:0:0:
256,192,47258,1,8,0:0:0:0:
256,192,47448,1,8,0:0:0:0:
256,192,47543,1,8,0:0:0:0:
256,192,47638,1,0,0:0:0:0:
256,192,47828,1,8,0:0:0:0:
256,192,47923,1,0,0:0:0:0:
256,192,48018,1,0,0:0:0:0:
256,192,48112,1,0,0:0:0:0:
256,192,48207,1,8,0:0:0:0:
256,192,48302,1,8,0:0:0:0:
256,192,48397,1,0,0:0:0:0:
256,192,48587,1,4,0:0:0:0:
256,192,48777,1,0,0:0:0:0:
256,192,48872,1,0,0:0:0:0:
256,192,48967,1,8,0:0:0:0:
256,192,49157,1,0,0:0:0:0:
256,192,49252,1,0,0:0:0:0:
256,192,49347,1,8,0:0:0:0:
256,192,49442,1,8,0:0:0:0:
256,192,49536,1,0,0:0:0:0:
256,192,49726,1,8,0:0:0:0:
256,192,49821,1,8,0:0:0:0:
256,192,49916,1,0,0:0:0:0:
256,192,50011,1,0,0:0:0:0:
256,192,50106,1,8,0:0:0:0:
256,192,50296,1,8,0:0:0:0:
256,192,50391,1,0,0:0:0:0:
256,192,50581,1,8,0:0:0:0:
256,192,50676,1,0,0:0:0:0:
256,192,50866,1,8,0:0:0:0:
256,192,50961,1,8,0:0:0:0:
256,192,51055,1,0,0:0:0:0:
256,192,51150,1,0,0:0:0:0:
256,192,51340,1,0,0:0:0:0:
256,192,51435,1,8,0:0:0:0:
256,192,51625,1,4,0:0:0:0:
256,192,51815,1,0,0:0:0:0:
256,192,51910,1,0,0:0:0:0:
256,192,52005,1,8,0:0:0:0:
256,192,52195,1,0,0:0:0:0:
256,192,52290,1,8,0:0:0:0:
256,192,52385,1,8,0:0:0:0:
256,192,52480,1,8,0:0:0:0:
256,192,52574,1,0,0:0:0:0:
256,192,52764,1,8,0:0:0:0:
256,192,52859,1,0,0:0:0:0:
256,192,52954,1,0,0:0:0:0:
256,192,53049,1,0,0:0:0:0:
256,192,53144,1,8,0:0:0:0:
256,192,53334,1,0,0:0:0:0:
256,192,53429,1,8,0:0:0:0:
256,192,53524,1,0,0:0:0:0:
256,192,53619,1,0,0:0:0:0:
256,192,53714,1,8,0:0:0:0:
256,192,53809,1,0,0:0:0:0:
256,192,53904,1,8,0:0:0:0:
256,192,53999,1,8,0:0:0:0:
256,192,54093,1,0,0:0:0:0:
256,192,54283,1,8,0:0:0:0:
256,192,54378,1,0,0:0:0:0:
256,192,54473,1,8,0:0:0:0:
256,192,54568,1,0,0:0:0:0:
256,192,54663,1,8,0:0:0:0:
256,192,55802,1,8,0:0:0:0:
256,192,56182,1,0,0:0:0:0:
256,192,56942,1,0,0:0:0:0:
256,192,57321,1,0,0:0:0:0:
256,192,57701,1,8,0:0:0:0:
256,192,58840,1,0,0:0:0:0:
256,192,59220,1,8,0:0:0:0:
256,192,59600,1,0,0:0:0:0:
256,192,59980,1,8,0:0:0:0:
256,192,60359,1,8,0:0:0:0:
256,192,60739,1,0,0:0:0:0:
256,192,61878,1,0,0:0:0:0:
256,192,62005,1,0,0:0:0:0:
256,192,62131,1,8,0:0:0:0:
256,192,62258,1,8,0:0:0:0:
256,192,62385,1,0,0:0:0:0:
256,192,62511,1,8,0:0:0:0:
256,192,62638,1,0,0:0:0:0:
256,192,63018,1,0,0:0:0:0:
256,192,63271,1,8,0:0:0:0:
256,192,63524,1,8,0:0:0:0:
256,192,63777,1,0,0:0:0:0:
256,192,64916,1,0,0:0:0:0:
256,192,65043,1,8,0:0:0:0:
256,192,65169,1,0,0:0:0:0:
256,192,65296,1,8,0:0:0:0:
256,192,65423,1,8,0:0:0:0:
256,192,65549,1,0,0:0:0:0:
256,192,65676,1,0,0:0:0:0:
256,192,66055,1,8,0:0:0:0:
256,192,66435,1,0,0:0:0:0:
256,192,66815,1,8,0:0:0:0:
256,192,67195,1,0,0:0:0:0:
256,192,67574,1,0,0:0:0:0:
256,192,67954,1,8,0:0:0:0:
256,192,68334,1,0,0:0:0:0:
256,192,68714,1,0,0:0:0:0:
256,192,69093,1,8,0:0:0:0:
256,192,69473,1,0,0:0:0:0:
256,192,69853,1,8,0:0:0:0:
256,192,70233,1,0,0:0:0:0:
256,192,70612,1,0,0:0:0:0:
256,192,70992,1,0,0:0:0:0:
256,192,71372,1,8,0:0:0:0:
256,192,71752,1,0,0:0:0:0:
256,192,72131,1,0,0:0:0:0:
256,192,72511,1,0,0:0:0:0:
256,192,72891,1,4,0:0:0:0:
256,192,73081,1,4,0:0:0:0:
256,192,73271,1,8,0:0:0:0:
256,192,73461,1,8,0:0:0:0:
256,192,73555,1,8,0:0:0:0:
256,192,73650,1,0,0:0:0:0:
256,192,73840,1,8,0:0:0:0:
256,192,74030,1,0,0:0:0:0:
256,192,74125,1,0,0:0:0:0:
256,192,74220,1,0,0:0:0:0:
256,192,74410,1,12,0:0:0:0:
256,192,74600,1,12,0:0:0:0:
256,192,74790,1,0,0:0:0:0:
256,192,74980,1,0,0:0:0:0:
256,192,75074,1,0,0:0:0:0:
256,192,75169,1,8,0:0:0:0:
256,192,75359,1,0,0:0:0:0:
256,192,75549,1,8,0:0:0:0:
256,192,75644,1,8,0:0:0:0:
256,192,75739,1,8,0:0:0:0:
256,192,75929,1,4,0:0:0:0:
256,192,76119,1,4,0:0:0:0:
256,192,76309,1,8,0:0:0:0:
256,192,76404,1,8,0:0:0:0:
256,192,76499,1,0,0:0:0:0:
256,192,76593,1,0,0:0:0:0:
256,192,76688,1,8,0:0:0:0:
256,192,76878,1,0,0:0:0:0:
256,192,77068,1,0,0:0:0:0:
256,192,77163,1,8,0:0:0:0:
256,192,77258,1,8,0:0:0:0:
256,192,77353,1,8,0:0:0:0:
256,192,77448,1,0,0:0:0:0:
256,192,77638,1,8,0:0:0:0:
256,192,77733,1,0,0:0:0:0:
256,192,77828,1,8,0:0:0:0:
256,192,77954,1,8,0:0:0:0:
256,192,78081,1,0,0:0:0:0:
256,192,78207,1,8,0:0:0:0:
256,192,78397,1,0,0:0:0:0:
256,192,78492,1,8,0:0:0:0:
256,192,78587,1,0,0:0:0:0:
256,192,78777,1,8,0:0:0:0:
256,192,78872,1,0,0:0:0:0:
256,192,78967,1,8,0:0:0:0:
256,192,79062,1,8,0:0:0:0:
256,192,79157,1,0,0:0:0:0:
256,192,79252,1,0,0:0:0:0:
256,192,79347,1,8,0:0:0:0:
256,192,79536,1,0,0:0:0:0:
256,192,79631,1,8,0:0:0:0:
256,192,79726,1,0,0:0:0:0:
256,192,79853,1,8,0:0:0:0:
256,192,79980,1,0,0:0:0:0:
256,192,80106,1,8,0:0:0:0:
256,192,80296,1,0,0:0:0:0:
256,192,80391,1,0,0:0:0:0:
256,192,80486,1,8,0:0:0:0:
256,192,80676,1,0,0:0:0:0:
256,192,80866,1,8,0:0:0:0:
256,192,81055,1,0,0:0:0:0:
256,192,81150,1,0,0:0:0:0:
256,192,81245,1,8,0:0:0:0:
256,192,81372,1,8,0:0:0:0:
256,192,81499,1,8,0:0:0:0:
256,192,81625,1,0,0:0:0:0:
256,192,82005,1,4,0:0:0:0:
256,192,82195,1,0,0:0:0:0:
256,192,82385,1,8,0:0:0:0:
256,192,82574,1,8,0:0:0:0:
256,192,82669,1,8,0:0:0:0:
256,192,82764,1,0,0:0:0:0:
256,192,82891,1,8,0:0:0:0:
256,192,83018,1,0,0:0:0:0:
256,192,83144,1,8,0:0:0:0:
256,192,83334,1,0,0:0:0:0:
256,192,83429,1,8,0:0:0:0:
256,192,83524,1,8,0:0:0:0:
256,192,83619,1,8,0:0:0:0:
256,192,83714,1,0,0:0:0:0:
256,192,83809,1,0,0:0:0:0:
256,192,83904,1,8,0:0:0:0:
256,192,84093,1,0,0:0:0:0:
256,192,84188,1,8,0:0:0:0:
256,192,84283,1,0,0:0:0:0:
256,192,84473,1,0,0:0:0:0:
256,192,84663,1,8,0:0:0:0:
256,192,84758,1,8,0:0:0:0:
256,192,84853,1,0,0:0:0:0:
256,192,84948,1,8,0:0:0:0:
256,192,85043,1,0,0:0:0:0:
256,192,85233,1,0,0:0:0:0:
256,192,85423,1,8,0:0:0:0:
256,192,85612,1,0,0:0:0:0:
256,192,85802,1,8,0:0:0:0:
256,192,85897,1,8,0:0:0:0:
256,192,85992,1,0,0:0:0:0:
256,192,86182,1,8,0:0:0:0:
256,192,86372,1,0,0:0:0:0:
256,192,86467,1,0,0:0:0:0:
256,192,86562,1,8,0:0:0:0:
256,192,86752,1,0,0:0:0:0:
256,192,86942,1,8,0:0:0:0:
256,192,87131,1,0,0:0:0:0:
256,192,87226,1,8,0:0:0:0:
256,192,87321,1,8,0:0:0:0:
256,192,87511,1,0,0:0:0:0:
256,192,87701,1,8,0:0:0:0:
256,192,87796,1,8,0:0:0:0:
256,192,87891,1,0,0:0:0:0:
256,192,87986,1,0,0:0:0:0:
256,192,88081,1,8,0:0:0:0:
256,192,88271,1,0,0:0:0:0:
256,192,88366,1,8,0:0:0:0:
256,192,88461,1,0,0:0:0:0:
256,192,88650,1,8,0:0:0:0:
256,192,88745,1,0,0:0:0:0:
256,192,88840,1,8,0:0:0:0:
256,192,88935,1,8,0:0:0:0:
256,192,89030,1,0,0:0:0:0:
256,192,89220,1,8,0:0:0:0:
256,192,89410,1,8,0:0:0:0:
256,192,89600,1,0,0:0:0:0:
256,192,89695,1,8,0:0:0:0:
256,192,89790,1,0,0:0:0:0:
256,192,89885,1,0,0:0:0:0:
256,192,89980,1,8,0:0:0:0:
256,192,90074,1,8,0:0:0:0:
256,192,90169,1,0,0:0:0:0:
256,192,90359,1,12,0:0:0:0:
256,192,90612,1,12,0:0:0:0:
256,192,90866,1,4,0:0:0:0:
256,192,91119,1,12,0:0:0:0:
256,192,91309,1,0,0:0:0:0:
256,192,91499,1,8,0:0:0:0:
256,192,91688,1,0,0:0:0:0:
256,192,91783,1,0,0:0:0:0:
256,192,91878,1,8,0:0:0:0:
256,192,92068,1,0,0:0:0:0:
256,192,92258,1,8,0:0:0:0:
256,192,92448,1,0,0:0:0:0:
256,192,92543,1,8,0:0:0:0:
256,192,92638,1,8,0:0:0:0:
256,192,92828,1,0,0:0:0:0:
256,192,93018,1,8,0:0:0:0:
256,192,93207,1,0,0:0:0:0:
256,192,93397,1,8,0:0:0:0:
256,192,93492,1,0,0:0:0:0:
256,192,93587,1,0,0:0:0:0:
256,192,93777,1,8,0:0:0:0:
256,192,93872,1,0,0:0:0:0:
256,192,93967,1,8,0:0:0:0:
256,192,94062,1,8,0:0:0:0:
256,192,94157,1,0,0:0:0:0:
256,192,94252,1,0,0:0:0:0:
256,192,94347,1,8,0:0:0:0:
256,192,94442,1,0,0:0:0:0:
256,192,94536,1,8,0:0:0:0:
256,192,94916,1,0,0:0:0:0:
256,192,95011,1,8,0:0:0:0:
256,192,95106,1,0,0:0:0:0:
256,192,95201,1,0,0:0:0:0:
256,192,95296,1,8,0:0:0:0:
256,192,95486,1,8,0:0:0:0:
256,192,95581,1,8,0:0:0:0:
256,192,95676,1,0,0:0:0:0:
256,192,95771,1,8,0:0:0:0:
256,192,95866,1,0,0:0:0:0:
256,192,95961,1,0,0:0:0:0:
256,192,96055,1,8,0:0:0:0:
256,192,96435,1,0,0:0:0:0:
256,192,96530,1,0,0:0:0:0:
256,192,96625,1,8,0:0:0:0:
256,192,96815,1,8,0:0:0:0:
256,192,96910,1,0,0:0:0:0:
256,192,97005,1,8,0:0:0:0:
256,192,97100,1,0,0:0:0:0:
256,192,97195,1,0,0:0:0:0:
256,192,97290,1,0,0:0:0:0:
256,192,97385,1,8,0:0:0:0:
256,192,97764,1,0,0:0:0:0:
256,192,97859,1,8,0:0:0:0:
256,192,97954,1,0,0:0:0:0:
256,192,98049,1,0,0:0:0:0:
256,192,98144,1,8,0:0:0:0:
256,192,98239,1,0,0:0:0:0:
256,192,98334,1,8,0:0:0:0:
256,192,98429,1,8,0:0:0:0:
256,192,98524,1,0,0:0:0:0:
256,192,98714,1,12,0:0:0:0:
256,192,98967,1,12,0:0:0:0:
256,192,99220,1,4,0:0:0:0:
256,192,99473,1,12,0:0:0:0:
256,192,99726,1,4,0:0:0:0:
256,192,99980,1,12,0:0:0:0:
256,192,100233,1,12,0:0:0:0:
256,192,100423,1,0,0:0:0:0:
256,192,100612,1,8,0:0:0:0:
256,192,100739,1,0,0:0:0:0:
256,192,100866,1,0,0:0:0:0:
256,192,100992,1,8,0:0:0:0:
256,192,101182,1,8,0:0:0:0:
256,192,101277,1,0,0:0:0:0:
256,192,101372,1,8,0:0:0:0:
256,192,101562,1,0,0:0:0:0:
256,192,101657,1,8,0:0:0:0:
256,192,101752,1,8,0:0:0:0:
256,192,101847,1,8,0:0:0:0:
256,192,101942,1,0,0:0:0:0:
256,192,102131,1,8,0:0:0:0:
256,192,102321,1,0,0:0:0:0:
256,192,102416,1,0,0:0:0:0:
256,192,102511,1,8,0:0:0:0:
256,192,102606,1,8,0:0:0:0:
256,192,102701,1,0,0:0:0:0:
256,192,102796,1,0,0:0:0:0:
256,192,102891,1,8,0:0:0:0:
256,192,103081,1,8,0:0:0:0:
256,192,103176,1,8,0:0:0:0:
256,192,103271,1,0,0:0:0:0:
256,192,103461,1,8,0:0:0:0:
256,192,103555,1,0,0:0:0:0:
256,192,103650,1,8,0:0:0:0:
256,192,103745,1,0,0:0:0:0:
256,192,103935,1,8,0:0:0:0:
256,192,104030,1,0,0:0:0:0:
256,192,104220,1,0,0:0:0:0:
256,192,104410,1,0,0:0:0:0:
256,192,104505,1,0,0:0:0:0:
256,192,104600,1,8,0:0:0:0:
256,192,104695,1,8,0:0:0:0:
256,192,104790,1,0,0:0:0:0:
256,192,104916,1,8,0:0:0:0:
256,192,105043,1,8,0:0:0:0:
256,192,105169,1,0,0:0:0:0:
256,192,105296,1,0,0:0:0:0:
256,192,105423,1,0,0:0:0:0:
256,192,105549,1,8,0:0:0:0:
256,192,105644,1,8,0:0:0:0:
256,192,105739,1,0,0:0:0:0:
256,192,105834,1,0,0:0:0:0:
256,192,105929,1,8,0:0:0:0:
256,192,106119,1,0,0:0:0:0:
256,192,106309,1,4,0:0:0:0:
256,192,106688,1,0,0:0:0:0:
256,192,106878,1,0,0:0:0:0:
256,192,107068,1,8,0:0:0:0:
256,192,107258,1,0,0:0:0:0:
256,192,107353,1,0,0:0:0:0:
256,192,107448,1,8,0:0:0:0:
256,192,107574,1,0,0:0:0:0:
256,192,107701,1,8,0:0:0:0:
256,192,107828,1,8,0:0:0:0:
256,192,108112,1,0,0:0:0:0:
256,192,108397,1,0,0:0:0:0:
256,192,108587,1,8,0:0:0:0:
256,192,108777,1,0,0:0:0:0:
256,192,108872,1,0,0:0:0:0:
256,192,108967,1,8,0:0:0:0:
256,192,109093,1,8,0:0:0:0:
256,192,109220,1,0,0:0:0:0:
256,192,109347,1,0,0:0:0:0:
256,192,109536,1,12,0:0:0:0:
256,192,109916,1,0,0:0:0:0:
256,192,110106,1,8,0:0:0:0:
256,192,110296,1,0,0:0:0:0:
256,192,110391,1,8,0:0:0:0:
256,192,110486,1,8,0:0:0:0:
256,192,110612,1,0,0:0:0:0:
256,192,110739,1,8,0:0:0:0:
256,192,110866,1,4,0:0:0:0:
256,192,111055,1,8,0:0:0:0:
256,192,111245,1,8,0:0:0:0:
256,192,111372,1,8,0:0:0:0:
256,192,111499,1,8,0:0:0:0:
256,192,111625,1,0,0:0:0:0:
256,192,111720,1,0,0:0:0:0:
256,192,111815,1,0,0:0:0:0:
256,192,111910,1,0,0:0:0:0:
256,192,112005,1,8,0:0:0:0:
256,192,112100,1,8,0:0:0:0:
256,192,112195,1,8,0:0:0:0:
256,192,112385,1,4,0:0:0:0:
256,192,112574,1,0,0:0:0:0:
256,192,112764,1,8,0:0:0:0:
256,192,112954,1,0,0:0:0:0:
256,192,113049,1,0,0:0:0:0:
256,192,113144,1,8,0:0:0:0:
256,192,113334,1,0,0:0:0:0:
256,192,113524,1,8,0:0:0:0:
256,192,113714,1,0,0:0:0:0:
256,192,113809,1,8,0:0:0:0:
256,192,113904,1,0,0:0:0:0:
256,192,114093,1,0,0:0:0:0:
256,192,114283,1,8,0:0:0:0:
256,192,114473,1,0,0:0:0:0:
256,192,114568,1,8,0:0:0:0:
256,192,114663,1,8,0:0:0:0:
256,192,114853,1,0,0:0:0:0:
256,192,115043,1,8,0:0:0:0:
256,192,115233,1,8,0:0:0:0:
256,192,115328,1,0,0:0:0:0:
256,192,115423,1,0,0:0:0:0:
256,192,115612,1,8,0:0:0:0:
256,192,115707,1,0,0:0:0:0:
256,192,115802,1,8,0:0:0:0:
256,192,115897,1,8,0:0:0:0:
256,192,115992,1,0,0:0:0:0:
256,192,116182,1,8,0:0:0:0:
256,192,116277,1,0,0:0:0:0:
256,192,116372,1,8,0:0:0:0:
256,192,116467,1,0,0:0:0:0:
256,192,116562,1,8,0:0:0:0:
256,192,116657,1,8,0:0:0:0:
256,192,116752,1,0,0:0:0:0:
256,192,116942,1,8,0:0:0:0:
256,192,117131,1,0,0:0:0:0:
256,192,117226,1,0,0:0:0:0:
256,192,117321,1,8,0:0:0:0:
256,192,117416,1,8,0:0:0:0:
256,192,117511,1,0,0:0:0:0:
256,192,117701,1,8,0:0:0:0:
256,192,117796,1,8,0:0:0:0:
256,192,117891,1,0,0:0:0:0:
256,192,117986,1,0,0:0:0:0:
256,192,118081,1,8,0:0:0:0:
256,192,118176,1,0,0:0:0:0:
256,192,118271,1,8,0:0:0:0:
256,192,118366,1,8,0:0:0:0:
256,192,118461,1,0,0:0:0:0:
256,192,118650,1,0,0:0:0:0:
256,192,118745,1,8,0:0:0:0:
256,192,118840,1,0,0:0:0:0:
256,192,119030,1,8,0:0:0:0:
256,192,119125,1,8,0:0:0:0:
256,192,119220,1,0,0:0:0:0:
256,192,119315,1,8,0:0:0:0:
256,192,119410,1,0,0:0:0:0:
256,192,119600,1,0,0:0:0:0:
256,192,119695,1,0,0:0:0:0:
256,192,119790,1,8,0:0:0:0:
256,192,119980,1,4,0:0:0:0:
256,192,120759,1,8,0:0:0:0:
256,192,121538,1,8,0:0:0:0:
256,192,122338,1,0,0:0:0:0:
256,192,123138,1,0,0:0:0:0:
256,192,123959,1,8,0:0:0:0:
256,192,124781,1,0,0:0:0:0:
256,192,125626,1,8,0:0:0:0:
256,192,126556,1,0,0:0:0:0:
256,192,126627,1,8,0:0:0:0:
