osu file format v14

[General]
AudioFilename: parousia.mp3
AudioLeadIn: 0
PreviewTime: 78984
Countdown: 0
SampleSet: Normal
StackLeniency: 0.7
Mode: 1
LetterboxInBreaks: 0
WidescreenStoryboard: 1

[Editor]
DistanceSpacing: 0.1
BeatDivisor: 4
GridSize: 32
TimelineZoom: 2.3

[Metadata]
Title:Parousia
TitleUnicode:Parousia
Artist:xi
ArtistUnicode:xi
Creator:D o t
Version:Kantan
Source:BMS
Tags:bof 2011 of fighters cytus chapter 4 the silence deemo sound voltex sdvx chunithm APOCALYPSIS JOHANNIS
BeatmapID:1997111
BeatmapSetID:956026

[Difficulty]
HPDrainRate:7
CircleSize:5
OverallDifficulty:3
ApproachRate:5
SliderMultiplier:1.4
SliderTickRate:1

[Events]
//Background and Video events
0,0,"parousia.jpg",0,0
//Break Periods
//Storyboard Layer 0 (Background)
//Storyboard Layer 1 (Fail)
//Storyboard Layer 2 (Pass)
//Storyboard Layer 3 (Foreground)
//Storyboard Sound Samples

[TimingPoints]
3035,379.746835443038,4,1,0,45,1,0
3035,-133.333333333333,4,1,0,45,0,0
15091,-117.647058823529,4,1,0,55,0,0
21262,-112.359550561798,4,1,0,55,0,0
23541,-111.111111111111,4,1,0,55,0,0
23921,-106.382978723404,4,1,0,55,0,0
24300,-102.040816326531,4,1,0,55,0,0
24395,-100,4,1,0,60,0,0
30566,-111.111111111111,4,1,0,60,0,0
42528,-106.382978723404,4,1,0,60,0,0
48604,-100,4,1,0,60,0,0
54680,-133.333333333333,4,1,0,55,0,0
66832,-125,4,1,0,55,0,0
72908,-111.111111111111,4,1,0,55,0,0
74427,-105.263157894737,4,1,0,55,0,0
75946,-100,4,1,0,55,0,0
82022,-100,4,1,0,65,0,1
106326,-100,4,1,0,65,0,0
106421,-111.111111111111,4,1,0,65,0,0
112022,-109.89010989011,4,1,0,65,0,0
112402,-101.010101010101,4,1,0,65,0,1
119997,389.61038961039,4,1,0,55,1,0
121555,400,4,1,0,50,1,0
123155,410.958904109589,4,1,0,45,1,0
124798,422.535211267606,4,1,0,40,1,0
125643,454.545454545455,4,1,0,35,1,8
126552,379.746835443038,4,1,0,30,1,0

[HitObjects]
256,192,3035,5,4,0:0:0:0:
256,192,4553,1,2,0:0:0:0:
256,192,7591,1,2,0:0:0:0:
256,192,10629,1,2,0:0:0:0:
256,192,12148,1,2,0:0:0:0:
256,192,13667,1,2,0:0:0:0:
256,192,15186,1,4,0:0:0:0:
256,192,16705,1,2,0:0:0:0:
256,192,19743,1,2,0:0:0:0:
256,192,21262,1,4,0:0:0:0:
256,192,22781,1,2,0:0:0:0:
256,192,23541,1,0,0:0:0:0:
256,192,23921,1,2,0:0:0:0:
256,192,24300,1,0,0:0:0:0:
256,192,25440,1,2,0:0:0:0:
256,192,25819,1,4,0:0:0:0:
256,192,27338,1,4,0:0:0:0:
256,192,30376,1,4,0:0:0:0:
256,192,31136,1,2,0:0:0:0:
256,192,31895,1,0,0:0:0:0:
256,192,33414,1,2,0:0:0:0:
256,192,34174,1,2,0:0:0:0:
256,192,35123,1,6,0:0:0:0:
256,192,35883,1,6,0:0:0:0:
256,192,36452,1,4,0:0:0:0:
256,192,37971,1,0,0:0:0:0:
256,192,38731,1,2,0:0:0:0:
256,192,39490,1,2,0:0:0:0:
256,192,41009,1,0,0:0:0:0:
256,192,41769,1,0,0:0:0:0:
256,192,42528,1,4,0:0:0:0:
256,192,44047,1,2,0:0:0:0:
256,192,45756,1,6,0:0:0:0:
256,192,46326,1,6,0:0:0:0:
256,192,47085,1,6,0:0:0:0:
256,192,47845,1,2,0:0:0:0:
256,192,48224,1,2,0:0:0:0:
256,192,48604,1,4,0:0:0:0:
256,192,49743,1,0,0:0:0:0:
256,192,50123,1,2,0:0:0:0:
256,192,50883,1,2,0:0:0:0:
256,192,51642,1,4,0:0:0:0:
256,192,53161,1,0,0:0:0:0:
256,192,53921,1,2,0:0:0:0:
256,192,54680,1,4,0:0:0:0:
256,192,56199,1,2,0:0:0:0:
256,192,59237,1,2,0:0:0:0:
256,192,62275,1,2,0:0:0:0:
256,192,65313,1,2,0:0:0:0:
256,192,66072,1,2,0:0:0:0:
256,192,66452,1,2,0:0:0:0:
256,192,66832,1,0,0:0:0:0:
256,192,68351,1,2,0:0:0:0:
256,192,69110,1,0,0:0:0:0:
256,192,69870,1,2,0:0:0:0:
256,192,71389,1,2,0:0:0:0:
256,192,72908,1,6,0:0:0:0:
256,192,74427,1,6,0:0:0:0:
256,192,75946,1,6,0:0:0:0:
256,192,77465,1,4,0:0:0:0:
256,192,78984,1,4,0:0:0:0:
256,192,80883,1,0,0:0:0:0:
256,192,81262,1,2,0:0:0:0:
256,192,81642,1,2,0:0:0:0:
256,192,82022,1,4,0:0:0:0:
256,192,83541,1,2,0:0:0:0:
256,192,84300,1,0,0:0:0:0:
256,192,84680,1,0,0:0:0:0:
256,192,85060,1,2,0:0:0:0:
256,192,85819,1,2,0:0:0:0:
256,192,86579,1,0,0:0:0:0:
256,192,87528,1,0,0:0:0:0:
256,192,88098,1,2,0:0:0:0:
256,192,89047,1,2,0:0:0:0:
256,192,89617,1,0,0:0:0:0:
256,192,90376,1,6,0:0:0:0:
256,192,91136,1,6,0:0:0:0:
256,192,91895,1,6,0:0:0:0:
256,192,92655,1,6,0:0:0:0:
256,192,94174,1,0,0:0:0:0:
256,192,94553,1,6,0:0:0:0:
256,192,95693,1,0,0:0:0:0:
256,192,96072,1,6,0:0:0:0:
256,192,97402,1,6,0:0:0:0:
256,192,98161,1,6,0:0:0:0:
256,192,98731,1,6,0:0:0:0:
256,192,99490,1,6,0:0:0:0:
256,192,100250,1,6,0:0:0:0:
256,192,101769,1,0,0:0:0:0:
256,192,102528,1,2,0:0:0:0:
256,192,103288,1,0,0:0:0:0:
256,192,104427,1,2,0:0:0:0:
256,192,104807,1,2,0:0:0:0:
256,192,105566,1,0,0:0:0:0:
256,192,105946,1,2,0:0:0:0:
256,192,106326,1,4,0:0:0:0:
256,192,107845,1,2,0:0:0:0:
256,192,109553,1,6,0:0:0:0:
256,192,110883,1,0,0:0:0:0:
256,192,111642,1,2,0:0:0:0:
256,192,112402,1,4,0:0:0:0:
256,192,113921,1,4,0:0:0:0:
256,192,114680,1,0,0:0:0:0:
256,192,115629,1,6,0:0:0:0:
256,192,116959,1,2,0:0:0:0:
256,192,117718,1,2,0:0:0:0:
256,192,118098,1,2,0:0:0:0:
256,192,118478,1,4,0:0:0:0:
256,192,119997,1,4,0:0:0:0:
256,192,121555,1,2,0:0:0:0:
256,192,123155,1,2,0:0:0:0:
256,192,124798,1,2,0:0:0:0:
256,192,126552,1,2,0:0:0:0:
