osu file format v14

[General]
AudioFilename: xi - Pandemonium.mp3
AudioLeadIn: 0
PreviewTime: 52786
Countdown: 0
SampleSet: Soft
StackLeniency: 0.7
Mode: 3
LetterboxInBreaks: 0
SpecialStyle: 0
WidescreenStoryboard: 0

[Editor]
Bookmarks: 26203,90203
DistanceSpacing: 1.5
BeatDivisor: 4
GridSize: 8
TimelineZoom: 1.7

[Metadata]
Title:Pandemonium
TitleUnicode:Pandemonium
Artist:xi
ArtistUnicode:xi
Creator:Shinzo-
Version:Standard
Source:BMS
Tags:GENRE-SHUFFLE 無調音楽 MEGAtive
BeatmapID:807134
BeatmapSetID:368090

[Difficulty]
HPDrainRate:7
CircleSize:4
OverallDifficulty:7
ApproachRate:5
SliderMultiplier:1.4
SliderTickRate:1

[Events]
//Background and Video events
0,0,"Pandemonium.jpg",0,0
//Break Periods
//Storyboard Layer 0 (Background)
//Storyboard Layer 1 (Fail)
//Storyboard Layer 2 (Pass)
//Storyboard Layer 3 (Foreground)
//Storyboard Sound Samples
Sample,2743,0,"Bell.wav",100
Sample,8077,0,"Bell.wav",100
Sample,11577,0,"Bell.wav",100
Sample,14743,0,"Bell.wav",100
Sample,15410,0,"Bell.wav",75
Sample,18743,0,"Bell.wav",100
Sample,33201,0,"soft-hitclap.wav",25
Sample,73757,0,"kisk.wav",25
Sample,73979,0,"kisk.wav",25
Sample,74090,0,"kisk.wav",25
Sample,78701,0,"kisk.wav",25
Sample,83257,0,"kisk.wav",25
Sample,89368,0,"kisk.wav",25
Sample,98451,0,"kisk.wav",25

[TimingPoints]
2744,333.333333333333,4,2,1,10,1,0
26202,333.333333333333,4,2,1,25,1,0

[HitObjects]
64,192,26202,5,2,0:0:0:0:
192,192,26202,1,4,0:0:0:0:
320,192,26368,1,2,0:0:0:0:
448,192,26368,1,4,0:0:0:0:
192,192,26535,1,8,0:0:0:0:
64,192,26535,1,0,0:0:0:0:
448,192,27035,1,2,0:0:0:0:
192,192,27202,1,8,0:0:0:0:
64,192,27202,1,0,0:0:0:0:
320,192,27535,1,2,0:0:0:0:
64,192,27868,1,8,0:0:0:0:
448,192,27868,1,0,0:0:0:0:
192,192,28035,1,2,0:0:0:0:
320,192,28368,1,2,0:0:0:0:
448,192,28368,1,4,0:0:0:0:
192,192,28535,1,8,0:0:0:0:
64,192,28535,1,0,0:0:0:0:
320,192,28868,1,2,0:0:0:0:
448,192,28868,1,4,0:0:0:0:
192,192,29035,1,4,0:0:0:0:
64,192,29035,1,2,0:0:0:0:
320,192,29201,1,8,0:0:0:0:
448,192,29201,1,0,0:0:0:0:
64,192,29701,1,2,0:0:0:0:
320,192,29868,1,8,0:0:0:0:
448,192,29868,1,0,0:0:0:0:
64,192,30201,1,2,0:0:0:0:
448,192,30535,1,8,0:0:0:0:
320,192,30535,1,0,0:0:0:0:
192,192,30701,1,2,0:0:0:0:
64,192,31035,1,4,0:0:0:0:
448,192,31035,1,2,0:0:0:0:
192,192,31201,1,8,0:0:0:0:
320,192,31201,1,0,0:0:0:0:
192,192,31535,1,2,0:0:0:0:
64,192,31535,1,4,0:0:0:0:
320,192,31701,1,2,0:0:0:0:
448,192,31701,1,4,0:0:0:0:
64,192,31868,1,8,0:0:0:0:
192,192,31868,1,0,0:0:0:0:
448,192,32368,1,2,0:0:0:0:
320,192,32535,1,8,0:0:0:0:
192,192,32535,1,0,0:0:0:0:
64,192,32868,1,2,0:0:0:0:
320,192,33035,1,8,0:0:0:0:
448,192,33035,1,4,0:0:0:0:
192,192,33368,1,2,0:0:0:0:
64,192,33535,1,0,0:0:0:0:
320,192,33701,1,2,0:0:0:0:
448,192,33701,1,4,0:0:0:0:
192,192,33868,1,8,0:0:0:0:
64,192,33868,1,0,0:0:0:0:
320,192,34201,1,4,0:0:0:0:
448,192,34201,1,2,0:0:0:0:
192,192,34368,1,2,0:0:0:0:
64,192,34368,1,4,0:0:0:0:
320,192,34535,1,8,0:0:0:0:
448,192,34535,1,0,0:0:0:0:
64,192,35035,1,2,0:0:0:0:
320,192,35201,1,8,0:0:0:0:
448,192,35201,1,0,0:0:0:0:
64,192,35535,1,2,0:0:0:0:
192,192,35535,1,0,0:0:0:0:
320,192,35701,1,4,0:0:0:0:
448,192,35701,1,2,0:0:0:0:
192,192,35868,1,2,0:0:0:0:
64,192,35868,128,0,36201:0:0:0:0:
448,192,36201,1,2,0:0:0:0:
320,192,36201,1,4,0:0:0:0:
320,192,36451,1,2,0:0:0:0:
192,192,36701,1,4,0:0:0:0:
64,192,36868,1,2,0:0:0:0:
448,192,36868,1,4,0:0:0:0:
320,192,37035,1,2,0:0:0:0:
192,192,37035,1,4,0:0:0:0:
64,192,37201,1,8,0:0:0:0:
448,192,37201,1,0,0:0:0:0:
192,192,37701,1,2,0:0:0:0:
64,192,37868,1,8,0:0:0:0:
448,192,37868,1,0,0:0:0:0:
320,192,38201,1,4,0:0:0:0:
192,192,38201,1,2,0:0:0:0:
64,192,38368,1,2,0:0:0:0:
448,192,38368,1,4,0:0:0:0:
192,192,38535,1,8,0:0:0:0:
320,192,38535,1,0,0:0:0:0:
448,192,38701,1,2,0:0:0:0:
64,192,38951,1,0,0:0:0:0:
192,192,39285,1,0,0:0:0:0:
320,192,39535,1,2,0:0:0:0:
448,192,39535,1,4,0:0:0:0:
192,192,39701,1,2,0:0:0:0:
64,192,39701,1,4,0:0:0:0:
320,192,39868,1,8,0:0:0:0:
448,192,39868,1,0,0:0:0:0:
64,192,40201,1,2,0:0:0:0:
192,192,40201,1,4,0:0:0:0:
320,192,40368,1,2,0:0:0:0:
448,192,40368,1,4,0:0:0:0:
192,192,40535,1,8,0:0:0:0:
64,192,40535,1,0,0:0:0:0:
320,192,40868,1,2,0:0:0:0:
448,192,40868,1,4,0:0:0:0:
192,192,41035,1,2,0:0:0:0:
64,192,41035,1,4,0:0:0:0:
448,192,41201,128,8,41535:0:0:0:0:
320,192,41201,1,0,0:0:0:0:
192,192,41535,1,2,0:0:0:0:
64,192,41535,1,4,0:0:0:0:
448,192,41785,1,2,0:0:0:0:
192,192,42035,1,4,0:0:0:0:
64,192,42201,1,4,0:0:0:0:
448,192,42201,1,2,0:0:0:0:
192,192,42368,1,4,0:0:0:0:
320,192,42368,1,2,0:0:0:0:
64,192,42535,1,8,0:0:0:0:
448,192,42535,1,0,0:0:0:0:
192,192,43035,1,2,0:0:0:0:
64,192,43201,1,8,0:0:0:0:
448,192,43201,1,0,0:0:0:0:
192,192,43535,1,2,0:0:0:0:
320,192,43535,1,4,0:0:0:0:
64,192,43701,1,4,0:0:0:0:
320,192,43868,1,4,0:0:0:0:
448,192,43868,1,8,0:0:0:0:
192,192,44035,1,2,0:0:0:0:
64,192,44368,1,2,0:0:0:0:
192,192,44535,1,8,0:0:0:0:
448,192,44535,1,0,0:0:0:0:
320,192,44701,1,0,0:0:0:0:
64,192,44868,1,2,0:0:0:0:
192,192,44868,1,4,0:0:0:0:
320,192,45035,1,2,0:0:0:0:
448,192,45035,1,4,0:0:0:0:
64,192,45201,1,2,0:0:0:0:
192,192,45201,1,8,0:0:0:0:
448,192,45368,1,2,0:0:0:0:
320,192,45535,1,2,0:0:0:0:
64,192,45535,1,4,0:0:0:0:
192,192,45701,1,4,0:0:0:0:
448,192,45868,1,4,0:0:0:0:
192,192,46035,1,2,0:0:0:0:
448,192,46201,1,2,0:0:0:0:
320,192,46451,1,4,0:0:0:0:
192,192,46701,1,4,0:0:0:0:
64,192,46951,1,2,0:0:0:0:
448,192,47201,1,4,0:0:0:0:
64,192,47535,1,2,0:0:0:0:
192,192,47535,1,4,0:0:0:0:
64,192,48201,1,8,0:0:0:0:
448,192,48201,128,0,49535:0:0:0:0:
64,192,49535,1,8,0:0:0:0:
320,192,49535,128,0,50201:0:0:0:0:
192,192,50201,128,2,51535:0:0:0:0:
448,192,50868,1,8,0:0:0:0:
448,192,52201,1,8,0:0:0:0:
320,192,52868,128,2,54201:0:0:0:0:
64,192,53535,1,8,0:0:0:0:
192,192,54201,128,2,54868:0:0:0:0:
448,192,54868,128,8,55535:0:0:0:0:
64,192,54868,1,0,0:0:0:0:
320,192,55535,128,2,56868:0:0:0:0:
64,192,56201,1,8,0:0:0:0:
64,192,56868,128,0,57535:0:0:0:0:
192,192,57535,128,8,57868:0:0:0:0:
448,192,57535,1,0,0:0:0:0:
320,192,57868,128,0,58201:0:0:0:0:
448,192,58201,128,2,59535:0:0:0:0:
64,192,58201,1,4,0:0:0:0:
64,192,58535,1,8,0:0:0:0:
64,192,59201,1,8,0:0:0:0:
320,192,59535,128,2,60201:0:0:0:0:
192,192,59868,1,8,0:0:0:0:
64,192,60201,128,0,60868:0:0:0:0:
448,192,60535,1,8,0:0:0:0:
192,192,60868,128,2,61868:0:0:0:0:
448,192,61201,1,8,0:0:0:0:
448,192,61868,1,8,0:0:0:0:
64,192,62035,1,2,0:0:0:0:
320,192,62201,128,2,62868:0:0:0:0:
192,192,62535,1,8,0:0:0:0:
64,192,62868,1,0,0:0:0:0:
192,192,63090,1,0,0:0:0:0:
320,192,63313,1,0,0:0:0:0:
448,192,63535,128,2,64868:0:0:0:0:
64,192,63535,1,4,0:0:0:0:
192,192,63868,1,8,0:0:0:0:
64,192,64535,1,8,0:0:0:0:
192,192,64868,1,2,0:0:0:0:
320,192,64868,128,4,65535:0:0:0:0:
64,192,65535,1,4,0:0:0:0:
192,192,65535,128,2,66201:0:0:0:0:
448,192,66201,1,2,0:0:0:0:
64,192,66451,1,4,0:0:0:0:
320,192,66701,1,4,0:0:0:0:
192,192,66951,1,4,0:0:0:0:
320,192,67201,1,4,0:0:0:0:
64,192,67368,1,4,0:0:0:0:
192,192,67535,128,4,68201:0:0:0:0:
448,192,67535,1,0,0:0:0:0:
320,192,68201,128,0,68535:0:0:0:0:
64,192,68535,1,8,0:1:0:0:
448,192,68535,1,0,0:0:0:0:
64,192,68868,1,2,0:0:0:0:
192,192,68868,1,4,0:0:0:0:
448,192,69035,1,2,0:0:0:0:
320,192,69035,1,4,0:0:0:0:
192,192,69368,1,2,0:0:0:0:
64,192,69368,1,4,0:0:0:0:
320,192,69701,1,2,0:0:0:0:
192,192,69701,1,4,0:0:0:0:
448,192,70035,1,2,0:0:0:0:
320,192,70035,1,4,0:0:0:0:
192,192,70535,1,2,0:0:0:0:
64,192,70535,1,4,0:0:0:0:
320,192,70868,1,2,0:0:0:0:
448,192,70868,1,4,0:0:0:0:
192,192,71035,1,2,0:0:0:0:
64,192,71035,1,4,0:0:0:0:
320,192,71368,1,2,0:0:0:0:
192,192,71368,1,4,0:0:0:0:
64,192,71701,1,4,0:0:0:0:
192,192,71701,1,2,0:0:0:0:
448,192,71868,1,2,0:0:0:0:
320,192,71868,1,4,0:0:0:0:
448,192,72368,1,2,0:0:0:0:
320,192,72368,1,4,0:0:0:0:
64,192,72701,1,2,0:0:0:0:
192,192,72701,1,4,0:0:0:0:
320,192,73035,1,2,0:0:0:0:
448,192,73035,1,4,0:0:0:0:
192,192,73201,1,4,0:0:0:0:
64,192,73201,1,2,0:0:0:0:
320,192,73535,1,2,0:0:0:0:
448,192,73535,1,0,0:0:0:0:
64,192,73757,1,2,0:0:0:0:
448,192,73979,1,2,0:0:0:0:
320,192,74090,1,2,0:0:0:0:
192,192,74201,1,2,0:0:0:0:
64,192,74201,1,4,0:0:0:0:
320,192,74368,1,2,0:0:0:0:
448,192,74368,1,4,0:0:0:0:
64,192,74701,1,4,0:0:0:0:
192,192,74701,1,2,0:0:0:0:
192,192,75035,1,4,0:0:0:0:
320,192,75035,1,2,0:0:0:0:
320,192,75368,1,4,0:0:0:0:
448,192,75368,1,2,0:0:0:0:
320,192,75868,1,2,0:0:0:0:
448,192,75868,1,4,0:0:0:0:
64,192,76201,1,4,0:0:0:0:
192,192,76201,1,2,0:0:0:0:
320,192,76368,1,2,0:0:0:0:
448,192,76368,1,4,0:0:0:0:
64,192,76701,1,2,0:0:0:0:
192,192,76701,1,4,0:0:0:0:
320,192,77035,1,2,0:0:0:0:
448,192,77035,1,4,0:0:0:0:
192,192,77201,1,4,0:0:0:0:
64,192,77201,1,2,0:0:0:0:
320,192,77701,1,2,0:0:0:0:
448,192,77701,1,4,0:0:0:0:
64,192,78035,1,2,0:0:0:0:
192,192,78035,1,4,0:0:0:0:
320,192,78201,1,2,0:0:0:0:
448,192,78201,1,4,0:0:0:0:
192,192,78451,1,2,0:0:0:0:
64,192,78451,1,4,0:0:0:0:
448,192,78701,1,4,0:0:0:0:
320,192,78951,1,2,0:0:0:0:
192,192,78951,1,4,0:0:0:0:
448,192,79201,1,2,0:0:0:0:
320,192,79368,1,4,0:0:0:0:
64,192,79535,1,4,0:0:0:0:
192,192,79535,1,2,0:0:0:0:
448,192,79701,1,2,0:0:0:0:
320,192,79701,1,4,0:0:0:0:
64,192,80035,1,2,0:0:0:0:
192,192,80035,1,4,0:0:0:0:
320,192,80368,1,4,0:0:0:0:
192,192,80368,1,2,0:0:0:0:
320,192,80701,1,2,0:0:0:0:
448,192,80701,1,4,0:0:0:0:
192,192,81201,1,4,0:0:0:0:
64,192,81201,1,2,0:0:0:0:
320,192,81535,1,2,0:0:0:0:
448,192,81535,1,4,0:0:0:0:
192,192,81701,1,2,0:0:0:0:
64,192,81701,1,4,0:0:0:0:
192,192,82035,1,2,0:0:0:0:
320,192,82035,1,4,0:0:0:0:
64,192,82368,1,4,0:0:0:0:
192,192,82368,1,2,0:0:0:0:
448,192,82535,1,4,0:0:0:0:
320,192,82535,1,2,0:0:0:0:
448,192,83035,1,4,0:0:0:0:
320,192,83035,1,2,0:0:0:0:
192,192,83368,1,4,0:0:0:0:
64,192,83368,1,2,0:0:0:0:
448,192,83701,1,2,0:0:0:0:
320,192,83701,1,4,0:0:0:0:
192,192,83868,1,4,0:0:0:0:
64,192,83868,1,2,0:0:0:0:
448,192,84201,1,4,0:0:0:0:
320,192,84201,1,2,0:0:0:0:
64,192,84410,1,4,0:0:0:0:
448,192,84646,1,4,0:0:0:0:
320,192,84757,1,4,0:0:0:0:
64,192,84868,1,4,0:0:0:0:
192,192,84868,1,2,0:0:0:0:
320,192,85035,1,2,0:0:0:0:
448,192,85035,1,4,0:0:0:0:
64,192,85368,1,4,0:0:0:0:
192,192,85368,1,2,0:0:0:0:
192,192,85701,1,2,0:0:0:0:
320,192,85701,1,4,0:0:0:0:
320,192,86035,1,2,0:0:0:0:
448,192,86035,1,4,0:0:0:0:
448,192,86535,1,4,0:0:0:0:
320,192,86535,1,2,0:0:0:0:
64,192,86868,1,2,0:0:0:0:
192,192,86868,1,4,0:0:0:0:
320,192,87035,1,4,0:0:0:0:
448,192,87035,1,2,0:0:0:0:
64,192,87368,1,4,0:0:0:0:
192,192,87368,1,2,0:0:0:0:
448,192,87701,1,2,0:0:0:0:
320,192,87701,1,4,0:0:0:0:
64,192,87868,1,2,0:0:0:0:
192,192,87868,1,4,0:0:0:0:
320,192,88368,1,4,0:0:0:0:
448,192,88368,1,2,0:0:0:0:
64,192,88701,1,4,0:0:0:0:
192,192,88701,1,2,0:0:0:0:
320,192,88868,1,2,0:0:0:0:
448,192,88868,1,4,0:0:0:0:
192,192,89118,1,4,0:0:0:0:
64,192,89118,1,2,0:0:0:0:
448,192,89368,128,4,89618:0:0:0:0:
192,192,89618,1,4,0:0:0:0:
320,192,89618,1,2,0:0:0:0:
448,192,89868,1,4,0:0:0:0:
64,192,89868,128,0,90201:0:0:0:0:
448,192,90201,1,4,0:0:0:0:
320,192,90201,1,2,0:0:0:0:
64,192,90535,1,0,0:0:0:0:
192,192,90868,1,0,0:0:0:0:
320,192,91201,1,0,0:0:0:0:
448,192,91535,1,0,0:0:0:0:
320,192,91868,1,0,0:0:0:0:
192,192,92201,1,0,0:0:0:0:
64,192,92535,1,0,0:0:0:0:
320,192,92868,1,0,0:0:0:0:
448,192,93201,1,0,0:0:0:0:
320,192,93535,1,0,0:0:0:0:
192,192,93868,1,0,0:0:0:0:
64,192,94201,1,0,0:0:0:0:
192,192,94535,1,0,0:0:0:0:
320,192,94868,1,0,0:0:0:0:
448,192,95201,1,2,0:0:0:0:
64,192,95368,1,2,0:0:0:0:
320,192,95535,1,4,0:0:0:0:
192,192,95535,1,2,0:0:0:0:
64,192,95868,1,8,0:0:0:0:
448,192,95868,1,0,0:0:0:0:
192,192,96035,1,2,0:0:0:0:
320,192,96368,1,2,0:0:0:0:
64,192,96535,1,8,0:0:0:0:
448,192,96535,1,0,0:0:0:0:
192,192,96868,1,2,0:0:0:0:
64,192,97201,1,8,0:0:0:0:
448,192,97201,1,0,0:0:0:0:
320,192,97368,1,2,0:0:0:0:
192,192,97701,1,2,0:0:0:0:
64,192,97868,1,8,0:0:0:0:
448,192,97868,1,0,0:0:0:0:
320,192,98035,1,2,0:0:0:0:
192,192,98201,1,2,0:0:0:0:
64,192,98201,1,4,0:0:0:0:
448,192,98451,1,2,0:0:0:0:
192,192,98701,1,2,0:0:0:0:
64,192,98701,1,4,0:0:0:0:
448,192,98951,1,2,0:0:0:0:
64,192,99201,1,2,0:0:0:0:
192,192,99368,1,4,0:0:0:0:
320,192,99535,1,2,0:0:0:0:
448,192,99535,1,4,0:0:0:0:
64,192,99868,1,2,0:0:0:0:
320,192,100035,1,4,0:0:0:0:
448,192,100035,1,2,0:0:0:0:
64,192,100368,1,2,0:0:0:0:
320,192,100535,1,4,0:0:0:0:
448,192,100535,1,2,0:0:0:0:
192,192,100868,1,2,0:0:0:0:
64,192,100868,1,4,0:0:0:0:
448,192,102201,128,0,103535:0:0:0:0:
192,192,103535,1,2,0:0:0:0:
64,192,103535,1,4,0:0:0:0:
448,192,103701,1,4,0:0:0:0:
320,192,103701,1,2,0:0:0:0:
192,192,103868,1,8,0:0:0:0:
64,192,103868,1,0,0:0:0:0:
448,192,104368,1,2,0:0:0:0:
64,192,104535,1,8,0:0:0:0:
192,192,104535,1,0,0:0:0:0:
320,192,104868,1,2,0:0:0:0:
448,192,105201,1,8,0:0:0:0:
64,192,105201,1,0,0:0:0:0:
192,192,105368,1,2,0:0:0:0:
448,192,105701,1,4,0:0:0:0:
320,192,105701,1,2,0:0:0:0:
192,192,105868,1,8,0:0:0:0:
64,192,105868,1,0,0:0:0:0:
448,192,106201,1,2,0:0:0:0:
320,192,106201,1,4,0:0:0:0:
64,192,106368,1,4,0:0:0:0:
192,192,106368,1,2,0:0:0:0:
320,192,106535,1,8,0:0:0:0:
448,192,106535,1,0,0:0:0:0:
64,192,107035,1,2,0:0:0:0:
448,192,107201,1,8,0:0:0:0:
320,192,107201,1,0,0:0:0:0:
64,192,107535,1,2,0:0:0:0:
320,192,107868,1,8,0:0:0:0:
448,192,107868,1,0,0:0:0:0:
192,192,108035,1,2,0:0:0:0:
448,192,108368,1,2,0:0:0:0:
64,192,108368,1,4,0:0:0:0:
64,192,108868,1,4,0:0:0:0:
192,192,108868,1,2,0:0:0:0:
448,192,109035,1,2,0:0:0:0:
320,192,109035,1,4,0:0:0:0:
192,192,109201,1,8,0:0:0:0:
64,192,109201,1,0,0:0:0:0:
448,192,109701,1,2,0:0:0:0:
192,192,109868,1,8,0:0:0:0:
320,192,109868,1,0,0:0:0:0:
64,192,110201,1,2,0:0:0:0:
448,192,110368,1,8,0:0:0:0:
320,192,110368,1,4,0:0:0:0:
192,192,110701,1,2,0:0:0:0:
64,192,110868,1,4,0:0:0:0:
448,192,111035,1,4,0:0:0:0:
320,192,111035,1,2,0:0:0:0:
64,192,111201,1,8,0:0:0:0:
192,192,111201,1,0,0:0:0:0:
320,192,111535,1,2,0:0:0:0:
448,192,111535,1,4,0:0:0:0:
64,192,111701,1,4,0:0:0:0:
192,192,111701,1,2,0:0:0:0:
448,192,111868,1,8,0:0:0:0:
320,192,111868,1,0,0:0:0:0:
64,192,112368,1,2,0:0:0:0:
320,192,112535,1,8,0:0:0:0:
448,192,112535,1,0,0:0:0:0:
64,192,112868,1,4,0:0:0:0:
192,192,112868,1,2,0:0:0:0:
320,192,113035,1,4,0:0:0:0:
448,192,113035,1,2,0:0:0:0:
192,192,113201,1,2,0:0:0:0:
64,192,113201,128,8,113535:0:0:0:0:
448,192,113535,1,4,0:0:0:0:
320,192,113535,1,2,0:0:0:0:
320,192,113785,1,2,0:0:0:0:
192,192,114035,1,2,0:0:0:0:
448,192,114201,1,4,0:0:0:0:
64,192,114201,1,4,0:0:0:0:
320,192,114368,1,2,0:0:0:0:
192,192,114368,1,4,0:0:0:0:
64,192,114535,1,8,0:0:0:0:
448,192,114535,1,0,0:0:0:0:
192,192,115035,1,2,0:0:0:0:
64,192,115201,1,8,0:0:0:0:
448,192,115201,1,0,0:0:0:0:
320,192,115535,1,2,0:0:0:0:
192,192,115535,1,0,0:0:0:0:
64,192,115701,1,2,0:0:0:0:
448,192,115701,1,0,0:0:0:0:
320,192,115868,1,8,0:0:0:0:
192,192,115868,1,0,0:0:0:0:
448,192,116035,1,2,0:0:0:0:
64,192,116285,1,0,0:0:0:0:
192,192,116618,1,0,0:0:0:0:
320,192,116868,1,2,0:0:0:0:
448,192,116868,1,4,0:0:0:0:
64,192,117035,1,4,0:0:0:0:
192,192,117035,1,2,0:0:0:0:
320,192,117201,1,8,0:0:0:0:
448,192,117201,1,0,0:0:0:0:
192,192,117535,1,4,0:0:0:0:
64,192,117535,1,2,0:0:0:0:
448,192,117701,1,2,0:0:0:0:
320,192,117701,1,4,0:0:0:0:
64,192,117868,1,8,0:0:0:0:
192,192,117868,1,0,0:0:0:0:
320,192,118201,1,2,0:0:0:0:
448,192,118201,1,4,0:0:0:0:
64,192,118368,1,2,0:0:0:0:
192,192,118368,1,4,0:0:0:0:
448,192,118535,1,8,0:0:0:0:
320,192,118701,1,0,0:0:0:0:
192,192,118868,1,2,0:0:0:0:
64,192,118868,1,4,0:0:0:0:
448,192,119118,1,4,0:0:0:0:
192,192,119368,1,4,0:0:0:0:
64,192,119535,1,4,0:0:0:0:
448,192,119535,1,2,0:0:0:0:
320,192,119701,1,4,0:0:0:0:
192,192,119701,1,2,0:0:0:0:
64,192,119868,1,8,0:0:0:0:
448,192,119868,1,0,0:0:0:0:
448,192,120535,1,8,0:0:0:0:
64,192,120535,1,0,0:0:0:0:
192,192,120868,1,4,0:0:0:0:
320,192,120868,1,2,0:0:0:0:
64,192,121035,1,4,0:0:0:0:
320,192,121201,1,8,0:0:0:0:
448,192,121201,1,0,0:0:0:0:
192,192,121368,1,2,0:0:0:0:
64,192,121701,1,2,0:0:0:0:
448,192,121868,1,8,0:0:0:0:
320,192,121868,1,0,0:0:0:0:
192,192,122201,1,2,0:0:0:0:
64,192,122201,1,4,0:0:0:0:
448,192,122368,1,4,0:0:0:0:
320,192,122368,1,2,0:0:0:0:
192,192,122535,1,8,0:0:0:0:
64,192,122535,1,0,0:0:0:0:
448,192,122701,1,0,0:0:0:0:
320,192,122868,1,6,0:0:0:0:
192,192,123035,1,4,0:0:0:0:
64,192,123201,1,4,0:0:0:0:
192,192,123368,1,4,0:0:0:0:
448,192,123535,1,0,0:0:0:0:
320,192,123785,1,2,0:0:0:0:
64,192,124035,1,2,0:0:0:0:
192,192,124285,1,2,0:0:0:0:
448,192,124535,1,8,0:0:0:0:
192,192,124868,1,2,0:0:0:0:
64,192,124868,1,4,0:0:0:0:
64,192,125535,1,8,0:0:0:0:
448,192,126201,128,0,126868:0:0:0:0:
320,192,126868,128,8,127535:0:0:0:0:
64,192,126868,1,0,0:0:0:0:
192,192,127535,128,2,128868:0:0:0:0:
448,192,128201,1,8,0:0:0:0:
64,192,128868,128,0,130201:0:0:0:0:
448,192,129535,1,8,0:0:0:0:
192,192,130201,128,2,131535:0:0:0:0:
320,192,130201,1,4,0:0:0:0:
448,192,130868,1,8,0:0:0:0:
64,192,131535,128,0,132201:0:0:0:0:
448,192,132201,128,8,132868:0:0:0:0:
192,192,132201,1,0,0:0:0:0:
320,192,132868,128,2,135535:0:0:0:0:
64,192,133535,1,8,0:0:0:0:
448,192,134868,1,8,0:0:0:0:
192,192,135535,1,2,0:0:0:0:
64,192,135535,128,4,140868:0:0:0:0:
