osu file format v14

[General]
AudioFilename: PEACE BREAKER.mp3
AudioLeadIn: 0
PreviewTime: 185190
Countdown: 1
SampleSet: Soft
StackLeniency: 0.7
Mode: 0
LetterboxInBreaks: 1
WidescreenStoryboard: 0

[Editor]
DistanceSpacing: 1
BeatDivisor: 4
GridSize: 4
TimelineZoom: 1.1

[Metadata]
Title:PEACE BREAKER
TitleUnicode:PEACE BREAKER
Artist:xi
ArtistUnicode:xi
Creator:ktgster
Version:GAMEBREAKING
Source:BMS
Tags:omnipotenx parousia
BeatmapID:800923
BeatmapSetID:364901

[Difficulty]
HPDrainRate:6
CircleSize:5
OverallDifficulty:9
ApproachRate:9
SliderMultiplier:1.6
SliderTickRate:1

[Events]
//Background and Video events
0,0,"bg.png",0,0
//Break Periods
2,137389,147090
2,233390,244590
2,245390,247402
//Storyboard Layer 0 (Background)
//Storyboard Layer 1 (Fail)
//Storyboard Layer 2 (Pass)
//Storyboard Layer 3 (Foreground)
//Storyboard Sound Samples

[TimingPoints]
1561,376.695128076344,4,2,0,50,1,0
1561,-200,4,2,0,50,0,0
13572,375,4,2,0,50,1,0
13572,-166.666666666667,4,2,0,50,0,0
25572,-142.857142857143,4,2,0,50,0,0
37569,380.469245402663,4,2,0,50,1,0
37569,-200,4,2,0,50,0,0
45178,372.670807453416,4,2,0,50,1,0
45178,-166.666666666667,4,2,0,50,0,0
46668,375,4,2,0,50,1,0
46668,-142.857142857143,4,2,0,50,0,0
48168,402.684563758389,4,2,0,50,1,0
48168,-166.666666666667,4,2,0,50,0,0
49778,409.556313993174,4,2,0,50,1,0
53054,400,4,2,0,50,1,0
56190,375,4,2,0,50,1,0
57315,-100,4,2,0,5,0,0
57502,-100,4,2,0,50,0,0
63627,-125,4,2,0,50,0,0
65190,-100,4,2,0,50,0,0
66033,-125,4,2,0,50,0,0
66596,-100,4,2,0,50,0,0
66971,-125,4,2,0,50,0,0
68096,-100,4,2,0,50,0,0
68377,-125,4,2,0,50,0,0
69690,-100,4,2,0,50,0,0
69971,-125,4,2,0,50,0,0
71190,-100,4,2,0,50,0,0
71471,-125,4,2,0,50,0,0
71940,-100,4,2,0,50,0,0
72221,-125,4,2,0,50,0,0
72690,-100,4,2,0,50,0,0
72971,-125,4,2,0,50,0,0
73440,-66.6666666666667,4,2,0,50,0,0
74002,-100,4,2,0,50,0,0
79440,-83.3333333333333,4,2,0,50,0,0
80002,-200,4,2,0,50,0,0
80190,-100,4,2,0,50,0,0
82440,-83.3333333333333,4,2,0,50,0,0
83002,-200,4,2,0,50,0,0
83190,-100,4,2,0,50,0,0
85440,-200,4,2,0,50,0,0
86190,-100,4,2,0,50,0,0
91065,-83.3333333333333,4,2,0,50,0,0
92190,-100,4,2,0,50,0,0
93690,-83.3333333333333,4,2,0,50,0,0
95190,-100,4,2,0,50,0,0
97440,-200,4,2,0,50,0,0
98190,-100,4,2,0,50,0,0
98471,-83.3333333333333,4,2,0,50,0,0
101190,-83.3333333333333,4,2,0,50,0,1
101565,-66.6666666666667,4,2,0,50,0,1
101940,-83.3333333333333,4,2,0,50,0,1
103440,-100,4,2,0,50,0,1
104190,-83.3333333333333,4,2,0,50,0,1
104565,-66.6666666666667,4,2,0,50,0,1
104940,-83.3333333333333,4,2,0,50,0,1
106440,-100,4,2,0,50,0,1
107190,-83.3333333333333,4,2,0,50,0,1
107565,-66.6666666666667,4,2,0,50,0,1
107940,-83.3333333333333,4,2,0,50,0,1
109440,-200,4,2,0,50,0,1
110190,-83.3333333333333,4,2,0,50,0,1
110565,-66.6666666666667,4,2,0,50,0,1
110940,-83.3333333333333,4,2,0,50,0,1
112815,-200,4,2,0,50,0,1
113190,-83.3333333333333,4,2,0,50,0,1
115815,-100,4,2,0,50,0,1
116190,-83.3333333333333,4,2,0,50,0,1
118440,-200,4,2,0,50,0,1
118815,-100,4,2,0,50,0,1
119190,-83.3333333333333,4,2,0,50,0,1
121440,-200,4,2,0,50,0,1
122190,-83.3333333333333,4,2,0,50,0,1
124533,-66.6666666666667,4,2,0,50,0,1
125002,-100,4,2,0,50,0,1
136065,-66.6666666666667,4,2,0,50,0,1
136533,-100,4,2,0,50,0,1
137190,-100,4,2,0,50,0,0
185190,-83.3333333333333,4,2,0,50,0,1
185565,-66.6666666666667,4,2,0,50,0,1
185940,-100,4,2,0,50,0,1
188002,-200,4,2,0,50,0,1
188190,-83.3333333333333,4,2,0,50,0,1
188565,-66.6666666666667,4,2,0,50,0,1
188940,-100,4,2,0,50,0,1
191190,-83.3333333333333,4,2,0,50,0,1
191565,-66.6666666666667,4,2,0,50,0,1
191940,-100,4,2,0,50,0,1
192315,-83.3333333333333,4,2,0,50,0,1
193440,-100,4,2,0,50,0,1
194002,-200,4,2,0,50,0,1
194190,-83.3333333333333,4,2,0,50,0,1
197565,-66.6666666666667,4,2,0,50,0,1
197940,-100,4,2,0,50,0,1
198690,-83.3333333333333,4,2,0,50,0,1
200565,-66.6666666666667,4,2,0,50,0,1
200940,-100,4,2,0,50,0,1
201690,-83.3333333333333,4,2,0,50,0,1
203565,-66.6666666666667,4,2,0,50,0,1
203940,-100,4,2,0,50,0,1
209190,-200,4,2,0,50,0,0
209377,-100,4,2,0,50,0,0
217815,-200,4,2,0,50,0,0
218190,-100,4,2,0,50,0,0
280440,-200,4,2,0,50,0,0
281190,-100,4,2,0,50,0,0
285127,375,4,2,0,50,1,0
285127,-200,4,2,0,50,0,0
285877,-100,4,2,0,50,0,0
286627,-66.6666666666667,4,2,0,50,0,0
288127,-100,4,2,0,50,0,0
312127,-83.3333333333333,4,2,0,50,0,1
312502,-66.6666666666667,4,2,0,50,0,1
312877,-100,4,2,0,50,0,1
315502,-66.6666666666667,4,2,0,50,0,1
315877,-100,4,2,0,50,0,1
318127,-83.3333333333333,4,2,0,50,0,1
318502,-66.6666666666667,4,2,0,50,0,1
318877,-100,4,2,0,50,0,1
321595,-66.6666666666667,4,2,0,50,0,1
321877,-83.3333333333333,4,2,0,50,0,1
324502,-66.6666666666667,4,2,0,50,0,1
324877,-83.3333333333333,4,2,0,50,0,1
327502,-66.6666666666667,4,2,0,50,0,1
328064,-83.3333333333333,4,2,0,50,0,1
330502,-66.6666666666667,4,2,0,50,0,1
330689,-83.3333333333333,4,2,0,50,0,1
336502,-100,4,2,0,50,0,0
344377,-100,4,2,0,5,0,0

[HitObjects]
55,335,1561,6,0,L|64:280,1,40
73,224,1937,1,0,0:0:0:0:
73,224,2126,1,0,0:0:0:0:
144,224,2314,2,0,L|153:169,1,40
162,113,2691,1,0,0:0:0:0:
162,113,2879,1,0,0:0:0:0:
233,113,3067,6,0,L|242:168,1,40
251,224,3444,1,0,0:0:0:0:
251,224,3632,1,0,0:0:0:0:
322,224,3821,2,0,L|331:279,1,40
340,335,4197,1,0,0:0:0:0:
340,335,4386,1,0,0:0:0:0:
411,335,4574,6,0,L|402:280,1,40
393,224,4951,1,0,0:0:0:0:
393,224,5139,1,0,0:0:0:0:
322,224,5327,2,0,L|313:169,1,40
304,113,5704,1,0,0:0:0:0:
304,113,5892,1,0,0:0:0:0:
231,113,6081,6,0,L|224:152,1,40
213,224,6458,1,0,0:0:0:0:
213,224,6646,1,0,0:0:0:0:
142,224,6834,2,0,L|135:263,1,40
124,335,7211,1,0,0:0:0:0:
124,335,7399,1,0,0:0:0:0:
52,335,7588,5,0,0:0:0:0:
50,327,7776,1,0,0:0:0:0:
48,319,7964,1,0,0:0:0:0:
46,311,8153,1,0,0:0:0:0:
79,247,8341,5,0,0:0:0:0:
77,239,8529,1,0,0:0:0:0:
75,231,8718,1,0,0:0:0:0:
73,223,8906,1,0,0:0:0:0:
123,172,9094,5,0,0:0:0:0:
121,164,9283,1,0,0:0:0:0:
119,156,9471,1,0,0:0:0:0:
117,148,9659,1,0,0:0:0:0:
167,97,9848,5,0,0:0:0:0:
165,89,10036,1,0,0:0:0:0:
163,81,10224,1,0,0:0:0:0:
161,73,10413,1,0,0:0:0:0:
351,73,10601,5,0,0:0:0:0:
349,81,10790,1,0,0:0:0:0:
347,89,10978,1,0,0:0:0:0:
345,97,11166,1,0,0:0:0:0:
395,148,11355,5,0,0:0:0:0:
393,156,11543,1,0,0:0:0:0:
391,164,11731,1,0,0:0:0:0:
389,172,11920,1,0,0:0:0:0:
439,223,12108,5,0,0:0:0:0:
437,231,12296,1,0,0:0:0:0:
435,239,12485,1,0,0:0:0:0:
433,247,12673,1,0,0:0:0:0:
466,311,12861,5,0,0:0:0:0:
464,319,13050,1,0,0:0:0:0:
462,327,13238,2,0,L|469:379,1,40
388,335,13572,6,0,L|371:232,1,95.9999970703126
360,170,14134,1,0,0:0:0:0:
288,170,14322,2,0,L|272:264,1,95.9999970703126
260,335,14884,1,0,0:0:0:0:
187,335,15072,5,0,0:0:0:0:
187,335,15259,1,0,0:0:0:0:
115,335,15447,2,0,L|107:287,1,47.9999985351563
98,215,15822,1,0,0:0:0:0:
98,215,16009,1,0,0:0:0:0:
170,215,16197,2,0,L|177:167,1,47.9999985351563
194,97,16572,6,0,L|297:114,1,95.9999970703126
359,125,17134,1,0,0:0:0:0:
359,197,17322,2,0,L|265:213,1,95.9999970703126
194,225,17884,1,0,0:0:0:0:
194,298,18072,5,0,0:0:0:0:
245,349,18259,1,0,0:0:0:0:
314,328,18447,2,0,B|336:322|336:322|376:322,1,47.9999985351563
430,341,18822,1,0,0:0:0:0:
480,290,19009,1,0,0:0:0:0:
429,239,19197,1,0,0:0:0:0:
479,188,19384,1,0,0:0:0:0:
428,137,19572,6,0,L|334:121,1,95.9999970703126
282,172,20134,1,0,0:0:0:0:
231,121,20322,2,0,L|183:129,1,47.9999985351563
132,78,20697,1,0,0:0:0:0:
132,78,20884,1,0,0:0:0:0:
81,128,21072,6,0,B|70:171|70:171|85:231,1,95.9999970703126
113,285,21634,1,0,0:0:0:0:
180,259,21822,1,0,0:0:0:0:
210,322,22009,1,0,0:0:0:0:
277,296,22197,2,0,B|299:290|299:290|339:290,1,47.9999985351563
394,304,22572,6,0,B|406:253|406:253|395:210,1,95.9999970703126
344,160,23134,1,0,0:0:0:0:
280,125,23322,2,0,L|227:134,1,47.9999985351563
181,82,23697,1,0,0:0:0:0:
181,82,23884,1,0,0:0:0:0:
130,132,24072,6,0,B|117:182|117:182|128:225,1,95.9999970703126
180,276,24634,1,0,0:0:0:0:
244,311,24822,2,0,L|297:302,1,47.9999985351563
343,354,25197,1,0,0:0:0:0:
343,354,25384,1,0,0:0:0:0:
414,354,25572,6,0,B|443:309|443:309|425:242,1,111.999996582031
376,200,26134,1,0,0:0:0:0:
324,148,26322,2,0,L|340:84,1,55.9999982910157
400,55,26697,1,0,0:0:0:0:
400,55,26884,1,0,0:0:0:0:
451,106,27072,5,0,0:0:0:0:
451,106,27259,1,0,0:0:0:0:
376,200,27447,2,0,L|257:192,1,111.999996582031
212,141,28009,1,0,0:0:0:0:
160,89,28197,1,0,0:0:0:0:
141,159,28384,1,0,0:0:0:0:
89,210,28572,6,0,B|73:266|73:266|102:311,1,111.999996582031
171,333,29134,1,0,0:0:0:0:
222,281,29322,2,0,B|267:252|267:252|323:267,1,111.999996582031
374,318,29884,1,0,0:0:0:0:
425,266,30072,6,0,L|436:145,1,111.999996582031
383,103,30634,1,0,0:0:0:0:
331,154,30822,1,0,0:0:0:0:
279,102,31009,1,0,0:0:0:0:
227,153,31197,1,0,0:0:0:0:
227,153,31384,1,0,0:0:0:0:
175,101,31572,6,0,L|168:26,1,55.9999982910157
98,29,31947,1,0,0:0:0:0:
98,29,32134,1,0,0:0:0:0:
103,101,32322,2,0,L|108:156,1,55.9999982910157
56,208,32697,1,0,0:0:0:0:
56,208,32884,1,0,0:0:0:0:
4,259,33072,5,0,0:0:0:0:
56,208,33259,1,0,0:0:0:0:
74,278,33447,1,0,0:0:0:0:
92,348,33634,1,0,0:0:0:0:
143,296,33822,5,0,0:0:0:0:
195,347,34009,1,0,0:0:0:0:
213,277,34197,1,0,0:0:0:0:
231,207,34384,1,0,0:0:0:0:
283,258,34572,6,0,L|399:278,1,111.999996582031
444,225,35134,1,0,0:0:0:0:
392,173,35322,2,0,L|404:102,1,55.9999982910157
349,66,35697,1,0,0:0:0:0:
349,66,35884,1,0,0:0:0:0:
297,14,36072,6,0,L|181:34,1,111.999996582031
135,84,36634,1,0,0:0:0:0:
83,135,36822,1,0,0:0:0:0:
81,148,36915,1,0,0:0:0:0:
79,161,37009,1,0,0:0:0:0:
77,174,37103,1,0,0:0:0:0:
75,187,37197,1,0,0:0:0:0:
74,200,37290,1,0,0:0:0:0:
73,214,37384,1,0,0:0:0:0:
72,228,37478,1,0,0:0:0:0:
70,241,37569,6,0,B|97:299|41:346|41:346|176:346|210:292|210:292|276:317|276:317|327:280|394:291,1,480
436,221,40612,6,0,P|414:160|449:56,2,160
311,345,42895,2,0,B|256:331|256:331|186:341,1,120
162,308,43656,6,0,P|144:258|280:242,1,240
300,270,44988,1,0,0:0:0:0:
328,304,45178,6,0,P|429:333|442:228,1,240
416,186,46296,1,0,0:0:0:0:
371,169,46482,1,0,0:0:0:0:
321,161,46668,6,0,P|256:162|221:299,1,223.999993164063
137,373,47793,1,0,0:0:0:0:
63,299,48168,2,0,L|51:92,2,191.999994140625
256,192,49880,12,0,57315,0:0:0:0:
64,192,57502,5,0,0:0:0:0:
64,192,57596,1,0,0:0:0:0:
64,192,57690,2,0,B|84:156|84:156|84:107,1,80
84,97,57971,1,0,0:0:0:0:
84,76,58065,1,0,0:0:0:0:
160,55,58252,1,0,0:0:0:0:
160,76,58346,1,0,0:0:0:0:
160,96,58440,2,0,B|160:134|160:134|180:170,1,80
180,171,58721,1,0,0:0:0:0:
180,171,58815,1,0,0:0:0:0:
236,227,59002,1,0,0:0:0:0:
256,227,59096,1,0,0:0:0:0:
276,227,59190,6,0,L|348:227,1,40
372,170,59377,1,0,0:0:0:0:
392,170,59471,1,0,0:0:0:0:
412,170,59565,1,0,0:0:0:0:
412,90,59752,1,0,0:0:0:0:
392,90,59846,1,0,0:0:0:0:
372,90,59940,6,0,L|300:90,1,40
276,147,60127,1,0,0:0:0:0:
256,147,60221,1,0,0:0:0:0:
236,147,60315,1,0,0:0:0:0:
179,203,60502,1,0,0:0:0:0:
159,203,60596,1,0,0:0:0:0:
139,203,60690,5,0,0:0:0:0:
117,220,60783,1,0,0:0:0:0:
107,246,60877,1,0,0:0:0:0:
107,274,60971,1,0,0:0:0:0:
122,297,61065,1,0,0:0:0:0:
146,309,61158,1,0,0:0:0:0:
173,313,61252,1,0,0:0:0:0:
200,307,61346,1,0,0:0:0:0:
223,291,61440,6,0,L|228:269,1,20
227,291,61533,2,0,L|232:269,1,20
231,291,61627,2,0,L|236:269,1,20
235,291,61721,2,0,L|240:269,1,20
239,292,61815,2,0,L|244:270,1,20
243,292,61908,2,0,L|248:270,1,20
247,292,62002,2,0,L|252:270,1,20
251,292,62096,2,0,L|256:270,1,20
255,293,62190,5,0,0:0:0:0:
359,351,62471,1,0,0:0:0:0:
359,351,62565,2,0,L|366:304,1,40
373,350,62752,2,0,L|380:303,1,40
387,349,62940,2,0,L|394:302,1,40
449,252,63127,1,0,0:0:0:0:
449,252,63221,1,0,0:0:0:0:
449,252,63315,2,0,B|465:295|465:295|456:346,1,80
345,215,63690,6,0,L|356:136,1,64
323,182,63940,2,0,L|334:103,1,64
338,76,64252,1,0,0:0:0:0:
269,39,64440,1,0,0:0:0:0:
269,39,64533,6,0,L|263:78,1,32
237,98,64721,1,0,0:0:0:0:
237,98,64814,2,0,L|231:137,1,32
205,157,65002,1,0,0:0:0:0:
205,157,65190,6,0,B|168:136|168:136|96:136,1,80
170,289,65471,6,0,B|206:267|206:267|242:205,1,80
73,192,65752,6,0,B|73:234|73:234|109:296,1,80
247,311,66127,1,0,0:0:0:0:
247,311,66221,2,0,L|286:308,1,32
355,302,66502,1,0,0:0:0:0:
355,302,66690,6,0,B|355:264|355:264|376:227,1,80
403,200,66971,2,0,L|403:155,1,40
428,222,67252,2,0,L|428:177,1,40
428,152,67440,5,0,0:0:0:0:
428,75,67627,1,0,0:0:0:0:
428,75,67721,2,0,L|428:164,1,64
428,152,68002,1,0,0:0:0:0:
347,152,68190,6,0,L|347:64,1,80
347,46,68471,1,0,0:0:0:0:
347,46,68752,1,0,0:0:0:0:
269,46,68940,1,0,0:0:0:0:
269,71,69033,1,0,0:0:0:0:
269,87,69127,1,0,0:0:0:0:
269,109,69220,1,0,0:0:0:0:
153,109,69502,1,0,0:0:0:0:
153,29,69690,6,0,L|153:117,1,80
153,134,69971,1,0,0:0:0:0:
153,134,70252,2,0,L|153:175,1,32
153,191,70440,5,0,0:0:0:0:
76,191,70627,1,0,0:0:0:0:
76,191,70721,2,0,L|76:246,1,32
76,255,70908,2,0,L|92:255,1,16
80,266,71002,2,0,L|96:266,1,16
84,277,71096,2,0,L|100:277,1,16
88,288,71190,6,0,B|96:329|96:329|82:369,1,80
67,365,71471,1,0,0:0:0:0:
67,365,71752,1,0,0:0:0:0:
171,365,71940,6,0,B|163:324|163:324|175:287,1,80
192,288,72221,2,0,L|231:289,1,32
223,288,72502,1,0,0:0:0:0:
223,288,72690,6,0,L|329:290,1,80
335,288,72971,1,0,0:0:0:0:
312,265,73065,1,0,0:0:0:0:
343,265,73158,1,0,0:0:0:0:
320,242,73252,1,0,0:0:0:0:
352,242,73346,1,0,0:0:0:0:
329,219,73440,6,0,L|407:215,1,60.0000022888184
329,204,73627,2,0,L|407:200,1,60.0000022888184
329,189,73815,2,0,L|407:185,1,60.0000022888184
329,174,74002,2,0,L|352:172,1,20
329,168,74096,2,0,L|352:166,1,20
329,162,74190,5,0,0:0:0:0:
272,105,74377,1,0,0:0:0:0:
272,96,74471,2,0,L|272:53,1,40
203,78,74658,1,0,0:0:0:0:
203,69,74752,2,0,L|203:26,1,40
130,29,74940,1,0,0:0:0:0:
130,36,75033,1,0,0:0:0:0:
130,64,75127,1,0,0:0:0:0:
130,83,75220,1,0,0:0:0:0:
130,111,75315,5,0,0:0:0:0:
115,125,75408,2,0,L|167:125,1,40
129,193,75596,1,0,0:0:0:0:
114,207,75689,2,0,L|166:207,1,40
205,258,75877,5,0,0:0:0:0:
220,272,75971,2,0,L|168:272,1,40
206,340,76158,1,0,0:0:0:0:
221,354,76252,2,0,L|169:354,1,40
108,338,76440,5,0,0:0:0:0:
123,324,76533,2,0,L|71:324,1,40
31,272,76721,1,0,0:0:0:0:
16,258,76815,2,0,L|50:258,1,20
24,246,76908,2,0,L|58:246,1,20
32,234,77002,2,0,L|66:234,1,20
40,222,77096,2,0,L|74:222,1,20
48,210,77190,5,0,0:0:0:0:
92,141,77377,1,0,0:0:0:0:
91,132,77471,1,0,0:0:0:0:
90,123,77565,1,0,0:0:0:0:
157,190,77752,1,0,0:0:0:0:
156,181,77846,1,0,0:0:0:0:
155,172,77940,1,0,0:0:0:0:
222,239,78127,1,0,0:0:0:0:
221,230,78221,1,0,0:0:0:0:
220,221,78315,1,0,0:0:0:0:
287,288,78502,1,0,0:0:0:0:
286,279,78596,1,0,0:0:0:0:
285,270,78690,6,0,B|316:248|316:248|376:248,1,80
398,248,78971,1,0,0:0:0:0:
398,248,79159,1,0,0:0:0:0:
412,233,79252,1,0,0:0:0:0:
412,212,79346,1,0,0:0:0:0:
397,197,79440,6,0,L|268:197,1,95.9999970703126
253,149,79721,1,0,0:0:0:0:
215,186,79815,1,0,0:0:0:0:
188,159,79908,1,0,0:0:0:0:
169,174,80002,2,0,L|135:174,1,20
36,186,80190,5,0,0:0:0:0:
92,243,80377,1,0,0:0:0:0:
91,252,80471,1,0,0:0:0:0:
90,261,80565,1,0,0:0:0:0:
157,194,80752,1,0,0:0:0:0:
156,203,80846,1,0,0:0:0:0:
155,212,80940,1,0,0:0:0:0:
222,145,81127,1,0,0:0:0:0:
221,154,81221,1,0,0:0:0:0:
220,163,81315,1,0,0:0:0:0:
287,96,81502,1,0,0:0:0:0:
286,105,81596,1,0,0:0:0:0:
285,114,81690,6,0,B|316:136|316:136|376:136,1,80
398,136,81971,1,0,0:0:0:0:
398,136,82158,1,0,0:0:0:0:
412,150,82252,1,0,0:0:0:0:
397,164,82346,1,0,0:0:0:0:
411,178,82440,6,0,L|282:178,1,95.9999970703126
270,222,82721,1,0,0:0:0:0:
229,181,82815,1,0,0:0:0:0:
202,207,82908,1,0,0:0:0:0:
187,192,83002,2,0,L|153:192,1,20
50,189,83190,5,0,0:0:0:0:
117,121,83377,1,0,0:0:0:0:
108,120,83471,1,0,0:0:0:0:
99,119,83565,1,0,0:0:0:0:
166,186,83752,1,0,0:0:0:0:
157,185,83846,1,0,0:0:0:0:
148,184,83940,1,0,0:0:0:0:
215,251,84127,1,0,0:0:0:0:
206,250,84221,1,0,0:0:0:0:
197,249,84315,1,0,0:0:0:0:
264,316,84502,1,0,0:0:0:0:
255,315,84596,1,0,0:0:0:0:
246,314,84690,5,0,0:0:0:0:
302,257,84877,1,0,0:0:0:0:
311,256,84971,1,0,0:0:0:0:
367,312,85158,1,0,0:0:0:0:
376,311,85252,1,0,0:0:0:0:
432,254,85440,6,0,L|444:256,1,10
433,247,85533,2,0,L|445:249,1,10
434,239,85627,2,0,L|446:241,1,10
435,232,85721,2,0,L|447:234,1,10
435,224,85815,2,0,L|423:226,1,10
434,217,85908,2,0,L|422:219,1,10
433,209,86002,2,0,L|421:211,1,10
432,202,86096,2,0,L|420:204,1,10
431,194,86190,5,0,0:0:0:0:
363,126,86377,1,0,0:0:0:0:
372,125,86471,1,0,0:0:0:0:
381,124,86565,1,0,0:0:0:0:
314,191,86752,1,0,0:0:0:0:
323,190,86846,1,0,0:0:0:0:
332,189,86940,1,0,0:0:0:0:
265,256,87127,1,0,0:0:0:0:
274,255,87221,1,0,0:0:0:0:
283,254,87315,1,0,0:0:0:0:
302,273,87408,1,0,0:0:0:0:
313,298,87502,1,0,0:0:0:0:
308,333,87596,1,0,0:0:0:0:
281,357,87690,5,0,0:0:0:0:
212,316,87877,1,0,0:0:0:0:
203,315,87971,2,0,L|190:266,1,40
136,219,88158,1,0,0:0:0:0:
127,218,88252,1,0,0:0:0:0:
98,189,88346,1,0,0:0:0:0:
107,188,88440,1,0,0:0:0:0:
135,159,88533,1,0,0:0:0:0:
126,158,88627,1,0,0:0:0:0:
97,129,88721,1,0,0:0:0:0:
106,128,88815,2,0,L|119:79,1,40
144,117,89002,2,0,L|151:86,1,20
149,118,89096,2,0,L|156:87,1,20
154,119,89190,5,0,0:0:0:0:
210,175,89377,1,0,0:0:0:0:
207,182,89471,1,0,0:0:0:0:
204,189,89565,1,0,0:0:0:0:
260,245,89752,1,0,0:0:0:0:
257,252,89846,1,0,0:0:0:0:
254,259,89940,1,0,0:0:0:0:
310,315,90127,1,0,0:0:0:0:
307,322,90221,2,0,L|291:362,1,40
386,322,90408,1,0,0:0:0:0:
389,329,90502,2,0,L|405:369,1,40
484,366,90690,6,0,L|484:283,1,80
484,265,90971,1,0,0:0:0:0:
484,244,91065,2,0,L|428:244,1,47.9999985351563
367,175,91252,2,0,L|415:175,1,47.9999985351563
483,106,91440,5,0,0:0:0:0:
459,106,91533,1,0,0:0:0:0:
424,71,91628,1,0,0:0:0:0:
400,71,91721,2,0,L|400:15,1,47.9999985351563
323,23,91907,1,0,0:0:0:0:
323,48,92002,2,0,L|323:96,1,47.9999985351563
241,96,92190,5,0,0:0:0:0:
297,152,92377,1,0,0:0:0:0:
304,149,92471,1,0,0:0:0:0:
311,146,92565,1,0,0:0:0:0:
367,202,92752,1,0,0:0:0:0:
374,199,92846,1,0,0:0:0:0:
381,196,92940,1,0,0:0:0:0:
437,252,93127,1,0,0:0:0:0:
444,249,93221,2,0,L|484:233,1,40
444,328,93408,1,0,0:0:0:0:
451,331,93502,2,0,L|491:347,1,40
370,296,93690,5,0,0:0:0:0:
298,296,93830,2,0,L|299:330,1,23.9999992675781
287,292,93924,2,0,L|288:326,1,23.9999992675781
276,288,94018,2,0,L|277:322,1,23.9999992675781
265,284,94111,2,0,L|266:318,1,23.9999992675781
254,280,94205,2,0,L|255:314,1,23.9999992675781
243,276,94299,2,0,L|244:310,2,23.9999992675781
231,272,94440,6,0,P|197:251|173:191,1,95.9999970703126
132,160,94721,1,0,0:0:0:0:
74,161,94815,1,0,0:0:0:0:
30,197,94908,1,0,0:0:0:0:
15,252,95002,1,0,0:0:0:0:
34,306,95096,1,0,0:0:0:0:
88,325,95190,5,0,0:0:0:0:
144,268,95377,1,0,0:0:0:0:
151,271,95471,1,0,0:0:0:0:
158,274,95565,1,0,0:0:0:0:
214,218,95752,1,0,0:0:0:0:
221,221,95846,1,0,0:0:0:0:
228,224,95940,1,0,0:0:0:0:
284,168,96127,1,0,0:0:0:0:
291,171,96221,2,0,L|331:187,1,40
291,92,96408,1,0,0:0:0:0:
298,89,96502,2,0,L|338:73,1,40
217,124,96690,5,0,0:0:0:0:
160,67,96877,1,0,0:0:0:0:
157,74,96971,1,0,0:0:0:0:
100,130,97158,1,0,0:0:0:0:
97,123,97252,1,0,0:0:0:0:
40,179,97440,6,0,L|28:177,1,10
39,186,97533,2,0,L|27:184,1,10
38,194,97627,2,0,L|26:192,1,10
37,201,97721,2,0,L|25:199,1,10
37,209,97815,2,0,L|49:207,1,10
38,216,97908,2,0,L|50:214,1,10
39,224,98002,2,0,L|51:222,1,10
40,231,98096,2,0,L|52:229,1,10
41,239,98190,6,0,B|53:289|53:289|39:336,1,80
100,362,98471,2,0,B|124:297|124:297|104:211,1,143.999995605469
175,156,98940,1,0,0:0:0:0:
175,156,99127,1,0,0:0:0:0:
207,191,99221,1,0,0:0:0:0:
253,203,99315,1,0,0:0:0:0:
300,198,99408,1,0,0:0:0:0:
350,170,99502,1,0,0:0:0:0:
379,120,99596,1,0,0:0:0:0:
367,63,99690,5,0,0:0:0:0:
315,86,99783,1,0,0:0:0:0:
295,140,99877,1,0,0:0:0:0:
300,198,99971,1,0,0:0:0:0:
343,235,100065,1,0,0:0:0:0:
366,276,100158,1,0,0:0:0:0:
356,323,100252,2,0,P|331:335|279:323,1,47.9999985351563
262,332,100440,1,0,0:0:0:0:
262,332,100627,1,0,0:0:0:0:
141,313,100815,2,0,L|102:313,1,23.9999992675781
144,304,100908,2,0,L|105:304,1,23.9999992675781
147,295,101002,2,0,L|108:295,1,23.9999992675781
150,286,101096,2,0,L|111:286,1,23.9999992675781
153,277,101190,6,0,P|148:242|174:181,1,95.9999970703126
269,187,101471,1,0,0:0:0:0:
269,187,101565,6,0,B|333:226|333:226|389:211|389:211|450:257|508:227,1,240.000009155274
509,202,102033,1,0,0:0:0:0:
508,163,102127,1,0,0:0:0:0:
484,121,102221,1,0,0:0:0:0:
439,102,102315,1,0,0:0:0:0:
392,110,102408,1,0,0:0:0:0:
363,148,102502,2,0,L|352:223,1,47.9999985351563
336,345,102690,5,0,0:0:0:0:
320,350,102752,1,0,0:0:0:0:
304,352,102815,1,0,0:0:0:0:
288,352,102877,1,0,0:0:0:0:
272,348,102940,1,0,0:0:0:0:
258,339,103002,1,0,0:0:0:0:
230,311,103065,2,0,L|223:272,1,31.9999990234375
210,315,103190,2,0,L|203:276,1,31.9999990234375
190,319,103315,2,0,L|183:280,1,31.9999990234375
163,329,103440,6,0,L|153:359,1,26.6666666666667
152,320,103565,2,0,L|123:334,1,26.6666666666667
152,300,103690,2,0,L|121:290,1,26.6666666666667
164,291,103815,2,0,L|149:262,1,26.6666666666667
178,289,103940,2,0,L|188:259,1,26.6666666666667
195,196,104096,1,0,0:0:0:0:
195,196,104190,6,0,P|196:150|179:101,1,95.9999970703126
298,26,104471,1,0,0:0:0:0:
298,26,104565,2,0,B|337:90|337:90|322:146|322:146|368:207|338:265,1,240.000009155274
379,279,105033,1,0,0:0:0:0:
418,278,105127,1,0,0:0:0:0:
460,254,105221,1,0,0:0:0:0:
479,209,105315,1,0,0:0:0:0:
471,162,105408,1,0,0:0:0:0:
433,133,105502,2,0,L|358:122,1,47.9999985351563
231,52,105690,5,0,0:0:0:0:
226,68,105752,1,0,0:0:0:0:
224,84,105815,1,0,0:0:0:0:
224,100,105877,1,0,0:0:0:0:
228,116,105940,1,0,0:0:0:0:
237,130,106002,1,0,0:0:0:0:
265,158,106065,2,0,L|304:165,1,31.9999990234375
261,178,106190,2,0,L|300:185,1,31.9999990234375
257,198,106315,2,0,L|296:205,1,31.9999990234375
247,225,106440,6,0,L|217:235,1,26.6666666666667
256,236,106565,2,0,L|242:265,1,26.6666666666667
276,236,106690,2,0,L|286:267,1,26.6666666666667
285,224,106815,2,0,L|314:239,1,26.6666666666667
287,210,106940,2,0,L|317:200,1,26.6666666666667
380,193,107096,1,0,0:0:0:0:
380,193,107190,6,0,P|426:192|475:209,1,95.9999970703126
463,334,107471,1,0,0:0:0:0:
463,334,107565,2,0,B|393:361|393:361|340:336|340:336|272:371|220:331,1,240.000009155274
204,309,108033,1,0,0:0:0:0:
205,270,108127,1,0,0:0:0:0:
229,228,108221,1,0,0:0:0:0:
274,209,108315,1,0,0:0:0:0:
321,217,108408,1,0,0:0:0:0:
357,248,108502,2,0,P|379:260|410:262,1,47.9999985351563
498,99,108690,5,0,0:0:0:0:
482,94,108752,1,0,0:0:0:0:
466,92,108815,1,0,0:0:0:0:
450,92,108877,1,0,0:0:0:0:
434,96,108940,1,0,0:0:0:0:
420,105,109002,1,0,0:0:0:0:
392,133,109065,2,0,L|385:172,1,31.9999990234375
372,129,109190,2,0,L|365:168,1,31.9999990234375
352,125,109315,2,0,L|345:164,1,31.9999990234375
325,115,109440,6,0,L|327:103,1,10
318,114,109533,2,0,L|320:102,1,10
310,113,109627,2,0,L|312:101,1,10
303,112,109721,2,0,L|305:100,1,10
295,112,109815,2,0,L|297:124,1,10
288,113,109908,2,0,L|290:125,1,10
280,114,110002,2,0,L|282:126,1,10
273,115,110096,2,0,L|275:127,1,10
265,116,110190,6,0,B|215:128|215:128|168:114,1,80
50,106,110471,1,0,0:0:0:0:
50,106,110565,2,0,B|26:160|56:208|56:208|31:261|31:261|58:331,1,239.999992675781
92,364,111033,1,0,0:0:0:0:
131,363,111127,1,0,0:0:0:0:
173,339,111221,1,0,0:0:0:0:
192,294,111315,1,0,0:0:0:0:
184,247,111408,1,0,0:0:0:0:
153,211,111502,2,0,P|141:189|139:158,1,47.9999985351563
199,54,111690,5,0,0:0:0:0:
215,49,111752,1,0,0:0:0:0:
231,47,111815,1,0,0:0:0:0:
247,47,111877,1,0,0:0:0:0:
263,51,111940,1,0,0:0:0:0:
277,60,112002,1,0,0:0:0:0:
305,88,112065,2,0,L|312:127,1,31.9999990234375
330,86,112190,2,0,L|362:108,1,31.9999990234375
346,66,112315,2,0,L|385:59,1,31.9999990234375
415,56,112440,5,0,0:0:0:0:
420,72,112502,1,0,0:0:0:0:
422,88,112565,1,0,0:0:0:0:
422,104,112627,1,0,0:0:0:0:
418,120,112690,1,0,0:0:0:0:
409,134,112752,1,0,0:0:0:0:
381,162,112815,2,0,L|365:165,1,10
381,173,112908,2,0,L|365:176,1,10
381,184,113002,2,0,L|365:187,1,10
381,195,113096,2,0,L|365:198,1,10
381,207,113190,6,0,P|374:256|397:302,1,95.9999970703126
324,365,113471,1,0,0:0:0:0:
324,365,113565,2,0,L|256:355,1,47.9999985351563
225,306,113752,1,0,0:0:0:0:
225,306,113846,2,0,L|157:316,1,47.9999985351563
126,261,114033,2,0,L|83:254,1,23.9999992675781
126,257,114127,2,0,L|83:250,1,23.9999992675781
126,253,114221,1,0,0:0:0:0:
144,208,114315,1,0,0:0:0:0:
180,178,114408,1,0,0:0:0:0:
228,174,114502,1,0,0:0:0:0:
268,199,114596,1,0,0:0:0:0:
290,241,114690,6,0,L|298:288,1,31.9999990234375
318,249,114815,2,0,L|326:296,1,31.9999990234375
346,257,114940,2,0,L|354:304,1,31.9999990234375
396,242,115065,6,0,L|404:195,1,31.9999990234375
424,234,115190,2,0,L|432:187,1,31.9999990234375
452,226,115315,2,0,L|460:179,1,31.9999990234375
502,240,115440,5,0,0:0:0:0:
494,254,115502,1,0,0:0:0:0:
489,269,115565,1,0,0:0:0:0:
488,284,115627,1,0,0:0:0:0:
490,299,115690,1,0,0:0:0:0:
494,314,115752,1,0,0:0:0:0:
500,328,115815,2,0,L|486:373,1,40
407,366,116002,2,0,L|396:332,1,20
382,360,116096,2,0,L|371:326,1,20
357,354,116190,5,0,0:0:0:0:
311,338,116283,1,0,0:0:0:0:
282,299,116377,1,0,0:0:0:0:
280,250,116471,1,0,0:0:0:0:
304,208,116565,1,0,0:0:0:0:
346,186,116658,2,0,P|359:138|345:85,1,95.9999970703126
297,42,116940,1,0,0:0:0:0:
297,42,117033,2,0,L|307:13,1,23.9999992675781
283,49,117127,2,0,L|299:0,1,47.9999985351563
204,26,117315,1,0,0:0:0:0:
204,26,117408,2,0,L|214:55,1,23.9999992675781
190,19,117502,2,0,L|206:68,1,47.9999985351563
112,33,117690,6,0,L|65:41,1,31.9999990234375
104,61,117815,2,0,L|57:69,1,31.9999990234375
96,89,117940,2,0,L|49:97,1,31.9999990234375
111,139,118065,6,0,L|158:147,1,31.9999990234375
119,167,118190,2,0,L|166:175,1,31.9999990234375
127,195,118315,2,0,L|174:203,1,31.9999990234375
119,238,118440,5,0,0:0:0:0:
113,257,118533,2,0,L|99:262,1,10
108,269,118627,1,0,0:0:0:0:
102,288,118721,2,0,L|88:293,1,10
97,300,118815,1,0,0:0:0:0:
128,323,118908,1,0,0:0:0:0:
167,326,119002,1,0,0:0:0:0:
205,314,119096,1,0,0:0:0:0:
229,282,119190,6,0,P|254:237|290:213,1,95.9999970703126
385,196,119471,1,0,0:0:0:0:
385,196,119565,2,0,L|446:192,1,47.9999985351563
432,120,119752,1,0,0:0:0:0:
432,120,119846,2,0,L|371:116,1,47.9999985351563
333,65,120033,2,0,L|340:43,1,23.9999992675781
327,62,120127,2,0,L|334:40,1,23.9999992675781
321,59,120221,1,0,0:0:0:0:
274,45,120315,1,0,0:0:0:0:
227,55,120408,1,0,0:0:0:0:
197,93,120502,2,0,L|181:147,1,47.9999985351563
114,207,120690,6,0,L|80:198,1,31.9999990234375
105,221,120815,2,0,L|71:212,1,31.9999990234375
96,235,120940,2,0,L|62:226,1,31.9999990234375
127,272,121065,6,0,L|161:263,1,31.9999990234375
135,286,121190,2,0,L|169:277,1,31.9999990234375
143,300,121315,2,0,L|177:291,1,31.9999990234375
113,337,121440,6,0,L|111:349,1,10
120,338,121533,2,0,L|118:350,1,10
128,339,121627,2,0,L|126:351,1,10
135,340,121721,2,0,L|133:352,1,10
143,340,121815,2,0,L|141:328,1,10
150,339,121908,2,0,L|148:327,1,10
158,338,122002,2,0,L|156:326,1,10
165,337,122096,2,0,L|163:325,1,10
173,336,122190,5,0,0:0:0:0:
211,307,122283,1,0,0:0:0:0:
258,302,122377,1,0,0:0:0:0:
305,312,122471,1,0,0:0:0:0:
339,345,122565,1,0,0:0:0:0:
378,318,122658,2,0,P|411:279|430:224,1,95.9999970703126
427,164,122940,2,0,L|414:112,1,47.9999985351563
364,66,123127,1,0,0:0:0:0:
319,47,123221,1,0,0:0:0:0:
272,60,123315,1,0,0:0:0:0:
245,99,123408,2,0,L|240:122,1,23.9999992675781
233,98,123502,1,0,0:0:0:0:
186,84,123596,1,0,0:0:0:0:
153,48,123690,6,0,L|141:9,1,31.9999990234375
131,64,123815,2,0,L|119:25,1,31.9999990234375
109,80,123940,2,0,L|97:41,1,31.9999990234375
99,113,124065,6,0,L|89:143,1,31.9999990234375
121,129,124190,2,0,L|111:159,1,31.9999990234375
143,145,124315,2,0,L|133:175,1,31.9999990234375
165,175,124440,5,0,0:0:0:0:
165,175,124533,2,0,L|145:238,1,60.0000022888184
190,189,124721,2,0,L|170:252,1,60.0000022888184
214,203,124908,1,0,0:0:0:0:
231,213,125002,2,0,L|221:244,1,20
239,217,125096,2,0,L|229:248,1,20
247,221,125190,6,0,P|285:225|339:212,1,80
382,160,125471,1,0,0:0:0:0:
382,160,125565,2,0,L|391:112,1,40
463,89,125752,2,0,L|472:137,1,40
483,208,125940,1,0,0:0:0:0:
478,227,126033,2,0,L|445:222,1,20
472,238,126127,2,0,L|439:233,1,20
466,249,126221,1,0,0:0:0:0:
457,288,126315,1,0,0:0:0:0:
471,324,126408,1,0,0:0:0:0:
431,315,126502,1,0,0:0:0:0:
392,325,126596,1,0,0:0:0:0:
362,351,126690,6,0,L|317:342,1,40
266,286,126877,2,0,L|221:277,1,40
169,220,127065,2,0,L|173:197,1,20
158,214,127158,2,0,L|162:191,1,20
147,208,127252,2,0,L|151:185,1,20
136,202,127346,2,0,L|140:179,1,20
125,197,127440,2,0,L|133:154,1,40
189,101,127627,2,0,L|180:58,1,40
238,4,127815,1,0,0:0:0:0:
257,8,127908,1,0,0:0:0:0:
276,12,128002,2,0,L|301:17,1,20
276,23,128096,2,0,L|301:28,1,20
276,34,128190,6,0,P|265:82|283:140,1,80
326,168,128471,1,0,0:0:0:0:
326,168,128565,2,0,L|349:164,1,20
332,179,128658,2,0,L|355:175,1,20
338,190,128752,2,0,L|361:186,1,20
344,201,128846,2,0,L|367:197,1,20
349,212,128940,2,0,L|392:204,1,40
445,147,129127,2,0,L|488:139,1,40
484,58,129315,1,0,0:0:0:0:
484,58,129408,2,0,L|474:37,1,20
469,59,129502,1,0,0:0:0:0:
432,76,129596,1,0,0:0:0:0:
391,73,129690,5,0,0:0:0:0:
353,60,129783,2,0,L|348:28,1,20
335,54,129877,2,0,L|330:86,1,20
317,59,129971,2,0,L|312:91,1,20
299,64,130065,2,0,L|294:96,1,20
281,69,130159,2,0,L|276:101,1,20
263,74,130252,2,0,L|258:106,1,20
245,79,130346,2,0,L|240:111,1,20
227,84,130440,2,0,L|222:52,1,20
210,91,130533,2,0,L|180:77,1,20
202,111,130627,1,0,0:0:0:0:
173,139,130722,2,0,L|168:171,1,20
158,131,130815,1,0,0:0:0:0:
124,109,130908,2,0,L|115:75,1,20
97,111,131002,2,0,L|66:93,1,20
67,128,131096,2,0,L|46:127,1,20
57,156,131190,6,0,P|71:187|71:245,1,80
53,310,131471,1,0,0:0:0:0:
53,310,131565,2,0,L|70:350,1,40
140,310,131752,1,0,0:0:0:0:
140,310,131846,2,0,L|157:350,1,40
235,346,132033,2,0,L|246:318,1,20
249,357,132127,2,0,L|260:329,1,20
277,338,132221,2,0,L|288:365,1,20
291,327,132315,2,0,L|302:354,1,20
313,331,132408,2,0,L|324:358,1,20
327,320,132502,2,0,L|338:347,1,20
349,323,132596,2,0,L|360:350,1,20
371,327,132690,6,0,L|386:364,1,40
442,307,132877,2,0,L|457:269,1,40
399,212,133065,1,0,0:0:0:0:
399,212,133158,2,0,L|414:174,1,40
356,117,133346,2,0,L|368:87,1,20
341,120,133440,2,0,L|353:150,1,20
327,117,133533,2,0,L|339:87,1,20
312,120,133627,2,0,L|257:111,1,40
192,97,133815,1,0,0:0:0:0:
172,94,133908,1,0,0:0:0:0:
152,91,134002,2,0,L|114:83,1,20
154,108,134096,2,0,L|116:100,1,20
156,125,134190,5,0,0:0:0:0:
180,155,134283,1,0,0:0:0:0:
184,194,134377,1,0,0:0:0:0:
174,233,134471,1,0,0:0:0:0:
140,254,134565,2,0,L|105:250,1,20
141,272,134658,2,0,L|86:272,1,40
69,346,134846,1,0,0:0:0:0:
69,346,134940,2,0,L|124:346,1,40
187,363,135127,1,0,0:0:0:0:
217,336,135221,1,0,0:0:0:0:
253,320,135315,1,0,0:0:0:0:
292,318,135408,2,0,L|323:323,1,20
297,306,135502,2,0,L|328:311,1,20
302,294,135596,2,0,L|333:299,1,20
307,282,135690,6,0,L|338:287,1,20
312,271,135783,1,0,0:0:0:0:
312,230,135877,2,0,L|281:235,1,20
307,218,135971,2,0,L|276:223,1,20
302,206,136065,2,0,L|221:218,1,60.0000022888184
285,173,136252,2,0,L|204:185,1,60.0000022888184
268,139,136440,1,0,0:0:0:0:
268,99,136533,2,0,L|299:104,1,20
273,87,136627,2,0,L|304:92,1,20
278,75,136721,2,0,L|309:80,1,20
283,63,136815,2,0,L|314:68,1,20
288,52,136908,1,0,0:0:0:0:
256,27,137002,2,0,L|252:7,1,20
233,26,137096,2,0,L|229:6,1,20
211,24,137189,5,0,0:0:0:0:
108,192,147690,5,0,0:0:0:0:
127,192,147783,1,0,0:0:0:0:
147,192,147877,1,0,0:0:0:0:
167,192,147971,1,0,0:0:0:0:
195,163,148065,1,0,0:0:0:0:
180,148,148158,5,0,0:0:0:0:
199,148,148251,1,0,0:0:0:0:
219,148,148345,1,0,0:0:0:0:
239,148,148439,1,0,0:0:0:0:
267,119,148533,1,0,0:0:0:0:
252,104,148627,5,0,0:0:0:0:
271,104,148720,1,0,0:0:0:0:
291,104,148815,2,0,L|292:66,1,20
311,104,148908,2,0,L|312:142,1,20
339,75,149002,1,0,0:0:0:0:
468,27,149190,5,0,0:0:0:0:
468,27,149565,2,0,L|468:71,1,40
468,147,149752,1,0,0:0:0:0:
468,167,149846,1,0,0:0:0:0:
468,187,149940,1,0,0:0:0:0:
468,206,150033,1,0,0:0:0:0:
388,193,150127,6,0,L|388:237,1,40
388,313,150314,1,0,0:0:0:0:
388,333,150408,1,0,0:0:0:0:
388,353,150502,1,0,0:0:0:0:
388,372,150595,1,0,0:0:0:0:
307,354,150691,5,0,0:0:0:0:
307,335,150784,1,0,0:0:0:0:
307,314,150878,2,0,L|307:270,1,40
250,217,151065,2,0,L|250:173,1,40
250,95,151253,5,0,0:0:0:0:
172,77,151346,1,0,0:0:0:0:
172,98,151440,2,0,L|172:142,1,40
97,166,151627,1,0,0:0:0:0:
97,145,151721,1,0,0:0:0:0:
97,124,151815,2,0,L|97:91,1,20
97,93,151908,2,0,L|97:60,1,20
97,62,152002,2,0,L|97:29,1,20
97,31,152096,2,0,L|97:-1,1,20
118,32,152190,5,0,0:0:0:0:
137,32,152283,1,0,0:0:0:0:
157,32,152377,1,0,0:0:0:0:
177,32,152471,1,0,0:0:0:0:
233,88,152565,6,0,L|275:88,1,40
329,144,152752,1,0,0:0:0:0:
349,144,152846,1,0,0:0:0:0:
369,144,152940,1,0,0:0:0:0:
389,144,153034,1,0,0:0:0:0:
389,223,153127,6,0,L|347:223,1,40
293,279,153314,1,0,0:0:0:0:
273,279,153408,1,0,0:0:0:0:
253,279,153502,1,0,0:0:0:0:
233,279,153596,1,0,0:0:0:0:
176,222,153690,6,0,L|134:222,1,40
178,153,153877,2,0,L|136:153,1,40
179,83,154065,2,0,L|137:83,1,40
139,2,154252,5,0,0:0:0:0:
159,2,154346,1,0,0:0:0:0:
179,2,154440,2,0,L|221:2,1,40
275,58,154627,1,0,0:0:0:0:
295,58,154721,1,0,0:0:0:0:
315,58,154815,1,0,0:0:0:0:
334,58,154908,1,0,0:0:0:0:
390,1,155002,1,0,0:0:0:0:
409,1,155096,1,0,0:0:0:0:
466,58,155190,5,0,0:0:0:0:
466,78,155283,1,0,0:0:0:0:
466,98,155377,1,0,0:0:0:0:
466,118,155471,1,0,0:0:0:0:
409,174,155565,6,0,L|409:216,1,40
352,270,155752,1,0,0:0:0:0:
352,290,155846,1,0,0:0:0:0:
352,310,155940,1,0,0:0:0:0:
352,329,156033,1,0,0:0:0:0:
276,356,156127,6,0,L|276:316,1,40
218,258,156315,1,0,0:0:0:0:
218,238,156408,1,0,0:0:0:0:
274,181,156502,1,0,0:0:0:0:
274,161,156595,1,0,0:0:0:0:
216,103,156690,6,0,L|216:63,1,40
139,39,156877,2,0,L|139:59,1,20
139,73,156971,1,0,0:0:0:0:
139,93,157065,1,0,0:0:0:0:
139,112,157158,1,0,0:0:0:0:
82,168,157252,6,0,L|82:208,1,40
139,265,157440,1,0,0:0:0:0:
139,284,157533,1,0,0:0:0:0:
219,284,157627,6,0,L|219:244,1,40
276,187,157815,1,0,0:0:0:0:
276,167,157908,2,0,L|276:147,1,20
276,136,158002,1,0,0:0:0:0:
276,115,158096,1,0,0:0:0:0:
276,94,158190,5,0,0:0:0:0:
360,9,158471,1,0,0:0:0:0:
380,9,158565,1,0,0:0:0:0:
464,93,158846,1,0,0:0:0:0:
484,93,158940,1,0,0:0:0:0:
360,177,159221,1,0,0:0:0:0:
380,177,159315,1,0,0:0:0:0:
464,261,159503,1,0,0:0:0:0:
484,261,159597,1,0,0:0:0:0:
504,261,159690,5,0,0:0:0:0:
502,292,159783,1,0,0:0:0:0:
485,319,159877,1,0,0:0:0:0:
455,331,159971,1,0,0:0:0:0:
423,334,160065,1,0,0:0:0:0:
393,323,160158,2,0,L|385:289,1,20
376,315,160252,2,0,L|368:281,1,20
359,307,160346,1,0,0:0:0:0:
318,307,160440,2,0,L|310:341,1,20
301,315,160534,2,0,L|293:349,1,20
284,323,160628,1,0,0:0:0:0:
252,323,160721,1,0,0:0:0:0:
219,323,160815,1,0,0:0:0:0:
171,294,160908,1,0,0:0:0:0:
149,242,161002,1,0,0:0:0:0:
162,187,161096,1,0,0:0:0:0:
207,153,161190,5,0,0:0:0:0:
286,153,161377,1,0,0:0:0:0:
306,153,161471,1,0,0:0:0:0:
326,153,161565,1,0,0:0:0:0:
214,40,161752,1,0,0:0:0:0:
234,40,161846,1,0,0:0:0:0:
254,40,161940,1,0,0:0:0:0:
162,260,162127,1,0,0:0:0:0:
182,260,162221,1,0,0:0:0:0:
202,260,162315,1,0,0:0:0:0:
361,260,162502,1,0,0:0:0:0:
425,112,162690,5,0,0:0:0:0:
265,112,162877,1,0,0:0:0:0:
245,112,162971,1,0,0:0:0:0:
225,112,163065,1,0,0:0:0:0:
361,260,163252,1,0,0:0:0:0:
341,260,163346,1,0,0:0:0:0:
321,260,163440,1,0,0:0:0:0:
170,208,163627,1,0,0:0:0:0:
150,208,163721,1,0,0:0:0:0:
130,208,163815,1,0,0:0:0:0:
266,356,164002,1,0,0:0:0:0:
49,356,164190,5,0,0:0:0:0:
49,276,164377,1,0,0:0:0:0:
49,255,164471,1,0,0:0:0:0:
49,234,164565,1,0,0:0:0:0:
161,346,164752,1,0,0:0:0:0:
161,325,164846,1,0,0:0:0:0:
161,304,164940,1,0,0:0:0:0:
273,191,165127,1,0,0:0:0:0:
273,212,165221,1,0,0:0:0:0:
273,233,165315,1,0,0:0:0:0:
385,345,165502,1,0,0:0:0:0:
426,189,165690,5,0,0:0:0:0:
313,76,165877,1,0,0:0:0:0:
313,55,165971,1,0,0:0:0:0:
313,34,166065,1,0,0:0:0:0:
426,189,166252,1,0,0:0:0:0:
426,210,166346,1,0,0:0:0:0:
426,231,166440,1,0,0:0:0:0:
273,233,166627,1,0,0:0:0:0:
273,254,166721,1,0,0:0:0:0:
244,282,166815,1,0,0:0:0:0:
244,303,166909,1,0,0:0:0:0:
215,331,167002,2,0,L|215:359,1,20
193,329,167096,2,0,L|193:357,1,20
171,327,167190,5,0,0:0:0:0:
86,242,167377,1,0,0:0:0:0:
106,242,167471,1,0,0:0:0:0:
126,242,167565,1,0,0:0:0:0:
13,129,167752,1,0,0:0:0:0:
33,129,167846,1,0,0:0:0:0:
53,129,167940,1,0,0:0:0:0:
208,164,168127,1,0,0:0:0:0:
228,164,168221,1,0,0:0:0:0:
86,242,168408,1,0,0:0:0:0:
106,242,168502,1,0,0:0:0:0:
230,166,168690,5,0,0:0:0:0:
315,251,168877,1,0,0:0:0:0:
295,251,168971,1,0,0:0:0:0:
275,251,169065,1,0,0:0:0:0:
388,364,169252,1,0,0:0:0:0:
368,364,169346,1,0,0:0:0:0:
348,364,169440,1,0,0:0:0:0:
193,329,169627,1,0,0:0:0:0:
173,329,169721,1,0,0:0:0:0:
315,251,169908,1,0,0:0:0:0:
295,251,170002,2,0,L|271:251,1,20
264,251,170096,2,0,L|240:251,1,20
223,251,170190,5,0,0:0:0:0:
223,231,170283,2,0,L|223:207,1,20
223,200,170377,1,0,0:0:0:0:
223,179,170471,1,0,0:0:0:0:
223,158,170565,1,0,0:0:0:0:
335,45,170752,1,0,0:0:0:0:
335,24,170846,1,0,0:0:0:0:
335,3,170940,1,0,0:0:0:0:
447,157,171127,2,0,L|447:133,1,20
447,126,171221,2,0,L|447:102,1,20
447,95,171315,1,0,0:0:0:0:
334,207,171502,1,0,0:0:0:0:
447,320,171690,5,0,0:0:0:0:
409,334,171783,1,0,0:0:0:0:
368,333,171877,1,0,0:0:0:0:
351,296,171971,1,0,0:0:0:0:
313,282,172064,1,0,0:0:0:0:
272,283,172158,1,0,0:0:0:0:
243,311,172252,2,0,L|209:303,1,20
203,301,172346,1,0,0:0:0:0:
174,329,172440,1,0,0:0:0:0:
150,307,172533,1,0,0:0:0:0:
138,277,172627,1,0,0:0:0:0:
136,244,172721,1,0,0:0:0:0:
145,213,172815,1,0,0:0:0:0:
173,184,172908,1,0,0:0:0:0:
201,150,173002,1,0,0:0:0:0:
213,103,173096,1,0,0:0:0:0:
197,53,173190,5,0,0:0:0:0:
352,16,173377,1,0,0:0:0:0:
371,21,173471,1,0,0:0:0:0:
390,26,173565,1,0,0:0:0:0:
478,158,173752,1,0,0:0:0:0:
459,163,173846,1,0,0:0:0:0:
440,168,173940,1,0,0:0:0:0:
298,94,174127,1,0,0:0:0:0:
317,99,174221,1,0,0:0:0:0:
336,104,174315,1,0,0:0:0:0:
412,243,174502,1,0,0:0:0:0:
393,248,174596,1,0,0:0:0:0:
374,253,174690,5,0,0:0:0:0:
261,365,174877,1,0,0:0:0:0:
242,360,174971,1,0,0:0:0:0:
223,355,175065,1,0,0:0:0:0:
135,223,175252,1,0,0:0:0:0:
154,218,175346,1,0,0:0:0:0:
173,213,175440,1,0,0:0:0:0:
315,287,175627,1,0,0:0:0:0:
296,282,175721,1,0,0:0:0:0:
277,277,175815,1,0,0:0:0:0:
201,138,176002,1,0,0:0:0:0:
220,133,176096,1,0,0:0:0:0:
239,128,176190,5,0,0:0:0:0:
368,227,176377,1,0,0:0:0:0:
363,208,176471,1,0,0:0:0:0:
358,189,176565,1,0,0:0:0:0:
245,301,176752,1,0,0:0:0:0:
250,282,176846,1,0,0:0:0:0:
255,263,176940,1,0,0:0:0:0:
367,375,177127,1,0,0:0:0:0:
367,375,177221,1,0,0:0:0:0:
367,375,177315,1,0,0:0:0:0:
421,225,177502,1,0,0:0:0:0:
437,106,177690,5,0,0:0:0:0:
324,218,177877,1,0,0:0:0:0:
319,237,177971,1,0,0:0:0:0:
314,256,178065,1,0,0:0:0:0:
201,144,178252,1,0,0:0:0:0:
206,163,178346,1,0,0:0:0:0:
211,182,178440,1,0,0:0:0:0:
323,70,178627,1,0,0:0:0:0:
435,183,178814,1,0,0:0:0:0:
430,202,178908,1,0,0:0:0:0:
425,221,179002,2,0,L|454:232,1,20
420,240,179096,2,0,L|449:251,1,20
415,259,179190,5,0,0:0:0:0:
283,348,179377,1,0,0:0:0:0:
278,329,179471,1,0,0:0:0:0:
273,310,179565,1,0,0:0:0:0:
160,197,179752,1,0,0:0:0:0:
165,178,179846,1,0,0:0:0:0:
170,159,179940,1,0,0:0:0:0:
282,46,180127,1,0,0:0:0:0:
282,46,180221,1,0,0:0:0:0:
282,46,180315,1,0,0:0:0:0:
430,104,180502,1,0,0:0:0:0:
304,204,180690,5,0,0:0:0:0:
416,316,180877,1,0,0:0:0:0:
421,335,180971,1,0,0:0:0:0:
426,354,181065,1,0,0:0:0:0:
294,242,181252,1,0,0:0:0:0:
299,223,181346,1,0,0:0:0:0:
304,204,181440,1,0,0:0:0:0:
191,91,181627,1,0,0:0:0:0:
191,91,181721,1,0,0:0:0:0:
191,91,181815,1,0,0:0:0:0:
78,203,182002,1,0,0:0:0:0:
83,222,182096,2,0,L|93:258,1,20
93,250,182190,5,0,0:0:0:0:
128,233,182283,1,0,0:0:0:0:
167,228,182377,2,0,L|173:195,1,20
186,234,182471,1,0,0:0:0:0:
217,258,182565,1,0,0:0:0:0:
242,288,182658,2,0,L|236:321,1,20
268,302,182752,2,0,L|270:335,1,20
294,303,182846,1,0,0:0:0:0:
322,274,182940,2,0,L|316:241,1,20
348,260,183034,2,0,L|350:226,1,20
374,259,183128,1,0,0:0:0:0:
413,265,183221,1,0,0:0:0:0:
444,289,183315,1,0,0:0:0:0:
469,258,183408,1,0,0:0:0:0:
469,217,183502,2,0,L|495:210,1,20
466,190,183596,2,0,L|492:183,1,20
463,163,183690,5,0,0:0:0:0:
350,50,183877,1,0,0:0:0:0:
330,47,183971,1,0,0:0:0:0:
310,45,184065,1,0,0:0:0:0:
197,157,184252,1,0,0:0:0:0:
217,154,184346,1,0,0:0:0:0:
237,152,184440,1,0,0:0:0:0:
124,39,184627,1,0,0:0:0:0:
124,39,184721,1,0,0:0:0:0:
124,39,184815,1,0,0:0:0:0:
38,263,185002,1,0,0:0:0:0:
38,263,185096,1,0,0:0:0:0:
38,263,185190,6,0,P|28:305|49:360,1,95.9999970703126
112,378,185471,1,0,0:0:0:0:
160,324,185565,2,0,B|169:282|149:231|149:231|221:137,1,180.000006866455
257,106,185940,1,0,0:0:0:0:
276,101,186033,2,0,L|270:123,1,20
285,105,186127,2,0,L|279:127,1,20
294,109,186221,1,0,0:0:0:0:
334,134,186315,1,0,0:0:0:0:
379,147,186408,1,0,0:0:0:0:
426,136,186502,2,0,L|464:117,1,40
497,267,186690,6,0,L|492:293,1,26.6666666666667
469,270,186815,1,0,0:0:0:0:
463,296,186877,1,0,0:0:0:0:
441,273,186940,2,0,L|436:299,1,26.6666666666667
389,325,187065,6,0,L|384:351,1,26.6666666666667
361,328,187190,1,0,0:0:0:0:
356,354,187252,1,0,0:0:0:0:
333,331,187315,2,0,L|328:357,1,26.6666666666667
289,319,187440,5,0,0:0:0:0:
279,309,187502,2,0,L|274:283,1,26.6666666666667
235,244,187627,1,0,0:0:0:0:
225,254,187689,2,0,L|220:280,1,26.6666666666667
181,318,187815,1,0,0:0:0:0:
144,332,187908,1,0,0:0:0:0:
104,324,188002,2,0,L|97:338,1,10
94,311,188096,2,0,L|87:325,1,10
84,298,188190,5,0,0:0:0:0:
66,253,188283,1,0,0:0:0:0:
73,205,188377,1,0,0:0:0:0:
106,170,188471,1,0,0:0:0:0:
152,156,188565,2,0,B|218:140|218:140|248:202|350:168,1,180.000006866455
382,135,188940,1,0,0:0:0:0:
465,270,189127,1,0,0:0:0:0:
424,267,189221,1,0,0:0:0:0:
385,278,189315,1,0,0:0:0:0:
358,307,189408,2,0,L|365:333,1,20
344,307,189502,1,0,0:0:0:0:
306,292,189596,1,0,0:0:0:0:
283,262,189690,6,0,L|297:240,1,26.6666666666667
265,240,189815,1,0,0:0:0:0:
279,217,189877,1,0,0:0:0:0:
247,218,189940,2,0,L|261:196,1,26.6666666666667
247,144,190065,6,0,L|261:122,1,26.6666666666667
229,122,190190,1,0,0:0:0:0:
244,100,190252,1,0,0:0:0:0:
212,100,190315,2,0,L|226:78,1,26.6666666666667
206,28,190440,5,0,0:0:0:0:
167,20,190533,2,0,L|142:20,1,20
168,41,190627,1,0,0:0:0:0:
139,69,190721,2,0,L|114:69,1,20
140,90,190815,1,0,0:0:0:0:
124,126,190908,1,0,0:0:0:0:
141,162,191002,1,0,0:0:0:0:
112,190,191096,2,0,L|87:190,1,20
113,211,191190,6,0,P|122:249|110:308,1,95.9999970703126
162,355,191471,1,0,0:0:0:0:
233,361,191565,2,0,B|289:342|289:342|238:288|285:198,1,180.000006866455
309,158,191940,1,0,0:0:0:0:
322,143,192033,2,0,L|318:107,1,20
333,150,192127,2,0,L|329:114,1,20
344,157,192221,1,0,0:0:0:0:
387,178,192315,1,0,0:0:0:0:
435,174,192408,1,0,0:0:0:0:
473,144,192502,1,0,0:0:0:0:
494,100,192596,1,0,0:0:0:0:
481,53,192690,6,0,L|467:15,1,31.9999990234375
469,77,192815,1,0,0:0:0:0:
457,46,192877,1,0,0:0:0:0:
457,101,192940,2,0,L|443:63,1,31.9999990234375
407,109,193065,6,0,L|393:147,1,31.9999990234375
395,85,193190,1,0,0:0:0:0:
384,115,193252,1,0,0:0:0:0:
383,61,193315,2,0,L|369:99,1,31.9999990234375
333,52,193440,5,0,0:0:0:0:
323,62,193502,2,0,L|318:88,1,26.6666666666667
279,127,193627,1,0,0:0:0:0:
269,117,193689,2,0,L|264:91,1,26.6666666666667
225,53,193815,1,0,0:0:0:0:
188,39,193908,1,0,0:0:0:0:
148,47,194002,2,0,L|141:33,1,10
138,60,194096,2,0,L|131:46,1,10
128,73,194190,5,0,0:0:0:0:
156,111,194283,1,0,0:0:0:0:
165,158,194377,1,0,0:0:0:0:
148,203,194471,1,0,0:0:0:0:
109,231,194565,1,0,0:0:0:0:
61,238,194658,2,0,P|36:271|42:330,1,95.9999970703126
69,361,194940,1,0,0:0:0:0:
212,369,195127,1,0,0:0:0:0:
244,333,195221,1,0,0:0:0:0:
291,325,195315,1,0,0:0:0:0:
338,332,195408,2,0,L|372:342,1,23.9999992675781
343,321,195502,1,0,0:0:0:0:
341,272,195596,1,0,0:0:0:0:
310,234,195690,5,0,0:0:0:0:
264,249,195783,1,0,0:0:0:0:
215,249,195877,2,0,L|190:231,1,23.9999992675781
195,259,195971,2,0,L|170:241,1,23.9999992675781
175,269,196065,1,0,0:0:0:0:
133,291,196158,2,0,L|174:320,1,47.9999985351563
64,373,196346,1,0,0:0:0:0:
22,351,196439,2,0,L|63:321,1,47.9999985351563
60,298,196580,2,0,L|95:271,1,23.9999992675781
113,249,196721,2,0,L|77:222,1,23.9999992675781
76,217,196815,1,0,0:0:0:0:
54,174,196908,1,0,0:0:0:0:
63,126,197002,2,0,L|68:98,1,23.9999992675781
91,102,197096,2,0,L|96:74,1,23.9999992675781
119,78,197190,6,0,P|161:68|216:89,1,95.9999970703126
248,145,197471,1,0,0:0:0:0:
196,196,197565,2,0,B|205:238|185:289|185:289|236:356,1,180.000006866455
313,334,197940,1,0,0:0:0:0:
341,305,198033,2,0,L|360:299,1,20
381,277,198127,2,0,L|362:271,1,20
340,249,198221,1,0,0:0:0:0:
356,203,198315,1,0,0:0:0:0:
396,178,198408,1,0,0:0:0:0:
444,179,198502,1,0,0:0:0:0:
479,211,198596,1,0,0:0:0:0:
481,259,198690,6,0,L|469:228,1,31.9999990234375
469,283,198815,1,0,0:0:0:0:
458,253,198877,1,0,0:0:0:0:
457,307,198940,2,0,L|445:276,1,31.9999990234375
407,316,199065,6,0,L|395:346,1,31.9999990234375
395,292,199190,1,0,0:0:0:0:
384,322,199252,1,0,0:0:0:0:
383,268,199315,2,0,L|371:298,1,31.9999990234375
333,259,199440,5,0,0:0:0:0:
326,244,199502,1,0,0:0:0:0:
319,229,199565,1,0,0:0:0:0:
274,211,199627,5,0,0:0:0:0:
281,196,199689,1,0,0:0:0:0:
288,181,199752,1,0,0:0:0:0:
333,163,199815,6,0,L|356:168,1,23.9999992675781
330,142,199908,2,0,L|353:147,1,23.9999992675781
327,121,200002,2,0,L|350:126,1,23.9999992675781
324,100,200096,2,0,L|347:105,1,23.9999992675781
320,78,200190,6,0,P|294:48|235:37,1,95.9999970703126
169,47,200471,1,0,0:0:0:0:
117,98,200565,2,0,B|98:144|98:144|145:198|99:282,1,180.000006866455
55,317,200940,2,0,L|70:359,1,40
147,340,201127,1,0,0:0:0:0:
147,340,201221,2,0,L|162:382,1,40
237,356,201408,1,0,0:0:0:0:
269,320,201502,1,0,0:0:0:0:
315,307,201596,1,0,0:0:0:0:
361,317,201690,6,0,L|392:304,1,31.9999990234375
337,304,201815,1,0,0:0:0:0:
367,293,201877,1,0,0:0:0:0:
313,292,201940,2,0,L|344:280,1,31.9999990234375
304,242,202065,6,0,L|274:229,1,31.9999990234375
328,231,202190,1,0,0:0:0:0:
298,219,202252,1,0,0:0:0:0:
351,218,202315,2,0,L|321:206,1,31.9999990234375
361,168,202440,5,0,0:0:0:0:
376,161,202502,1,0,0:0:0:0:
391,154,202565,1,0,0:0:0:0:
409,109,202627,5,0,0:0:0:0:
424,116,202689,1,0,0:0:0:0:
439,123,202752,1,0,0:0:0:0:
457,168,202815,6,0,L|465:224,1,47.9999985351563
469,263,203002,2,0,L|434:254,1,23.9999992675781
471,283,203096,2,0,L|436:274,1,23.9999992675781
473,303,203190,6,0,P|453:332|377:357,1,95.9999970703126
327,352,203471,1,0,0:0:0:0:
275,300,203565,2,0,B|229:281|229:281|175:328|91:282,1,180.000006866455
55,238,203940,2,0,L|40:178,1,40
125,199,204127,1,0,0:0:0:0:
115,160,204220,1,0,0:0:0:0:
143,131,204315,1,0,0:0:0:0:
133,92,204408,1,0,0:0:0:0:
161,63,204502,2,0,L|153:35,1,20
177,65,204596,1,0,0:0:0:0:
216,70,204690,6,0,L|241:75,1,20
252,90,204783,2,0,L|227:95,1,20
215,111,204877,1,0,0:0:0:0:
202,149,204971,1,0,0:0:0:0:
198,188,205065,6,0,L|203:225,1,26.6666666666667
220,195,205190,1,0,0:0:0:0:
223,221,205252,1,0,0:0:0:0:
242,202,205315,2,0,L|247:239,1,26.6666666666667,0|0,0:0|0:0,0:0:0:0:
283,266,205440,5,0,0:0:0:0:
295,263,205502,1,0,0:0:0:0:
308,260,205565,1,0,0:0:0:0:
345,222,205627,2,0,L|341:202,1,20
357,225,205721,2,0,L|353:205,1,20
369,228,205815,2,0,L|377:270,1,40
449,301,206002,1,0,0:0:0:0:
449,301,206096,2,0,L|455:270,1,20
455,271,206190,5,0,0:0:0:0:
464,224,206283,1,0,0:0:0:0:
474,177,206377,1,0,0:0:0:0:
485,130,206471,1,0,0:0:0:0:
497,83,206565,1,0,0:0:0:0:
456,108,206658,2,0,L|448:138,1,20
433,109,206752,2,0,L|425:139,1,20
410,110,206846,1,0,0:0:0:0:
375,75,206940,2,0,L|367:45,1,20
352,74,207034,2,0,L|344:44,1,20
329,73,207128,1,0,0:0:0:0:
284,89,207221,1,0,0:0:0:0:
255,127,207315,1,0,0:0:0:0:
252,174,207408,1,0,0:0:0:0:
281,212,207502,2,0,L|289:242,1,20
304,213,207596,2,0,L|312:243,1,20
327,214,207690,5,0,0:0:0:0:
362,245,207783,1,0,0:0:0:0:
373,291,207877,2,0,L|403:299,1,20
374,314,207971,2,0,L|404:322,1,20
375,337,208065,1,0,0:0:0:0:
341,370,208158,1,0,0:0:0:0:
293,375,208252,2,0,L|264:371,1,26.6666666666667
289,348,208377,1,0,0:0:0:0:
262,344,208439,5,0,0:0:0:0:
228,310,208533,1,0,0:0:0:0:
193,275,208627,2,0,L|161:268,1,20
190,253,208721,2,0,L|158:246,1,20
187,231,208815,1,0,0:0:0:0:
229,188,208908,1,0,0:0:0:0:
271,145,209002,2,0,L|303:138,1,20
274,123,209096,2,0,L|306:116,1,20
277,101,209190,6,0,L|309:94,1,20
376,86,209377,1,0,0:0:0:0:
376,86,209471,2,0,L|366:138,1,40
448,125,209658,2,0,L|438:177,1,40
371,206,209846,1,0,0:0:0:0:
360,223,209940,1,0,0:0:0:0:
355,242,210033,1,0,0:0:0:0:
356,261,210127,2,0,L|366:308,1,40
421,357,210315,2,0,L|452:362,1,20
440,340,210408,2,0,L|471:345,1,20
459,322,210502,2,0,L|469:270,1,40
409,225,210690,5,0,0:0:0:0:
409,225,210783,2,0,L|419:173,1,40
359,128,210971,2,0,L|369:76,1,40
278,48,211158,1,0,0:0:0:0:
278,48,211252,2,0,L|286:88,1,40
228,145,211440,1,0,0:0:0:0:
228,145,211533,1,0,0:0:0:0:
228,145,211627,2,0,L|232:169,1,20
231,185,211721,2,0,L|235:209,1,20
234,225,211815,1,0,0:0:0:0:
234,225,211909,2,0,L|240:261,2,20
223,255,212049,2,0,L|229:291,1,20
203,297,212143,6,0,L|209:333,2,20
127,264,212330,2,0,L|120:225,1,40
62,167,212471,1,0,0:0:0:0:
62,167,212565,2,0,L|67:135,1,20
93,118,212705,2,0,L|98:86,1,20
125,70,212799,2,0,L|117:34,2,20
215,100,212986,2,0,L|208:63,1,20
305,130,213127,1,0,0:0:0:0:
305,130,213221,1,0,0:0:0:0:
305,130,213315,2,0,L|297:93,1,20
314,96,213408,2,0,L|306:59,1,20
324,61,213502,2,0,L|316:24,1,20
334,55,213596,2,0,L|329:35,1,20
427,45,213690,6,0,L|438:81,2,20
495,139,213877,2,0,L|479:184,2,26.6666666666667
411,214,214065,1,0,0:0:0:0:
376,234,214158,1,0,0:0:0:0:
354,268,214252,2,0,L|325:265,1,26.6666666666667
327,292,214377,2,0,L|298:289,1,26.6666666666667
260,282,214580,2,0,L|270:257,1,20
248,244,214674,2,0,L|258:219,1,20
218,177,214815,2,0,L|235:150,1,26.6666666666667
205,154,214940,2,0,L|222:127,1,26.6666666666667
190,103,215096,2,0,L|204:80,1,20
212,69,215190,5,0,0:0:0:0:
188,36,215283,1,0,0:0:0:0:
149,26,215377,1,0,0:0:0:0:
110,37,215471,1,0,0:0:0:0:
81,64,215565,2,0,L|75:102,1,26.6666666666667
57,109,215690,2,0,L|51:147,1,26.6666666666667
81,163,215846,1,0,0:0:0:0:
109,191,215940,2,0,L|103:229,1,20
120,224,216033,2,0,L|114:262,1,20
131,258,216127,1,0,0:0:0:0:
144,255,216190,1,0,0:0:0:0:
157,252,216252,2,0,L|151:290,1,26.6666666666667
181,306,216408,1,0,0:0:0:0:
220,314,216502,2,0,L|255:306,1,20
253,324,216596,2,0,L|288:316,1,20
286,334,216690,5,0,0:0:0:0:
298,330,216752,1,0,0:0:0:0:
311,326,216815,1,0,0:0:0:0:
348,288,216877,5,0,0:0:0:0:
360,292,216939,1,0,0:0:0:0:
373,296,217002,1,0,0:0:0:0:
411,334,217065,6,0,L|436:325,1,20
439,324,217158,1,0,0:0:0:0:
467,295,217253,6,0,L|442:286,1,20
439,285,217346,1,0,0:0:0:0:
410,256,217440,6,0,L|385:265,1,20
405,248,217533,2,0,L|380:257,1,20
400,240,217627,2,0,L|375:249,1,20
395,232,217721,2,0,L|370:241,1,20
390,223,217815,2,0,L|406:228,1,10
385,211,217908,2,0,L|401:216,1,10
380,199,218002,2,0,L|396:204,1,10
375,187,218096,2,0,L|391:192,1,10
369,175,218190,6,0,L|408:187,1,40
463,130,218377,2,0,P|450:96|412:71,1,80
334,71,218658,1,0,0:0:0:0:
334,71,218752,2,0,L|280:92,1,40
239,142,218940,1,0,0:0:0:0:
239,142,219002,2,0,L|185:121,1,40
190,120,219127,2,0,L|181:97,1,13.3333333333333
145,70,219221,1,0,0:0:0:0:
108,86,219315,1,0,0:0:0:0:
121,123,219408,1,0,0:0:0:0:
118,163,219502,2,0,L|104:205,1,40
48,258,219690,6,0,L|54:300,1,40
72,278,219846,2,0,L|77:315,1,26.6666666666667
94,323,219971,1,0,0:0:0:0:
122,351,220065,1,0,0:0:0:0:
159,362,220158,2,0,L|198:353,1,40
255,295,220346,1,0,0:0:0:0:
255,295,220486,2,0,L|247:261,1,20
272,297,220580,2,0,L|264:263,1,20
289,299,220674,2,0,L|281:265,1,20
306,301,220768,2,0,L|298:267,1,20
322,302,220861,2,0,L|314:268,1,20
339,304,220955,2,0,L|331:270,1,20
356,306,221049,2,0,L|348:272,2,20
373,308,221190,6,0,L|363:267,1,40
420,212,221377,1,0,0:0:0:0:
420,212,221471,1,0,0:0:0:0:
420,212,221565,2,0,L|429:171,1,40
372,116,221752,1,0,0:0:0:0:
339,92,221846,1,0,0:0:0:0:
298,90,221940,1,0,0:0:0:0:
260,103,222033,1,0,0:0:0:0:
222,116,222127,1,0,0:0:0:0:
181,114,222221,1,0,0:0:0:0:
148,90,222315,1,0,0:0:0:0:
148,90,222377,2,0,L|131:46,1,40
53,52,222565,2,0,L|39:87,1,26.6666666666667
21,168,222690,5,0,0:0:0:0:
21,168,222783,1,0,0:0:0:0:
21,168,222877,1,0,0:0:0:0:
21,168,222971,2,0,L|39:209,2,26.6666666666667
110,232,223158,1,0,0:0:0:0:
110,232,223252,2,0,L|127:188,1,40
181,137,223440,1,0,0:0:0:0:
181,137,223534,2,0,L|198:181,1,40
252,231,223721,1,0,0:0:0:0:
282,205,223815,1,0,0:0:0:0:
320,197,223908,1,0,0:0:0:0:
358,208,224002,1,0,0:0:0:0:
385,237,224096,2,0,L|419:233,1,20
425,233,224190,5,0,0:0:0:0:
453,204,224283,2,0,L|458:157,1,40
399,106,224471,1,0,0:0:0:0:
369,78,224565,2,0,L|372:42,1,20
356,72,224658,2,0,L|359:107,1,20
343,77,224752,1,0,0:0:0:0:
304,88,224846,1,0,0:0:0:0:
265,78,224940,2,0,L|268:113,1,20
252,83,225033,1,0,0:0:0:0:
214,68,225127,2,0,L|217:32,1,20
201,62,225221,2,0,L|204:26,1,20
188,56,225315,2,0,L|191:20,1,20
175,50,225408,2,0,L|178:14,1,20
162,44,225502,1,0,0:0:0:0:
123,53,225596,1,0,0:0:0:0:
98,84,225690,5,0,0:0:0:0:
121,116,225783,1,0,0:0:0:0:
130,154,225877,1,0,0:0:0:0:
115,191,225971,1,0,0:0:0:0:
85,217,226065,2,0,L|52:223,1,20
79,234,226158,1,0,0:0:0:0:
61,270,226252,1,0,0:0:0:0:
67,309,226346,2,0,L|47:336,1,20
76,325,226440,2,0,L|81:357,1,20
93,330,226533,2,0,L|120:349,1,20
109,321,226628,2,0,L|141:315,1,20
114,304,226721,1,0,0:0:0:0:
142,275,226815,1,0,0:0:0:0:
181,268,226908,1,0,0:0:0:0:
219,277,227002,1,0,0:0:0:0:
247,305,227096,2,0,L|278:309,1,20
287,310,227190,6,0,L|304:263,1,40
357,215,227377,2,0,L|382:213,1,20
362,198,227471,1,0,0:0:0:0:
378,161,227565,1,0,0:0:0:0:
409,137,227658,1,0,0:0:0:0:
448,133,227752,1,0,0:0:0:0:
485,145,227846,1,0,0:0:0:0:
508,177,227940,2,0,L|512:231,1,40
477,288,228127,1,0,0:0:0:0:
444,264,228221,1,0,0:0:0:0:
403,262,228315,1,0,0:0:0:0:
372,287,228408,2,0,L|357:327,1,40
288,366,228596,1,0,0:0:0:0:
288,366,228690,6,0,L|249:362,1,26.6666666666667
242,344,228815,2,0,L|203:340,1,26.6666666666667
187,312,228971,1,0,0:0:0:0:
176,273,229065,1,0,0:0:0:0:
187,235,229158,1,0,0:0:0:0:
219,210,229252,2,0,L|245:207,1,20
259,205,229346,1,0,0:0:0:0:
287,176,229440,2,0,L|313:173,1,20
292,159,229533,2,0,L|318:156,1,20
297,142,229627,2,0,L|323:139,1,20
302,125,229721,2,0,L|328:122,1,20
307,107,229815,2,0,L|281:104,1,20
302,90,229908,2,0,L|276:87,1,20
297,73,230002,2,0,L|271:70,1,20
292,56,230096,2,0,L|266:53,1,20
286,38,230190,5,0,0:0:0:0:
321,20,230283,1,0,0:0:0:0:
360,14,230377,2,0,L|388:22,1,20
367,31,230471,1,0,0:0:0:0:
395,59,230565,1,0,0:0:0:0:
434,65,230658,2,0,L|477:59,1,40
502,135,230846,1,0,0:0:0:0:
473,163,230940,2,0,L|445:171,1,20
467,182,231033,2,0,L|495:190,1,20
471,201,231127,1,0,0:0:0:0:
479,240,231221,1,0,0:0:0:0:
466,278,231315,2,0,L|458:306,1,20
446,283,231408,2,0,L|438:311,1,20
426,287,231502,1,0,0:0:0:0:
386,292,231596,1,0,0:0:0:0:
348,278,231690,5,0,0:0:0:0:
317,252,231783,1,0,0:0:0:0:
297,217,231877,2,0,L|294:188,1,20
280,211,231971,2,0,L|277:182,1,20
263,205,232065,1,0,0:0:0:0:
234,233,232158,2,0,L|238:272,1,40
180,330,232346,1,0,0:0:0:0:
140,321,232440,1,0,0:0:0:0:
101,312,232533,2,0,L|98:341,1,20
84,318,232627,1,0,0:0:0:0:
55,289,232721,2,0,L|52:260,1,20
38,283,232815,1,0,0:0:0:0:
18,248,232908,1,0,0:0:0:0:
17,207,233002,2,0,L|20:178,1,20
33,201,233096,2,0,L|36:172,1,20
49,195,233190,5,0,0:0:0:0:
256,192,245190,5,0,0:0:0:0:
256,192,248002,5,0,0:0:0:0:
192,104,248190,2,0,B|228:88|228:88|280:88,1,80
211,291,248471,2,0,B|179:268|179:268|153:223,1,80
364,180,248752,2,0,B|360:219|360:219|334:264,1,80
136,192,249502,5,0,0:0:0:0:
376,192,249690,1,0,0:0:0:0:
136,192,251002,5,0,0:0:0:0:
376,192,251190,1,0,0:0:0:0:
136,192,252502,5,0,0:0:0:0:
376,192,252690,1,0,0:0:0:0:
136,192,254002,5,0,0:0:0:0:
376,192,254190,1,0,0:0:0:0:
136,192,254752,5,0,0:0:0:0:
376,192,254940,1,0,0:0:0:0:
136,192,255502,5,0,0:0:0:0:
376,192,255690,2,0,L|464:192,1,80
256,80,256065,2,0,L|344:80,1,80
176,304,256440,2,0,L|264:304,1,80
56,192,256815,1,0,0:0:0:0:
56,192,257002,1,0,0:0:0:0:
256,80,257190,5,0,0:0:0:0:
256,80,257565,2,0,L|316:80,1,40
352,23,257752,1,0,0:0:0:0:
372,23,257846,1,0,0:0:0:0:
392,23,257940,1,0,0:0:0:0:
411,23,258033,1,0,0:0:0:0:
467,79,258127,2,0,L|467:139,1,40
409,176,258315,1,0,0:0:0:0:
409,195,258408,1,0,0:0:0:0:
409,215,258502,1,0,0:0:0:0:
409,235,258596,1,0,0:0:0:0:
352,291,258690,5,0,0:0:0:0:
352,291,258783,1,0,0:0:0:0:
352,291,258877,2,0,L|292:291,1,40
254,233,259065,1,0,0:0:0:0:
235,233,259158,1,0,0:0:0:0:
178,289,259252,2,0,L|118:289,1,40
80,231,259440,1,0,0:0:0:0:
80,231,259533,1,0,0:0:0:0:
136,174,259627,2,0,L|196:174,1,40
233,116,259815,1,0,0:0:0:0:
252,116,259908,1,0,0:0:0:0:
308,59,260002,2,0,L|368:59,1,40
408,192,260190,5,0,0:0:0:0:
388,192,260283,1,0,0:0:0:0:
368,192,260377,1,0,0:0:0:0:
347,192,260471,1,0,0:0:0:0:
290,248,260565,2,0,L|230:248,1,40
193,191,260752,1,0,0:0:0:0:
193,171,260845,1,0,0:0:0:0:
193,151,260939,1,0,0:0:0:0:
193,130,261033,1,0,0:0:0:0:
137,73,261127,2,0,L|137:13,1,40
55,33,261315,1,0,0:0:0:0:
55,53,261408,1,0,0:0:0:0:
55,73,261502,1,0,0:0:0:0:
55,94,261596,1,0,0:0:0:0:
55,174,261690,6,0,L|55:214,1,40
55,294,261877,1,0,0:0:0:0:
75,294,261971,1,0,0:0:0:0:
155,294,262065,2,0,L|195:294,1,40
275,294,262252,2,0,L|275:254,1,40
275,174,262439,1,0,0:0:0:0:
295,174,262533,1,0,0:0:0:0:
375,174,262627,2,0,L|375:134,1,40
375,52,262815,1,0,0:0:0:0:
395,52,262909,1,0,0:0:0:0:
475,52,263003,2,0,L|475:92,1,40
475,251,263189,5,0,0:0:0:0:
454,251,263283,1,0,0:0:0:0:
434,251,263376,1,0,0:0:0:0:
413,251,263470,1,0,0:0:0:0:
355,308,263565,2,0,L|315:308,1,40
258,364,263752,1,0,0:0:0:0:
237,364,263846,1,0,0:0:0:0:
217,364,263939,1,0,0:0:0:0:
196,364,264033,1,0,0:0:0:0:
138,307,264128,2,0,L|98:307,1,40
98,226,264315,1,0,0:0:0:0:
119,226,264409,1,0,0:0:0:0:
139,226,264502,1,0,0:0:0:0:
160,226,264596,1,0,0:0:0:0:
218,169,264691,6,0,L|258:169,1,40
314,112,264877,1,0,0:0:0:0:
314,112,264971,1,0,0:0:0:0:
257,55,265065,2,0,L|217:55,1,40
160,111,265252,2,0,L|120:111,1,40
62,53,265440,1,0,0:0:0:0:
62,53,265533,1,0,0:0:0:0:
5,109,265627,2,0,L|5:149,1,40
62,206,265815,1,0,0:0:0:0:
62,225,265908,1,0,0:0:0:0:
118,281,266002,2,0,L|118:321,1,40
278,321,266190,5,0,0:0:0:0:
278,301,266283,1,0,0:0:0:0:
278,281,266377,1,0,0:0:0:0:
278,260,266471,1,0,0:0:0:0:
334,203,266565,2,0,L|334:143,1,40
414,163,266752,1,0,0:0:0:0:
414,183,266845,1,0,0:0:0:0:
414,203,266939,1,0,0:0:0:0:
414,224,267033,1,0,0:0:0:0:
494,224,267127,2,0,L|494:164,1,40
494,102,267315,1,0,0:0:0:0:
494,82,267408,1,0,0:0:0:0:
494,62,267502,1,0,0:0:0:0:
494,41,267596,1,0,0:0:0:0:
413,41,267690,6,0,L|413:81,1,40
414,163,267877,1,0,0:0:0:0:
394,163,267971,1,0,0:0:0:0:
313,163,268065,2,0,L|273:163,1,40
273,243,268252,2,0,L|313:243,1,40
313,323,268439,1,0,0:0:0:0:
293,323,268533,1,0,0:0:0:0:
212,323,268627,2,0,L|172:323,1,40
90,323,268815,1,0,0:0:0:0:
90,303,268909,1,0,0:0:0:0:
90,223,269003,2,0,L|130:223,1,40
289,223,269190,5,0,0:0:0:0:
289,203,269283,1,0,0:0:0:0:
289,182,269377,1,0,0:0:0:0:
289,161,269471,1,0,0:0:0:0:
289,80,269565,2,0,L|329:80,1,40
409,80,269752,1,0,0:0:0:0:
409,100,269846,2,0,L|449:100,1,40
449,180,270033,1,0,0:0:0:0:
449,200,270127,2,0,L|409:200,1,40
351,257,270315,1,0,0:0:0:0:
330,257,270409,1,0,0:0:0:0:
273,313,270502,1,0,0:0:0:0:
252,313,270596,1,0,0:0:0:0:
195,369,270690,5,0,0:0:0:0:
175,369,270783,1,0,0:0:0:0:
195,369,270877,1,0,0:0:0:0:
175,369,270971,1,0,0:0:0:0:
118,312,271065,2,0,L|118:272,1,40
174,215,271252,1,0,0:0:0:0:
174,195,271345,1,0,0:0:0:0:
230,137,271440,2,0,L|230:97,1,40
311,97,271627,2,0,L|311:137,1,40
392,137,271815,1,0,0:0:0:0:
392,117,271908,1,0,0:0:0:0:
472,117,272002,2,0,L|472:89,1,20
472,138,272096,2,0,L|472:110,1,20
472,158,272190,6,0,L|472:249,1,80
392,117,272471,2,0,L|392:208,1,80
310,78,272752,2,0,L|310:169,1,80
310,238,273033,1,0,0:0:0:0:
233,263,273127,1,0,0:0:0:0:
233,242,273221,1,0,0:0:0:0:
233,263,273315,1,0,0:0:0:0:
233,242,273409,1,0,0:0:0:0:
176,185,273502,2,0,L|176:145,1,40
310,238,273690,6,0,L|310:278,1,40
310,358,273877,1,0,0:0:0:0:
310,358,273971,1,0,0:0:0:0:
379,317,274065,1,0,0:0:0:0:
398,317,274158,1,0,0:0:0:0:
454,260,274252,1,0,0:0:0:0:
397,203,274346,1,0,0:0:0:0:
378,203,274439,1,0,0:0:0:0:
378,122,274533,2,0,L|418:122,1,40
397,40,274721,1,0,0:0:0:0:
378,40,274814,1,0,0:0:0:0:
357,40,274908,1,0,0:0:0:0:
300,96,275002,1,0,0:0:0:0:
279,96,275096,1,0,0:0:0:0:
222,152,275190,5,0,0:0:0:0:
222,171,275283,1,0,0:0:0:0:
222,191,275377,1,0,0:0:0:0:
222,211,275471,1,0,0:0:0:0:
141,211,275565,2,0,L|141:171,1,40
222,171,275752,1,0,0:0:0:0:
222,152,275845,1,0,0:0:0:0:
222,132,275939,1,0,0:0:0:0:
222,112,276033,1,0,0:0:0:0:
302,112,276127,2,0,L|302:152,1,40
359,209,276315,1,0,0:0:0:0:
359,228,276408,1,0,0:0:0:0:
302,284,276502,1,0,0:0:0:0:
302,303,276595,1,0,0:0:0:0:
359,360,276690,6,0,L|399:360,1,40
455,303,276877,1,0,0:0:0:0:
455,282,276971,1,0,0:0:0:0:
455,261,277065,1,0,0:0:0:0:
455,241,277158,1,0,0:0:0:0:
398,184,277252,1,0,0:0:0:0:
398,163,277346,1,0,0:0:0:0:
398,142,277440,1,0,0:0:0:0:
398,122,277533,1,0,0:0:0:0:
341,65,277627,1,0,0:0:0:0:
321,65,277720,1,0,0:0:0:0:
300,65,277815,2,0,L|280:65,1,20
280,75,277908,2,0,L|260:75,1,20
260,85,278002,1,0,0:0:0:0:
239,85,278096,1,0,0:0:0:0:
218,85,278190,5,0,0:0:0:0:
133,169,278471,1,0,0:0:0:0:
133,189,278565,1,0,0:0:0:0:
252,189,278846,1,0,0:0:0:0:
252,209,278940,1,0,0:0:0:0:
371,209,279127,1,0,0:0:0:0:
371,229,279221,1,0,0:0:0:0:
371,249,279315,1,0,0:0:0:0:
490,249,279502,1,0,0:0:0:0:
490,269,279596,1,0,0:0:0:0:
490,289,279690,5,0,0:0:0:0:
456,322,279783,1,0,0:0:0:0:
413,343,279877,1,0,0:0:0:0:
364,345,279971,1,0,0:0:0:0:
317,333,280065,1,0,0:0:0:0:
270,321,280158,1,0,0:0:0:0:
221,323,280252,1,0,0:0:0:0:
178,344,280346,1,0,0:0:0:0:
144,377,280440,2,0,L|128:375,1,10
134,365,280533,2,0,L|118:363,1,10
124,353,280628,2,0,L|108:351,1,10
114,341,280721,2,0,L|98:339,1,10
104,329,280815,2,0,L|120:327,1,10
113,307,280908,2,0,L|129:305,1,10
122,284,281003,2,0,L|138:282,1,10
131,262,281096,2,0,L|147:260,1,10
140,240,281190,5,0,0:0:0:0:
140,240,281283,2,0,L|112:156,1,80
397,164,281565,2,0,L|372:240,1,80
140,240,281846,6,0,L|112:156,1,80
397,164,282128,2,0,L|372:240,1,80
140,240,282408,6,0,L|112:156,1,80
397,164,282690,2,0,L|372:240,1,80
140,240,282971,6,0,L|112:156,1,80
397,164,283253,2,0,L|372:240,1,80
140,240,283533,6,0,L|112:156,1,80
397,164,283815,2,0,L|372:240,1,80
140,240,284096,6,0,L|112:156,1,80
397,164,284378,2,0,L|372:240,1,80
140,240,284658,6,0,L|112:156,1,80
397,164,284940,2,0,L|384:202,1,40
372,240,285127,2,0,L|376:255,1,10
367,242,285220,2,0,L|371:257,1,10
362,244,285314,2,0,L|366:259,1,10
357,246,285408,2,0,L|361:261,1,10
352,248,285502,2,0,L|356:263,1,10
347,250,285595,2,0,L|351:265,1,10
342,252,285689,2,0,L|346:267,1,10
337,254,285783,2,0,L|341:269,1,10
332,256,285877,6,0,L|326:290,1,20
314,261,285970,2,0,L|285:280,1,20
297,251,286064,2,0,L|262:245,1,20
292,233,286158,2,0,L|272:204,1,20
302,216,286252,2,0,L|308:181,1,20
319,210,286345,2,0,L|325:244,1,20
337,215,286439,2,0,L|365:234,1,20
354,205,286533,2,0,L|388:199,1,20
359,187,286627,6,0,L|383:152,1,30.0000011444092
361,177,286720,2,0,L|385:142,1,30.0000011444092
362,167,286814,2,0,L|386:132,1,30.0000011444092
364,157,286908,2,0,L|388:122,1,30.0000011444092
365,147,287002,2,0,L|389:112,1,30.0000011444092
367,137,287095,2,0,L|391:102,1,30.0000011444092
368,127,287189,2,0,L|392:92,1,30.0000011444092
370,117,287283,2,0,L|394:82,1,30.0000011444092
365,92,287377,6,0,L|340:126,1,30.0000011444092
363,102,287470,2,0,L|338:136,1,30.0000011444092
362,112,287564,2,0,L|337:146,1,30.0000011444092
360,122,287658,2,0,L|335:156,1,30.0000011444092
359,132,287752,2,0,L|334:166,1,30.0000011444092
357,142,287845,2,0,L|332:176,1,30.0000011444092
356,152,287939,2,0,L|331:186,1,30.0000011444092
354,162,288033,2,0,L|329:196,1,30.0000011444092
352,171,288127,5,0,0:0:0:0:
411,230,288314,1,0,0:0:0:0:
411,230,288408,1,0,0:0:0:0:
411,230,288502,1,0,0:0:0:0:
236,270,288689,1,0,0:0:0:0:
236,270,288783,1,0,0:0:0:0:
236,270,288877,1,0,0:0:0:0:
430,329,289064,1,0,0:0:0:0:
430,329,289158,1,0,0:0:0:0:
430,329,289252,1,0,0:0:0:0:
195,382,289439,1,0,0:0:0:0:
160,213,289627,5,0,0:0:0:0:
101,154,289814,1,0,0:0:0:0:
101,154,289908,1,0,0:0:0:0:
101,154,290002,1,0,0:0:0:0:
276,114,290189,1,0,0:0:0:0:
276,114,290283,1,0,0:0:0:0:
276,114,290377,1,0,0:0:0:0:
82,55,290564,1,0,0:0:0:0:
82,55,290658,1,0,0:0:0:0:
82,55,290752,1,0,0:0:0:0:
317,2,290939,1,0,0:0:0:0:
352,213,291127,5,0,0:0:0:0:
316,284,291314,1,0,0:0:0:0:
316,284,291408,1,0,0:0:0:0:
316,284,291502,1,0,0:0:0:0:
471,247,291689,1,0,0:0:0:0:
240,185,291877,5,0,0:0:0:0:
276,114,292064,1,0,0:0:0:0:
276,114,292158,1,0,0:0:0:0:
276,114,292252,1,0,0:0:0:0:
121,151,292439,1,0,0:0:0:0:
316,284,292627,5,0,0:0:0:0:
400,368,292814,1,0,0:0:0:0:
419,361,292908,1,0,0:0:0:0:
438,355,293002,1,0,0:0:0:0:
240,185,293189,1,0,0:0:0:0:
221,178,293283,1,0,0:0:0:0:
202,172,293377,1,0,0:0:0:0:
316,284,293564,1,0,0:0:0:0:
335,277,293658,1,0,0:0:0:0:
354,271,293752,1,0,0:0:0:0:
373,264,293845,1,0,0:0:0:0:
392,258,293939,2,0,L|421:248,1,20
421,249,294033,2,0,L|450:239,1,20
449,240,294127,5,0,0:0:0:0:
505,183,294314,1,0,0:0:0:0:
500,163,294408,1,0,0:0:0:0:
495,143,294502,1,0,0:0:0:0:
373,264,294689,1,0,0:0:0:0:
378,244,294783,1,0,0:0:0:0:
383,224,294877,1,0,0:0:0:0:
505,345,295064,1,0,0:0:0:0:
500,325,295158,1,0,0:0:0:0:
495,305,295252,1,0,0:0:0:0:
251,223,295439,1,0,0:0:0:0:
63,240,295627,5,0,0:0:0:0:
7,183,295814,1,0,0:0:0:0:
12,163,295908,1,0,0:0:0:0:
17,143,296002,1,0,0:0:0:0:
139,264,296189,1,0,0:0:0:0:
134,244,296283,1,0,0:0:0:0:
129,224,296377,1,0,0:0:0:0:
7,345,296564,1,0,0:0:0:0:
12,325,296658,1,0,0:0:0:0:
17,305,296752,1,0,0:0:0:0:
261,223,296939,2,0,L|270:251,1,20
272,250,297033,2,0,L|281:278,1,20
283,277,297127,6,0,L|292:305,1,20
303,281,297220,2,0,L|312:309,1,20
323,285,297314,1,0,0:0:0:0:
342,280,297408,1,0,0:0:0:0:
361,276,297502,1,0,0:0:0:0:
473,163,297689,1,0,0:0:0:0:
454,158,297783,1,0,0:0:0:0:
435,154,297877,1,0,0:0:0:0:
322,41,298064,2,0,L|347:35,1,20
360,32,298158,2,0,L|385:26,1,20
399,22,298252,1,0,0:0:0:0:
286,134,298439,1,0,0:0:0:0:
136,76,298627,5,0,0:0:0:0:
79,132,298814,1,0,0:0:0:0:
76,151,298908,1,0,0:0:0:0:
73,170,299002,1,0,0:0:0:0:
182,218,299189,1,0,0:0:0:0:
179,199,299283,1,0,0:0:0:0:
176,180,299377,1,0,0:0:0:0:
232,123,299564,1,0,0:0:0:0:
271,113,299658,1,0,0:0:0:0:
310,119,299752,1,0,0:0:0:0:
340,144,299845,1,0,0:0:0:0:
354,181,299939,1,0,0:0:0:0:
354,341,300127,5,0,0:0:0:0:
200,297,300314,1,0,0:0:0:0:
180,291,300408,1,0,0:0:0:0:
160,286,300502,1,0,0:0:0:0:
88,321,300689,1,0,0:0:0:0:
17,176,300877,1,0,0:0:0:0:
171,132,301064,1,0,0:0:0:0:
191,126,301158,1,0,0:0:0:0:
211,121,301252,1,0,0:0:0:0:
283,156,301439,1,0,0:0:0:0:
396,42,301627,5,0,0:0:0:0:
458,188,301814,1,0,0:0:0:0:
461,207,301908,1,0,0:0:0:0:
464,226,302002,1,0,0:0:0:0:
351,338,302189,1,0,0:0:0:0:
354,319,302283,1,0,0:0:0:0:
357,300,302377,1,0,0:0:0:0:
283,156,302564,1,0,0:0:0:0:
280,175,302658,1,0,0:0:0:0:
265,160,302752,1,0,0:0:0:0:
262,179,302846,1,0,0:0:0:0:
247,164,302939,1,0,0:0:0:0:
133,50,303127,5,0,0:0:0:0:
45,183,303314,1,0,0:0:0:0:
39,202,303408,1,0,0:0:0:0:
33,221,303502,1,0,0:0:0:0:
145,333,303689,1,0,0:0:0:0:
379,334,303877,5,0,0:0:0:0:
467,201,304064,1,0,0:0:0:0:
473,182,304158,1,0,0:0:0:0:
479,163,304252,1,0,0:0:0:0:
367,51,304439,1,0,0:0:0:0:
367,51,304533,1,0,0:0:0:0:
367,51,304627,5,0,0:0:0:0:
254,163,304814,1,0,0:0:0:0:
260,182,304908,1,0,0:0:0:0:
266,201,305002,1,0,0:0:0:0:
153,313,305189,1,0,0:0:0:0:
159,294,305283,1,0,0:0:0:0:
165,275,305377,1,0,0:0:0:0:
300,360,305564,1,0,0:0:0:0:
294,341,305658,1,0,0:0:0:0:
288,322,305752,1,0,0:0:0:0:
307,324,305845,1,0,0:0:0:0:
326,326,305939,2,0,L|354:333,1,20
345,310,306033,2,0,L|373:317,1,20
364,294,306127,5,0,0:0:0:0:
251,181,306314,1,0,0:0:0:0:
251,181,306408,1,0,0:0:0:0:
251,181,306502,1,0,0:0:0:0:
256,380,306689,1,0,0:0:0:0:
58,181,306877,1,0,0:0:0:0:
171,294,307064,1,0,0:0:0:0:
171,294,307158,1,0,0:0:0:0:
171,294,307252,1,0,0:0:0:0:
166,95,307439,1,0,0:0:0:0:
346,95,307627,5,0,0:0:0:0:
341,294,307814,1,0,0:0:0:0:
341,294,307908,1,0,0:0:0:0:
341,294,308002,1,0,0:0:0:0:
454,181,308189,1,0,0:0:0:0:
256,152,308377,1,0,0:0:0:0:
62,199,308564,1,0,0:0:0:0:
62,199,308658,1,0,0:0:0:0:
62,199,308752,1,0,0:0:0:0:
200,279,308939,2,0,L|228:275,1,20
205,290,309033,2,0,L|233:286,1,20
210,301,309127,5,0,0:0:0:0:
244,320,309220,1,0,0:0:0:0:
283,324,309314,1,0,0:0:0:0:
322,319,309408,1,0,0:0:0:0:
355,297,309502,1,0,0:0:0:0:
370,260,309595,2,0,L|376:226,1,20
342,240,309689,2,0,L|348:206,1,20
314,220,309783,1,0,0:0:0:0:
273,220,309877,2,0,L|279:254,1,20
245,240,309971,2,0,L|251:274,1,20
217,260,310065,1,0,0:0:0:0:
178,268,310158,1,0,0:0:0:0:
138,258,310252,1,0,0:0:0:0:
111,228,310345,1,0,0:0:0:0:
103,188,310439,2,0,L|108:157,1,20
127,146,310533,2,0,L|132:115,1,20
160,120,310627,5,0,0:0:0:0:
317,148,310814,1,0,0:0:0:0:
356,154,310908,1,0,0:0:0:0:
395,161,311002,1,0,0:0:0:0:
282,273,311189,1,0,0:0:0:0:
243,279,311283,1,0,0:0:0:0:
204,286,311377,1,0,0:0:0:0:
91,173,311564,1,0,0:0:0:0:
113,125,311658,1,0,0:0:0:0:
159,101,311752,1,0,0:0:0:0:
210,99,311845,1,0,0:0:0:0:
261,97,311939,1,0,0:0:0:0:
307,73,312033,1,0,0:0:0:0:
329,25,312127,6,0,P|364:17|436:39,1,95.9999970703126
497,83,312408,1,0,0:0:0:0:
420,131,312502,2,0,B|394:179|394:179|426:233|372:329,1,180.000006866455
323,358,312877,1,0,0:0:0:0:
304,357,312970,2,0,L|308:385,1,20
285,356,313064,2,0,L|289:384,1,20
266,355,313158,1,0,0:0:0:0:
228,324,313252,1,0,0:0:0:0:
225,304,313345,1,0,0:0:0:0:
190,269,313439,1,0,0:0:0:0:
187,249,313532,1,0,0:0:0:0:
152,214,313627,6,0,L|126:209,1,26.6666666666667
179,208,313752,2,0,L|153:203,1,26.6666666666667
206,202,313877,1,0,0:0:0:0:
179,196,313939,1,0,0:0:0:0:
207,167,314002,5,0,0:0:0:0:
181,162,314064,1,0,0:0:0:0:
234,161,314127,2,0,L|208:156,1,26.6666666666667
261,155,314252,2,0,L|235:150,1,26.6666666666667
206,121,314377,6,0,L|232:116,1,26.6666666666667
179,115,314502,2,0,L|205:110,1,26.6666666666667
152,109,314627,1,0,0:0:0:0:
178,104,314689,1,0,0:0:0:0:
149,75,314752,6,0,L|109:67,1,40
170,67,314939,2,0,L|138:60,1,20
182,63,315033,2,0,L|150:56,1,20
193,58,315127,5,0,0:0:0:0:
216,99,315220,1,0,0:0:0:0:
261,114,315314,1,0,0:0:0:0:
309,112,315408,1,0,0:0:0:0:
351,88,315502,2,0,P|405:73|474:83,1,120.000004577637
512,131,315783,1,0,0:0:0:0:
508,150,315877,1,0,0:0:0:0:
474,183,315970,1,0,0:0:0:0:
470,202,316064,1,0,0:0:0:0:
435,236,316158,1,0,0:0:0:0:
431,255,316252,1,0,0:0:0:0:
397,288,316345,2,0,L|366:294,1,20
367,295,316439,1,0,0:0:0:0:
327,303,316533,1,0,0:0:0:0:
287,311,316627,6,0,L|249:299,1,26.6666666666667
234,302,316752,2,0,L|196:290,1,26.6666666666667
181,293,316877,1,0,0:0:0:0:
156,285,316939,1,0,0:0:0:0:
156,258,317002,6,0,L|194:246,1,26.6666666666667
209,249,317127,2,0,L|247:237,1,26.6666666666667
262,240,317252,1,0,0:0:0:0:
287,232,317314,1,0,0:0:0:0:
306,212,317377,5,0,0:0:0:0:
334,183,317470,2,0,L|343:163,1,20
324,179,317564,1,0,0:0:0:0:
281,160,317658,2,0,L|290:140,1,20
269,156,317752,1,0,0:0:0:0:
230,130,317845,1,0,0:0:0:0:
207,88,317939,1,0,0:0:0:0:
205,42,318033,2,0,L|214:22,1,20
194,38,318127,6,0,P|146:41|103:80,1,95.9999970703126
43,133,318408,1,0,0:0:0:0:
119,180,318502,2,0,B|151:233|151:233|137:302|201:346,1,180.000006866455
269,350,318877,1,0,0:0:0:0:
297,321,318970,2,0,L|301:287,1,20
313,315,319064,2,0,L|317:281,1,20
329,309,319158,1,0,0:0:0:0:
341,271,319252,1,0,0:0:0:0:
374,249,319345,1,0,0:0:0:0:
386,211,319439,1,0,0:0:0:0:
422,194,319533,1,0,0:0:0:0:
434,156,319627,5,0,0:0:0:0:
410,143,319689,1,0,0:0:0:0:
386,130,319752,1,0,0:0:0:0:
348,92,319814,2,0,L|324:104,1,26.6666666666667
300,116,319939,1,0,0:0:0:0:
280,166,320002,5,0,0:0:0:0:
256,153,320064,1,0,0:0:0:0:
232,140,320127,1,0,0:0:0:0:
194,102,320189,2,0,L|170:114,1,26.6666666666667
146,126,320314,1,0,0:0:0:0:
146,179,320377,5,0,0:0:0:0:
170,192,320439,1,0,0:0:0:0:
194,205,320502,1,0,0:0:0:0:
232,243,320564,2,0,L|256:230,1,26.6666666666667
279,219,320689,1,0,0:0:0:0:
317,257,320752,5,0,0:0:0:0:
293,270,320814,1,0,0:0:0:0:
269,283,320877,1,0,0:0:0:0:
250,298,320939,2,0,L|230:287,1,20
233,309,321033,2,0,L|213:298,1,20
216,320,321127,5,0,0:0:0:0:
170,334,321220,1,0,0:0:0:0:
122,326,321314,1,0,0:0:0:0:
84,296,321408,1,0,0:0:0:0:
72,249,321502,1,0,0:0:0:0:
80,202,321595,2,0,P|115:151|122:78,1,120.000004577637
114,36,321877,1,0,0:0:0:0:
309,96,322064,1,0,0:0:0:0:
272,127,322158,1,0,0:0:0:0:
257,172,322252,1,0,0:0:0:0:
260,219,322345,2,0,L|232:230,1,23.9999992675781
283,260,322439,1,0,0:0:0:0:
327,279,322533,1,0,0:0:0:0:
375,280,322627,5,0,0:0:0:0:
388,256,322689,1,0,0:0:0:0:
401,232,322752,1,0,0:0:0:0:
439,194,322814,2,0,L|423:163,1,31.9999990234375
415,146,322939,1,0,0:0:0:0:
369,100,323002,5,0,0:0:0:0:
356,124,323064,1,0,0:0:0:0:
343,148,323127,1,0,0:0:0:0:
305,186,323189,2,0,L|320:215,1,31.9999990234375
329,234,323314,1,0,0:0:0:0:
292,270,323377,5,0,0:0:0:0:
258,238,323470,2,0,L|223:243,1,23.9999992675781
251,225,323564,1,0,0:0:0:0:
216,191,323658,2,0,L|181:196,1,23.9999992675781
209,178,323752,1,0,0:0:0:0:
194,133,323845,1,0,0:0:0:0:
214,90,323939,2,0,L|219:55,1,23.9999992675781
234,84,324033,2,0,L|239:49,1,23.9999992675781
369,193,324127,6,0,P|383:238|371:285,1,95.9999970703126
320,360,324408,1,0,0:0:0:0:
237,322,324502,2,0,B|186:288|131:319|131:319|48:296,1,180.000006866455
22,221,324877,1,0,0:0:0:0:
62,180,324970,2,0,L|68:138,1,23.9999992675781
82,173,325064,1,0,0:0:0:0:
138,160,325158,1,0,0:0:0:0:
194,170,325252,1,0,0:0:0:0:
237,206,325345,1,0,0:0:0:0:
290,228,325439,1,0,0:0:0:0:
347,223,325533,1,0,0:0:0:0:
398,196,325627,6,0,L|427:166,1,31.9999990234375
420,205,325752,1,0,0:0:0:0:
397,182,325814,2,0,L|368:152,1,31.9999990234375
375,191,325939,1,0,0:0:0:0:
398,163,326002,2,0,L|427:133,1,31.9999990234375
420,172,326127,1,0,0:0:0:0:
397,149,326189,2,0,L|368:119,1,31.9999990234375
375,158,326314,1,0,0:0:0:0:
397,135,326377,5,0,0:0:0:0:
404,121,326439,1,0,0:0:0:0:
367,111,326502,1,0,0:0:0:0:
374,125,326564,1,0,0:0:0:0:
401,97,326627,1,0,0:0:0:0:
408,83,326689,1,0,0:0:0:0:
371,73,326752,1,0,0:0:0:0:
378,87,326814,1,0,0:0:0:0:
400,55,326877,1,0,0:0:0:0:
393,41,326939,1,0,0:0:0:0:
354,41,327002,2,0,L|344:78,1,31.9999990234375
318,44,327127,6,0,P|274:44|230:92,1,95.9999970703126
219,166,327408,1,0,0:0:0:0:
305,198,327502,2,0,B|365:210|382:270|382:270|457:313,1,180.000006866455
486,76,327877,2,0,P|431:82|380:128,1,120.000004577637
288,307,328158,1,0,0:0:0:0:
246,347,328252,1,0,0:0:0:0:
189,357,328345,1,0,0:0:0:0:
132,343,328439,1,0,0:0:0:0:
89,303,328533,1,0,0:0:0:0:
77,246,328627,6,0,L|48:216,1,31.9999990234375
55,255,328752,1,0,0:0:0:0:
78,232,328814,2,0,L|107:202,1,31.9999990234375
100,241,328939,1,0,0:0:0:0:
77,213,329002,2,0,L|48:183,1,31.9999990234375
55,222,329127,1,0,0:0:0:0:
78,199,329189,2,0,L|107:169,1,31.9999990234375
100,208,329314,1,0,0:0:0:0:
78,185,329377,5,0,0:0:0:0:
71,171,329439,1,0,0:0:0:0:
108,161,329502,1,0,0:0:0:0:
101,175,329564,1,0,0:0:0:0:
74,147,329627,1,0,0:0:0:0:
67,133,329689,1,0,0:0:0:0:
104,123,329752,1,0,0:0:0:0:
97,137,329814,1,0,0:0:0:0:
75,105,329877,1,0,0:0:0:0:
101,78,329939,2,0,L|108:100,1,23.9999992675781
129,80,330033,2,0,L|136:102,1,23.9999992675781
163,113,330127,5,0,0:0:0:0:
206,150,330220,1,0,0:0:0:0:
263,157,330314,1,0,0:0:0:0:
316,136,330408,1,0,0:0:0:0:
345,89,330502,2,0,P|385:37|454:38,1,120.000004577637
491,45,330783,1,0,0:0:0:0:
511,98,330877,1,0,0:0:0:0:
460,124,330970,1,0,0:0:0:0:
438,177,331064,1,0,0:0:0:0:
434,234,331158,1,0,0:0:0:0:
467,280,331252,1,0,0:0:0:0:
417,308,331345,1,0,0:0:0:0:
359,301,331439,2,0,L|326:281,1,23.9999992675781
338,318,331533,1,0,0:0:0:0:
297,358,331627,6,0,L|264:338,1,23.9999992675781
247,345,331720,2,0,L|214:325,1,23.9999992675781
226,303,331814,1,0,0:0:0:0:
253,275,331877,2,0,L|263:233,1,31.9999990234375
233,216,332002,1,0,0:0:0:0:
237,200,332064,1,0,0:0:0:0:
264,172,332127,2,0,L|274:130,1,31.9999990234375
244,113,332252,1,0,0:0:0:0:
248,97,332314,1,0,0:0:0:0:
220,69,332377,2,0,L|178:59,1,31.9999990234375
161,89,332502,1,0,0:0:0:0:
124,77,332564,2,0,L|132:116,1,23.9999992675781
107,79,332658,2,0,L|115:118,1,23.9999992675781
90,81,332752,2,0,L|98:120,1,31.9999990234375
90,127,332877,1,0,0:0:0:0:
63,153,332939,1,0,0:0:0:0:
22,193,333033,2,0,L|30:232,1,23.9999992675781
31,245,333127,5,0,0:0:0:0:
82,269,333220,1,0,0:0:0:0:
139,266,333314,1,0,0:0:0:0:
192,245,333408,1,0,0:0:0:0:
229,200,333502,1,0,0:0:0:0:
246,145,333595,2,0,L|250:121,1,23.9999992675781
282,183,333689,2,0,L|286:206,1,23.9999992675781
312,138,333783,1,0,0:0:0:0:
364,113,333877,2,0,L|368:89,1,23.9999992675781
400,151,333971,2,0,L|404:174,1,23.9999992675781
430,106,334065,1,0,0:0:0:0:
476,139,334158,1,0,0:0:0:0:
498,192,334252,1,0,0:0:0:0:
493,248,334345,1,0,0:0:0:0:
441,274,334439,2,0,L|436:250,1,23.9999992675781
405,312,334533,2,0,L|400:335,1,23.9999992675781
375,267,334627,6,0,L|365:228,1,31.9999990234375
367,274,334752,1,0,0:0:0:0:
329,281,334814,2,0,L|324:304,1,23.9999992675781
280,261,334908,2,0,L|275:284,1,23.9999992675781
231,241,335002,1,0,0:0:0:0:
173,239,335095,1,0,0:0:0:0:
122,267,335189,1,0,0:0:0:0:
88,314,335283,2,0,L|65:309,1,23.9999992675781
35,303,335377,1,0,0:0:0:0:
35,188,335564,2,0,L|58:183,1,23.9999992675781
110,130,335658,2,0,L|87:125,1,23.9999992675781
34,72,335752,1,0,0:0:0:0:
82,41,335845,1,0,0:0:0:0:
139,38,335939,2,0,L|162:43,1,23.9999992675781
214,96,336033,2,0,L|191:101,1,23.9999992675781
138,154,336127,1,0,0:0:0:0:
138,154,336502,5,0,0:0:0:0:
256,192,336595,12,0,344377,0:0:0:0:
