osu file format v14

[General]
AudioFilename: audio.mp3
AudioLeadIn: 0
PreviewTime: -1
Countdown: 0
SampleSet: Normal
StackLeniency: 0.7
Mode: 3
LetterboxInBreaks: 0
SpecialStyle: 0
WidescreenStoryboard: 0

[Editor]
DistanceSpacing: 1.5
BeatDivisor: 8
GridSize: 4
TimelineZoom: 1

[Metadata]
Title:PEACE BREAKER (Short Ver.)
TitleUnicode:PEACE BREAKER (Short Ver.)
Artist:xi
ArtistUnicode:xi
Creator:nvfangirl
Version:WRIST DESTROYER
Source:
Tags:
BeatmapID:3632436
BeatmapSetID:1774055

[Difficulty]
HPDrainRate:9.9
CircleSize:4
OverallDifficulty:10
ApproachRate:5
SliderMultiplier:1.4
SliderTickRate:1

[Events]
//Background and Video events
//Break Periods
//Storyboard Layer 0 (Background)
//Storyboard Layer 1 (Fail)
//Storyboard Layer 2 (Pass)
//Storyboard Layer 3 (Foreground)
//Storyboard Layer 4 (Overlay)
//Storyboard Sound Samples

[TimingPoints]
9375,375,4,1,0,100,1,0
9375,-100,4,1,0,5,0,0

[HitObjects]
64,192,9375,128,0,10125:0:0:0:0:
448,192,10125,128,0,10875:0:0:0:0:
64,192,10875,128,0,11625:0:0:0:0:
320,192,11625,1,0,0:0:0:0:
448,192,11625,1,0,0:0:0:0:
320,192,11648,1,0,0:0:0:0:
448,192,11648,1,0,0:0:0:0:
192,192,11671,1,0,0:0:0:0:
64,192,11671,1,0,0:0:0:0:
320,192,11671,1,0,0:0:0:0:
448,192,11671,1,0,0:0:0:0:
192,192,11695,1,0,0:0:0:0:
64,192,11695,1,0,0:0:0:0:
448,192,11695,1,0,0:0:0:0:
320,192,11695,1,0,0:0:0:0:
64,192,11718,1,0,0:0:0:0:
192,192,11718,1,0,0:0:0:0:
320,192,11718,1,0,0:0:0:0:
448,192,11718,1,0,0:0:0:0:
192,192,11742,1,0,0:0:0:0:
64,192,11742,1,0,0:0:0:0:
448,192,11742,1,0,0:0:0:0:
320,192,11742,1,0,0:0:0:0:
320,192,11765,1,0,0:0:0:0:
448,192,11765,1,0,0:0:0:0:
64,192,11765,1,0,0:0:0:0:
192,192,11765,1,0,0:0:0:0:
448,192,11789,1,0,0:0:0:0:
320,192,11789,1,0,0:0:0:0:
192,192,11789,1,0,0:0:0:0:
64,192,11789,1,0,0:0:0:0:
192,192,11812,1,0,0:0:0:0:
64,192,11812,1,0,0:0:0:0:
320,192,11812,1,0,0:0:0:0:
448,192,11812,1,0,0:0:0:0:
64,192,11835,1,0,0:0:0:0:
192,192,11835,1,0,0:0:0:0:
448,192,11835,1,0,0:0:0:0:
320,192,11835,1,0,0:0:0:0:
192,192,11859,1,0,0:0:0:0:
64,192,11859,1,0,0:0:0:0:
320,192,11859,1,0,0:0:0:0:
448,192,11859,1,0,0:0:0:0:
448,192,11882,1,0,0:0:0:0:
320,192,11882,1,0,0:0:0:0:
64,192,11882,1,0,0:0:0:0:
192,192,11882,1,0,0:0:0:0:
448,192,11906,1,0,0:0:0:0:
320,192,11906,1,0,0:0:0:0:
64,192,11906,1,0,0:0:0:0:
192,192,11906,1,0,0:0:0:0:
64,192,11929,1,0,0:0:0:0:
192,192,11929,1,0,0:0:0:0:
320,192,11929,1,0,0:0:0:0:
448,192,11929,1,0,0:0:0:0:
64,192,11953,1,0,0:0:0:0:
192,192,11953,1,0,0:0:0:0:
448,192,11953,1,0,0:0:0:0:
320,192,11953,1,0,0:0:0:0:
192,192,11976,1,0,0:0:0:0:
64,192,11976,1,0,0:0:0:0:
320,192,11976,1,0,0:0:0:0:
448,192,11976,1,0,0:0:0:0:
320,192,12000,1,0,0:0:0:0:
448,192,12000,1,0,0:0:0:0:
64,192,12000,1,0,0:0:0:0:
192,192,12000,1,0,0:0:0:0:
320,192,12023,1,0,0:0:0:0:
448,192,12023,1,0,0:0:0:0:
64,192,12023,1,0,0:0:0:0:
192,192,12023,1,0,0:0:0:0:
192,192,12046,1,0,0:0:0:0:
64,192,12046,1,0,0:0:0:0:
448,192,12046,1,0,0:0:0:0:
320,192,12046,1,0,0:0:0:0:
64,192,12070,1,0,0:0:0:0:
192,192,12070,1,0,0:0:0:0:
320,192,12070,1,0,0:0:0:0:
448,192,12070,1,0,0:0:0:0:
192,192,12093,1,0,0:0:0:0:
64,192,12093,1,0,0:0:0:0:
320,192,12093,1,0,0:0:0:0:
448,192,12093,1,0,0:0:0:0:
448,192,12117,1,0,0:0:0:0:
320,192,12117,1,0,0:0:0:0:
64,192,12117,1,0,0:0:0:0:
192,192,12117,1,0,0:0:0:0:
320,192,12140,1,0,0:0:0:0:
448,192,12140,1,0,0:0:0:0:
192,192,12140,1,0,0:0:0:0:
64,192,12140,1,0,0:0:0:0:
64,192,12164,1,0,0:0:0:0:
192,192,12164,1,0,0:0:0:0:
448,192,12164,1,0,0:0:0:0:
320,192,12164,1,0,0:0:0:0:
64,192,12187,1,0,0:0:0:0:
192,192,12187,1,0,0:0:0:0:
320,192,12187,1,0,0:0:0:0:
448,192,12187,1,0,0:0:0:0:
192,192,12210,1,0,0:0:0:0:
64,192,12210,1,0,0:0:0:0:
320,192,12210,1,0,0:0:0:0:
448,192,12210,1,0,0:0:0:0:
320,192,12234,1,0,0:0:0:0:
448,192,12234,1,0,0:0:0:0:
64,192,12234,1,0,0:0:0:0:
192,192,12234,1,0,0:0:0:0:
320,192,12257,1,0,0:0:0:0:
448,192,12257,1,0,0:0:0:0:
64,192,12257,1,0,0:0:0:0:
192,192,12257,1,0,0:0:0:0:
192,192,12281,1,0,0:0:0:0:
64,192,12281,1,0,0:0:0:0:
448,192,12281,1,0,0:0:0:0:
320,192,12281,1,0,0:0:0:0:
192,192,12304,1,0,0:0:0:0:
64,192,12304,1,0,0:0:0:0:
320,192,12304,1,0,0:0:0:0:
448,192,12304,1,0,0:0:0:0:
64,192,12328,1,0,0:0:0:0:
192,192,12328,1,0,0:0:0:0:
448,192,12328,1,0,0:0:0:0:
320,192,12328,1,0,0:0:0:0:
448,192,12351,1,0,0:0:0:0:
320,192,12351,1,0,0:0:0:0:
192,192,12351,1,0,0:0:0:0:
64,192,12351,1,0,0:0:0:0:
192,192,12375,1,0,0:0:0:0:
64,192,12375,1,0,0:0:0:0:
64,192,12398,1,0,0:0:0:0:
192,192,12398,1,0,0:0:0:0:
64,192,12562,1,0,0:0:0:0:
192,192,12562,1,0,0:0:0:0:
320,192,12750,128,0,13125:0:0:0:0:
448,192,12750,128,0,13125:0:0:0:0:
64,192,13125,1,0,0:0:0:0:
192,192,13125,1,0,0:0:0:0:
64,192,13312,1,0,0:0:0:0:
192,192,13312,1,0,0:0:0:0:
320,192,13406,1,0,0:0:0:0:
448,192,13406,1,0,0:0:0:0:
64,192,13593,1,0,0:0:0:0:
192,192,13593,1,0,0:0:0:0:
320,192,13687,1,0,0:0:0:0:
448,192,13687,1,0,0:0:0:0:
64,192,13875,1,0,0:0:0:0:
192,192,13875,1,0,0:0:0:0:
448,192,14062,1,0,0:0:0:0:
320,192,14156,1,0,0:0:0:0:
64,192,14250,1,0,0:0:0:0:
320,192,14343,1,0,0:0:0:0:
192,192,14437,1,0,0:0:0:0:
64,192,14531,1,0,0:0:0:0:
192,192,14625,1,0,0:0:0:0:
320,192,14625,1,0,0:0:0:0:
448,192,14718,1,0,0:0:0:0:
320,192,14718,1,0,0:0:0:0:
192,192,14812,1,0,0:0:0:0:
64,192,14812,1,0,0:0:0:0:
320,192,14906,1,0,0:0:0:0:
192,192,14906,1,0,0:0:0:0:
448,192,15000,1,0,0:0:0:0:
192,192,15000,1,0,0:0:0:0:
320,192,15093,1,0,0:0:0:0:
192,192,15187,1,0,0:0:0:0:
64,192,15281,1,0,0:0:0:0:
192,192,15375,1,0,0:0:0:0:
64,192,15375,1,0,0:0:0:0:
320,192,15375,1,0,0:0:0:0:
448,192,15375,1,0,0:0:0:0:
192,192,15562,1,0,0:0:0:0:
64,192,15562,1,0,0:0:0:0:
320,192,15562,1,0,0:0:0:0:
448,192,15562,1,0,0:0:0:0:
320,192,15750,1,0,0:0:0:0:
192,192,15750,1,0,0:0:0:0:
64,192,15750,1,0,0:0:0:0:
448,192,15750,1,0,0:0:0:0:
192,192,15843,1,0,0:0:0:0:
64,192,15937,1,0,0:0:0:0:
320,192,16031,1,0,0:0:0:0:
192,192,16031,1,0,0:0:0:0:
64,192,16031,1,0,0:0:0:0:
448,192,16031,1,0,0:0:0:0:
192,192,16125,1,0,0:0:0:0:
320,192,16218,1,0,0:0:0:0:
448,192,16312,1,0,0:0:0:0:
320,192,16406,1,0,0:0:0:0:
192,192,16500,1,0,0:0:0:0:
320,192,16593,1,0,0:0:0:0:
192,192,16687,1,0,0:0:0:0:
64,192,16781,1,0,0:0:0:0:
192,192,16875,1,0,0:0:0:0:
320,192,16875,1,0,0:0:0:0:
448,192,16875,1,0,0:0:0:0:
64,192,16875,1,0,0:0:0:0:
192,192,16968,1,0,0:0:0:0:
320,192,17062,1,0,0:0:0:0:
192,192,17062,1,0,0:0:0:0:
64,192,17062,1,0,0:0:0:0:
448,192,17062,1,0,0:0:0:0:
320,192,17156,128,0,17250:0:0:0:0:
192,192,17250,128,0,17343:0:0:0:0:
64,192,17343,128,0,17437:0:0:0:0:
320,192,17437,128,0,17531:0:0:0:0:
192,192,17625,128,0,17718:0:0:0:0:
192,192,17906,128,0,18000:0:0:0:0:
320,192,18093,1,0,0:0:0:0:
64,192,18164,1,0,0:0:0:0:
192,192,18210,1,0,0:0:0:0:
320,192,18234,128,0,18351:0:0:0:0:
192,192,18375,1,0,0:0:0:0:
64,192,18375,1,0,0:0:0:0:
448,192,18375,1,0,0:0:0:0:
192,192,18468,1,0,0:0:0:0:
192,192,18562,1,0,0:0:0:0:
64,192,18562,1,0,0:0:0:0:
320,192,18562,1,0,0:0:0:0:
448,192,18562,1,0,0:0:0:0:
320,192,18656,1,0,0:0:0:0:
320,192,18750,1,0,0:0:0:0:
192,192,18750,1,0,0:0:0:0:
64,192,18750,1,0,0:0:0:0:
448,192,18750,1,0,0:0:0:0:
320,192,18843,1,0,0:0:0:0:
192,192,18937,1,0,0:0:0:0:
64,192,19031,1,0,0:0:0:0:
192,192,19125,1,0,0:0:0:0:
320,192,19125,1,0,0:0:0:0:
448,192,19125,1,0,0:0:0:0:
320,192,19218,1,0,0:0:0:0:
192,192,19312,1,0,0:0:0:0:
64,192,19406,1,0,0:0:0:0:
320,192,19406,1,0,0:0:0:0:
192,192,19500,1,0,0:0:0:0:
320,192,19500,1,0,0:0:0:0:
448,192,19500,1,0,0:0:0:0:
64,192,19593,1,0,0:0:0:0:
192,192,19687,1,0,0:0:0:0:
320,192,19687,1,0,0:0:0:0:
448,192,19687,1,0,0:0:0:0:
64,192,19687,1,0,0:0:0:0:
64,192,19875,1,0,0:0:0:0:
192,192,19875,1,0,0:0:0:0:
448,192,19875,1,0,0:0:0:0:
320,192,19875,1,0,0:0:0:0:
320,192,20250,128,0,20343:0:0:0:0:
192,192,20437,1,0,0:0:0:0:
320,192,20531,1,0,0:0:0:0:
64,192,20625,1,0,0:0:0:0:
192,192,20718,1,0,0:0:0:0:
448,192,20812,1,0,0:0:0:0:
320,192,20859,1,0,0:0:0:0:
192,192,20906,1,0,0:0:0:0:
64,192,21000,1,0,0:0:0:0:
320,192,21000,1,0,0:0:0:0:
192,192,21093,1,0,0:0:0:0:
320,192,21140,1,0,0:0:0:0:
448,192,21187,1,0,0:0:0:0:
320,192,21234,1,0,0:0:0:0:
192,192,21281,1,0,0:0:0:0:
64,192,21328,1,0,0:0:0:0:
320,192,21375,1,0,0:0:0:0:
192,192,21421,1,0,0:0:0:0:
64,192,21468,1,0,0:0:0:0:
320,192,21515,1,0,0:0:0:0:
192,192,21562,1,0,0:0:0:0:
448,192,21609,1,0,0:0:0:0:
320,192,21656,1,0,0:0:0:0:
192,192,21750,1,0,0:0:0:0:
448,192,21843,1,0,0:0:0:0:
320,192,21937,1,0,0:0:0:0:
192,192,21937,1,0,0:0:0:0:
64,192,22031,1,0,0:0:0:0:
320,192,22125,1,0,0:0:0:0:
448,192,22125,1,0,0:0:0:0:
192,192,22125,1,0,0:0:0:0:
64,192,22125,1,0,0:0:0:0:
192,192,22218,1,0,0:0:0:0:
320,192,22312,1,0,0:0:0:0:
448,192,22312,1,0,0:0:0:0:
192,192,22312,1,0,0:0:0:0:
64,192,22312,1,0,0:0:0:0:
320,192,22406,1,0,0:0:0:0:
320,192,22500,1,0,0:0:0:0:
192,192,22500,1,0,0:0:0:0:
64,192,22500,1,0,0:0:0:0:
448,192,22500,1,0,0:0:0:0:
320,192,22593,1,0,0:0:0:0:
192,192,22687,1,0,0:0:0:0:
448,192,22781,1,0,0:0:0:0:
320,192,22875,1,0,0:0:0:0:
192,192,22875,1,0,0:0:0:0:
64,192,22875,1,0,0:0:0:0:
320,192,22968,1,0,0:0:0:0:
192,192,23062,1,0,0:0:0:0:
320,192,23156,1,0,0:0:0:0:
448,192,23250,1,0,0:0:0:0:
320,192,23343,1,0,0:0:0:0:
192,192,23437,1,0,0:0:0:0:
64,192,23531,1,0,0:0:0:0:
320,192,23625,1,0,0:0:0:0:
192,192,23718,1,0,0:0:0:0:
448,192,23812,1,0,0:0:0:0:
320,192,23906,1,0,0:0:0:0:
448,192,24000,1,0,0:0:0:0:
320,192,24000,1,0,0:0:0:0:
192,192,24000,1,0,0:0:0:0:
64,192,24000,1,0,0:0:0:0:
448,192,24281,1,0,0:0:0:0:
320,192,24281,1,0,0:0:0:0:
320,192,24304,1,0,0:0:0:0:
448,192,24304,1,0,0:0:0:0:
192,192,24328,1,0,0:0:0:0:
64,192,24328,1,0,0:0:0:0:
320,192,24328,1,0,0:0:0:0:
448,192,24328,1,0,0:0:0:0:
64,192,24351,1,0,0:0:0:0:
192,192,24351,1,0,0:0:0:0:
448,192,24351,1,0,0:0:0:0:
320,192,24351,1,0,0:0:0:0:
64,192,24375,1,0,0:0:0:0:
192,192,24375,1,0,0:0:0:0:
320,192,24398,1,0,0:0:0:0:
448,192,24398,1,0,0:0:0:0:
192,192,24398,1,0,0:0:0:0:
64,192,24398,1,0,0:0:0:0:
