osu file format v14

[General]
AudioFilename: audio.mp3
AudioLeadIn: 0
PreviewTime: 27786
Countdown: 0
SampleSet: Soft
StackLeniency: 0.7
Mode: 3
LetterboxInBreaks: 0
SpecialStyle: 0
WidescreenStoryboard: 0

[Editor]
Bookmarks: 9407,17515,27786,47245,66704,94813,109948,122921,144542,148867,166164,196434,198596,215894,234542
DistanceSpacing: 1.3
BeatDivisor: 12
GridSize: 4
TimelineZoom: 1.9

[Metadata]
Title:Mjoelnir
TitleUnicode:Mjölnir
Artist:xi
ArtistUnicode:xi
Creator:gzdongsheng
Version:Punishment
Source:maimai でらっくす UNiVERSE PLUS
Tags:mjolnir Deluxe DX fa featured artist AD:PIANO ff/pp Diverse System electronic instrumental 石渡祐亮 Yusuke Ishiwata dvsp-0247 FAMoss うこぼね ukobone YsK439
BeatmapID:3392371
BeatmapSetID:1661762

[Difficulty]
HPDrainRate:8.4
CircleSize:4
OverallDifficulty:7.6
ApproachRate:5
SliderMultiplier:1.4
SliderTickRate:1

[Events]
//Background and Video events
0,0,"bg.jpg",0,0
//Break Periods
//Storyboard Layer 0 (Background)
//Storyboard Layer 1 (Fail)
//Storyboard Layer 2 (Pass)
//Storyboard Layer 3 (Foreground)
//Storyboard Layer 4 (Overlay)
//Storyboard Sound Samples
Sample,13664,0,"electronic32.wav",30
Sample,15826,0,"electronic32.wav",40
Sample,83123,0,"LR_Kick Beat High Vfast.wav",50
Sample,164475,0,"LR_Kick Beat High Vfast.wav",50
Sample,165015,0,"LR_Kick Beat High Vfast.wav",50
Sample,174475,0,"LR_Kick Beat High Vfast.wav",50
Sample,181772,0,"electronic32.wav",50
Sample,182313,0,"electronic32.wav",50
Sample,187380,0,"electronic32.wav",50
Sample,215015,0,"LR_Kick Beat High Vfast.wav",50
Sample,223664,0,"LR_Kick Beat High Vfast.wav",50
Sample,228461,0,"electronic32.wav",50

[TimingPoints]
759,270.27027027027,4,2,1,60,1,0
894,-100,4,2,1,30,0,0
2921,-100,4,2,1,40,0,0
6164,-100,4,2,1,50,0,0
8326,-100,4,2,1,60,0,0
59002,-100,4,2,1,50,0,0
59677,-100,4,2,1,40,0,0
60218,-100,4,2,1,30,0,0
61299,-100,4,2,1,40,0,0
61840,-100,4,2,1,50,0,0
62380,-100,4,2,1,60,0,0
122921,-100,4,2,1,50,0,1
140218,-100,4,2,1,60,0,0
215894,-100,4,2,1,60,0,1
232110,-100,4,2,1,60,0,0
234813,-100,4,2,1,30,0,0
242380,-100,4,2,1,40,0,0
242515,-100,4,2,1,50,0,0
242650,-100,4,2,1,60,0,0

[HitObjects]
192,192,488,5,0,0:0:0:0:
64,192,556,1,0,0:0:0:0:
320,192,623,1,0,0:0:0:0:
192,192,713,1,0,0:0:0:0:
64,192,759,1,2,0:0:0:0:
320,192,759,1,4,0:0:0:0:
448,192,759,128,0,1299:0:0:0:0:
64,192,1299,1,0,0:0:0:0:
64,192,1434,1,0,0:0:0:0:
192,192,1569,1,0,0:0:0:0:
320,192,1704,1,0,0:0:0:0:
192,192,1840,1,0,0:0:0:0:
64,192,1975,128,0,2042:0:0:0:0:
320,192,2245,128,0,2313:0:0:0:0:
448,192,2515,128,0,2583:0:0:0:0:
320,192,2650,128,0,2718:0:0:0:0:
192,192,2786,128,0,2853:0:0:0:0:
64,192,2921,128,0,2988:0:0:0:0:
448,192,2921,1,0,0:0:0:0:
320,192,3056,1,0,0:0:0:0:
192,192,3191,1,0,0:0:0:0:
448,192,3326,1,0,0:0:0:0:
64,192,3461,1,0,0:0:0:0:
192,192,3596,1,0,0:0:0:0:
320,192,3731,1,0,0:0:0:0:
64,192,3867,1,0,0:0:0:0:
448,192,4002,128,0,4069:0:0:0:0:
192,192,4137,1,0,0:0:0:0:
320,192,4272,128,0,4340:0:0:0:0:
64,192,4407,1,0,0:0:0:0:
192,192,4542,128,0,4610:0:0:0:0:
64,192,4677,1,0,0:0:0:0:
320,192,4813,128,0,4880:0:0:0:0:
192,192,4948,1,0,0:0:0:0:
64,192,5083,1,2,0:0:0:0:
448,192,5083,128,0,5150:0:0:0:0:
192,192,5353,1,0,0:0:0:0:
64,192,5443,1,0,0:0:0:0:
320,192,5533,1,0,0:0:0:0:
448,192,5623,1,0,0:0:0:0:
320,192,5713,1,0,0:0:0:0:
192,192,5804,1,0,0:0:0:0:
64,192,5894,1,0,0:0:0:0:
192,192,5984,1,0,0:0:0:0:
320,192,6074,1,0,0:0:0:0:
64,192,6164,128,2,6231:0:0:0:0:
448,192,6164,1,0,0:0:0:0:
320,192,6434,1,0,0:0:0:0:
448,192,6524,1,0,0:0:0:0:
192,192,6614,1,0,0:0:0:0:
64,192,6704,1,2,0:0:0:0:
448,192,6704,1,0,0:0:0:0:
192,192,6795,1,0,0:0:0:0:
320,192,6885,1,0,0:0:0:0:
448,192,6975,1,0,0:0:0:0:
320,192,7065,1,0,0:0:0:0:
192,192,7155,1,0,0:0:0:0:
64,192,7245,1,2,0:0:0:0:
448,192,7245,1,0,0:0:0:0:
320,192,7290,1,0,0:0:0:0:
192,192,7380,1,0,0:0:0:0:
64,192,7515,1,0,0:0:0:0:
320,192,7650,1,0,0:0:0:0:
448,192,7786,1,0,0:0:0:0:
192,192,7921,1,0,0:0:0:0:
64,192,8056,1,0,0:0:0:0:
448,192,8191,1,0,0:0:0:0:
192,192,8326,1,0,0:0:0:0:
320,192,8394,1,0,0:0:0:0:
448,192,8461,1,0,0:0:0:0:
64,192,8529,1,0,0:0:0:0:
192,192,8596,1,0,0:0:0:0:
320,192,8664,1,0,0:0:0:0:
192,192,8731,1,0,0:0:0:0:
64,192,8799,1,0,0:0:0:0:
320,192,8867,1,2,0:0:0:0:
448,192,8867,1,0,0:0:0:0:
64,192,8934,1,2,0:0:0:0:
192,192,8934,1,0,0:0:0:0:
448,192,9002,1,2,0:0:0:0:
320,192,9036,1,2,0:0:0:0:
192,192,9069,1,2,0:0:0:0:
64,192,9103,1,2,0:0:0:0:
320,192,9137,1,2,0:0:0:0:
448,192,9137,1,0,0:0:0:0:
64,192,9204,1,2,0:0:0:0:
192,192,9204,1,0,0:0:0:0:
320,192,9272,1,2,0:0:0:0:
448,192,9272,1,0,0:0:0:0:
192,192,9340,1,2,0:0:0:0:
64,192,9407,1,2,0:0:0:0:
320,192,9407,1,4,0:0:0:0:
448,192,9407,1,0,0:0:0:20:electronic32.wav
192,192,9497,1,0,0:0:0:20:electronic32.wav
320,192,9587,1,0,0:0:0:20:electronic32.wav
64,192,9677,1,0,0:0:0:20:electronic32.wav
448,192,9677,1,0,0:0:0:0:
320,192,9768,1,0,0:0:0:20:electronic32.wav
192,192,9858,1,0,0:0:0:20:electronic32.wav
64,192,9948,1,0,0:0:0:20:electronic32.wav
448,192,9948,1,0,0:0:0:0:
192,192,10038,1,0,0:0:0:20:electronic32.wav
320,192,10128,1,0,0:0:0:20:electronic32.wav
64,192,10218,1,0,0:0:0:20:electronic32.wav
448,192,10218,1,0,0:0:0:0:
320,192,10308,1,0,0:0:0:20:electronic32.wav
192,192,10398,1,0,0:0:0:20:electronic32.wav
320,192,10488,1,0,0:0:0:20:electronic32.wav
448,192,10488,1,0,0:0:0:0:
64,192,10578,1,0,0:0:0:20:electronic32.wav
320,192,10668,1,0,0:0:0:20:electronic32.wav
64,192,10758,1,0,0:0:0:20:electronic32.wav
192,192,10758,1,0,0:0:0:0:
448,192,10849,1,0,0:0:0:20:electronic32.wav
192,192,10939,1,0,0:0:0:20:electronic32.wav
320,192,11029,1,0,0:0:0:20:electronic32.wav
448,192,11029,1,0,0:0:0:0:
64,192,11119,1,0,0:0:0:20:electronic32.wav
320,192,11209,1,0,0:0:0:20:electronic32.wav
64,192,11299,1,0,0:0:0:20:electronic32.wav
192,192,11299,1,0,0:0:0:0:
448,192,11389,1,0,0:0:0:20:electronic32.wav
320,192,11479,1,0,0:0:0:20:electronic32.wav
64,192,11569,1,2,0:0:0:0:
192,192,11569,1,4,0:0:0:0:
448,192,11569,1,0,0:0:0:30:electronic32.wav
320,192,11659,1,0,0:0:0:30:electronic32.wav
64,192,11749,1,0,0:0:0:30:electronic32.wav
320,192,11840,1,0,0:0:0:30:electronic32.wav
448,192,11840,1,0,0:0:0:0:
64,192,11930,1,0,0:0:0:30:electronic32.wav
192,192,11930,1,0,0:0:0:0:
448,192,12020,1,0,0:0:0:30:electronic32.wav
192,192,12110,1,0,0:0:0:30:electronic32.wav
320,192,12110,1,0,0:0:0:0:
64,192,12200,1,0,0:0:0:30:electronic32.wav
448,192,12200,1,0,0:0:0:0:
192,192,12290,1,0,0:0:0:30:electronic32.wav
320,192,12380,1,0,0:0:0:30:electronic32.wav
448,192,12380,1,0,0:0:0:0:
64,192,12470,1,0,0:0:0:30:electronic32.wav
192,192,12470,1,0,0:0:0:0:
320,192,12560,1,0,0:0:0:30:electronic32.wav
64,192,12650,1,0,0:0:0:30:electronic32.wav
192,192,12650,1,0,0:0:0:0:
192,192,12740,1,0,0:0:0:30:electronic32.wav
448,192,12740,1,0,0:0:0:0:
320,192,12831,1,0,0:0:0:30:electronic32.wav
64,192,12921,1,0,0:0:0:30:electronic32.wav
192,192,12921,1,0,0:0:0:0:
64,192,13011,1,0,0:0:0:30:electronic32.wav
448,192,13011,1,0,0:0:0:0:
192,192,13101,1,0,0:0:0:30:electronic32.wav
320,192,13191,1,0,0:0:0:30:electronic32.wav
448,192,13191,1,0,0:0:0:0:
64,192,13281,1,0,0:0:0:30:electronic32.wav
320,192,13281,1,0,0:0:0:0:
192,192,13371,1,0,0:0:0:30:electronic32.wav
320,192,13461,1,0,0:0:0:30:electronic32.wav
448,192,13461,1,0,0:0:0:0:
64,192,13529,1,0,0:0:0:30:electronic32.wav
192,192,13529,1,0,0:0:0:0:
320,192,13596,1,2,0:0:0:0:
448,192,13596,1,0,0:0:0:30:electronic32.wav
64,192,13664,1,2,0:0:0:0:
192,192,13731,1,4,0:0:0:0:
320,192,13731,1,2,0:0:0:0:
448,192,13731,1,0,0:0:0:40:electronic32.wav
64,192,13799,1,0,0:0:0:40:electronic32.wav
448,192,13867,1,0,0:0:0:40:electronic32.wav
64,192,13934,1,0,0:0:0:40:electronic32.wav
192,192,13934,1,0,0:0:0:0:
320,192,14002,1,0,0:0:0:40:electronic32.wav
192,192,14069,1,0,0:0:0:40:electronic32.wav
320,192,14137,1,0,0:0:0:40:electronic32.wav
448,192,14137,1,0,0:0:0:0:
64,192,14204,1,0,0:0:0:40:electronic32.wav
448,192,14272,1,0,0:0:0:40:electronic32.wav
64,192,14340,1,0,0:0:0:40:electronic32.wav
192,192,14340,1,0,0:0:0:0:
320,192,14407,1,0,0:0:0:40:electronic32.wav
192,192,14475,1,0,0:0:0:40:electronic32.wav
320,192,14542,1,0,0:0:0:40:electronic32.wav
448,192,14542,1,0,0:0:0:0:
64,192,14610,1,0,0:0:0:40:electronic32.wav
320,192,14677,1,0,0:0:0:40:electronic32.wav
448,192,14677,1,0,0:0:0:0:
192,192,14745,1,0,0:0:0:40:electronic32.wav
64,192,14813,1,4,0:0:0:0:
320,192,14813,1,2,0:0:0:0:
448,192,14813,1,0,0:0:0:40:electronic32.wav
192,192,14880,1,0,0:0:0:40:electronic32.wav
448,192,14948,1,0,0:0:0:40:electronic32.wav
64,192,15015,1,0,0:0:0:40:electronic32.wav
192,192,15015,1,0,0:0:0:0:
320,192,15083,1,0,0:0:0:40:electronic32.wav
448,192,15150,1,0,0:0:0:40:electronic32.wav
64,192,15218,1,0,0:0:0:40:electronic32.wav
192,192,15218,1,0,0:0:0:0:
320,192,15286,1,0,0:0:0:40:electronic32.wav
64,192,15353,1,2,0:0:0:0:
192,192,15353,1,4,0:0:0:0:
448,192,15353,1,0,0:0:0:40:electronic32.wav
320,192,15421,1,0,0:0:0:40:electronic32.wav
64,192,15488,1,0,0:0:0:40:electronic32.wav
320,192,15556,1,0,0:0:0:40:electronic32.wav
448,192,15556,1,0,0:0:0:0:
192,192,15623,1,0,0:0:0:40:electronic32.wav
448,192,15691,1,0,0:0:0:40:electronic32.wav
64,192,15758,1,2,0:0:0:0:
320,192,15758,1,0,0:0:0:40:electronic32.wav
192,192,15826,1,2,0:0:0:0:
64,192,15894,1,4,0:0:0:0:
320,192,15894,1,2,0:0:0:0:
448,192,15894,1,0,0:0:0:50:electronic32.wav
192,192,15961,1,0,0:0:0:50:electronic32.wav
320,192,16029,1,0,0:0:0:50:electronic32.wav
64,192,16096,1,0,0:0:0:50:electronic32.wav
448,192,16096,1,0,0:0:0:0:
192,192,16164,1,0,0:0:0:50:electronic32.wav
448,192,16231,1,0,0:0:0:50:electronic32.wav
192,192,16299,1,0,0:0:0:50:electronic32.wav
320,192,16299,1,0,0:0:0:0:
64,192,16367,1,0,0:0:0:50:electronic32.wav
192,192,16434,1,0,0:0:0:50:electronic32.wav
320,192,16502,1,0,0:0:0:50:electronic32.wav
448,192,16502,1,0,0:0:0:0:
64,192,16569,1,0,0:0:0:50:electronic32.wav
320,192,16637,1,0,0:0:0:50:electronic32.wav
64,192,16704,1,0,0:0:0:50:electronic32.wav
192,192,16704,1,0,0:0:0:0:
448,192,16772,1,0,0:0:0:50:electronic32.wav
64,192,16840,1,0,0:0:0:50:electronic32.wav
192,192,16840,1,0,0:0:0:0:
448,192,16907,1,0,0:0:0:50:electronic32.wav
64,192,16975,1,0,0:0:0:40:electronic32.wav
320,192,16975,1,0,0:0:0:0:
192,192,17042,1,0,0:0:0:40:electronic32.wav
448,192,17110,1,0,0:0:0:40:electronic32.wav
64,192,17177,1,0,0:0:0:40:electronic32.wav
192,192,17177,1,0,0:0:0:0:
320,192,17245,1,0,0:0:0:40:electronic32.wav
448,192,17313,1,0,0:0:0:40:electronic32.wav
64,192,17380,1,0,0:0:0:40:electronic32.wav
192,192,17380,1,0,0:0:0:0:
320,192,17448,1,0,0:0:0:40:electronic32.wav
64,192,17515,128,0,17650:0:0:0:30:electronic32.wav
448,192,17515,1,0,0:0:0:0:
192,192,17583,128,0,17718:0:0:0:30:electronic32.wav
320,192,17650,128,0,17786:0:0:0:30:electronic32.wav
448,192,17718,128,0,17786:0:0:0:30:electronic32.wav
192,192,17786,128,0,17921:0:0:0:30:electronic32.wav
64,192,17853,128,0,17921:0:0:0:30:electronic32.wav
320,192,17921,128,0,18056:0:0:0:30:electronic32.wav
192,192,17988,128,0,18056:0:0:0:30:electronic32.wav
64,192,18056,1,2,0:0:0:0:
448,192,18056,128,0,18123:0:0:0:0:
320,192,18123,128,0,18191:0:0:0:0:
192,192,18191,128,0,18258:0:0:0:0:
64,192,18258,128,0,18326:0:0:0:0:
448,192,18326,128,0,18394:0:0:0:0:
320,192,18394,128,0,18461:0:0:0:0:
192,192,18461,128,0,18529:0:0:0:0:
64,192,18529,128,0,18596:0:0:0:0:
320,192,18596,128,0,18664:0:0:0:0:
448,192,18596,128,0,18664:0:0:0:0:
64,192,18664,128,0,18731:0:0:0:0:
192,192,18731,128,0,18799:0:0:0:0:
320,192,18799,128,0,18867:0:0:0:0:
448,192,18867,128,0,18934:0:0:0:0:
192,192,18934,128,0,19002:0:0:0:0:
320,192,19002,128,0,19069:0:0:0:0:
64,192,19069,128,0,19137:0:0:0:0:
192,192,19137,1,2,0:0:0:0:
320,192,19137,128,4,19204:0:0:0:0:
448,192,19137,128,0,19204:0:0:0:0:
64,192,19272,1,2,0:0:0:0:
320,192,19272,128,4,19407:0:0:0:0:
448,192,19272,128,0,19407:0:0:0:0:
64,192,19407,128,0,19542:0:0:0:0:
192,192,19475,128,0,19610:0:0:0:0:
320,192,19542,128,0,19677:0:0:0:0:
64,192,19610,128,0,19745:0:0:0:0:
448,192,19677,128,0,19813:0:0:0:0:
320,192,19745,128,0,19880:0:0:0:0:
192,192,19813,128,0,19948:0:0:0:0:
448,192,19880,128,0,20015:0:0:0:0:
64,192,19948,128,0,20083:0:0:0:0:
192,192,20015,128,0,20150:0:0:0:0:
320,192,20083,128,2,20150:0:0:0:0:
448,192,20083,1,0,0:0:0:0:
64,192,20150,128,2,20353:0:0:0:0:
192,192,20218,128,2,20353:0:0:0:0:
320,192,20218,1,4,0:0:0:0:
448,192,20218,1,0,0:0:0:0:
448,192,20353,128,0,20488:0:0:0:0:
320,192,20421,128,0,20556:0:0:0:0:
192,192,20488,128,0,20623:0:0:0:0:
64,192,20556,128,0,20623:0:0:0:0:
320,192,20623,1,4,0:0:0:0:
448,192,20623,1,2,0:0:0:0:
64,192,20691,1,2,0:0:0:0:
192,192,20691,1,4,0:0:0:0:
320,192,20758,128,4,20961:0:0:0:0:
448,192,20758,128,2,20826:0:0:0:0:
64,192,20894,128,2,20961:0:0:0:0:
192,192,20894,128,4,21231:0:0:0:0:
448,192,20894,128,0,20961:0:0:0:0:
64,192,21029,128,4,21231:0:0:0:0:
320,192,21029,128,2,21231:0:0:0:0:
448,192,21029,128,0,21231:0:0:0:0:
64,192,21299,128,2,21367:0:0:0:0:
192,192,21299,128,4,21367:0:0:0:0:
320,192,21299,1,0,0:0:0:0:
64,192,21434,128,2,21569:0:0:0:0:
192,192,21434,128,4,21569:0:0:0:0:
448,192,21434,1,0,0:0:0:0:
448,192,21569,128,0,21704:0:0:0:0:
320,192,21637,128,0,21772:0:0:0:0:
192,192,21704,128,0,21840:0:0:0:0:
448,192,21772,128,0,21907:0:0:0:0:
64,192,21840,128,0,21975:0:0:0:0:
192,192,21907,128,0,22042:0:0:0:0:
320,192,21975,128,0,22110:0:0:0:0:
64,192,22042,128,0,22177:0:0:0:0:
448,192,22110,128,0,22245:0:0:0:0:
320,192,22177,128,0,22313:0:0:0:0:
64,192,22245,1,2,0:0:0:0:
192,192,22245,128,0,22313:0:0:0:0:
448,192,22313,128,2,22515:0:0:0:0:
64,192,22380,1,2,0:0:0:0:
192,192,22380,1,4,0:0:0:0:
320,192,22380,128,0,22515:0:0:0:0:
64,192,22515,128,0,22650:0:0:0:0:
192,192,22583,128,0,22718:0:0:0:0:
320,192,22650,128,0,22786:0:0:0:0:
448,192,22718,128,0,22786:0:0:0:0:
64,192,22786,1,4,0:0:0:0:
192,192,22786,1,2,0:0:0:0:
320,192,22853,1,2,0:0:0:0:
448,192,22853,1,4,0:0:0:0:
64,192,22921,128,4,22988:0:0:0:0:
192,192,22921,128,2,23123:0:0:0:0:
64,192,23056,128,2,23123:0:0:0:0:
320,192,23056,128,4,23258:0:0:0:0:
448,192,23056,128,0,23123:0:0:0:0:
64,192,23191,128,4,23394:0:0:0:0:
192,192,23191,128,2,23394:0:0:0:0:
448,192,23191,128,0,23394:0:0:0:0:
320,192,23326,128,0,23394:0:0:0:0:
192,192,23461,1,4,0:0:0:0:
320,192,23461,1,2,0:0:0:0:
448,192,23461,128,0,24002:0:0:0:0:
64,192,23731,1,0,0:0:0:0:
320,192,23799,1,0,0:0:0:0:
64,192,23867,1,0,0:0:0:0:
320,192,23934,1,0,0:0:0:0:
64,192,24002,1,0,0:0:0:0:
192,192,24047,1,0,0:0:0:0:
448,192,24092,1,0,0:0:0:0:
320,192,24137,1,0,0:0:0:0:
64,192,24182,1,0,0:0:0:0:
192,192,24227,1,0,0:0:0:0:
448,192,24272,1,0,0:0:0:0:
320,192,24317,1,0,0:0:0:0:
64,192,24362,128,0,24452:0:0:0:0:
192,192,24407,128,2,24497:0:0:0:0:
320,192,24452,128,0,24542:0:0:0:0:
448,192,24497,128,0,24542:0:0:0:0:
64,192,24542,128,6,24632:0:0:0:0:
192,192,24587,128,0,24677:0:0:0:0:
320,192,24632,128,0,24722:0:0:0:0:
448,192,24677,128,0,24722:0:0:0:0:
64,192,24722,128,6,24813:0:0:0:0:
192,192,24768,128,0,24858:0:0:0:0:
320,192,24813,128,0,24903:0:0:0:0:
448,192,24858,128,0,24903:0:0:0:0:
64,192,24903,128,6,24993:0:0:0:0:
192,192,24948,128,0,25038:0:0:0:0:
320,192,24993,128,0,25083:0:0:0:0:
448,192,25038,128,0,25083:0:0:0:0:
64,192,25083,1,2,0:0:0:0:
192,192,25083,1,4,0:0:0:0:
64,192,25173,1,2,0:0:0:0:
192,192,25173,1,4,0:0:0:0:
64,192,25263,1,2,0:0:0:0:
192,192,25263,1,4,0:0:0:0:
320,192,25353,1,2,0:0:0:0:
448,192,25353,1,4,0:0:0:0:
320,192,25443,1,2,0:0:0:0:
448,192,25443,1,4,0:0:0:0:
320,192,25533,1,2,0:0:0:0:
448,192,25533,1,4,0:0:0:0:
64,192,25623,1,4,0:0:0:0:
192,192,25623,1,2,0:0:0:0:
448,192,25623,1,0,0:0:0:20:electronic32.wav
64,192,25713,1,6,0:0:0:0:
192,192,25713,1,0,0:0:0:20:electronic32.wav
64,192,25804,1,2,0:0:0:0:
320,192,25804,1,4,0:0:0:0:
448,192,25804,1,0,0:0:0:20:electronic32.wav
320,192,25894,1,6,0:0:0:0:
448,192,25894,1,0,0:0:0:20:electronic32.wav
64,192,25984,1,4,0:0:0:0:
192,192,25984,1,2,0:0:0:0:
448,192,25984,1,0,0:0:0:20:electronic32.wav
64,192,26074,1,6,0:0:0:0:
192,192,26074,1,0,0:0:0:20:electronic32.wav
64,192,26164,1,4,0:0:0:0:
320,192,26164,1,2,0:0:0:0:
448,192,26164,1,0,0:0:0:20:electronic32.wav
320,192,26254,1,6,0:0:0:0:
448,192,26254,1,0,0:0:0:20:electronic32.wav
64,192,26344,1,4,0:0:0:0:
192,192,26344,1,2,0:0:0:0:
448,192,26344,1,0,0:0:0:20:electronic32.wav
64,192,26434,1,6,0:0:0:0:
192,192,26434,1,0,0:0:0:20:electronic32.wav
64,192,26524,1,2,0:0:0:0:
320,192,26524,1,4,0:0:0:0:
448,192,26524,1,0,0:0:0:20:electronic32.wav
320,192,26614,1,6,0:0:0:0:
448,192,26614,1,0,0:0:0:20:electronic32.wav
64,192,26704,1,2,0:0:0:0:
192,192,26704,1,0,0:0:0:0:
448,192,26704,1,0,0:0:0:0:
64,192,26885,1,2,0:0:0:0:
192,192,26885,1,0,0:0:0:0:
64,192,27065,1,2,0:0:0:0:
192,192,27065,1,0,0:0:0:0:
448,192,27110,1,2,0:0:0:0:
320,192,27155,1,2,0:0:0:0:
192,192,27200,1,2,0:0:0:0:
320,192,27245,1,2,0:0:0:0:
448,192,27245,1,0,0:0:0:0:
320,192,27425,1,2,0:0:0:0:
448,192,27425,1,0,0:0:0:0:
64,192,27605,1,2,0:0:0:0:
192,192,27605,1,0,0:0:0:0:
192,192,27695,1,2,0:0:0:0:
64,192,27786,1,2,0:0:0:0:
320,192,27786,1,4,0:0:0:0:
448,192,27786,128,0,28326:0:0:0:0:
192,192,27966,1,0,0:0:0:0:
64,192,28191,1,0,0:0:0:0:
320,192,28258,1,0,0:0:0:0:
192,192,28326,128,0,28731:0:0:0:0:
320,192,28731,1,0,0:0:0:0:
64,192,28777,1,0,0:0:0:0:
192,192,28822,1,0,0:0:0:0:
448,192,28867,128,0,29227:0:0:0:0:
192,192,29047,128,0,29407:0:0:0:0:
320,192,29227,128,0,29407:0:0:0:0:
64,192,29407,128,0,29768:0:0:0:0:
320,192,29587,128,0,29948:0:0:0:0:
192,192,29768,128,0,29948:0:0:0:0:
448,192,29948,128,0,30308:0:0:0:0:
320,192,30128,128,0,30488:0:0:0:0:
192,192,30308,128,0,30623:0:0:0:0:
64,192,30488,128,0,30758:0:0:0:0:
448,192,30623,1,0,0:0:0:0:
320,192,30691,1,0,0:0:0:0:
192,192,30758,1,0,0:0:0:0:
320,192,30894,1,0,0:0:0:0:
448,192,30961,1,0,0:0:0:0:
192,192,31029,1,0,0:0:0:0:
64,192,31164,1,0,0:0:0:0:
192,192,31231,1,0,0:0:0:0:
320,192,31299,1,0,0:0:0:0:
448,192,31434,1,0,0:0:0:0:
64,192,31502,1,0,0:0:0:50:LR_Kick Beat High Vfast.wav
192,192,31502,1,0,0:0:0:0:
320,192,31569,1,2,0:0:0:0:
448,192,31569,1,0,0:0:0:0:
192,192,31704,1,0,0:0:0:0:
320,192,31772,1,0,0:0:0:50:LR_Kick Beat High Vfast.wav
448,192,31772,1,0,0:0:0:0:
64,192,31840,1,2,0:0:0:0:
192,192,31840,1,0,0:0:0:0:
320,192,31975,1,2,0:0:0:0:
448,192,31975,1,4,0:0:0:0:
64,192,32042,1,2,0:0:0:0:
192,192,32042,1,4,0:0:0:0:
320,192,32110,1,4,0:0:0:0:
448,192,32110,128,2,32650:0:0:0:0:
64,192,32313,128,0,32380:0:0:0:0:
192,192,32380,1,0,0:0:0:0:
64,192,32515,1,0,0:0:0:0:
320,192,32583,1,0,0:0:0:0:
192,192,32650,128,0,33056:0:0:0:0:
320,192,33056,1,0,0:0:0:0:
448,192,33101,1,0,0:0:0:0:
192,192,33146,1,0,0:0:0:0:
64,192,33191,128,0,33551:0:0:0:0:
320,192,33371,128,0,33731:0:0:0:0:
192,192,33551,128,0,33731:0:0:0:0:
448,192,33731,128,0,34092:0:0:0:0:
320,192,33912,128,0,34092:0:0:0:0:
192,192,34092,128,0,34452:0:0:0:0:
448,192,34272,128,0,34632:0:0:0:0:
64,192,34452,128,0,34813:0:0:0:0:
320,192,34632,128,0,34948:0:0:0:0:
448,192,34813,128,0,35083:0:0:0:0:
64,192,34948,1,0,0:0:0:0:
192,192,35015,1,0,0:0:0:50:LR_Kick Beat High Vfast.wav
64,192,35083,1,2,0:0:0:0:
320,192,35083,1,0,0:0:0:0:
64,192,35218,1,2,0:0:0:0:
192,192,35218,1,4,0:0:0:0:
320,192,35286,1,2,0:0:0:0:
448,192,35286,1,4,0:0:0:0:
64,192,35353,1,2,0:0:0:0:
192,192,35353,1,4,0:0:0:0:
448,192,35488,1,2,0:0:0:0:
320,192,35522,1,2,0:0:0:0:
192,192,35556,1,2,0:0:0:0:
64,192,35590,1,2,0:0:0:0:
320,192,35623,1,2,0:0:0:0:
448,192,35623,1,0,0:0:0:0:
64,192,35758,1,4,0:0:0:0:
192,192,35758,1,2,0:0:0:0:
320,192,35826,1,4,0:0:0:0:
448,192,35826,1,2,0:0:0:0:
64,192,35894,1,4,0:0:0:0:
192,192,35894,1,2,0:0:0:0:
320,192,36029,1,0,0:0:0:50:LR_Kick Beat High Vfast.wav
64,192,36096,1,2,0:0:0:0:
192,192,36096,1,4,0:0:0:0:
448,192,36096,1,0,0:0:0:0:
320,192,36231,1,0,0:0:0:50:LR_Kick Beat High Vfast.wav
64,192,36299,1,2,0:0:0:0:
192,192,36299,1,4,0:0:0:0:
320,192,36367,1,2,0:0:0:0:
448,192,36367,1,4,0:0:0:0:
64,192,36434,128,2,36975:0:0:0:0:
192,192,36434,1,4,0:0:0:0:
448,192,36569,1,0,0:0:0:0:
320,192,36637,1,0,0:0:0:0:
448,192,36840,1,0,0:0:0:0:
192,192,36907,1,0,0:0:0:0:
320,192,36975,128,0,37380:0:0:0:0:
192,192,37380,1,0,0:0:0:0:
64,192,37425,1,0,0:0:0:0:
320,192,37470,1,0,0:0:0:0:
448,192,37515,128,0,37876:0:0:0:0:
192,192,37695,128,0,38056:0:0:0:0:
320,192,37876,128,0,38056:0:0:0:0:
64,192,38056,128,0,38416:0:0:0:0:
192,192,38236,128,0,38416:0:0:0:0:
320,192,38416,128,0,38777:0:0:0:0:
64,192,38596,128,4,38957:0:0:0:0:
192,192,38596,1,0,0:0:0:0:
448,192,38777,128,0,39137:0:0:0:0:
192,192,38957,128,0,39272:0:0:0:0:
64,192,39137,128,4,39407:0:0:0:0:
320,192,39137,1,0,0:0:0:0:
448,192,39272,1,0,0:0:0:0:
320,192,39340,1,0,0:0:0:50:LR_Kick Beat High Vfast.wav
192,192,39407,1,2,0:0:0:0:
448,192,39407,1,0,0:0:0:0:
320,192,39542,1,2,0:0:0:0:
448,192,39542,1,4,0:0:0:0:
64,192,39610,1,2,0:0:0:0:
192,192,39610,1,4,0:0:0:0:
320,192,39677,1,4,0:0:0:0:
448,192,39677,1,2,0:0:0:0:
64,192,39813,1,2,0:0:0:0:
192,192,39846,1,2,0:0:0:0:
320,192,39880,1,2,0:0:0:0:
448,192,39914,1,2,0:0:0:0:
64,192,39948,1,2,0:0:0:0:
192,192,39948,1,0,0:0:0:0:
192,192,40083,1,4,0:0:0:0:
320,192,40083,1,2,0:0:0:0:
448,192,40083,1,0,0:0:0:0:
64,192,40150,1,0,0:0:0:50:LR_Kick Beat High Vfast.wav
320,192,40218,1,2,0:0:0:0:
448,192,40218,1,0,0:0:0:0:
64,192,40353,1,2,0:0:0:0:
448,192,40421,1,0,0:0:0:50:LR_Kick Beat High Vfast.wav
64,192,40488,1,4,0:0:0:0:
192,192,40488,1,2,0:0:0:0:
320,192,40556,1,2,0:0:0:0:
448,192,40556,1,4,0:0:0:0:
64,192,40623,1,2,0:0:0:0:
192,192,40623,1,4,0:0:0:0:
320,192,40691,1,2,0:0:0:0:
448,192,40691,1,4,0:0:0:0:
64,192,40758,1,4,0:0:0:0:
192,192,40758,1,2,0:0:0:0:
192,192,40894,1,2,0:0:0:0:
320,192,40894,1,0,0:0:0:0:
64,192,40961,1,0,0:0:0:50:LR_Kick Beat High Vfast.wav
320,192,41029,1,2,0:0:0:0:
448,192,41029,1,0,0:0:0:0:
192,192,41164,1,2,0:0:0:0:
448,192,41164,1,0,0:0:0:0:
320,192,41231,1,0,0:0:0:50:LR_Kick Beat High Vfast.wav
64,192,41299,1,2,0:0:0:0:
192,192,41299,1,4,0:0:0:0:
448,192,41299,1,0,0:0:0:0:
64,192,41434,1,2,0:0:0:0:
320,192,41434,1,0,0:0:0:0:
192,192,41502,1,0,0:0:0:50:LR_Kick Beat High Vfast.wav
320,192,41569,1,2,0:0:0:0:
448,192,41569,1,0,0:0:0:0:
64,192,41637,1,0,0:0:0:0:
320,192,41704,1,2,0:0:0:0:
448,192,41704,1,4,0:0:0:0:
64,192,41772,1,2,0:0:0:0:
192,192,41772,1,4,0:0:0:0:
320,192,41840,1,2,0:0:0:0:
448,192,41840,1,4,0:0:0:0:
64,192,41975,1,2,0:0:0:0:
192,192,41975,1,0,0:0:0:0:
320,192,42042,1,0,0:0:0:50:LR_Kick Beat High Vfast.wav
64,192,42110,1,2,0:0:0:0:
192,192,42110,1,4,0:0:0:0:
448,192,42110,1,0,0:0:0:0:
320,192,42245,1,2,0:0:0:0:
448,192,42245,1,4,0:0:0:0:
64,192,42313,1,2,0:0:0:0:
192,192,42313,1,4,0:0:0:0:
320,192,42380,1,2,0:0:0:0:
448,192,42380,1,4,0:0:0:0:
192,192,42515,1,2,0:0:0:0:
448,192,42583,1,2,0:0:0:0:
320,192,42583,1,4,0:0:0:0:
64,192,42583,1,0,0:0:0:0:
320,192,42718,1,2,0:0:0:0:
192,192,42718,1,0,0:0:0:0:
448,192,42786,1,2,0:0:0:0:
64,192,42786,1,4,0:0:0:0:
320,192,42853,1,6,0:0:0:0:
448,192,42921,1,2,0:0:0:0:
192,192,42921,1,4,0:0:0:0:
64,192,42921,1,0,0:0:0:0:
448,192,43101,1,2,0:0:0:0:
192,192,43101,1,4,0:0:0:0:
64,192,43101,1,0,0:0:0:0:
448,192,43281,1,2,0:0:0:0:
192,192,43281,1,4,0:0:0:0:
64,192,43281,1,0,0:0:0:0:
448,192,43461,1,2,0:0:0:0:
320,192,43461,1,4,0:0:0:0:
64,192,43461,1,0,0:0:0:0:
448,192,43641,1,2,0:0:0:0:
320,192,43641,1,4,0:0:0:0:
64,192,43641,1,0,0:0:0:0:
448,192,43822,1,2,0:0:0:0:
320,192,43822,1,4,0:0:0:0:
64,192,43822,1,0,0:0:0:0:
192,192,44002,1,4,0:0:0:0:
64,192,44002,1,2,0:0:0:0:
192,192,44092,1,2,0:0:0:0:
64,192,44092,1,4,0:0:0:0:
448,192,44182,1,4,0:0:0:0:
320,192,44182,1,2,0:0:0:0:
448,192,44272,1,2,0:0:0:0:
320,192,44272,1,4,0:0:0:0:
192,192,44362,1,4,0:0:0:0:
64,192,44362,1,2,0:0:0:0:
192,192,44452,1,2,0:0:0:0:
64,192,44452,1,4,0:0:0:0:
448,192,44542,1,4,0:0:0:0:
64,192,44542,1,2,0:0:0:0:
448,192,44632,1,2,0:0:0:0:
64,192,44632,1,4,0:0:0:0:
320,192,44722,1,4,0:0:0:0:
192,192,44722,1,2,0:0:0:0:
320,192,44813,1,2,0:0:0:0:
192,192,44813,1,4,0:0:0:0:
448,192,44903,1,2,0:0:0:0:
64,192,44903,1,4,0:0:0:0:
448,192,44993,1,4,0:0:0:0:
64,192,44993,1,2,0:0:0:0:
64,192,45353,1,2,0:0:0:0:
192,192,45353,1,4,0:0:0:0:
320,192,45353,1,0,0:0:0:20:electronic32.wav
64,192,45443,1,6,0:0:0:0:
192,192,45443,1,0,0:0:0:20:electronic32.wav
192,192,45533,1,2,0:0:0:0:
320,192,45533,1,4,0:0:0:0:
448,192,45533,1,0,0:0:0:20:electronic32.wav
320,192,45623,1,6,0:0:0:0:
448,192,45623,1,0,0:0:0:20:electronic32.wav
64,192,45713,1,2,0:0:0:0:
192,192,45713,1,4,0:0:0:0:
320,192,45713,1,0,0:0:0:20:electronic32.wav
64,192,45804,1,6,0:0:0:0:
192,192,45804,1,0,0:0:0:20:electronic32.wav
192,192,45894,1,4,0:0:0:0:
320,192,45894,1,2,0:0:0:0:
448,192,45894,1,0,0:0:0:20:electronic32.wav
320,192,45984,1,6,0:0:0:0:
448,192,45984,1,0,0:0:0:20:electronic32.wav
64,192,46074,1,2,0:0:0:0:
192,192,46074,1,4,0:0:0:0:
320,192,46074,1,0,0:0:0:20:electronic32.wav
64,192,46164,1,6,0:0:0:0:
192,192,46164,1,0,0:0:0:20:electronic32.wav
192,192,46254,1,4,0:0:0:0:
320,192,46254,1,2,0:0:0:0:
448,192,46254,1,0,0:0:0:20:electronic32.wav
320,192,46344,1,6,0:0:0:0:
448,192,46344,1,0,0:0:0:20:electronic32.wav
64,192,46434,1,2,0:0:0:0:
192,192,46434,1,4,0:0:0:0:
320,192,46434,1,0,0:0:0:20:electronic32.wav
64,192,46524,1,4,0:0:0:0:
192,192,46524,1,0,0:0:0:50:electronic32.wav
192,192,46614,1,4,0:0:0:0:
320,192,46614,1,0,0:0:0:50:electronic32.wav
448,192,46614,1,0,0:0:0:0:
320,192,46704,1,4,0:0:0:0:
448,192,46704,1,0,0:0:0:50:electronic32.wav
64,192,46795,1,4,0:0:0:0:
192,192,46795,1,0,0:0:0:50:electronic32.wav
320,192,46795,1,0,0:0:0:0:
64,192,46885,1,4,0:0:0:0:
192,192,46885,1,0,0:0:0:50:electronic32.wav
320,192,46975,1,4,0:0:0:0:
448,192,46975,1,0,0:0:0:40:electronic32.wav
320,192,47065,1,4,0:0:0:0:
448,192,47065,1,0,0:0:0:40:electronic32.wav
64,192,47155,1,4,0:0:0:0:
192,192,47155,1,0,0:0:0:40:electronic32.wav
64,192,47245,1,4,0:0:0:0:
192,192,47245,1,2,0:0:0:0:
448,192,47245,128,0,47650:0:0:0:0:
320,192,47650,1,0,0:0:0:0:
64,192,48056,1,0,0:0:0:0:
448,192,48056,1,0,0:0:0:0:
192,192,48461,1,0,0:0:0:0:
64,192,48867,1,0,0:0:0:0:
448,192,48867,1,0,0:0:0:0:
192,192,48957,1,0,0:0:0:0:
320,192,49047,1,0,0:0:0:0:
64,192,49137,1,0,0:0:0:0:
448,192,49137,1,0,0:0:0:0:
320,192,49227,1,0,0:0:0:0:
192,192,49317,1,0,0:0:0:0:
64,192,49407,1,0,0:0:0:0:
448,192,49475,1,0,0:0:0:0:
192,192,49542,1,0,0:0:0:0:
320,192,49542,1,0,0:0:0:0:
64,192,49610,1,0,0:0:0:0:
448,192,49677,1,0,0:0:0:0:
320,192,49768,1,0,0:0:0:0:
192,192,49858,1,0,0:0:0:0:
64,192,49948,1,0,0:0:0:0:
448,192,49948,1,0,0:0:0:0:
192,192,50038,1,0,0:0:0:0:
320,192,50128,1,0,0:0:0:0:
448,192,50218,1,0,0:0:0:0:
64,192,50286,1,0,0:0:0:0:
320,192,50353,1,0,0:0:0:0:
192,192,50421,1,0,0:0:0:0:
320,192,50488,1,0,0:0:0:0:
448,192,50488,1,0,0:0:0:0:
64,192,50623,1,0,0:0:0:0:
192,192,50758,1,0,0:0:0:0:
320,192,50894,1,0,0:0:0:0:
448,192,51029,1,0,0:0:0:0:
320,192,51164,1,0,0:0:0:0:
192,192,51299,1,0,0:0:0:0:
64,192,51434,1,2,0:0:0:0:
448,192,51434,1,0,0:0:0:0:
320,192,51502,1,2,0:0:0:0:
64,192,51569,1,2,0:0:0:0:
192,192,51569,1,4,0:0:0:0:
448,192,51569,1,0,0:0:0:0:
320,192,51975,1,0,0:0:0:0:
64,192,52380,1,0,0:0:0:0:
448,192,52380,1,0,0:0:0:0:
192,192,52786,1,0,0:0:0:0:
64,192,53191,1,0,0:0:0:0:
448,192,53191,1,0,0:0:0:0:
320,192,53281,1,0,0:0:0:0:
192,192,53371,1,0,0:0:0:0:
64,192,53461,1,0,0:0:0:0:
448,192,53461,1,0,0:0:0:0:
192,192,53551,1,0,0:0:0:0:
320,192,53641,1,0,0:0:0:0:
448,192,53731,1,0,0:0:0:0:
64,192,53799,1,0,0:0:0:0:
192,192,53867,1,0,0:0:0:0:
320,192,53867,1,0,0:0:0:0:
448,192,53934,1,0,0:0:0:0:
64,192,54002,1,0,0:0:0:0:
192,192,54092,1,0,0:0:0:0:
320,192,54182,1,0,0:0:0:0:
64,192,54272,1,0,0:0:0:0:
448,192,54272,1,0,0:0:0:0:
320,192,54362,1,0,0:0:0:0:
192,192,54452,1,0,0:0:0:0:
448,192,54542,1,0,0:0:0:0:
320,192,54610,1,0,0:0:0:0:
64,192,54677,1,2,0:0:0:0:
192,192,54677,1,0,0:0:0:0:
320,192,54745,1,2,0:0:0:0:
64,192,54813,1,2,0:0:0:0:
192,192,54813,1,4,0:0:0:0:
448,192,54813,1,0,0:0:0:0:
320,192,54948,1,0,0:0:0:0:
64,192,55083,1,0,0:0:0:0:
320,192,55218,1,2,0:0:0:0:
448,192,55218,1,0,0:0:0:0:
192,192,55286,1,2,0:0:0:0:
64,192,55353,1,4,0:0:0:0:
320,192,55353,1,2,0:0:0:0:
448,192,55353,1,0,0:0:0:0:
320,192,55488,1,0,0:0:0:0:
64,192,55556,1,2,0:0:0:0:
192,192,55556,1,4,0:0:0:0:
448,192,55556,1,0,0:0:0:0:
320,192,55623,1,0,0:0:0:0:
64,192,55758,1,2,0:0:0:0:
192,192,55758,1,4,0:0:0:0:
320,192,55826,1,2,0:0:0:0:
448,192,55826,1,4,0:0:0:0:
64,192,55894,1,2,0:0:0:0:
192,192,55894,1,4,0:0:0:0:
320,192,56299,1,0,0:0:0:0:
192,192,56704,1,0,0:0:0:0:
448,192,56704,1,0,0:0:0:0:
64,192,57110,1,0,0:0:0:0:
192,192,57515,1,0,0:0:0:0:
320,192,57786,1,0,0:0:0:0:
64,192,57921,1,2,0:0:0:0:
448,192,57921,1,0,0:0:0:0:
192,192,57988,1,2,0:0:0:0:
64,192,58056,1,4,0:0:0:0:
320,192,58056,1,2,0:0:0:0:
448,192,58056,1,0,0:0:0:0:
320,192,58191,1,0,0:0:0:0:
64,192,58258,1,0,0:0:0:0:
448,192,58326,1,0,0:0:0:0:
192,192,58416,1,0,0:0:0:0:
320,192,58506,1,0,0:0:0:0:
448,192,58596,1,0,0:0:0:0:
64,192,58686,1,0,0:0:0:0:
448,192,58777,1,0,0:0:0:0:
192,192,58867,1,0,0:0:0:0:
320,192,58934,1,0,0:0:0:0:
64,192,59002,1,2,0:0:0:0:
192,192,59002,1,4,0:0:0:0:
320,192,59069,1,2,0:0:0:0:
448,192,59069,1,4,0:0:0:0:
64,192,59137,1,2,0:0:0:0:
192,192,59137,1,4,0:0:0:0:
448,192,59272,1,0,0:0:0:0:
320,192,59407,1,0,0:0:0:0:
64,192,59542,1,2,0:0:0:0:
192,192,59542,1,0,0:0:0:0:
320,192,59610,1,2,0:0:0:0:
448,192,59610,1,0,0:0:0:0:
64,192,59677,1,2,0:0:0:0:
192,192,59677,1,0,0:0:0:0:
320,192,59813,1,2,0:0:0:0:
448,192,59846,1,2,0:0:0:0:
64,192,59880,1,2,0:0:0:0:
192,192,59914,1,2,0:0:0:0:
320,192,59948,1,2,0:0:0:0:
448,192,60015,1,2,0:0:0:0:
192,192,60083,1,2,0:0:0:0:
320,192,60150,1,2,0:0:0:0:
64,192,60218,1,2,0:0:0:0:
448,192,60218,1,0,0:0:0:0:
192,192,60286,1,0,0:0:0:0:
320,192,60353,1,0,0:0:0:0:
64,192,60421,1,2,0:0:0:0:
192,192,60421,1,0,0:0:0:0:
448,192,60488,1,0,0:0:0:0:
64,192,60556,1,0,0:0:0:0:
320,192,60623,1,2,0:0:0:0:
448,192,60623,1,0,0:0:0:0:
192,192,60691,1,0,0:0:0:0:
320,192,60758,1,0,0:0:0:0:
64,192,60826,1,2,0:0:0:0:
192,192,60826,1,0,0:0:0:0:
448,192,60894,1,0,0:0:0:0:
64,192,60961,1,0,0:0:0:0:
320,192,61029,1,2,0:0:0:0:
448,192,61029,1,0,0:0:0:0:
192,192,61096,1,2,0:0:0:0:
64,192,61164,1,2,0:0:0:0:
320,192,61164,1,0,0:0:0:0:
448,192,61231,1,2,0:0:0:0:
64,192,61299,1,2,0:0:0:0:
192,192,61299,128,0,61367:0:0:0:0:
320,192,61367,128,0,61434:0:0:0:0:
192,192,61434,128,0,61502:0:0:0:0:
320,192,61502,128,2,61569:0:0:0:0:
448,192,61502,1,0,0:0:0:0:
64,192,61569,128,0,61637:0:0:0:0:
448,192,61637,128,0,61704:0:0:0:0:
64,192,61704,128,2,61772:0:0:0:0:
192,192,61704,1,0,0:0:0:0:
320,192,61772,128,0,61840:0:0:0:0:
192,192,61840,128,0,61975:0:0:0:0:
320,192,61907,1,2,0:0:0:0:
448,192,61907,128,0,62042:0:0:0:0:
64,192,61975,128,0,62110:0:0:0:0:
192,192,62042,128,0,62110:0:0:0:0:
320,192,62110,1,2,0:0:0:0:
448,192,62110,1,4,0:0:0:0:
64,192,62177,1,2,0:0:0:0:
192,192,62177,1,4,0:0:0:0:
320,192,62245,1,2,0:0:0:0:
448,192,62245,1,4,0:0:0:0:
64,192,62313,1,2,0:0:0:0:
192,192,62313,1,4,0:0:0:0:
320,192,62380,128,2,62448:0:0:0:0:
448,192,62380,1,4,0:0:0:0:
192,192,62448,128,0,62515:0:0:0:0:
64,192,62515,128,2,62583:0:0:0:0:
448,192,62515,1,4,0:0:0:0:
320,192,62583,1,0,0:0:0:0:
64,192,62650,1,4,0:0:0:0:
192,192,62650,128,2,62718:0:0:0:0:
448,192,62650,1,0,0:0:0:0:
320,192,62718,128,0,62786:0:0:0:0:
192,192,62786,1,2,0:0:0:0:
448,192,62786,128,4,62853:0:0:0:0:
64,192,62853,1,0,0:0:0:0:
320,192,62921,1,4,0:0:0:0:
448,192,62921,1,2,0:0:0:0:
64,192,62988,1,2,0:0:0:0:
192,192,62988,1,4,0:0:0:0:
320,192,63056,1,4,0:0:0:0:
448,192,63056,1,2,0:0:0:0:
64,192,63123,1,4,0:0:0:0:
192,192,63123,1,2,0:0:0:0:
320,192,63191,1,2,0:0:0:0:
448,192,63191,1,4,0:0:0:0:
192,192,63225,1,2,0:0:0:0:
64,192,63258,1,6,0:0:0:0:
448,192,63292,1,2,0:0:0:0:
320,192,63326,1,6,0:0:0:0:
192,192,63360,1,2,0:0:0:0:
64,192,63394,1,6,0:0:0:0:
448,192,63427,1,2,0:0:0:0:
192,192,63461,128,4,63529:0:0:0:0:
320,192,63461,128,2,63664:0:0:0:0:
64,192,63596,128,4,63664:0:0:0:0:
192,192,63596,128,2,63799:0:0:0:0:
448,192,63596,128,0,63664:0:0:0:0:
64,192,63731,128,4,63867:0:0:0:0:
320,192,63731,128,2,63799:0:0:0:0:
448,192,63731,128,0,63867:0:0:0:0:
192,192,63867,1,0,0:0:0:70:Drumstart_041.wav
320,192,63900,1,0,0:0:0:70:Drumstart_041.wav
448,192,63934,1,0,0:0:0:70:Drumstart_041.wav
64,192,63968,1,0,0:0:0:70:Drumstart_041.wav
192,192,64002,1,0,0:0:0:70:Drumstart_041.wav
448,192,64069,1,0,0:0:0:70:Drumstart_040.wav
320,192,64137,1,0,0:0:0:0:
192,192,64204,1,0,0:0:0:70:Drumstart_040.wav
64,192,64272,1,0,0:0:0:30:Clap Drum.wav
448,192,64272,1,0,0:0:0:0:
192,192,64407,1,0,0:0:0:70:Drumstart_041.wav
320,192,64475,1,0,0:0:0:70:Drumstart_041.wav
64,192,64542,128,0,64813:0:0:0:70:Clap Drum.wav
192,192,64542,1,0,0:0:0:0:
448,192,64542,1,0,0:0:0:0:
448,192,64813,128,0,64880:0:0:0:0:
320,192,64880,128,0,64948:0:0:0:0:
64,192,64948,128,0,65015:0:0:0:0:
192,192,65015,128,0,65083:0:0:0:0:
320,192,65083,128,0,65150:0:0:0:0:
448,192,65083,128,0,65150:0:0:0:0:
192,192,65150,128,0,65218:0:0:0:0:
64,192,65218,128,0,65286:0:0:0:0:
448,192,65286,128,0,65353:0:0:0:0:
320,192,65353,128,0,65421:0:0:0:0:
192,192,65421,128,0,65488:0:0:0:0:
448,192,65488,128,0,65556:0:0:0:0:
320,192,65556,128,0,65623:0:0:0:0:
64,192,65623,128,0,65691:0:0:0:0:
192,192,65691,128,0,65758:0:0:0:0:
320,192,65758,128,0,65826:0:0:0:0:
448,192,65826,128,0,65894:0:0:0:0:
192,192,65894,128,0,65961:0:0:0:0:
64,192,65961,128,0,66029:0:0:0:0:
320,192,66029,1,0,0:0:0:50:electronic32.wav
448,192,66029,1,0,0:0:0:0:
192,192,66096,1,0,0:0:0:50:electronic32.wav
64,192,66164,128,2,66299:0:0:0:0:
320,192,66164,128,4,66299:0:0:0:0:
448,192,66164,128,0,66299:0:0:0:0:
192,192,66367,128,4,66502:0:0:0:0:
320,192,66367,128,2,66502:0:0:0:0:
448,192,66367,128,0,66502:0:0:0:0:
64,192,66569,128,2,66637:0:0:0:0:
192,192,66569,128,4,66637:0:0:0:0:
320,192,66569,128,0,66637:0:0:0:0:
64,192,66704,128,4,66907:0:0:0:0:
192,192,66704,1,2,0:0:0:0:
320,192,66704,1,0,0:0:0:0:
448,192,66772,1,0,0:0:0:0:
320,192,66840,1,0,0:0:0:0:
192,192,66907,1,0,0:0:0:50:LR_Kick Beat High Vfast.wav
64,192,66975,1,2,0:0:0:0:
448,192,66975,1,0,0:0:0:0:
320,192,67042,1,0,0:0:0:0:
448,192,67110,128,0,67650:0:0:0:0:
192,192,67177,1,0,0:0:0:50:LR_Kick Beat High Vfast.wav
64,192,67245,1,2,0:0:0:0:
320,192,67245,1,0,0:0:0:0:
192,192,67313,1,0,0:0:0:0:
64,192,67380,1,0,0:0:0:0:
320,192,67448,1,0,0:0:0:50:LR_Kick Beat High Vfast.wav
64,192,67515,1,2,0:0:0:0:
192,192,67515,128,0,67583:0:0:0:0:
320,192,67583,128,0,67650:0:0:0:0:
64,192,67650,128,0,67718:0:0:0:0:
192,192,67718,128,0,67786:0:0:0:50:LR_Kick Beat High Vfast.wav
320,192,67786,1,2,0:0:0:0:
448,192,67786,128,0,67853:0:0:0:0:
192,192,67853,128,0,67921:0:0:0:0:
64,192,67921,128,0,67988:0:0:0:0:
320,192,67988,128,0,68056:0:0:0:50:LR_Kick Beat High Vfast.wav
64,192,68056,128,2,68191:0:0:0:0:
448,192,68056,1,0,0:0:0:0:
192,192,68123,128,0,68225:0:0:0:0:
320,192,68191,128,0,68258:0:0:0:0:
448,192,68258,128,0,68326:0:0:0:50:LR_Kick Beat High Vfast.wav
64,192,68326,128,2,68461:0:0:0:0:
192,192,68326,1,0,0:0:0:0:
320,192,68394,1,0,0:0:0:0:
448,192,68461,1,0,0:0:0:0:
320,192,68529,128,0,68664:0:0:0:50:LR_Kick Beat High Vfast.wav
64,192,68596,1,2,0:0:0:0:
192,192,68596,1,0,0:0:0:0:
448,192,68664,1,0,0:0:0:0:
192,192,68731,128,0,68867:0:0:0:0:
320,192,68799,1,0,0:0:0:50:LR_Kick Beat High Vfast.wav
64,192,68867,128,2,69069:0:0:0:0:
448,192,68867,1,0,0:0:0:0:
192,192,68934,1,0,0:0:0:0:
320,192,69002,1,0,0:0:0:0:
448,192,69069,1,0,0:0:0:50:LR_Kick Beat High Vfast.wav
64,192,69137,1,2,0:0:0:0:
192,192,69137,1,0,0:0:0:0:
320,192,69204,1,0,0:0:0:0:
448,192,69272,128,0,69677:0:0:0:0:
64,192,69340,1,0,0:0:0:50:LR_Kick Beat High Vfast.wav
192,192,69407,1,2,0:0:0:0:
320,192,69407,1,0,0:0:0:0:
64,192,69475,1,0,0:0:0:0:
192,192,69542,1,0,0:0:0:0:
320,192,69610,1,0,0:0:0:50:LR_Kick Beat High Vfast.wav
64,192,69677,1,2,0:0:0:0:
192,192,69677,128,0,69745:0:0:0:0:
320,192,69745,128,0,69813:0:0:0:0:
448,192,69813,128,0,69880:0:0:0:0:
64,192,69880,128,0,69948:0:0:0:50:LR_Kick Beat High Vfast.wav
192,192,69948,1,2,0:0:0:0:
448,192,69948,128,0,70150:0:0:0:0:
320,192,70015,1,0,0:0:0:0:
64,192,70083,1,0,0:0:0:0:
192,192,70150,1,0,0:0:0:50:LR_Kick Beat High Vfast.wav
64,192,70218,128,2,70421:0:0:0:0:
448,192,70218,1,0,0:0:0:0:
320,192,70286,1,0,0:0:0:0:
192,192,70353,1,0,0:0:0:0:
448,192,70421,1,0,0:0:0:50:LR_Kick Beat High Vfast.wav
64,192,70488,1,2,0:0:0:0:
192,192,70488,128,0,70691:0:0:0:0:
320,192,70556,1,0,0:0:0:0:
448,192,70623,1,0,0:0:0:0:
64,192,70691,1,0,0:0:0:50:LR_Kick Beat High Vfast.wav
320,192,70758,1,2,0:0:0:0:
448,192,70758,1,4,0:0:0:0:
64,192,70826,1,2,0:0:0:0:
192,192,70826,1,4,0:0:0:0:
320,192,70894,1,2,0:0:0:0:
448,192,70894,1,4,0:0:0:0:
64,192,70961,1,2,0:0:0:0:
192,192,70961,1,4,0:0:0:0:
320,192,71029,1,2,0:0:0:0:
448,192,71029,128,4,71231:0:0:0:0:
192,192,71096,1,0,0:0:0:0:
64,192,71164,1,0,0:0:0:0:
320,192,71231,1,0,0:0:0:50:LR_Kick Beat High Vfast.wav
64,192,71299,1,2,0:0:0:0:
192,192,71299,1,0,0:0:0:0:
448,192,71367,1,0,0:0:0:0:
64,192,71434,128,0,71704:0:0:0:0:
192,192,71502,1,0,0:0:0:50:LR_Kick Beat High Vfast.wav
320,192,71569,1,2,0:0:0:0:
448,192,71569,1,0,0:0:0:0:
192,192,71637,1,0,0:0:0:0:
448,192,71704,1,0,0:0:0:0:
320,192,71772,1,0,0:0:0:50:LR_Kick Beat High Vfast.wav
64,192,71840,1,2,0:0:0:0:
192,192,71840,1,0,0:0:0:0:
320,192,71907,1,0,0:0:0:0:
448,192,71975,1,0,0:0:0:0:
64,192,72042,1,0,0:0:0:50:LR_Kick Beat High Vfast.wav
192,192,72110,1,2,0:0:0:0:
320,192,72110,1,4,0:0:0:0:
448,192,72110,128,0,72313:0:0:0:0:
64,192,72177,1,0,0:0:0:0:
320,192,72245,1,0,0:0:0:0:
192,192,72313,1,0,0:0:0:50:LR_Kick Beat High Vfast.wav
320,192,72380,128,2,72515:0:0:0:0:
448,192,72380,1,0,0:0:0:0:
192,192,72448,1,0,0:0:0:0:
64,192,72515,1,0,0:0:0:0:
320,192,72583,1,0,0:0:0:50:LR_Kick Beat High Vfast.wav
64,192,72650,128,2,72853:0:0:0:0:
192,192,72650,1,4,0:0:0:0:
448,192,72650,1,0,0:0:0:0:
320,192,72718,1,0,0:0:0:0:
192,192,72786,1,0,0:0:0:0:
448,192,72853,1,0,0:0:0:50:LR_Kick Beat High Vfast.wav
64,192,72921,1,2,0:0:0:0:
192,192,72921,128,0,73056:0:0:0:0:
320,192,72988,1,0,0:0:0:0:
448,192,73056,1,0,0:0:0:0:
192,192,73123,1,0,0:0:0:50:LR_Kick Beat High Vfast.wav
64,192,73191,1,2,0:0:0:0:
320,192,73191,1,4,0:0:0:0:
448,192,73191,128,0,73596:0:0:0:0:
192,192,73258,1,0,0:0:0:0:
64,192,73326,1,0,0:0:0:0:
320,192,73394,1,0,0:0:0:50:LR_Kick Beat High Vfast.wav
64,192,73461,1,2,0:0:0:0:
192,192,73461,1,0,0:0:0:0:
320,192,73529,1,0,0:0:0:0:
192,192,73596,1,0,0:0:0:0:
448,192,73664,1,0,0:0:0:50:LR_Kick Beat High Vfast.wav
64,192,73731,128,2,74137:0:0:0:0:
192,192,73731,1,4,0:0:0:0:
320,192,73731,1,0,0:0:0:0:
448,192,73799,1,0,0:0:0:0:
320,192,73867,1,0,0:0:0:0:
192,192,73934,1,0,0:0:0:50:LR_Kick Beat High Vfast.wav
320,192,74002,1,2,0:0:0:0:
448,192,74002,1,0,0:0:0:0:
192,192,74069,1,0,0:0:0:0:
448,192,74137,1,0,0:0:0:0:
320,192,74204,1,0,0:0:0:50:LR_Kick Beat High Vfast.wav
64,192,74272,1,4,0:0:0:0:
192,192,74272,1,2,0:0:0:0:
448,192,74272,128,0,74407:0:0:0:0:
320,192,74340,1,0,0:0:0:0:
64,192,74407,1,0,0:0:0:50:LR_Kick Beat High Vfast.wav
192,192,74441,1,0,0:0:0:50:LR_Kick Beat High Vfast.wav
320,192,74475,1,0,0:0:0:50:LR_Kick Beat High Vfast.wav
448,192,74508,1,0,0:0:0:50:LR_Kick Beat High Vfast.wav
64,192,74542,1,2,0:0:0:0:
192,192,74542,1,4,0:0:0:0:
320,192,74610,1,2,0:0:0:0:
448,192,74610,1,0,0:0:0:0:
64,192,74677,1,2,0:0:0:0:
192,192,74677,1,0,0:0:0:0:
320,192,74745,1,0,0:0:0:50:LR_Kick Beat High Vfast.wav
64,192,74813,1,2,0:0:0:0:
448,192,74813,1,4,0:0:0:0:
192,192,74880,1,2,0:0:0:0:
320,192,74880,1,0,0:0:0:0:
64,192,74948,1,4,0:0:0:0:
448,192,74948,1,0,0:0:0:0:
192,192,75015,1,2,0:0:0:0:
320,192,75015,1,0,0:0:0:50:LR_Kick Beat High Vfast.wav
448,192,75083,1,4,0:0:0:0:
64,192,75150,1,4,0:0:0:0:
320,192,75218,1,4,0:0:0:0:
448,192,75218,1,2,0:0:0:0:
64,192,75286,1,4,0:0:0:0:
192,192,75286,1,2,0:0:0:0:
320,192,75353,1,4,0:0:0:0:
448,192,75353,128,2,75556:0:0:0:0:
64,192,75421,1,0,0:0:0:0:
192,192,75488,1,0,0:0:0:0:
320,192,75556,1,0,0:0:0:50:LR_Kick Beat High Vfast.wav
64,192,75623,1,2,0:0:0:0:
448,192,75623,1,0,0:0:0:0:
192,192,75691,1,0,0:0:0:0:
64,192,75758,128,0,76299:0:0:0:0:
320,192,75826,1,0,0:0:0:50:LR_Kick Beat High Vfast.wav
192,192,75894,1,2,0:0:0:0:
448,192,75894,1,0,0:0:0:0:
320,192,75961,1,0,0:0:0:0:
448,192,76029,1,0,0:0:0:0:
192,192,76096,1,0,0:0:0:50:LR_Kick Beat High Vfast.wav
320,192,76164,128,2,76231:0:0:0:0:
448,192,76164,1,0,0:0:0:0:
192,192,76231,128,0,76299:0:0:0:0:
448,192,76299,128,0,76367:0:0:0:0:
320,192,76367,128,0,76434:0:0:0:50:LR_Kick Beat High Vfast.wav
64,192,76434,128,2,76502:0:0:0:0:
192,192,76434,1,0,0:0:0:0:
320,192,76502,128,0,76569:0:0:0:0:
448,192,76569,128,0,76637:0:0:0:0:
192,192,76637,128,0,76704:0:0:0:50:LR_Kick Beat High Vfast.wav
64,192,76704,1,2,0:0:0:0:
448,192,76704,128,0,76840:0:0:0:0:
320,192,76772,128,0,76873:0:0:0:0:
192,192,76840,128,0,76907:0:0:0:0:
64,192,76907,128,0,76975:0:0:0:50:LR_Kick Beat High Vfast.wav
320,192,76975,1,2,0:0:0:0:
448,192,76975,128,0,77110:0:0:0:0:
192,192,77042,1,0,0:0:0:0:
64,192,77110,1,0,0:0:0:0:
192,192,77177,128,0,77313:0:0:0:50:LR_Kick Beat High Vfast.wav
320,192,77245,1,2,0:0:0:0:
448,192,77245,1,0,0:0:0:0:
64,192,77313,1,0,0:0:0:0:
320,192,77380,128,0,77515:0:0:0:0:
192,192,77448,1,0,0:0:0:50:LR_Kick Beat High Vfast.wav
64,192,77515,1,2,0:0:0:0:
448,192,77515,128,0,77718:0:0:0:0:
320,192,77583,1,0,0:0:0:0:
192,192,77650,1,0,0:0:0:0:
64,192,77718,1,0,0:0:0:50:LR_Kick Beat High Vfast.wav
320,192,77786,1,2,0:0:0:0:
448,192,77786,1,0,0:0:0:0:
192,192,77853,1,0,0:0:0:0:
64,192,77921,128,0,78326:0:0:0:0:
448,192,77988,1,0,0:0:0:50:LR_Kick Beat High Vfast.wav
192,192,78056,1,2,0:0:0:0:
320,192,78056,1,0,0:0:0:0:
448,192,78123,1,0,0:0:0:0:
320,192,78191,1,0,0:0:0:0:
192,192,78258,1,0,0:0:0:50:LR_Kick Beat High Vfast.wav
320,192,78326,128,2,78394:0:0:0:0:
448,192,78326,1,0,0:0:0:0:
192,192,78394,128,0,78461:0:0:0:0:
64,192,78461,128,0,78529:0:0:0:0:
448,192,78529,128,0,78596:0:0:0:50:LR_Kick Beat High Vfast.wav
64,192,78596,128,2,78799:0:0:0:0:
320,192,78596,1,0,0:0:0:0:
192,192,78664,1,0,0:0:0:0:
448,192,78731,1,0,0:0:0:0:
320,192,78799,1,0,0:0:0:50:LR_Kick Beat High Vfast.wav
64,192,78867,1,2,0:0:0:0:
448,192,78867,128,0,79069:0:0:0:0:
192,192,78934,1,0,0:0:0:0:
320,192,79002,1,0,0:0:0:0:
64,192,79069,1,0,0:0:0:50:LR_Kick Beat High Vfast.wav
320,192,79137,128,2,79340:0:0:0:0:
448,192,79137,1,0,0:0:0:0:
192,192,79204,1,0,0:0:0:0:
64,192,79272,1,0,0:0:0:0:
448,192,79340,1,0,0:0:0:50:LR_Kick Beat High Vfast.wav
64,192,79407,1,2,0:0:0:0:
192,192,79407,1,4,0:0:0:0:
320,192,79475,1,2,0:0:0:0:
448,192,79475,1,4,0:0:0:0:
64,192,79542,1,2,0:0:0:0:
192,192,79542,1,4,0:0:0:0:
320,192,79610,1,2,0:0:0:0:
448,192,79610,1,4,0:0:0:0:
64,192,79677,128,2,79880:0:0:0:0:
192,192,79677,1,4,0:0:0:0:
448,192,79745,1,0,0:0:0:0:
320,192,79813,1,0,0:0:0:0:
192,192,79880,1,0,0:0:0:50:LR_Kick Beat High Vfast.wav
64,192,79948,1,2,0:0:0:0:
448,192,79948,1,0,0:0:0:0:
192,192,80015,1,0,0:0:0:0:
320,192,80083,128,0,80286:0:0:0:0:
448,192,80150,1,0,0:0:0:50:LR_Kick Beat High Vfast.wav
64,192,80218,1,2,0:0:0:0:
192,192,80218,1,0,0:0:0:0:
448,192,80286,1,0,0:0:0:0:
192,192,80353,128,0,80421:0:0:0:0:
320,192,80421,1,0,0:0:0:50:LR_Kick Beat High Vfast.wav
64,192,80488,1,2,0:0:0:0:
192,192,80488,128,0,80556:0:0:0:0:
320,192,80556,1,0,0:0:0:0:
448,192,80623,128,0,80691:0:0:0:0:
192,192,80691,1,0,0:0:0:50:LR_Kick Beat High Vfast.wav
64,192,80758,128,2,80894:0:0:0:0:
320,192,80758,1,4,0:0:0:0:
448,192,80758,1,0,0:0:0:0:
192,192,80826,128,0,80961:0:0:0:0:
448,192,80894,128,0,81029:0:0:0:0:
320,192,80961,128,0,81096:0:0:0:50:LR_Kick Beat High Vfast.wav
64,192,81029,128,2,81164:0:0:0:0:
192,192,81029,1,0,0:0:0:0:
448,192,81096,128,0,81231:0:0:0:0:
192,192,81164,128,0,81231:0:0:0:0:
320,192,81231,128,0,81299:0:0:0:50:LR_Kick Beat High Vfast.wav
64,192,81299,1,2,0:0:0:0:
192,192,81299,1,4,0:0:0:0:
448,192,81299,128,0,81434:0:0:0:0:
320,192,81367,128,0,81502:0:0:0:0:
64,192,81434,128,0,81569:0:0:0:0:
192,192,81502,128,0,81637:0:0:0:50:LR_Kick Beat High Vfast.wav
320,192,81569,1,2,0:0:0:0:
448,192,81569,128,0,81704:0:0:0:0:
64,192,81637,128,0,81772:0:0:0:0:
320,192,81704,128,0,81772:0:0:0:0:
192,192,81772,128,0,81840:0:0:0:50:LR_Kick Beat High Vfast.wav
64,192,81840,128,2,81907:0:0:0:0:
320,192,81840,1,4,0:0:0:0:
448,192,81840,1,0,0:0:0:0:
192,192,81907,1,0,0:0:0:0:
448,192,81975,1,0,0:0:0:0:
64,192,82042,1,0,0:0:0:50:LR_Kick Beat High Vfast.wav
192,192,82042,128,0,82177:0:0:0:0:
320,192,82110,1,2,0:0:0:0:
448,192,82110,1,0,0:0:0:0:
192,192,82245,128,0,82313:0:0:0:0:
320,192,82313,128,0,82380:0:0:0:50:LR_Kick Beat High Vfast.wav
64,192,82380,1,2,0:0:0:0:
192,192,82380,1,4,0:0:0:0:
448,192,82380,128,0,82448:0:0:0:0:
320,192,82448,1,0,0:0:0:0:
64,192,82515,1,0,0:0:0:0:
320,192,82583,128,0,82718:0:0:0:50:LR_Kick Beat High Vfast.wav
448,192,82583,1,0,0:0:0:0:
64,192,82650,1,2,0:0:0:0:
192,192,82650,1,0,0:0:0:0:
320,192,82786,128,0,82853:0:0:0:0:
192,192,82853,128,0,82921:0:0:0:50:LR_Kick Beat High Vfast.wav
64,192,82921,128,4,82988:0:0:0:0:
320,192,82921,1,2,0:0:0:0:
448,192,82921,1,0,0:0:0:0:
192,192,82988,1,0,0:0:0:0:
448,192,83056,1,0,0:0:0:50:LR_Kick Beat High Vfast.wav
320,192,83090,1,0,0:0:0:50:LR_Kick Beat High Vfast.wav
192,192,83123,128,4,83191:0:0:0:0:
64,192,83157,1,0,0:0:0:50:LR_Kick Beat High Vfast.wav
320,192,83191,1,2,0:0:0:0:
448,192,83191,1,0,0:0:0:0:
192,192,83258,1,2,0:0:0:0:
64,192,83326,1,2,0:0:0:0:
320,192,83326,128,4,83394:0:0:0:0:
448,192,83326,1,0,0:0:0:0:
64,192,83461,128,2,83529:0:0:0:0:
192,192,83461,1,4,0:0:0:0:
320,192,83529,1,2,0:0:0:0:
448,192,83529,1,4,0:0:0:0:
64,192,83596,1,4,0:0:0:0:
192,192,83596,1,0,0:0:0:0:
320,192,83664,1,2,0:0:0:0:
448,192,83664,128,4,83731:0:0:0:0:
320,192,83799,1,4,0:0:0:0:
448,192,83799,1,2,0:0:0:0:
64,192,83867,1,4,0:0:0:0:
192,192,83867,128,2,83934:0:0:0:0:
320,192,83934,1,4,0:0:0:0:
448,192,83934,1,2,0:0:0:0:
64,192,84002,128,4,84069:0:0:0:0:
192,192,84002,1,0,0:0:0:50:electronic32.wav
320,192,84069,1,0,0:0:0:0:
448,192,84137,1,2,0:0:0:0:
192,192,84204,1,0,0:0:0:50:LR_Kick Beat High Vfast.wav
64,192,84272,128,0,84340:0:0:0:50:electronic32.wav
320,192,84272,1,0,0:0:0:0:
448,192,84272,1,0,0:0:0:0:
192,192,84340,128,0,84407:0:0:0:0:
448,192,84407,128,2,84475:0:0:0:0:
320,192,84475,128,0,84542:0:0:0:50:LR_Kick Beat High Vfast.wav
64,192,84542,1,0,0:0:0:50:electronic32.wav
192,192,84542,1,0,0:0:0:0:
320,192,84610,128,0,84677:0:0:0:0:
448,192,84677,128,2,84745:0:0:0:0:
64,192,84745,128,0,84813:0:0:0:50:LR_Kick Beat High Vfast.wav
192,192,84813,128,0,84880:0:0:0:50:electronic32.wav
320,192,84813,1,0,0:0:0:0:
448,192,84813,1,0,0:0:0:0:
64,192,84880,128,0,84948:0:0:0:0:
320,192,84948,128,2,85083:0:0:0:0:
192,192,85015,1,0,0:0:0:50:LR_Kick Beat High Vfast.wav
64,192,85083,1,0,0:0:0:50:electronic32.wav
448,192,85083,1,0,0:0:0:0:
320,192,85150,1,0,0:0:0:0:
192,192,85218,1,2,0:0:0:0:
320,192,85286,1,0,0:0:0:50:LR_Kick Beat High Vfast.wav
64,192,85353,1,0,0:0:0:50:electronic32.wav
192,192,85353,128,0,85421:0:0:0:0:
448,192,85353,1,0,0:0:0:0:
320,192,85421,128,0,85488:0:0:0:0:
64,192,85488,128,2,85556:0:0:0:0:
192,192,85556,128,0,85623:0:0:0:50:LR_Kick Beat High Vfast.wav
320,192,85623,1,0,0:0:0:50:electronic32.wav
448,192,85623,128,0,85691:0:0:0:0:
192,192,85691,1,0,0:0:0:0:
64,192,85758,1,2,0:0:0:0:
448,192,85826,1,0,0:0:0:50:LR_Kick Beat High Vfast.wav
64,192,85894,1,0,0:0:0:50:electronic32.wav
192,192,85894,1,0,0:0:0:0:
320,192,85894,128,0,85961:0:0:0:0:
448,192,85961,1,0,0:0:0:0:
192,192,86029,1,2,0:0:0:0:
320,192,86096,1,0,0:0:0:50:LR_Kick Beat High Vfast.wav
64,192,86164,128,4,86231:0:0:0:0:
192,192,86164,1,0,0:0:0:50:electronic32.wav
448,192,86164,1,0,0:0:0:0:
320,192,86231,1,0,0:0:0:0:
64,192,86299,1,2,0:0:0:0:
192,192,86367,1,0,0:0:0:50:LR_Kick Beat High Vfast.wav
64,192,86434,128,0,86502:0:0:0:50:electronic32.wav
320,192,86434,1,0,0:0:0:0:
448,192,86434,1,0,0:0:0:0:
192,192,86502,128,0,86569:0:0:0:0:
448,192,86569,128,2,86637:0:0:0:0:
320,192,86637,128,0,86704:0:0:0:50:LR_Kick Beat High Vfast.wav
64,192,86704,128,0,86772:0:0:0:50:electronic32.wav
192,192,86704,1,0,0:0:0:0:
320,192,86772,1,0,0:0:0:0:
448,192,86840,1,2,0:0:0:0:
64,192,86907,1,0,0:0:0:50:LR_Kick Beat High Vfast.wav
192,192,86975,128,0,87042:0:0:0:50:electronic32.wav
320,192,86975,1,0,0:0:0:0:
448,192,86975,1,0,0:0:0:0:
64,192,87042,128,0,87110:0:0:0:0:
320,192,87110,128,2,87177:0:0:0:0:
192,192,87177,128,0,87245:0:0:0:50:LR_Kick Beat High Vfast.wav
64,192,87245,1,4,0:0:0:0:
320,192,87245,1,0,0:0:0:50:electronic32.wav
448,192,87245,128,0,87313:0:0:0:0:
192,192,87313,1,0,0:0:0:0:
448,192,87380,1,2,0:0:0:0:
320,192,87448,1,0,0:0:0:50:LR_Kick Beat High Vfast.wav
64,192,87515,1,4,0:0:0:0:
192,192,87515,128,0,87718:0:0:0:50:electronic32.wav
320,192,87583,1,0,0:0:0:0:
448,192,87650,1,2,0:0:0:0:
64,192,87718,1,0,0:0:0:50:LR_Kick Beat High Vfast.wav
320,192,87786,1,4,0:0:0:0:
448,192,87786,128,0,87988:0:0:0:50:electronic32.wav
192,192,87853,1,0,0:0:0:0:
64,192,87921,1,0,0:0:0:50:electronic32.wav
320,192,87954,1,0,0:0:0:0:
192,192,87988,1,0,0:0:0:50:LR_Kick Beat High Vfast.wav
64,192,88022,1,0,0:0:0:0:
320,192,88056,128,4,88258:0:0:0:0:
448,192,88056,1,2,0:0:0:0:
192,192,88123,1,2,0:0:0:0:
64,192,88191,1,2,0:0:0:0:
448,192,88258,1,2,0:0:0:0:
64,192,88326,1,4,0:0:0:0:
192,192,88326,1,2,0:0:0:0:
320,192,88326,128,0,88394:0:0:0:0:
192,192,88461,1,0,0:0:0:0:
448,192,88461,1,0,0:0:0:0:
64,192,88529,1,2,0:0:0:0:
320,192,88529,1,0,0:0:0:0:
192,192,88596,1,0,0:0:0:0:
448,192,88596,1,0,0:0:0:0:
64,192,88731,1,4,0:0:0:0:
320,192,88731,1,2,0:0:0:0:
448,192,88731,1,0,0:0:0:0:
64,192,88867,1,2,0:0:0:0:
192,192,88867,1,0,0:0:0:0:
320,192,88934,1,2,0:0:0:0:
448,192,88934,1,0,0:0:0:0:
64,192,89002,1,2,0:0:0:0:
192,192,89002,1,0,0:0:0:0:
320,192,89137,1,4,0:0:0:0:
448,192,89137,1,2,0:0:0:0:
64,192,89204,1,2,0:0:0:0:
192,192,89204,1,0,0:0:0:0:
320,192,89272,1,2,0:0:0:0:
448,192,89272,1,0,0:0:0:0:
64,192,89340,1,0,0:0:0:0:
192,192,89407,1,4,0:0:0:0:
320,192,89407,128,2,89475:0:0:0:0:
448,192,89407,1,0,0:0:0:0:
64,192,89542,1,6,0:0:0:0:
192,192,89576,1,2,0:0:0:0:
320,192,89610,1,2,0:0:0:0:
448,192,89644,1,2,0:0:0:0:
64,192,89677,1,4,0:0:0:0:
192,192,89677,1,2,0:0:0:0:
320,192,89745,1,2,0:0:0:0:
448,192,89745,1,0,0:0:0:0:
64,192,89813,1,2,0:0:0:0:
192,192,89813,1,4,0:0:0:0:
320,192,89880,1,2,0:0:0:0:
64,192,89948,1,4,0:0:0:0:
192,192,89948,1,2,0:0:0:0:
448,192,89948,1,0,0:0:0:0:
320,192,90015,1,2,0:0:0:0:
64,192,90083,1,2,0:0:0:0:
448,192,90083,1,4,0:0:0:0:
192,192,90150,1,2,0:0:0:0:
320,192,90218,1,4,0:0:0:0:
448,192,90218,1,2,0:0:0:0:
64,192,90286,1,2,0:0:0:0:
192,192,90286,1,4,0:0:0:0:
320,192,90353,1,4,0:0:0:0:
448,192,90353,1,2,0:0:0:0:
64,192,90421,1,4,0:0:0:0:
192,192,90421,1,2,0:0:0:0:
320,192,90488,1,2,0:0:0:0:
448,192,90488,128,4,90826:0:0:0:0:
192,192,90556,1,0,0:0:0:0:
64,192,90623,1,0,0:0:0:0:
320,192,90691,1,0,0:0:0:0:
192,192,90758,1,0,0:0:0:0:
64,192,90826,1,0,0:0:0:0:
192,192,90894,1,0,0:0:0:0:
448,192,90894,128,0,90961:0:0:0:0:
320,192,90961,128,0,91029:0:0:0:0:
64,192,91029,1,0,0:0:0:0:
448,192,91029,128,0,91299:0:0:0:0:
192,192,91096,1,0,0:0:0:0:
320,192,91164,1,0,0:0:0:0:
64,192,91231,1,0,0:0:0:0:
192,192,91299,1,0,0:0:0:0:
320,192,91367,1,0,0:0:0:0:
64,192,91434,128,0,91502:0:0:0:0:
448,192,91434,1,0,0:0:0:0:
320,192,91502,128,0,91569:0:0:0:0:
64,192,91569,128,0,91840:0:0:0:0:
192,192,91569,1,0,0:0:0:0:
448,192,91637,1,0,0:0:0:0:
320,192,91704,1,0,0:0:0:0:
192,192,91772,1,0,0:0:0:0:
448,192,91840,1,0,0:0:0:0:
192,192,91907,1,0,0:0:0:0:
64,192,91975,1,0,0:0:0:0:
320,192,91975,128,0,92042:0:0:0:0:
448,192,92042,128,0,92110:0:0:0:0:
192,192,92110,1,0,0:0:0:0:
320,192,92110,128,0,92380:0:0:0:0:
64,192,92177,1,0,0:0:0:0:
448,192,92245,1,0,0:0:0:0:
192,192,92313,1,0,0:0:0:0:
64,192,92380,1,0,0:0:0:0:
192,192,92448,1,0,0:0:0:0:
320,192,92515,1,0,0:0:0:0:
448,192,92583,1,0,0:0:0:0:
64,192,92921,1,4,0:0:0:0:
320,192,92921,1,2,0:0:0:0:
448,192,92921,1,0,0:0:0:20:electronic32.wav
320,192,93011,1,6,0:0:0:0:
448,192,93011,1,0,0:0:0:20:electronic32.wav
64,192,93101,1,4,0:0:0:0:
192,192,93101,1,2,0:0:0:0:
448,192,93101,1,0,0:0:0:20:electronic32.wav
64,192,93191,1,6,0:0:0:0:
192,192,93191,1,0,0:0:0:20:electronic32.wav
64,192,93281,1,2,0:0:0:0:
320,192,93281,1,4,0:0:0:0:
448,192,93281,1,0,0:0:0:20:electronic32.wav
320,192,93371,1,6,0:0:0:0:
448,192,93371,1,0,0:0:0:20:electronic32.wav
64,192,93461,1,2,0:0:0:0:
192,192,93461,1,4,0:0:0:0:
448,192,93461,1,0,0:0:0:20:electronic32.wav
64,192,93551,1,6,0:0:0:0:
192,192,93551,1,0,0:0:0:20:electronic32.wav
64,192,93641,1,2,0:0:0:0:
320,192,93641,1,4,0:0:0:0:
448,192,93641,1,0,0:0:0:20:electronic32.wav
320,192,93731,1,6,0:0:0:0:
448,192,93731,1,0,0:0:0:20:electronic32.wav
64,192,93822,1,4,0:0:0:0:
192,192,93822,1,2,0:0:0:0:
448,192,93822,1,0,0:0:0:20:electronic32.wav
64,192,93912,1,6,0:0:0:0:
192,192,93912,1,0,0:0:0:20:electronic32.wav
64,192,94002,1,4,0:0:0:0:
320,192,94002,1,2,0:0:0:0:
448,192,94002,1,0,0:0:0:20:electronic32.wav
320,192,94092,1,6,0:0:0:0:
448,192,94092,1,0,0:0:0:20:electronic32.wav
64,192,94182,1,4,0:0:0:0:
192,192,94182,1,2,0:0:0:0:
448,192,94182,1,0,0:0:0:20:electronic32.wav
64,192,94272,1,2,0:0:0:0:
192,192,94272,128,0,94340:0:0:0:0:
320,192,94340,128,0,94407:0:0:0:0:
448,192,94407,128,0,94475:0:0:0:0:
320,192,94475,128,0,94542:0:0:0:0:
192,192,94542,128,0,94610:0:0:0:0:
64,192,94610,128,0,94677:0:0:0:0:
192,192,94677,128,0,94745:0:0:0:0:
320,192,94745,128,0,94813:0:0:0:0:
64,192,94813,128,2,95353:0:0:0:0:
192,192,94813,1,4,0:0:0:0:
448,192,94813,1,0,0:0:0:0:
320,192,94948,1,0,0:0:0:0:
448,192,95218,1,0,0:0:0:0:
192,192,95286,1,0,0:0:0:0:
320,192,95353,128,0,95758:0:0:0:0:
192,192,95758,1,0,0:0:0:0:
448,192,95804,1,0,0:0:0:0:
320,192,95849,1,0,0:0:0:0:
64,192,95894,128,0,96254:0:0:0:0:
320,192,96074,128,0,96434:0:0:0:0:
192,192,96254,128,0,96434:0:0:0:0:
448,192,96434,128,0,96795:0:0:0:0:
192,192,96614,128,0,96975:0:0:0:0:
320,192,96795,128,0,96975:0:0:0:0:
64,192,96975,128,0,97335:0:0:0:0:
192,192,97155,128,0,97515:0:0:0:0:
320,192,97335,128,0,97650:0:0:0:0:
448,192,97515,128,0,97786:0:0:0:0:
64,192,97650,1,0,0:0:0:0:
192,192,97718,1,0,0:0:0:0:
320,192,97786,1,0,0:0:0:0:
192,192,97921,1,0,0:0:0:0:
64,192,97988,1,0,0:0:0:0:
320,192,98056,1,0,0:0:0:0:
448,192,98191,1,0,0:0:0:0:
320,192,98258,1,0,0:0:0:0:
192,192,98326,1,0,0:0:0:0:
64,192,98461,1,0,0:0:0:0:
320,192,98529,1,0,0:0:0:50:LR_Kick Beat High Vfast.wav
448,192,98529,1,0,0:0:0:0:
64,192,98596,1,2,0:0:0:0:
192,192,98596,1,0,0:0:0:0:
320,192,98731,1,0,0:0:0:0:
64,192,98799,1,0,0:0:0:50:LR_Kick Beat High Vfast.wav
192,192,98799,1,0,0:0:0:0:
320,192,98867,1,2,0:0:0:0:
448,192,98867,1,0,0:0:0:0:
64,192,99002,1,2,0:0:0:0:
192,192,99002,1,4,0:0:0:0:
320,192,99069,1,2,0:0:0:0:
448,192,99069,1,4,0:0:0:0:
64,192,99137,128,4,99677:0:0:0:0:
192,192,99137,1,2,0:0:0:0:
448,192,99340,128,0,99407:0:0:0:0:
320,192,99407,1,0,0:0:0:0:
448,192,99542,1,0,0:0:0:0:
192,192,99610,1,0,0:0:0:0:
320,192,99677,128,0,100083:0:0:0:0:
192,192,100083,1,0,0:0:0:0:
64,192,100128,1,0,0:0:0:0:
320,192,100173,1,0,0:0:0:0:
448,192,100218,128,0,100578:0:0:0:0:
192,192,100398,128,0,100758:0:0:0:0:
320,192,100578,128,0,100758:0:0:0:0:
64,192,100758,128,0,101119:0:0:0:0:
192,192,100939,128,0,101119:0:0:0:0:
320,192,101119,128,0,101479:0:0:0:0:
64,192,101299,128,0,101659:0:0:0:0:
448,192,101479,128,0,101840:0:0:0:0:
192,192,101659,128,0,101975:0:0:0:0:
64,192,101840,128,0,102110:0:0:0:0:
448,192,101975,1,0,0:0:0:0:
320,192,102042,1,0,0:0:0:50:LR_Kick Beat High Vfast.wav
192,192,102110,1,2,0:0:0:0:
448,192,102110,1,0,0:0:0:0:
320,192,102245,1,2,0:0:0:0:
448,192,102245,1,4,0:0:0:0:
64,192,102313,1,2,0:0:0:0:
192,192,102313,1,4,0:0:0:0:
320,192,102380,1,2,0:0:0:0:
448,192,102380,1,4,0:0:0:0:
64,192,102515,1,2,0:0:0:0:
192,192,102549,1,2,0:0:0:0:
320,192,102583,1,2,0:0:0:0:
448,192,102617,1,2,0:0:0:0:
64,192,102650,1,2,0:0:0:0:
192,192,102650,1,0,0:0:0:0:
320,192,102786,1,4,0:0:0:0:
448,192,102786,1,2,0:0:0:0:
64,192,102853,1,4,0:0:0:0:
192,192,102853,1,2,0:0:0:0:
320,192,102921,1,4,0:0:0:0:
448,192,102921,1,2,0:0:0:0:
192,192,103056,1,0,0:0:0:50:LR_Kick Beat High Vfast.wav
64,192,103123,1,2,0:0:0:0:
320,192,103123,1,4,0:0:0:0:
448,192,103123,1,0,0:0:0:0:
192,192,103258,1,0,0:0:0:50:LR_Kick Beat High Vfast.wav
320,192,103326,1,2,0:0:0:0:
448,192,103326,1,4,0:0:0:0:
64,192,103394,1,2,0:0:0:0:
192,192,103394,1,4,0:0:0:0:
320,192,103461,1,2,0:0:0:0:
448,192,103461,128,4,104002:0:0:0:0:
64,192,103596,1,0,0:0:0:0:
192,192,103664,1,0,0:0:0:0:
64,192,103867,1,0,0:0:0:0:
320,192,103934,1,0,0:0:0:0:
192,192,104002,128,0,104407:0:0:0:0:
320,192,104407,1,0,0:0:0:0:
448,192,104452,1,0,0:0:0:0:
192,192,104497,1,0,0:0:0:0:
64,192,104542,128,0,104903:0:0:0:0:
320,192,104722,128,0,105083:0:0:0:0:
192,192,104903,128,0,105083:0:0:0:0:
448,192,105083,128,0,105443:0:0:0:0:
320,192,105263,128,0,105443:0:0:0:0:
192,192,105443,128,0,105804:0:0:0:0:
320,192,105623,1,4,0:0:0:0:
448,192,105623,128,0,105984:0:0:0:0:
64,192,105804,128,0,106164:0:0:0:0:
320,192,105984,128,0,106299:0:0:0:0:
192,192,106164,1,4,0:0:0:0:
448,192,106164,128,0,106434:0:0:0:0:
64,192,106299,1,0,0:0:0:0:
192,192,106367,1,0,0:0:0:50:LR_Kick Beat High Vfast.wav
64,192,106434,1,2,0:0:0:0:
320,192,106434,1,0,0:0:0:0:
64,192,106569,1,2,0:0:0:0:
192,192,106569,1,4,0:0:0:0:
320,192,106637,1,2,0:0:0:0:
448,192,106637,1,4,0:0:0:0:
64,192,106704,1,4,0:0:0:0:
192,192,106704,1,2,0:0:0:0:
448,192,106840,1,2,0:0:0:0:
320,192,106873,1,2,0:0:0:0:
192,192,106907,1,2,0:0:0:0:
64,192,106941,1,2,0:0:0:0:
320,192,106975,1,2,0:0:0:0:
448,192,106975,1,0,0:0:0:0:
64,192,107110,1,4,0:0:0:0:
192,192,107110,1,2,0:0:0:0:
320,192,107110,1,0,0:0:0:0:
448,192,107177,1,0,0:0:0:50:LR_Kick Beat High Vfast.wav
64,192,107245,1,2,0:0:0:0:
192,192,107245,1,0,0:0:0:0:
448,192,107380,1,2,0:0:0:0:
64,192,107448,1,0,0:0:0:50:LR_Kick Beat High Vfast.wav
320,192,107515,1,4,0:0:0:0:
448,192,107515,1,2,0:0:0:0:
64,192,107583,1,2,0:0:0:0:
192,192,107583,1,4,0:0:0:0:
320,192,107650,1,2,0:0:0:0:
448,192,107650,1,4,0:0:0:0:
64,192,107718,1,2,0:0:0:0:
192,192,107718,1,4,0:0:0:0:
320,192,107786,1,4,0:0:0:0:
448,192,107786,1,2,0:0:0:0:
192,192,107921,1,2,0:0:0:0:
320,192,107921,1,0,0:0:0:0:
448,192,107988,1,0,0:0:0:50:LR_Kick Beat High Vfast.wav
64,192,108056,1,2,0:0:0:0:
192,192,108056,1,0,0:0:0:0:
64,192,108191,1,2,0:0:0:0:
320,192,108191,1,0,0:0:0:0:
192,192,108258,1,0,0:0:0:50:LR_Kick Beat High Vfast.wav
320,192,108326,1,2,0:0:0:0:
448,192,108326,1,4,0:0:0:0:
192,192,108461,1,2,0:0:0:0:
448,192,108461,1,0,0:0:0:0:
320,192,108529,1,0,0:0:0:50:LR_Kick Beat High Vfast.wav
64,192,108596,1,2,0:0:0:0:
192,192,108596,1,0,0:0:0:0:
448,192,108664,1,0,0:0:0:0:
64,192,108731,1,2,0:0:0:0:
192,192,108731,1,4,0:0:0:0:
320,192,108799,1,2,0:0:0:0:
448,192,108799,1,4,0:0:0:0:
64,192,108867,1,2,0:0:0:0:
192,192,108867,1,4,0:0:0:0:
320,192,109002,1,2,0:0:0:0:
448,192,109002,1,0,0:0:0:0:
192,192,109069,1,0,0:0:0:50:LR_Kick Beat High Vfast.wav
64,192,109137,1,2,0:0:0:0:
320,192,109137,1,4,0:0:0:0:
64,192,109272,1,2,0:0:0:0:
192,192,109272,1,4,0:0:0:0:
320,192,109340,1,2,0:0:0:0:
448,192,109340,1,4,0:0:0:0:
64,192,109407,1,2,0:0:0:0:
192,192,109407,1,4,0:0:0:0:
192,192,109542,1,2,0:0:0:0:
64,192,109610,1,2,0:0:0:0:
320,192,109610,1,4,0:0:0:0:
448,192,109610,1,0,0:0:0:0:
192,192,109745,1,2,0:0:0:0:
320,192,109745,1,0,0:0:0:0:
64,192,109813,1,2,0:0:0:0:
448,192,109813,1,4,0:0:0:0:
320,192,109880,1,6,0:0:0:0:
64,192,109948,128,2,110083:0:0:0:0:
192,192,109948,128,4,110083:0:0:0:0:
448,192,109948,1,0,0:0:0:0:
64,192,110218,128,0,110308:0:0:0:0:
448,192,110308,128,0,110398:0:0:0:0:
192,192,110398,128,0,110488:0:0:0:0:
64,192,110488,128,0,110578:0:0:0:0:
320,192,110578,128,0,110668:0:0:0:0:
192,192,110668,128,0,110758:0:0:0:0:
448,192,110758,128,0,110849:0:0:0:0:
64,192,110849,128,0,110939:0:0:0:0:
320,192,110939,128,0,111029:0:0:0:0:
448,192,111029,128,0,111119:0:0:0:0:
192,192,111119,128,0,111209:0:0:0:0:
320,192,111209,128,0,111299:0:0:0:0:
64,192,111299,128,0,111389:0:0:0:0:
448,192,111389,128,0,111479:0:0:0:0:
192,192,111479,128,0,111569:0:0:0:0:
64,192,111569,128,0,111659:0:0:0:0:
320,192,111659,128,0,111749:0:0:0:0:
192,192,111749,128,0,111840:0:0:0:0:
448,192,111840,128,0,111930:0:0:0:0:
320,192,111930,128,0,112020:0:0:0:0:
192,192,112020,128,0,112110:0:0:0:0:
64,192,112110,128,4,112200:0:0:0:0:
320,192,112110,1,2,0:0:0:0:
448,192,112110,1,0,0:0:0:0:
192,192,112200,128,0,112290:0:0:0:0:
448,192,112313,128,0,112380:0:0:0:0:
320,192,112380,128,0,112448:0:0:0:0:
192,192,112448,128,0,112515:0:0:0:0:
64,192,112515,128,0,112583:0:0:0:0:
448,192,112583,128,0,112650:0:0:0:0:
320,192,112650,128,0,112718:0:0:0:0:
64,192,112718,128,0,112786:0:0:0:0:
192,192,112786,128,0,112853:0:0:0:0:
320,192,112853,128,0,112921:0:0:0:0:
448,192,112921,128,0,112988:0:0:0:0:
192,192,113011,128,0,113101:0:0:0:0:
320,192,113101,128,0,113191:0:0:0:0:
64,192,113191,128,0,113281:0:0:0:0:
448,192,113281,128,0,113371:0:0:0:0:
320,192,113371,128,0,113461:0:0:0:0:
192,192,113461,128,0,113551:0:0:0:0:
64,192,113551,128,0,113641:0:0:0:0:
320,192,113641,128,0,113731:0:0:0:0:
64,192,113731,128,0,113799:0:0:0:0:
320,192,113799,128,0,113867:0:0:0:0:
64,192,113867,128,0,113934:0:0:0:0:
320,192,113934,128,0,114002:0:0:0:0:
64,192,114002,128,0,114069:0:0:0:0:
320,192,114069,128,0,114137:0:0:0:0:
64,192,114137,128,0,114204:0:0:0:0:
192,192,114204,128,0,114272:0:0:0:0:
320,192,114272,128,0,114362:0:0:0:0:
448,192,114362,128,0,114452:0:0:0:0:
192,192,114452,128,0,114542:0:0:0:0:
64,192,114542,1,4,0:0:0:0:
320,192,114542,128,2,114632:0:0:0:0:
448,192,114542,1,0,0:0:0:0:
192,192,114632,128,0,114722:0:0:0:0:
448,192,114722,128,0,114813:0:0:0:0:
64,192,114813,128,0,114903:0:0:0:0:
320,192,114903,128,0,114993:0:0:0:0:
192,192,114993,128,0,115083:0:0:0:0:
64,192,115083,128,0,115173:0:0:0:0:
448,192,115173,128,0,115263:0:0:0:0:
192,192,115263,128,0,115353:0:0:0:0:
320,192,115353,128,0,115421:0:0:0:0:
64,192,115443,128,0,115511:0:0:0:0:
448,192,115533,128,0,115601:0:0:0:0:
192,192,115623,128,0,115691:0:0:0:0:
320,192,115713,128,0,115781:0:0:0:0:
64,192,115804,128,0,115871:0:0:0:0:
448,192,115894,128,0,115961:0:0:0:0:
192,192,115984,128,0,116051:0:0:0:0:
320,192,116074,128,0,116141:0:0:0:0:
64,192,116164,128,0,116231:0:0:0:0:
448,192,116254,128,0,116322:0:0:0:0:
192,192,116344,128,0,116412:0:0:0:0:
320,192,116434,1,0,0:0:0:0:
448,192,116524,1,0,0:0:0:0:
192,192,116614,1,0,0:0:0:0:
64,192,116704,1,2,0:0:0:0:
320,192,116704,1,4,0:0:0:0:
448,192,116704,1,0,0:0:0:0:
192,192,116795,1,0,0:0:0:0:
320,192,116885,1,0,0:0:0:0:
64,192,116975,1,0,0:0:0:0:
192,192,117065,128,0,117155:0:0:0:0:
320,192,117155,128,0,117245:0:0:0:0:
448,192,117245,128,0,117313:0:0:0:0:
64,192,117313,128,0,117380:0:0:0:0:
192,192,117380,128,0,117448:0:0:0:0:
320,192,117448,128,0,117515:0:0:0:0:
64,192,117515,128,4,117583:0:0:0:0:
192,192,117515,1,2,0:0:0:0:
448,192,117515,1,0,0:0:0:0:
320,192,117650,1,0,0:0:0:50:electronic32.wav
448,192,117684,1,0,0:0:0:50:electronic32.wav
64,192,117718,1,0,0:0:0:50:electronic32.wav
192,192,117752,1,0,0:0:0:50:electronic32.wav
320,192,117786,1,2,0:0:0:0:
448,192,117786,1,4,0:0:0:0:
64,192,117853,1,2,0:0:0:0:
320,192,117921,1,2,0:0:0:0:
448,192,117921,1,4,0:0:0:0:
64,192,117988,1,2,0:0:0:0:
192,192,117988,1,4,0:0:0:0:
320,192,118056,1,2,0:0:0:0:
448,192,118056,1,4,0:0:0:0:
64,192,118123,1,2,0:0:0:0:
192,192,118123,1,4,0:0:0:0:
448,192,118191,1,0,0:0:0:50:electronic32.wav
320,192,118225,1,0,0:0:0:50:electronic32.wav
192,192,118258,1,0,0:0:0:50:electronic32.wav
64,192,118292,1,0,0:0:0:50:electronic32.wav
320,192,118326,1,2,0:0:0:0:
448,192,118326,1,4,0:0:0:0:
64,192,118394,1,2,0:0:0:0:
192,192,118394,1,4,0:0:0:0:
320,192,118461,1,2,0:0:0:0:
448,192,118461,1,4,0:0:0:0:
64,192,118529,1,2,0:0:0:0:
192,192,118529,1,4,0:0:0:0:
320,192,118596,1,2,0:0:0:0:
448,192,118596,128,4,120488:0:0:0:0:
192,192,120623,1,0,0:0:0:0:
320,192,120691,1,0,0:0:0:0:
64,192,120758,1,0,0:0:0:0:
448,192,120758,1,0,0:0:0:0:
192,192,121164,1,0,0:0:0:0:
320,192,121569,1,0,0:0:0:0:
448,192,121840,1,0,0:0:0:0:
64,192,122110,1,0,0:0:0:0:
448,192,122200,1,0,0:0:0:0:
64,192,122290,1,0,0:0:0:0:
448,192,122380,1,0,0:0:0:0:
64,192,122448,1,0,0:0:0:0:
448,192,122515,1,0,0:0:0:0:
64,192,122583,1,0,0:0:0:0:
320,192,122650,1,0,0:0:0:70:Clap Drum.wav
448,192,122650,1,0,0:0:0:0:
64,192,122704,1,0,0:0:0:0:
448,192,122758,1,0,0:0:0:0:
64,192,122813,1,0,0:0:0:0:
448,192,122867,1,0,0:0:0:0:
64,192,122921,1,2,0:0:0:0:
192,192,122921,1,4,0:0:0:0:
320,192,122921,128,0,122988:0:0:0:0:
192,192,123056,1,2,0:0:0:0:
448,192,123056,128,4,123123:0:0:0:0:
320,192,123123,128,2,123191:0:0:0:0:
64,192,123191,1,2,0:0:0:0:
192,192,123191,128,4,123326:0:0:0:0:
320,192,123258,128,2,123326:0:0:0:0:
64,192,123326,128,2,123461:0:0:0:0:
448,192,123326,1,4,0:0:0:0:
192,192,123394,128,2,123461:0:0:0:0:
320,192,123461,128,2,123529:0:0:0:0:
448,192,123461,1,4,0:0:0:0:
192,192,123529,128,2,123596:0:0:0:0:
64,192,123596,1,2,0:0:0:0:
320,192,123596,128,4,123664:0:0:0:0:
448,192,123664,128,2,123731:0:0:0:0:
64,192,123731,128,2,123867:0:0:0:0:
192,192,123731,1,4,0:0:0:0:
448,192,123799,128,2,123867:0:0:0:0:
192,192,123867,128,2,124002:0:0:0:0:
320,192,123867,1,4,0:0:0:0:
64,192,123934,128,2,124002:0:0:0:0:
320,192,124002,1,4,0:0:0:0:
448,192,124002,1,2,0:0:0:0:
64,192,124069,1,2,0:0:0:0:
192,192,124069,1,0,0:0:0:0:
448,192,124137,128,6,124204:0:0:0:0:
192,192,124204,1,2,0:0:0:0:
320,192,124204,1,0,0:0:0:0:
64,192,124272,1,4,0:0:0:0:
448,192,124272,1,2,0:0:0:0:
320,192,124340,128,2,124407:0:0:0:0:
64,192,124407,1,4,0:0:0:0:
192,192,124407,1,2,0:0:0:0:
320,192,124475,1,2,0:0:0:0:
448,192,124475,1,0,0:0:0:0:
192,192,124542,128,6,124610:0:0:0:0:
64,192,124610,1,2,0:0:0:0:
448,192,124610,1,0,0:0:0:0:
192,192,124677,1,4,0:0:0:0:
320,192,124677,1,2,0:0:0:0:
448,192,124745,128,2,124813:0:0:0:0:
64,192,124813,1,4,0:0:0:0:
192,192,124813,128,2,124880:0:0:0:0:
320,192,124880,128,2,124948:0:0:0:0:
64,192,124948,128,4,125015:0:0:0:0:
448,192,124948,1,2,0:0:0:0:
192,192,125015,128,2,125083:0:0:0:0:
64,192,125083,1,2,0:0:0:0:
320,192,125083,128,4,125150:0:0:0:0:
448,192,125083,1,0,0:0:0:0:
192,192,125150,1,2,0:0:0:0:
64,192,125218,128,2,125286:0:0:0:0:
448,192,125218,1,4,0:0:0:0:
320,192,125286,1,2,0:0:0:0:
64,192,125353,1,2,0:0:0:0:
192,192,125353,128,4,125421:0:0:0:0:
448,192,125421,1,2,0:0:0:0:
64,192,125488,1,2,0:0:0:0:
320,192,125488,128,4,125556:0:0:0:0:
192,192,125556,1,2,0:0:0:0:
320,192,125623,1,2,0:0:0:0:
448,192,125623,128,4,125691:0:0:0:0:
64,192,125691,1,2,0:0:0:0:
192,192,125758,1,2,0:0:0:0:
320,192,125758,128,4,125826:0:0:0:0:
448,192,125826,1,2,0:0:0:0:
64,192,125894,1,2,0:0:0:0:
192,192,125894,128,4,125961:0:0:0:0:
320,192,125961,1,2,0:0:0:0:
64,192,126029,128,2,126096:0:0:0:0:
448,192,126029,1,4,0:0:0:0:
192,192,126096,1,2,0:0:0:0:
320,192,126164,1,4,0:0:0:0:
448,192,126164,128,2,126299:0:0:0:0:
64,192,126231,128,2,126299:0:0:0:0:
192,192,126299,1,4,0:0:0:0:
320,192,126299,128,2,126434:0:0:0:0:
448,192,126367,128,2,126434:0:0:0:0:
64,192,126434,1,4,0:0:0:0:
192,192,126434,128,2,126569:0:0:0:0:
320,192,126502,128,2,126569:0:0:0:0:
64,192,126569,128,4,126637:0:0:0:0:
448,192,126569,1,2,0:0:0:0:
320,192,126637,128,2,126704:0:0:0:0:
64,192,126704,128,4,126840:0:0:0:0:
192,192,126704,1,2,0:0:0:0:
448,192,126772,128,2,126840:0:0:0:0:
192,192,126840,128,4,126975:0:0:0:0:
320,192,126840,1,2,0:0:0:0:
64,192,126907,128,2,126975:0:0:0:0:
320,192,126975,128,4,127110:0:0:0:0:
448,192,126975,1,2,0:0:0:0:
192,192,127042,128,2,127110:0:0:0:0:
64,192,127110,128,4,127245:0:0:0:0:
448,192,127110,1,2,0:0:0:0:
192,192,127177,128,2,127245:0:0:0:0:
320,192,127245,1,2,0:0:0:0:
448,192,127245,128,4,127380:0:0:0:0:
192,192,127313,128,2,127448:0:0:0:0:
64,192,127380,1,2,0:0:0:0:
320,192,127380,128,4,127515:0:0:0:0:
448,192,127448,128,2,127583:0:0:0:0:
64,192,127515,128,2,127650:0:0:0:0:
192,192,127515,1,4,0:0:0:0:
320,192,127583,128,2,127718:0:0:0:0:
192,192,127650,128,2,127786:0:0:0:0:
448,192,127650,1,4,0:0:0:0:
64,192,127718,128,2,127853:0:0:0:0:
320,192,127786,1,2,0:0:0:0:
448,192,127786,128,4,127921:0:0:0:0:
192,192,127853,128,2,127988:0:0:0:0:
64,192,127921,1,2,0:0:0:0:
320,192,127921,128,4,128056:0:0:0:0:
448,192,127988,128,2,128123:0:0:0:0:
64,192,128056,1,2,0:0:0:0:
192,192,128056,128,4,128123:0:0:0:0:
320,192,128123,128,2,128191:0:0:0:0:
64,192,128191,128,2,128258:0:0:0:0:
448,192,128191,1,4,0:0:0:0:
192,192,128258,128,2,128326:0:0:0:0:
320,192,128326,128,4,128461:0:0:0:0:
448,192,128326,128,2,128394:0:0:0:0:
64,192,128394,128,2,128529:0:0:0:0:
192,192,128461,128,4,128529:0:0:0:0:
448,192,128461,128,2,128596:0:0:0:0:
320,192,128529,128,2,128664:0:0:0:0:
64,192,128596,128,4,128664:0:0:0:0:
192,192,128596,128,2,128731:0:0:0:0:
448,192,128664,128,2,128799:0:0:0:0:
64,192,128731,128,4,128799:0:0:0:0:
320,192,128731,128,2,128799:0:0:0:0:
192,192,128799,128,2,128867:0:0:0:0:
64,192,128867,128,4,128934:0:0:0:0:
448,192,128867,128,2,128934:0:0:0:0:
320,192,128934,128,2,129002:0:0:0:0:
192,192,129002,128,4,129069:0:0:0:0:
448,192,129002,128,2,129137:0:0:0:0:
64,192,129069,128,2,129204:0:0:0:0:
192,192,129137,128,4,129272:0:0:0:0:
320,192,129137,128,2,129204:0:0:0:0:
448,192,129204,128,2,129340:0:0:0:0:
64,192,129272,128,4,129340:0:0:0:0:
320,192,129272,128,2,129340:0:0:0:0:
192,192,129340,128,2,129475:0:0:0:0:
64,192,129407,128,2,129475:0:0:0:0:
320,192,129407,128,4,129475:0:0:0:0:
448,192,129407,1,0,0:0:0:0:
320,192,129542,128,2,129677:0:0:0:0:
448,192,129542,128,4,129610:0:0:0:0:
64,192,129610,128,2,129745:0:0:0:0:
192,192,129677,128,2,129745:0:0:0:0:
448,192,129677,128,4,129813:0:0:0:0:
320,192,129745,128,2,129880:0:0:0:0:
64,192,129813,128,2,129880:0:0:0:0:
192,192,129813,128,4,129880:0:0:0:0:
448,192,129880,128,2,129948:0:0:0:0:
64,192,129948,128,2,130015:0:0:0:0:
320,192,129948,128,4,130015:0:0:0:0:
192,192,130015,128,2,130083:0:0:0:0:
320,192,130083,128,2,130218:0:0:0:0:
448,192,130083,128,4,130150:0:0:0:0:
192,192,130150,128,2,130286:0:0:0:0:
64,192,130218,128,2,130286:0:0:0:0:
448,192,130218,128,4,130286:0:0:0:0:
320,192,130286,128,2,130353:0:0:0:0:
192,192,130353,128,2,130488:0:0:0:0:
448,192,130353,128,4,130421:0:0:0:0:
64,192,130421,128,2,130488:0:0:0:0:
320,192,130488,128,4,130556:0:0:0:0:
448,192,130488,1,2,0:0:0:0:
64,192,130556,128,2,130691:0:0:0:0:
192,192,130556,128,0,130623:0:0:0:0:
320,192,130623,128,4,130691:0:0:0:0:
448,192,130623,128,2,130691:0:0:0:0:
192,192,130691,128,2,130758:0:0:0:0:
64,192,130758,128,4,130826:0:0:0:0:
320,192,130758,128,2,130894:0:0:0:0:
448,192,130826,128,2,130961:0:0:0:0:
64,192,130894,128,4,130961:0:0:0:0:
192,192,130894,128,2,130961:0:0:0:0:
320,192,130961,128,2,131029:0:0:0:0:
192,192,131029,128,4,131096:0:0:0:0:
448,192,131029,128,2,131164:0:0:0:0:
320,192,131096,128,2,131231:0:0:0:0:
64,192,131164,128,4,131231:0:0:0:0:
192,192,131164,128,2,131231:0:0:0:0:
448,192,131231,128,2,131299:0:0:0:0:
192,192,131299,1,4,0:0:0:0:
320,192,131299,1,2,0:0:0:0:
64,192,131344,1,2,0:0:0:0:
448,192,131389,1,2,0:0:0:0:
320,192,131434,1,6,0:0:0:0:
192,192,131479,1,2,0:0:0:0:
64,192,131524,1,2,0:0:0:0:
192,192,131569,1,2,0:0:0:0:
320,192,131569,1,4,0:0:0:0:
448,192,131569,1,0,0:0:0:0:
64,192,131637,1,2,0:0:0:0:
320,192,131704,1,2,0:0:0:0:
64,192,131772,1,2,0:0:0:0:
192,192,131772,1,4,0:0:0:0:
64,192,131840,128,2,131907:0:0:0:0:
192,192,131840,128,0,131907:0:0:0:0:
448,192,131907,1,6,0:0:0:0:
320,192,132042,1,2,0:0:0:0:
448,192,132042,1,4,0:0:0:0:
320,192,132110,128,2,132177:0:0:0:0:
448,192,132110,128,0,132177:0:0:0:0:
64,192,132177,1,6,0:0:0:0:
64,192,132313,1,2,0:0:0:0:
192,192,132313,1,4,0:0:0:0:
64,192,132380,128,2,132448:0:0:0:0:
448,192,132380,1,0,0:0:0:0:
320,192,132448,128,6,132515:0:0:0:0:
192,192,132515,128,2,132583:0:0:0:0:
448,192,132515,1,0,0:0:0:0:
64,192,132583,128,6,132650:0:0:0:0:
192,192,132650,128,2,132786:0:0:0:0:
320,192,132650,128,0,132718:0:0:0:0:
448,192,132718,128,6,132786:0:0:0:0:
64,192,132786,128,2,132853:0:0:0:0:
320,192,132786,128,0,132921:0:0:0:0:
192,192,132853,128,6,132921:0:0:0:0:
64,192,132921,128,2,133056:0:0:0:0:
448,192,132921,128,0,132988:0:0:0:0:
320,192,132988,128,6,133056:0:0:0:0:
192,192,133056,128,2,133123:0:0:0:0:
448,192,133056,128,0,133191:0:0:0:0:
64,192,133123,128,6,133191:0:0:0:0:
192,192,133191,128,2,133326:0:0:0:0:
320,192,133191,128,0,133258:0:0:0:0:
64,192,133258,128,6,133326:0:0:0:0:
320,192,133326,128,2,133461:0:0:0:0:
448,192,133326,128,0,133394:0:0:0:0:
192,192,133394,128,6,133461:0:0:0:0:
64,192,133461,128,2,133596:0:0:0:0:
448,192,133461,128,0,133529:0:0:0:0:
192,192,133529,128,6,133596:0:0:0:0:
320,192,133596,128,2,133664:0:0:0:0:
448,192,133596,128,0,133664:0:0:0:0:
64,192,133664,128,6,133731:0:0:0:0:
192,192,133731,1,2,0:0:0:0:
320,192,133731,128,0,133799:0:0:0:0:
448,192,133799,128,6,133867:0:0:0:0:
64,192,133867,128,2,133934:0:0:0:0:
192,192,133934,128,6,134002:0:0:0:0:
64,192,134002,128,2,134069:0:0:0:0:
320,192,134002,1,0,0:0:0:0:
448,192,134002,1,0,0:0:0:0:
320,192,134069,128,4,134137:0:0:0:0:
448,192,134069,128,2,134137:0:0:0:0:
192,192,134204,128,6,134272:0:0:0:0:
64,192,134272,1,2,0:0:0:0:
448,192,134272,128,0,134340:0:0:0:0:
320,192,134340,128,6,134407:0:0:0:0:
192,192,134407,128,2,134475:0:0:0:0:
320,192,134475,128,6,134542:0:0:0:0:
64,192,134542,1,2,0:0:0:0:
192,192,134542,1,0,0:0:0:0:
448,192,134542,128,0,134610:0:0:0:0:
64,192,134610,128,4,134677:0:0:0:0:
192,192,134610,128,2,134677:0:0:0:0:
320,192,134745,128,6,134813:0:0:0:0:
64,192,134813,128,2,134880:0:0:0:0:
448,192,134813,1,0,0:0:0:0:
192,192,134880,128,6,134948:0:0:0:0:
320,192,134948,128,2,135015:0:0:0:0:
192,192,135015,128,6,135083:0:0:0:0:
64,192,135083,128,2,135150:0:0:0:0:
320,192,135083,1,0,0:0:0:0:
448,192,135083,1,0,0:0:0:0:
320,192,135150,128,4,135218:0:0:0:0:
448,192,135150,128,2,135218:0:0:0:0:
192,192,135286,128,6,135353:0:0:0:0:
64,192,135353,1,2,0:0:0:0:
448,192,135353,128,0,135421:0:0:0:0:
320,192,135421,128,6,135488:0:0:0:0:
192,192,135488,128,2,135556:0:0:0:0:
64,192,135556,128,6,135623:0:0:0:0:
320,192,135623,128,2,135691:0:0:0:0:
448,192,135623,128,0,135691:0:0:0:0:
64,192,135691,128,4,135758:0:0:0:0:
192,192,135691,128,2,135758:0:0:0:0:
320,192,135758,1,2,0:0:0:0:
448,192,135758,1,0,0:0:0:0:
192,192,135826,128,6,135894:0:0:0:0:
64,192,135894,128,2,136029:0:0:0:0:
320,192,135894,128,0,135961:0:0:0:0:
448,192,135961,128,6,136096:0:0:0:0:
192,192,136029,128,2,136096:0:0:0:0:
320,192,136029,128,0,136164:0:0:0:0:
64,192,136096,128,6,136231:0:0:0:0:
192,192,136164,128,2,136299:0:0:0:0:
448,192,136164,128,0,136231:0:0:0:0:
320,192,136231,128,6,136367:0:0:0:0:
64,192,136299,128,2,136367:0:0:0:0:
448,192,136299,128,0,136434:0:0:0:0:
192,192,136367,128,6,136502:0:0:0:0:
64,192,136434,128,2,136502:0:0:0:0:
320,192,136434,128,0,136637:0:0:0:0:
448,192,136502,128,6,136569:0:0:0:0:
64,192,136569,128,2,136704:0:0:0:0:
192,192,136569,128,0,136637:0:0:0:0:
448,192,136637,128,6,136772:0:0:0:0:
192,192,136704,128,2,136840:0:0:0:0:
320,192,136704,128,0,136772:0:0:0:0:
64,192,136772,128,6,136907:0:0:0:0:
320,192,136840,128,2,136907:0:0:0:0:
448,192,136840,128,0,136975:0:0:0:0:
192,192,136907,128,6,137042:0:0:0:0:
64,192,136975,128,2,137042:0:0:0:0:
320,192,136975,128,0,137110:0:0:0:0:
448,192,137042,128,6,137177:0:0:0:0:
64,192,137110,128,2,137177:0:0:0:0:
192,192,137110,128,0,137177:0:0:0:0:
320,192,137177,128,6,137245:0:0:0:0:
64,192,137245,128,2,137380:0:0:0:0:
192,192,137245,1,0,0:0:0:0:
448,192,137245,128,0,137313:0:0:0:0:
320,192,137313,128,6,137380:0:0:0:0:
192,192,137380,128,2,137515:0:0:0:0:
448,192,137380,128,0,137448:0:0:0:0:
64,192,137448,128,6,137515:0:0:0:0:
320,192,137515,128,2,137560:0:0:0:0:
448,192,137515,128,0,137560:0:0:0:0:
64,192,137605,128,4,137650:0:0:0:0:
320,192,137605,128,2,137650:0:0:0:0:
64,192,137695,128,4,137740:0:0:0:0:
192,192,137695,128,2,137740:0:0:0:0:
192,192,137786,128,2,137831:0:0:0:0:
448,192,137786,128,4,137831:0:0:0:0:
320,192,137876,128,4,137921:0:0:0:0:
448,192,137876,128,2,137921:0:0:0:0:
64,192,137966,128,2,138011:0:0:0:0:
320,192,137966,128,4,138011:0:0:0:0:
64,192,138056,128,2,138123:0:0:0:0:
192,192,138056,128,0,138123:0:0:0:0:
448,192,138056,1,0,0:0:0:0:
64,192,138191,1,2,0:0:0:0:
320,192,138191,128,0,138258:0:0:0:0:
192,192,138258,128,6,138326:0:0:0:0:
320,192,138326,1,2,0:0:0:0:
448,192,138326,128,0,138461:0:0:0:0:
192,192,138394,128,6,138461:0:0:0:0:
64,192,138461,1,2,0:0:0:0:
320,192,138461,128,0,138596:0:0:0:0:
448,192,138529,128,6,138596:0:0:0:0:
64,192,138596,128,2,138731:0:0:0:0:
192,192,138596,1,0,0:0:0:0:
448,192,138664,128,6,138731:0:0:0:0:
192,192,138731,128,2,138867:0:0:0:0:
320,192,138731,1,0,0:0:0:0:
64,192,138799,128,6,138867:0:0:0:0:
320,192,138867,1,2,0:0:0:0:
448,192,138867,128,0,139002:0:0:0:0:
64,192,138934,128,6,139002:0:0:0:0:
192,192,139002,1,2,0:0:0:0:
320,192,139002,128,0,139137:0:0:0:0:
448,192,139069,128,6,139137:0:0:0:0:
64,192,139137,128,2,139272:0:0:0:0:
192,192,139137,128,0,139204:0:0:0:0:
320,192,139204,128,6,139340:0:0:0:0:
192,192,139272,128,2,139407:0:0:0:0:
448,192,139272,128,0,139340:0:0:0:0:
64,192,139340,128,6,139475:0:0:0:0:
320,192,139407,128,2,139475:0:0:0:0:
448,192,139407,128,0,139542:0:0:0:0:
192,192,139475,128,6,139610:0:0:0:0:
64,192,139542,128,2,139677:0:0:0:0:
320,192,139542,128,0,139610:0:0:0:0:
448,192,139610,128,6,139745:0:0:0:0:
192,192,139677,128,2,139745:0:0:0:0:
320,192,139677,128,0,139813:0:0:0:0:
64,192,139745,128,6,139880:0:0:0:0:
192,192,139813,128,2,139948:0:0:0:0:
448,192,139813,128,0,139880:0:0:0:0:
320,192,139880,128,6,140015:0:0:0:0:
64,192,139948,128,2,140015:0:0:0:0:
448,192,139948,128,0,140083:0:0:0:0:
192,192,140015,128,6,140150:0:0:0:0:
64,192,140083,128,2,140150:0:0:0:0:
320,192,140083,128,0,140150:0:0:0:0:
448,192,140150,128,6,140218:0:0:0:0:
64,192,140218,1,4,0:0:0:0:
192,192,140218,1,2,0:0:0:0:
320,192,140218,1,0,0:0:0:0:
64,192,140488,1,6,0:0:0:0:
192,192,140488,1,0,0:0:0:20:electronic32.wav
64,192,140578,1,6,0:0:0:0:
192,192,140578,1,0,0:0:0:20:electronic32.wav
320,192,140668,1,6,0:0:0:0:
448,192,140668,1,0,0:0:0:20:electronic32.wav
320,192,140758,1,6,0:0:0:0:
448,192,140758,1,0,0:0:0:20:electronic32.wav
64,192,140849,1,6,0:0:0:0:
192,192,140849,1,0,0:0:0:20:electronic32.wav
64,192,140939,1,6,0:0:0:0:
192,192,140939,1,0,0:0:0:20:electronic32.wav
320,192,141029,1,6,0:0:0:0:
448,192,141029,1,0,0:0:0:20:electronic32.wav
320,192,141119,1,6,0:0:0:0:
448,192,141119,1,0,0:0:0:20:electronic32.wav
64,192,141209,1,6,0:0:0:0:
192,192,141209,1,0,0:0:0:20:electronic32.wav
64,192,141299,1,6,0:0:0:0:
192,192,141299,1,0,0:0:0:20:electronic32.wav
320,192,141389,1,6,0:0:0:0:
448,192,141389,1,0,0:0:0:20:electronic32.wav
320,192,141479,1,6,0:0:0:0:
448,192,141479,1,0,0:0:0:20:electronic32.wav
64,192,141569,1,6,0:0:0:0:
192,192,141569,1,0,0:0:0:20:electronic32.wav
64,192,141659,1,6,0:0:0:0:
192,192,141659,1,0,0:0:0:20:electronic32.wav
320,192,141749,1,6,0:0:0:0:
448,192,141749,1,0,0:0:0:20:electronic32.wav
320,192,141840,1,6,0:0:0:0:
448,192,141840,1,0,0:0:0:20:electronic32.wav
64,192,141930,1,6,0:0:0:0:
192,192,141930,1,0,0:0:0:20:electronic32.wav
64,192,142020,1,6,0:0:0:0:
192,192,142020,1,0,0:0:0:20:electronic32.wav
320,192,142110,1,6,0:0:0:0:
448,192,142110,1,0,0:0:0:20:electronic32.wav
320,192,142200,1,6,0:0:0:0:
448,192,142200,1,0,0:0:0:20:electronic32.wav
64,192,142290,1,6,0:0:0:0:
192,192,142290,1,0,0:0:0:20:electronic32.wav
192,192,142380,1,4,0:0:0:0:
320,192,142380,1,2,0:0:0:0:
448,192,142380,1,0,0:0:0:20:electronic32.wav
320,192,142470,1,6,0:0:0:0:
448,192,142470,1,0,0:0:0:20:electronic32.wav
64,192,142560,1,4,0:0:0:0:
192,192,142560,1,2,0:0:0:0:
320,192,142560,1,0,0:0:0:20:electronic32.wav
64,192,142650,1,6,0:0:0:0:
192,192,142650,1,0,0:0:0:20:electronic32.wav
192,192,142740,1,2,0:0:0:0:
320,192,142740,1,4,0:0:0:0:
448,192,142740,1,0,0:0:0:20:electronic32.wav
320,192,142831,1,6,0:0:0:0:
448,192,142831,1,0,0:0:0:20:electronic32.wav
64,192,142921,1,2,0:0:0:0:
192,192,142921,1,4,0:0:0:0:
320,192,142921,1,0,0:0:0:20:electronic32.wav
64,192,143011,1,6,0:0:0:0:
192,192,143011,1,0,0:0:0:20:electronic32.wav
192,192,143101,1,2,0:0:0:0:
320,192,143101,1,4,0:0:0:0:
448,192,143101,1,0,0:0:0:20:electronic32.wav
320,192,143191,1,4,0:0:0:0:
448,192,143191,1,0,0:0:0:35:electronic32.wav
64,192,143281,1,0,0:0:0:35:electronic32.wav
192,192,143281,1,0,0:0:0:0:
320,192,143281,1,0,0:0:0:0:
64,192,143371,1,0,0:0:0:35:electronic32.wav
192,192,143371,1,0,0:0:0:0:
320,192,143461,1,0,0:0:0:35:electronic32.wav
448,192,143461,1,0,0:0:0:0:
320,192,143551,1,0,0:0:0:35:electronic32.wav
448,192,143551,1,0,0:0:0:0:
64,192,143641,1,0,0:0:0:35:electronic32.wav
192,192,143641,1,0,0:0:0:0:
64,192,143731,1,0,0:0:0:35:electronic32.wav
192,192,143731,1,0,0:0:0:0:
320,192,143822,1,0,0:0:0:35:electronic32.wav
448,192,143822,1,0,0:0:0:0:
320,192,143912,1,0,0:0:0:35:electronic32.wav
448,192,143912,1,0,0:0:0:0:
64,192,144002,1,0,0:0:0:35:electronic32.wav
192,192,144002,1,0,0:0:0:0:
64,192,144092,1,0,0:0:0:35:electronic32.wav
192,192,144092,1,0,0:0:0:0:
192,192,144182,1,2,0:0:0:0:
320,192,144182,1,0,0:0:0:20:electronic32.wav
448,192,144182,1,0,0:0:0:0:
320,192,144272,1,6,0:0:0:0:
448,192,144272,1,0,0:0:0:20:electronic32.wav
64,192,144362,1,4,0:0:0:0:
192,192,144362,1,2,0:0:0:0:
320,192,144362,1,0,0:0:0:20:electronic32.wav
64,192,144452,1,6,0:0:0:0:
192,192,144452,1,0,0:0:0:20:electronic32.wav
192,192,144542,1,2,0:0:0:0:
320,192,144542,1,4,0:0:0:0:
448,192,144542,128,0,144948:0:0:0:20:electronic32.wav
192,192,144813,1,0,0:0:0:0:
320,192,144880,1,0,0:0:0:0:
64,192,144948,1,0,0:0:0:0:
192,192,145015,1,0,0:0:0:0:
448,192,145083,1,0,0:0:0:0:
192,192,145150,1,0,0:0:0:0:
320,192,145218,1,0,0:0:0:0:
64,192,145286,1,0,0:0:0:0:
192,192,145353,1,0,0:0:0:0:
448,192,145421,1,0,0:0:0:0:
64,192,145488,1,0,0:0:0:0:
320,192,145556,1,0,0:0:0:0:
64,192,145623,1,0,0:0:0:70:Drumstart_040.wav
192,192,145623,1,0,0:0:0:0:
320,192,145691,1,0,0:0:0:70:Drumstart_040.wav
448,192,145691,1,0,0:0:0:0:
192,192,145758,1,0,0:0:0:70:Drumstart_041.wav
448,192,145826,1,0,0:0:0:70:Drumstart_041.wav
64,192,145894,1,0,0:0:0:70:Drumstart_040.wav
192,192,145894,1,0,0:0:0:0:
320,192,145961,1,0,0:0:0:0:
448,192,146029,1,0,0:0:0:70:Drumstart_041.wav
64,192,146063,1,0,0:0:0:70:Drumstart_041.wav
192,192,146096,1,0,0:0:0:70:Drumstart_041.wav
320,192,146130,1,0,0:0:0:70:Drumstart_041.wav
448,192,146164,1,0,0:0:0:70:Drumstart_041.wav
64,192,146231,1,0,0:0:0:70:Drumstart_040.wav
320,192,146299,1,0,0:0:0:70:Drumstart_040.wav
192,192,146344,1,0,0:0:0:0:
64,192,146389,1,0,0:0:0:0:
448,192,146434,1,0,0:0:0:70:Drumstart_040.wav
192,192,146502,1,0,0:0:0:0:
320,192,146569,1,0,0:0:0:70:Drumstart_041.wav
64,192,146637,1,0,0:0:0:70:Drumstart_041.wav
192,192,146704,1,0,0:0:0:70:Clap Drum.wav
320,192,146704,1,0,0:0:0:0:
448,192,146704,128,0,146975:0:0:0:0:
64,192,146975,128,0,147042:0:0:0:0:
192,192,147042,128,0,147110:0:0:0:0:
448,192,147110,128,0,147177:0:0:0:0:
320,192,147177,128,0,147245:0:0:0:0:
64,192,147245,128,0,147313:0:0:0:0:
192,192,147245,128,0,147313:0:0:0:0:
320,192,147313,128,0,147380:0:0:0:0:
448,192,147380,128,0,147448:0:0:0:0:
64,192,147448,128,0,147515:0:0:0:0:
192,192,147515,128,0,147583:0:0:0:0:
320,192,147583,128,0,147650:0:0:0:0:
64,192,147650,128,0,147718:0:0:0:0:
192,192,147718,128,0,147786:0:0:0:0:
448,192,147786,128,0,147853:0:0:0:0:
320,192,147853,128,0,147921:0:0:0:0:
192,192,147921,128,0,147988:0:0:0:0:
64,192,147988,128,0,148056:0:0:0:0:
320,192,148056,128,0,148123:0:0:0:0:
448,192,148123,128,0,148191:0:0:0:0:
64,192,148191,1,0,0:0:0:50:electronic32.wav
192,192,148191,1,0,0:0:0:0:
320,192,148258,1,0,0:0:0:50:electronic32.wav
64,192,148326,128,4,148461:0:0:0:0:
192,192,148326,128,2,148461:0:0:0:0:
448,192,148326,128,0,148461:0:0:0:0:
64,192,148529,128,2,148664:0:0:0:0:
192,192,148529,128,4,148664:0:0:0:0:
320,192,148529,128,0,148664:0:0:0:0:
192,192,148731,128,4,148799:0:0:0:0:
320,192,148731,128,2,148799:0:0:0:0:
448,192,148731,128,0,148799:0:0:0:0:
192,192,148867,1,2,0:0:0:0:
320,192,148867,1,4,0:0:0:0:
448,192,148867,128,0,149069:0:0:0:0:
64,192,148934,1,0,0:0:0:0:
192,192,149002,1,0,0:0:0:0:
320,192,149069,1,0,0:0:0:50:LR_Kick Beat High Vfast.wav
64,192,149137,1,2,0:0:0:0:
448,192,149137,1,0,0:0:0:0:
192,192,149204,1,0,0:0:0:0:
64,192,149272,128,0,149813:0:0:0:0:
320,192,149340,1,0,0:0:0:50:LR_Kick Beat High Vfast.wav
192,192,149407,1,2,0:0:0:0:
448,192,149407,1,0,0:0:0:0:
320,192,149475,1,0,0:0:0:0:
448,192,149542,1,0,0:0:0:0:
192,192,149610,1,0,0:0:0:50:LR_Kick Beat High Vfast.wav
320,192,149677,128,2,149745:0:0:0:0:
448,192,149677,1,0,0:0:0:0:
192,192,149745,128,0,149813:0:0:0:0:
448,192,149813,128,0,149880:0:0:0:0:
320,192,149880,128,0,149948:0:0:0:50:LR_Kick Beat High Vfast.wav
64,192,149948,128,2,150015:0:0:0:0:
192,192,149948,1,0,0:0:0:0:
320,192,150015,128,0,150083:0:0:0:0:
448,192,150083,128,0,150150:0:0:0:0:
192,192,150150,128,0,150218:0:0:0:50:LR_Kick Beat High Vfast.wav
64,192,150218,1,2,0:0:0:0:
448,192,150218,128,0,150353:0:0:0:0:
320,192,150286,128,0,150387:0:0:0:0:
192,192,150353,128,0,150421:0:0:0:0:
64,192,150421,128,0,150488:0:0:0:50:LR_Kick Beat High Vfast.wav
320,192,150488,1,2,0:0:0:0:
448,192,150488,128,0,150623:0:0:0:0:
192,192,150556,1,0,0:0:0:0:
64,192,150623,1,0,0:0:0:0:
192,192,150691,128,0,150826:0:0:0:50:LR_Kick Beat High Vfast.wav
320,192,150758,1,2,0:0:0:0:
448,192,150758,1,0,0:0:0:0:
64,192,150826,1,0,0:0:0:0:
320,192,150894,128,0,151029:0:0:0:0:
192,192,150961,1,0,0:0:0:50:LR_Kick Beat High Vfast.wav
64,192,151029,1,2,0:0:0:0:
448,192,151029,128,0,151231:0:0:0:0:
320,192,151096,1,0,0:0:0:0:
192,192,151164,1,0,0:0:0:0:
64,192,151231,1,0,0:0:0:50:LR_Kick Beat High Vfast.wav
320,192,151299,1,2,0:0:0:0:
448,192,151299,1,0,0:0:0:0:
192,192,151367,1,0,0:0:0:0:
64,192,151434,128,0,151840:0:0:0:0:
448,192,151502,1,0,0:0:0:50:LR_Kick Beat High Vfast.wav
192,192,151569,1,2,0:0:0:0:
320,192,151569,1,0,0:0:0:0:
448,192,151637,1,0,0:0:0:0:
320,192,151704,1,0,0:0:0:0:
192,192,151772,1,0,0:0:0:50:LR_Kick Beat High Vfast.wav
320,192,151840,128,2,151907:0:0:0:0:
448,192,151840,1,0,0:0:0:0:
192,192,151907,128,0,151975:0:0:0:0:
64,192,151975,128,0,152042:0:0:0:0:
448,192,152042,128,0,152110:0:0:0:50:LR_Kick Beat High Vfast.wav
64,192,152110,128,2,152313:0:0:0:0:
320,192,152110,1,0,0:0:0:0:
192,192,152177,1,0,0:0:0:0:
448,192,152245,1,0,0:0:0:0:
320,192,152313,1,0,0:0:0:50:LR_Kick Beat High Vfast.wav
64,192,152380,1,2,0:0:0:0:
448,192,152380,128,0,152583:0:0:0:0:
192,192,152448,1,0,0:0:0:0:
320,192,152515,1,0,0:0:0:0:
64,192,152583,1,0,0:0:0:50:LR_Kick Beat High Vfast.wav
320,192,152650,128,2,152853:0:0:0:0:
448,192,152650,1,0,0:0:0:0:
192,192,152718,1,0,0:0:0:0:
64,192,152786,1,0,0:0:0:0:
448,192,152853,1,0,0:0:0:50:LR_Kick Beat High Vfast.wav
64,192,152921,1,4,0:0:0:0:
192,192,152921,1,2,0:0:0:0:
320,192,152988,1,4,0:0:0:0:
448,192,152988,1,2,0:0:0:0:
64,192,153056,1,4,0:0:0:0:
192,192,153056,1,2,0:0:0:0:
320,192,153123,1,4,0:0:0:0:
448,192,153123,1,2,0:0:0:0:
64,192,153191,128,4,153394:0:0:0:0:
192,192,153191,1,2,0:0:0:0:
320,192,153258,1,0,0:0:0:0:
448,192,153326,1,0,0:0:0:0:
192,192,153394,1,0,0:0:0:50:LR_Kick Beat High Vfast.wav
320,192,153461,1,2,0:0:0:0:
448,192,153461,1,0,0:0:0:0:
64,192,153529,1,0,0:0:0:0:
448,192,153596,128,0,153867:0:0:0:0:
320,192,153664,1,0,0:0:0:50:LR_Kick Beat High Vfast.wav
64,192,153731,1,2,0:0:0:0:
192,192,153731,1,0,0:0:0:0:
320,192,153799,1,0,0:0:0:0:
64,192,153867,1,0,0:0:0:0:
192,192,153934,1,0,0:0:0:50:LR_Kick Beat High Vfast.wav
320,192,154002,1,2,0:0:0:0:
448,192,154002,1,0,0:0:0:0:
192,192,154069,1,0,0:0:0:0:
64,192,154137,1,0,0:0:0:0:
448,192,154204,1,0,0:0:0:50:LR_Kick Beat High Vfast.wav
64,192,154272,128,4,154475:0:0:0:0:
192,192,154272,1,2,0:0:0:0:
320,192,154272,1,0,0:0:0:0:
448,192,154340,1,0,0:0:0:0:
192,192,154407,1,0,0:0:0:0:
320,192,154475,1,0,0:0:0:50:LR_Kick Beat High Vfast.wav
64,192,154542,1,2,0:0:0:0:
192,192,154542,128,0,154677:0:0:0:0:
320,192,154610,1,0,0:0:0:0:
448,192,154677,1,0,0:0:0:0:
192,192,154745,1,0,0:0:0:50:LR_Kick Beat High Vfast.wav
64,192,154813,1,4,0:0:0:0:
320,192,154813,1,2,0:0:0:0:
448,192,154813,128,0,155015:0:0:0:0:
192,192,154880,1,0,0:0:0:0:
320,192,154948,1,0,0:0:0:0:
64,192,155015,1,0,0:0:0:50:LR_Kick Beat High Vfast.wav
320,192,155083,128,2,155218:0:0:0:0:
448,192,155083,1,0,0:0:0:0:
192,192,155150,1,0,0:0:0:0:
64,192,155218,1,0,0:0:0:0:
320,192,155286,1,0,0:0:0:50:LR_Kick Beat High Vfast.wav
64,192,155353,128,4,155758:0:0:0:0:
192,192,155353,1,2,0:0:0:0:
448,192,155353,1,0,0:0:0:0:
320,192,155421,1,0,0:0:0:0:
448,192,155488,1,0,0:0:0:0:
192,192,155556,1,0,0:0:0:50:LR_Kick Beat High Vfast.wav
320,192,155623,1,2,0:0:0:0:
448,192,155623,1,0,0:0:0:0:
192,192,155691,1,0,0:0:0:0:
320,192,155758,1,0,0:0:0:0:
64,192,155826,1,0,0:0:0:50:LR_Kick Beat High Vfast.wav
192,192,155894,1,4,0:0:0:0:
320,192,155894,1,2,0:0:0:0:
448,192,155894,128,0,156299:0:0:0:0:
64,192,155961,1,0,0:0:0:0:
192,192,156029,1,0,0:0:0:0:
320,192,156096,1,0,0:0:0:50:LR_Kick Beat High Vfast.wav
64,192,156164,1,2,0:0:0:0:
192,192,156164,1,0,0:0:0:0:
320,192,156231,1,0,0:0:0:0:
64,192,156299,1,0,0:0:0:0:
192,192,156367,1,0,0:0:0:50:LR_Kick Beat High Vfast.wav
64,192,156434,128,2,156569:0:0:0:0:
320,192,156434,1,4,0:0:0:0:
448,192,156434,1,0,0:0:0:0:
192,192,156502,1,0,0:0:0:0:
448,192,156569,1,0,0:0:0:50:LR_Kick Beat High Vfast.wav
320,192,156603,1,0,0:0:0:50:LR_Kick Beat High Vfast.wav
192,192,156637,1,0,0:0:0:50:LR_Kick Beat High Vfast.wav
64,192,156671,1,0,0:0:0:50:LR_Kick Beat High Vfast.wav
320,192,156704,1,4,0:0:0:0:
448,192,156704,1,2,0:0:0:0:
64,192,156772,1,2,0:0:0:0:
192,192,156772,1,0,0:0:0:0:
320,192,156840,1,2,0:0:0:0:
448,192,156840,1,0,0:0:0:0:
192,192,156907,1,0,0:0:0:50:LR_Kick Beat High Vfast.wav
64,192,156975,1,4,0:0:0:0:
448,192,156975,1,2,0:0:0:0:
192,192,157042,1,2,0:0:0:0:
320,192,157042,1,0,0:0:0:0:
64,192,157110,1,0,0:0:0:0:
448,192,157110,1,0,0:0:0:0:
192,192,157177,1,2,0:0:0:0:
320,192,157177,1,0,0:0:0:50:LR_Kick Beat High Vfast.wav
64,192,157245,1,4,0:0:0:0:
448,192,157313,1,4,0:0:0:0:
64,192,157380,1,2,0:0:0:0:
192,192,157380,1,4,0:0:0:0:
320,192,157448,1,2,0:0:0:0:
448,192,157448,1,4,0:0:0:0:
64,192,157515,128,2,157718:0:0:0:0:
192,192,157515,1,4,0:0:0:0:
448,192,157583,1,0,0:0:0:0:
320,192,157650,1,0,0:0:0:0:
192,192,157718,1,0,0:0:0:50:LR_Kick Beat High Vfast.wav
64,192,157786,1,2,0:0:0:0:
448,192,157786,1,0,0:0:0:0:
320,192,157853,1,0,0:0:0:0:
448,192,157921,128,0,158461:0:0:0:0:
192,192,157988,1,0,0:0:0:50:LR_Kick Beat High Vfast.wav
64,192,158056,1,2,0:0:0:0:
320,192,158056,1,0,0:0:0:0:
192,192,158123,1,0,0:0:0:0:
64,192,158191,1,0,0:0:0:0:
320,192,158258,1,0,0:0:0:50:LR_Kick Beat High Vfast.wav
64,192,158326,1,2,0:0:0:0:
192,192,158326,128,0,158394:0:0:0:0:
320,192,158394,128,0,158461:0:0:0:0:
64,192,158461,128,0,158529:0:0:0:0:
192,192,158529,128,0,158596:0:0:0:50:LR_Kick Beat High Vfast.wav
320,192,158596,1,2,0:0:0:0:
448,192,158596,128,0,158664:0:0:0:0:
192,192,158664,128,0,158731:0:0:0:0:
64,192,158731,128,0,158799:0:0:0:0:
320,192,158799,128,0,158867:0:0:0:50:LR_Kick Beat High Vfast.wav
64,192,158867,128,2,159002:0:0:0:0:
448,192,158867,1,0,0:0:0:0:
192,192,158934,128,0,159036:0:0:0:0:
320,192,159002,128,0,159069:0:0:0:0:
448,192,159069,128,0,159137:0:0:0:50:LR_Kick Beat High Vfast.wav
64,192,159137,128,2,159272:0:0:0:0:
192,192,159137,1,0,0:0:0:0:
320,192,159204,1,0,0:0:0:0:
448,192,159272,1,0,0:0:0:0:
320,192,159340,128,0,159475:0:0:0:50:LR_Kick Beat High Vfast.wav
64,192,159407,1,2,0:0:0:0:
192,192,159407,1,0,0:0:0:0:
448,192,159475,1,0,0:0:0:0:
192,192,159542,128,0,159677:0:0:0:0:
320,192,159610,1,0,0:0:0:50:LR_Kick Beat High Vfast.wav
64,192,159677,128,2,159880:0:0:0:0:
448,192,159677,1,0,0:0:0:0:
192,192,159745,1,0,0:0:0:0:
320,192,159813,1,0,0:0:0:0:
448,192,159880,1,0,0:0:0:50:LR_Kick Beat High Vfast.wav
64,192,159948,1,2,0:0:0:0:
192,192,159948,1,0,0:0:0:0:
320,192,160015,1,0,0:0:0:0:
448,192,160083,128,0,160488:0:0:0:0:
64,192,160150,1,0,0:0:0:50:LR_Kick Beat High Vfast.wav
192,192,160218,1,2,0:0:0:0:
320,192,160218,1,0,0:0:0:0:
64,192,160286,1,0,0:0:0:0:
192,192,160353,1,0,0:0:0:0:
320,192,160421,1,0,0:0:0:50:LR_Kick Beat High Vfast.wav
64,192,160488,1,2,0:0:0:0:
192,192,160488,128,0,160556:0:0:0:0:
320,192,160556,128,0,160623:0:0:0:0:
448,192,160623,128,0,160691:0:0:0:0:
64,192,160691,128,0,160758:0:0:0:50:LR_Kick Beat High Vfast.wav
192,192,160758,1,2,0:0:0:0:
448,192,160758,128,0,160961:0:0:0:0:
320,192,160826,1,0,0:0:0:0:
64,192,160894,1,0,0:0:0:0:
192,192,160961,1,0,0:0:0:50:LR_Kick Beat High Vfast.wav
64,192,161029,128,2,161231:0:0:0:0:
448,192,161029,1,0,0:0:0:0:
320,192,161096,1,0,0:0:0:0:
192,192,161164,1,0,0:0:0:0:
448,192,161231,1,0,0:0:0:50:LR_Kick Beat High Vfast.wav
64,192,161299,1,2,0:0:0:0:
192,192,161299,128,0,161502:0:0:0:0:
320,192,161367,1,0,0:0:0:0:
448,192,161434,1,0,0:0:0:0:
64,192,161502,1,0,0:0:0:50:LR_Kick Beat High Vfast.wav
320,192,161569,1,4,0:0:0:0:
448,192,161569,1,2,0:0:0:0:
64,192,161637,1,4,0:0:0:0:
192,192,161637,1,2,0:0:0:0:
320,192,161704,1,4,0:0:0:0:
448,192,161704,1,2,0:0:0:0:
64,192,161772,1,4,0:0:0:0:
192,192,161772,1,2,0:0:0:0:
320,192,161840,1,4,0:0:0:0:
448,192,161840,128,2,162042:0:0:0:0:
64,192,161907,1,0,0:0:0:0:
192,192,161975,1,0,0:0:0:0:
320,192,162042,1,0,0:0:0:50:LR_Kick Beat High Vfast.wav
64,192,162110,1,2,0:0:0:0:
448,192,162110,1,0,0:0:0:0:
320,192,162177,1,0,0:0:0:0:
192,192,162245,128,0,162448:0:0:0:0:
64,192,162313,1,0,0:0:0:50:LR_Kick Beat High Vfast.wav
320,192,162380,1,2,0:0:0:0:
448,192,162380,1,0,0:0:0:0:
64,192,162448,1,0,0:0:0:0:
320,192,162515,128,0,162583:0:0:0:0:
192,192,162583,1,0,0:0:0:50:LR_Kick Beat High Vfast.wav
320,192,162650,128,2,162718:0:0:0:0:
448,192,162650,1,0,0:0:0:0:
192,192,162718,1,0,0:0:0:0:
64,192,162786,128,0,162853:0:0:0:0:
320,192,162853,1,0,0:0:0:50:LR_Kick Beat High Vfast.wav
64,192,162921,1,4,0:0:0:0:
192,192,162921,1,2,0:0:0:0:
448,192,162921,128,0,163056:0:0:0:0:
320,192,162988,128,0,163123:0:0:0:0:
64,192,163056,128,0,163191:0:0:0:0:
192,192,163123,128,0,163258:0:0:0:50:LR_Kick Beat High Vfast.wav
320,192,163191,1,2,0:0:0:0:
448,192,163191,128,0,163326:0:0:0:0:
64,192,163258,128,0,163394:0:0:0:0:
320,192,163326,128,0,163394:0:0:0:0:
192,192,163394,128,0,163461:0:0:0:50:LR_Kick Beat High Vfast.wav
64,192,163461,128,4,163596:0:0:0:0:
320,192,163461,1,2,0:0:0:0:
448,192,163461,1,0,0:0:0:0:
192,192,163529,128,0,163664:0:0:0:0:
448,192,163596,128,0,163731:0:0:0:0:
320,192,163664,128,0,163799:0:0:0:50:LR_Kick Beat High Vfast.wav
64,192,163731,128,2,163867:0:0:0:0:
192,192,163731,1,0,0:0:0:0:
448,192,163799,128,0,163934:0:0:0:0:
192,192,163867,128,0,163934:0:0:0:0:
320,192,163934,128,0,164002:0:0:0:50:LR_Kick Beat High Vfast.wav
64,192,164002,1,4,0:0:0:0:
192,192,164002,1,2,0:0:0:0:
448,192,164002,128,0,164069:0:0:0:0:
320,192,164069,1,0,0:0:0:0:
64,192,164137,1,0,0:0:0:0:
320,192,164204,128,4,164340:0:0:0:0:
448,192,164204,1,0,0:0:0:50:LR_Kick Beat High Vfast.wav
64,192,164272,1,2,0:0:0:0:
192,192,164272,1,4,0:0:0:0:
320,192,164407,128,4,164475:0:0:0:0:
192,192,164475,128,4,164542:0:0:0:0:
64,192,164542,128,4,164610:0:0:0:0:
320,192,164542,1,2,0:0:0:0:
448,192,164542,1,0,0:0:0:0:
192,192,164610,1,0,0:0:0:0:
448,192,164677,1,0,0:0:0:0:
64,192,164745,1,4,0:0:0:0:
192,192,164745,128,0,164880:0:0:0:50:LR_Kick Beat High Vfast.wav
320,192,164813,1,2,0:0:0:0:
448,192,164813,1,4,0:0:0:0:
192,192,164948,128,4,165015:0:0:0:0:
320,192,165015,128,4,165083:0:0:0:0:
64,192,165083,1,2,0:0:0:0:
192,192,165083,1,4,0:0:0:0:
448,192,165083,128,0,165150:0:0:0:0:
320,192,165150,1,0,0:0:0:0:
64,192,165218,128,6,165286:0:0:0:0:
192,192,165252,1,2,0:0:0:0:
320,192,165286,1,2,0:0:0:0:
448,192,165319,1,2,0:0:0:0:
64,192,165353,1,4,0:0:0:0:
192,192,165353,128,2,165421:0:0:0:0:
320,192,165421,1,2,0:0:0:0:
448,192,165421,1,0,0:0:0:0:
64,192,165488,128,4,165556:0:0:0:0:
192,192,165488,1,2,0:0:0:0:
320,192,165556,1,0,0:0:0:50:LR_Kick Beat High Vfast.wav
64,192,165623,1,4,0:0:0:0:
192,192,165623,128,2,165691:0:0:0:0:
320,192,165691,1,2,0:0:0:0:
448,192,165691,128,4,165758:0:0:0:0:
64,192,165758,128,4,165826:0:0:0:0:
192,192,165758,1,0,0:0:0:0:
320,192,165826,128,4,165894:0:0:0:0:
448,192,165826,1,2,0:0:0:0:
192,192,165894,128,4,165984:0:0:0:0:
64,192,165939,128,0,166029:0:0:0:0:
448,192,165984,128,0,166096:0:0:0:0:
320,192,166029,128,6,166096:0:0:0:0:
64,192,166096,1,2,0:0:0:0:
192,192,166096,1,4,0:0:0:0:
320,192,166164,1,4,0:0:0:0:
448,192,166164,1,2,0:0:0:0:
192,192,166231,1,0,0:0:0:0:
64,192,166299,1,0,0:0:0:0:
320,192,166367,1,0,0:0:0:50:LR_Kick Beat High Vfast.wav
448,192,166367,1,0,0:0:0:0:
64,192,166434,1,2,0:0:0:0:
192,192,166434,1,0,0:0:0:50:electronic32.wav
320,192,166502,1,0,0:0:0:0:
192,192,166569,1,0,0:0:0:0:
64,192,166637,1,0,0:0:0:50:LR_Kick Beat High Vfast.wav
448,192,166637,1,0,0:0:0:0:
192,192,166704,1,2,0:0:0:0:
320,192,166704,1,0,0:0:0:0:
448,192,166772,1,0,0:0:0:0:
320,192,166840,1,0,0:0:0:0:
64,192,166907,1,0,0:0:0:50:LR_Kick Beat High Vfast.wav
192,192,166907,1,0,0:0:0:0:
320,192,166975,128,2,167042:0:0:0:0:
448,192,166975,1,0,0:0:0:50:electronic32.wav
64,192,167042,128,0,167110:0:0:0:0:
192,192,167110,128,0,167177:0:0:0:0:
320,192,167177,128,0,167245:0:0:0:50:LR_Kick Beat High Vfast.wav
64,192,167245,128,2,167313:0:0:0:0:
448,192,167245,1,0,0:0:0:0:
192,192,167313,128,0,167380:0:0:0:0:
320,192,167380,128,0,167448:0:0:0:0:
448,192,167448,128,0,167515:0:0:0:50:LR_Kick Beat High Vfast.wav
64,192,167515,128,2,167650:0:0:0:0:
192,192,167515,1,0,0:0:0:50:electronic32.wav
448,192,167583,128,0,167684:0:0:0:0:
320,192,167650,128,0,167752:0:0:0:0:
192,192,167718,128,0,167786:0:0:0:50:LR_Kick Beat High Vfast.wav
64,192,167786,1,2,0:0:0:0:
448,192,167786,1,0,0:0:0:0:
320,192,167853,1,0,0:0:0:0:
192,192,167921,1,0,0:0:0:0:
320,192,167988,1,0,0:0:0:50:LR_Kick Beat High Vfast.wav
448,192,167988,1,0,0:0:0:0:
64,192,168056,1,2,0:0:0:0:
192,192,168056,1,0,0:0:0:50:electronic32.wav
448,192,168123,1,0,0:0:0:0:
320,192,168191,1,0,0:0:0:0:
192,192,168258,1,0,0:0:0:50:LR_Kick Beat High Vfast.wav
448,192,168258,1,0,0:0:0:0:
64,192,168326,1,2,0:0:0:0:
320,192,168326,128,0,168394:0:0:0:0:
192,192,168394,1,0,0:0:0:0:
448,192,168461,1,0,0:0:0:0:
64,192,168529,1,0,0:0:0:50:LR_Kick Beat High Vfast.wav
192,192,168529,128,0,168596:0:0:0:0:
320,192,168596,1,2,0:0:0:0:
448,192,168596,1,0,0:0:0:50:electronic32.wav
64,192,168664,1,0,0:0:0:0:
192,192,168731,128,0,168799:0:0:0:0:
64,192,168799,128,0,168934:0:0:0:50:LR_Kick Beat High Vfast.wav
320,192,168799,1,0,0:0:0:0:
192,192,168867,1,2,0:0:0:0:
448,192,168867,1,0,0:0:0:0:
320,192,168934,1,0,0:0:0:0:
64,192,169002,1,0,0:0:0:0:
320,192,169069,128,0,169137:0:0:0:50:LR_Kick Beat High Vfast.wav
448,192,169069,1,0,0:0:0:0:
64,192,169137,1,2,0:0:0:0:
192,192,169137,128,0,169204:0:0:0:50:electronic32.wav
448,192,169204,1,0,0:0:0:0:
320,192,169272,1,0,0:0:0:0:
64,192,169340,1,0,0:0:0:50:LR_Kick Beat High Vfast.wav
192,192,169340,1,0,0:0:0:0:
320,192,169407,128,2,169542:0:0:0:0:
448,192,169407,1,0,0:0:0:0:
192,192,169475,128,0,169610:0:0:0:0:
64,192,169542,128,0,169610:0:0:0:0:
448,192,169610,128,0,169677:0:0:0:50:LR_Kick Beat High Vfast.wav
64,192,169677,1,2,0:0:0:0:
192,192,169677,128,0,169813:0:0:0:50:electronic32.wav
320,192,169745,128,0,169880:0:0:0:0:
448,192,169813,128,0,169880:0:0:0:0:
64,192,169880,128,0,169948:0:0:0:50:LR_Kick Beat High Vfast.wav
320,192,169948,128,2,170015:0:0:0:0:
448,192,169948,128,0,170015:0:0:0:0:
64,192,170015,128,0,170083:0:0:0:50:electronic32.wav
192,192,170015,128,0,170083:0:0:0:0:
320,192,170083,128,0,170150:0:0:0:50:electronic32.wav
448,192,170083,128,0,170150:0:0:0:0:
64,192,170150,128,2,170218:0:0:0:0:
192,192,170150,128,0,170218:0:0:0:0:
320,192,170218,1,4,0:0:0:0:
448,192,170218,128,2,170286:0:0:0:0:
64,192,170286,1,2,0:0:0:0:
192,192,170286,128,4,170353:0:0:0:0:
320,192,170353,128,2,170421:0:0:0:0:
448,192,170353,1,4,0:0:0:0:
64,192,170421,128,2,170488:0:0:0:0:
192,192,170421,1,4,0:0:0:0:
320,192,170488,1,2,0:0:0:0:
448,192,170488,128,4,170556:0:0:0:0:
64,192,170556,1,0,0:0:0:0:
448,192,170623,1,0,0:0:0:0:
64,192,170691,1,0,0:0:0:50:LR_Kick Beat High Vfast.wav
192,192,170691,128,0,170758:0:0:0:0:
320,192,170758,1,2,0:0:0:0:
448,192,170758,1,0,0:0:0:50:electronic32.wav
192,192,170826,1,0,0:0:0:0:
320,192,170894,128,0,170961:0:0:0:0:
64,192,170961,1,0,0:0:0:50:LR_Kick Beat High Vfast.wav
448,192,170961,128,0,171096:0:0:0:0:
192,192,171029,1,2,0:0:0:0:
320,192,171029,1,0,0:0:0:0:
64,192,171096,1,0,0:0:0:0:
192,192,171164,1,0,0:0:0:0:
320,192,171231,1,0,0:0:0:50:LR_Kick Beat High Vfast.wav
448,192,171231,1,0,0:0:0:0:
64,192,171299,1,2,0:0:0:0:
192,192,171299,1,0,0:0:0:50:electronic32.wav
320,192,171367,1,0,0:0:0:0:
448,192,171434,1,0,0:0:0:0:
192,192,171502,1,0,0:0:0:50:LR_Kick Beat High Vfast.wav
64,192,171569,1,2,0:0:0:0:
320,192,171569,1,4,0:0:0:0:
448,192,171569,1,0,0:0:0:0:
192,192,171637,1,0,0:0:0:0:
320,192,171704,1,0,0:0:0:0:
64,192,171772,1,0,0:0:0:50:LR_Kick Beat High Vfast.wav
448,192,171772,1,0,0:0:0:0:
192,192,171840,1,2,0:0:0:0:
320,192,171840,1,0,0:0:0:50:electronic32.wav
64,192,171907,1,0,0:0:0:0:
448,192,171975,1,0,0:0:0:0:
320,192,172042,1,0,0:0:0:50:LR_Kick Beat High Vfast.wav
64,192,172110,1,2,0:0:0:0:
192,192,172110,1,4,0:0:0:0:
448,192,172110,1,0,0:0:0:0:
320,192,172177,1,0,0:0:0:0:
192,192,172245,128,0,172313:0:0:0:0:
64,192,172313,128,0,172380:0:0:0:50:LR_Kick Beat High Vfast.wav
448,192,172313,1,0,0:0:0:0:
192,192,172380,1,2,0:0:0:0:
320,192,172380,128,0,172448:0:0:0:50:electronic32.wav
448,192,172448,128,0,172515:0:0:0:0:
64,192,172515,128,0,172583:0:0:0:0:
192,192,172583,128,0,172650:0:0:0:50:LR_Kick Beat High Vfast.wav
64,192,172650,1,2,0:0:0:0:
320,192,172650,128,4,172718:0:0:0:0:
448,192,172650,1,0,0:0:0:0:
192,192,172718,1,0,0:0:0:0:
448,192,172786,1,0,0:0:0:0:
64,192,172853,128,0,172921:0:0:0:50:LR_Kick Beat High Vfast.wav
320,192,172853,1,0,0:0:0:0:
192,192,172921,128,2,173056:0:0:0:0:
448,192,172921,1,0,0:0:0:50:electronic32.wav
64,192,172988,1,0,0:0:0:0:
320,192,173056,1,0,0:0:0:0:
192,192,173123,1,0,0:0:0:50:LR_Kick Beat High Vfast.wav
64,192,173191,128,2,173258:0:0:0:0:
320,192,173191,1,4,0:0:0:0:
448,192,173191,1,0,0:0:0:0:
192,192,173258,1,0,0:0:0:0:
448,192,173326,1,0,0:0:0:0:
64,192,173394,1,0,0:0:0:50:LR_Kick Beat High Vfast.wav
320,192,173394,128,0,173461:0:0:0:0:
192,192,173461,1,6,0:0:0:0:
448,192,173461,128,0,173596:0:0:0:50:electronic32.wav
320,192,173529,1,0,0:0:0:0:
64,192,173596,1,0,0:0:0:0:
448,192,173664,1,0,0:0:0:50:LR_Kick Beat High Vfast.wav
64,192,173731,1,4,0:0:0:0:
192,192,173731,128,2,173799:0:0:0:0:
320,192,173731,1,0,0:0:0:0:
448,192,173799,1,0,0:0:0:0:
64,192,173867,1,0,0:0:0:50:LR_Kick Beat High Vfast.wav
192,192,173900,1,0,0:0:0:50:LR_Kick Beat High Vfast.wav
320,192,173934,1,0,0:0:0:50:LR_Kick Beat High Vfast.wav
448,192,173968,1,0,0:0:0:50:LR_Kick Beat High Vfast.wav
64,192,174002,1,2,0:0:0:0:
192,192,174002,1,4,0:0:0:0:
320,192,174069,1,2,0:0:0:0:
448,192,174069,1,0,0:0:0:0:
64,192,174137,1,2,0:0:0:0:
192,192,174137,1,0,0:0:0:0:
192,192,174272,1,2,0:0:0:0:
320,192,174272,1,4,0:0:0:0:
448,192,174272,1,0,0:0:0:0:
64,192,174340,1,2,0:0:0:0:
320,192,174407,1,0,0:0:0:0:
192,192,174475,1,2,0:0:0:0:
320,192,174542,1,4,0:0:0:0:
448,192,174542,1,0,0:0:0:0:
64,192,174610,1,4,0:0:0:0:
192,192,174610,1,2,0:0:0:0:
320,192,174677,1,4,0:0:0:0:
448,192,174677,1,2,0:0:0:0:
64,192,174745,1,4,0:0:0:0:
192,192,174745,1,2,0:0:0:0:
320,192,174813,1,4,0:0:0:0:
448,192,174813,1,2,0:0:0:0:
64,192,174880,1,0,0:0:0:0:
448,192,174948,1,0,0:0:0:0:
192,192,175015,1,0,0:0:0:50:LR_Kick Beat High Vfast.wav
320,192,175015,1,0,0:0:0:0:
64,192,175083,1,2,0:0:0:0:
448,192,175083,1,0,0:0:0:50:electronic32.wav
192,192,175150,1,0,0:0:0:0:
320,192,175218,1,0,0:0:0:0:
64,192,175286,1,0,0:0:0:50:LR_Kick Beat High Vfast.wav
192,192,175286,1,0,0:0:0:0:
320,192,175353,1,2,0:0:0:0:
448,192,175353,1,0,0:0:0:0:
64,192,175421,1,0,0:0:0:0:
192,192,175488,1,0,0:0:0:0:
320,192,175556,1,0,0:0:0:50:LR_Kick Beat High Vfast.wav
448,192,175556,1,0,0:0:0:0:
64,192,175623,1,2,0:0:0:0:
192,192,175623,128,0,175691:0:0:0:50:electronic32.wav
448,192,175691,128,0,175758:0:0:0:0:
320,192,175758,128,0,175826:0:0:0:0:
192,192,175826,128,0,175894:0:0:0:50:LR_Kick Beat High Vfast.wav
64,192,175894,1,2,0:0:0:0:
448,192,175894,128,0,175961:0:0:0:0:
320,192,175961,128,0,176029:0:0:0:0:
192,192,176029,128,0,176096:0:0:0:0:
64,192,176096,128,0,176164:0:0:0:50:LR_Kick Beat High Vfast.wav
320,192,176164,1,2,0:0:0:0:
448,192,176164,128,0,176299:0:0:0:50:electronic32.wav
64,192,176231,128,0,176333:0:0:0:0:
192,192,176299,128,0,176400:0:0:0:0:
320,192,176367,128,0,176434:0:0:0:50:LR_Kick Beat High Vfast.wav
64,192,176434,1,2,0:0:0:0:
448,192,176434,1,0,0:0:0:0:
320,192,176502,1,0,0:0:0:0:
192,192,176569,1,0,0:0:0:0:
64,192,176637,1,0,0:0:0:50:LR_Kick Beat High Vfast.wav
448,192,176637,1,0,0:0:0:0:
192,192,176704,1,2,0:0:0:0:
320,192,176704,1,0,0:0:0:50:electronic32.wav
448,192,176772,1,0,0:0:0:0:
320,192,176840,1,0,0:0:0:0:
64,192,176907,1,0,0:0:0:50:LR_Kick Beat High Vfast.wav
192,192,176907,1,0,0:0:0:0:
320,192,176975,1,2,0:0:0:0:
448,192,176975,128,0,177042:0:0:0:0:
64,192,177042,1,0,0:0:0:0:
192,192,177110,1,0,0:0:0:0:
64,192,177177,1,0,0:0:0:50:LR_Kick Beat High Vfast.wav
320,192,177177,128,0,177245:0:0:0:0:
192,192,177245,1,2,0:0:0:0:
448,192,177245,1,0,0:0:0:50:electronic32.wav
320,192,177313,1,0,0:0:0:0:
64,192,177380,128,0,177448:0:0:0:0:
320,192,177448,128,0,177583:0:0:0:50:LR_Kick Beat High Vfast.wav
448,192,177448,1,0,0:0:0:0:
64,192,177515,1,2,0:0:0:0:
192,192,177515,1,0,0:0:0:0:
448,192,177583,1,0,0:0:0:0:
320,192,177650,1,0,0:0:0:0:
64,192,177718,128,0,177786:0:0:0:50:LR_Kick Beat High Vfast.wav
192,192,177718,1,0,0:0:0:0:
320,192,177786,1,2,0:0:0:0:
448,192,177786,128,0,177853:0:0:0:50:electronic32.wav
64,192,177853,1,0,0:0:0:0:
192,192,177921,1,0,0:0:0:0:
320,192,177988,1,0,0:0:0:50:LR_Kick Beat High Vfast.wav
448,192,177988,1,0,0:0:0:0:
64,192,178056,1,2,0:0:0:0:
192,192,178056,128,0,178191:0:0:0:0:
320,192,178123,128,0,178258:0:0:0:0:
448,192,178191,128,0,178258:0:0:0:0:
64,192,178258,128,0,178326:0:0:0:50:LR_Kick Beat High Vfast.wav
320,192,178326,128,2,178461:0:0:0:0:
448,192,178326,1,0,0:0:0:50:electronic32.wav
192,192,178394,128,0,178529:0:0:0:0:
64,192,178461,128,0,178529:0:0:0:0:
448,192,178529,128,0,178596:0:0:0:50:LR_Kick Beat High Vfast.wav
64,192,178596,128,2,178664:0:0:0:0:
192,192,178596,128,0,178664:0:0:0:0:
320,192,178664,128,0,178731:0:0:0:0:
448,192,178664,128,0,178731:0:0:0:0:
64,192,178731,128,0,178799:0:0:0:0:
192,192,178731,128,0,178799:0:0:0:0:
320,192,178799,128,0,178867:0:0:0:50:LR_Kick Beat High Vfast.wav
448,192,178799,128,0,178867:0:0:0:0:
64,192,178867,128,6,178934:0:0:0:0:
192,192,178867,1,0,0:0:0:50:electronic32.wav
320,192,178934,1,2,0:0:0:0:
448,192,178934,128,4,179002:0:0:0:0:
64,192,179002,1,2,0:0:0:0:
192,192,179002,128,4,179069:0:0:0:0:
320,192,179069,128,2,179137:0:0:0:0:
448,192,179069,1,4,0:0:0:0:
64,192,179137,128,2,179204:0:0:0:0:
192,192,179137,1,4,0:0:0:0:
448,192,179204,1,0,0:0:0:0:
320,192,179272,1,0,0:0:0:0:
64,192,179340,1,0,0:0:0:50:LR_Kick Beat High Vfast.wav
192,192,179340,128,0,179407:0:0:0:0:
320,192,179407,1,2,0:0:0:0:
448,192,179407,1,0,0:0:0:50:electronic32.wav
192,192,179475,1,0,0:0:0:0:
320,192,179542,128,0,179610:0:0:0:0:
64,192,179610,1,0,0:0:0:50:LR_Kick Beat High Vfast.wav
448,192,179610,128,0,179745:0:0:0:0:
192,192,179677,1,2,0:0:0:0:
320,192,179677,1,0,0:0:0:0:
64,192,179745,1,0,0:0:0:0:
192,192,179813,128,0,179880:0:0:0:0:
320,192,179880,1,0,0:0:0:50:LR_Kick Beat High Vfast.wav
448,192,179880,1,0,0:0:0:0:
64,192,179948,1,2,0:0:0:0:
192,192,179948,128,0,180015:0:0:0:50:electronic32.wav
448,192,180015,1,0,0:0:0:0:
320,192,180083,128,0,180150:0:0:0:0:
192,192,180150,1,0,0:0:0:50:LR_Kick Beat High Vfast.wav
64,192,180218,128,2,180421:0:0:0:0:
320,192,180218,128,4,180353:0:0:0:0:
448,192,180218,1,0,0:0:0:0:
192,192,180286,128,0,180421:0:0:0:0:
448,192,180353,128,0,180623:0:0:0:0:
320,192,180421,128,0,180488:0:0:0:50:LR_Kick Beat High Vfast.wav
64,192,180488,128,2,180691:0:0:0:0:
192,192,180488,1,0,0:0:0:50:electronic32.wav
320,192,180556,128,0,180691:0:0:0:0:
192,192,180623,128,0,180691:0:0:0:0:
448,192,180691,128,0,180758:0:0:0:50:LR_Kick Beat High Vfast.wav
64,192,180758,1,2,0:0:0:0:
192,192,180758,128,4,180894:0:0:0:0:
320,192,180758,128,0,180961:0:0:0:0:
448,192,180826,128,0,180961:0:0:0:0:
64,192,180894,128,0,181096:0:0:0:0:
192,192,180961,128,0,181029:0:0:0:50:LR_Kick Beat High Vfast.wav
320,192,181029,1,2,0:0:0:0:
448,192,181029,128,0,181231:0:0:0:50:electronic32.wav
192,192,181096,128,0,181231:0:0:0:0:
64,192,181164,128,0,181231:0:0:0:0:
320,192,181231,128,0,181299:0:0:0:50:LR_Kick Beat High Vfast.wav
64,192,181299,1,2,0:0:0:0:
192,192,181299,1,4,0:0:0:0:
448,192,181299,128,0,181367:0:0:0:0:
320,192,181367,1,0,0:0:0:0:
64,192,181434,1,0,0:0:0:0:
320,192,181502,128,4,181637:0:0:0:0:
448,192,181502,1,0,0:0:0:50:electronic32.wav
64,192,181569,1,4,0:0:0:0:
192,192,181569,1,2,0:0:0:0:
320,192,181704,128,4,181772:0:0:0:0:
192,192,181772,128,4,181840:0:0:0:0:
64,192,181840,128,2,181907:0:0:0:0:
320,192,181840,1,4,0:0:0:0:
448,192,181840,1,0,0:0:0:50:electronic32.wav
192,192,181907,1,0,0:0:0:0:
448,192,181975,1,0,0:0:0:0:
64,192,182042,1,4,0:0:0:0:
192,192,182042,128,0,182177:0:0:0:50:electronic32.wav
320,192,182110,1,4,0:0:0:0:
448,192,182110,1,2,0:0:0:0:
192,192,182245,128,4,182313:0:0:0:0:
320,192,182313,128,4,182380:0:0:0:0:
64,192,182380,1,4,0:0:0:0:
192,192,182380,1,2,0:0:0:0:
448,192,182380,128,0,182448:0:0:0:50:electronic32.wav
448,192,182515,1,6,0:0:0:0:
320,192,182549,1,2,0:0:0:0:
192,192,182583,128,2,182650:0:0:0:0:
64,192,182617,1,2,0:0:0:0:
320,192,182650,1,2,0:0:0:0:
448,192,182650,1,4,0:0:0:0:
192,192,182718,1,2,0:0:0:0:
64,192,182786,128,2,182853:0:0:0:0:
320,192,182786,1,4,0:0:0:0:
448,192,182786,1,0,0:0:0:0:
320,192,182921,128,2,182988:0:0:0:0:
448,192,182921,1,4,0:0:0:0:
64,192,182988,1,4,0:0:0:0:
192,192,182988,1,2,0:0:0:0:
448,192,183056,1,4,0:0:0:0:
64,192,183123,1,2,0:0:0:0:
192,192,183123,128,4,183191:0:0:0:0:
320,192,183123,1,0,0:0:0:0:
448,192,183191,1,4,0:0:0:0:
192,192,183258,1,6,0:0:0:0:
320,192,183326,1,4,0:0:0:0:
448,192,183326,128,2,183394:0:0:0:0:
64,192,183394,1,4,0:0:0:0:
192,192,183394,1,2,0:0:0:0:
320,192,183461,128,4,183529:0:0:0:0:
448,192,183461,1,0,0:0:0:50:electronic32.wav
64,192,183529,1,0,0:0:0:0:
192,192,183596,1,2,0:0:0:0:
320,192,183664,1,0,0:0:0:50:LR_Kick Beat High Vfast.wav
64,192,183731,1,0,0:0:0:50:electronic32.wav
192,192,183731,1,0,0:0:0:0:
448,192,183731,128,0,183799:0:0:0:0:
320,192,183799,128,0,183867:0:0:0:0:
64,192,183867,128,2,183934:0:0:0:0:
192,192,183934,128,0,184002:0:0:0:50:LR_Kick Beat High Vfast.wav
320,192,184002,1,0,0:0:0:50:electronic32.wav
448,192,184002,1,0,0:0:0:0:
192,192,184069,128,0,184137:0:0:0:0:
64,192,184137,128,2,184204:0:0:0:0:
448,192,184204,128,0,184272:0:0:0:50:LR_Kick Beat High Vfast.wav
64,192,184272,1,0,0:0:0:50:electronic32.wav
192,192,184272,1,0,0:0:0:0:
320,192,184272,128,0,184340:0:0:0:0:
448,192,184340,128,0,184407:0:0:0:0:
192,192,184407,128,2,184542:0:0:0:0:
320,192,184475,1,0,0:0:0:50:LR_Kick Beat High Vfast.wav
64,192,184542,1,0,0:0:0:50:electronic32.wav
448,192,184542,1,0,0:0:0:0:
192,192,184610,1,0,0:0:0:0:
320,192,184677,1,2,0:0:0:0:
192,192,184745,1,0,0:0:0:50:LR_Kick Beat High Vfast.wav
64,192,184813,1,0,0:0:0:50:electronic32.wav
320,192,184813,128,0,184880:0:0:0:0:
448,192,184813,1,0,0:0:0:0:
192,192,184880,128,0,184948:0:0:0:0:
448,192,184948,128,2,185015:0:0:0:0:
320,192,185015,128,0,185083:0:0:0:50:LR_Kick Beat High Vfast.wav
64,192,185083,128,0,185150:0:0:0:50:electronic32.wav
192,192,185083,1,0,0:0:0:0:
320,192,185150,1,0,0:0:0:0:
448,192,185218,1,2,0:0:0:0:
64,192,185286,1,0,0:0:0:50:LR_Kick Beat High Vfast.wav
192,192,185353,128,0,185421:0:0:0:50:electronic32.wav
320,192,185353,1,0,0:0:0:0:
448,192,185353,1,0,0:0:0:0:
64,192,185421,1,0,0:0:0:0:
320,192,185488,1,2,0:0:0:0:
192,192,185556,1,0,0:0:0:50:LR_Kick Beat High Vfast.wav
64,192,185623,1,4,0:0:0:0:
320,192,185623,1,0,0:0:0:50:electronic32.wav
448,192,185623,128,0,185691:0:0:0:0:
192,192,185691,1,0,0:0:0:0:
448,192,185758,1,2,0:0:0:0:
320,192,185826,1,0,0:0:0:50:LR_Kick Beat High Vfast.wav
64,192,185894,1,0,0:0:0:50:electronic32.wav
192,192,185894,1,0,0:0:0:0:
448,192,185894,128,0,185961:0:0:0:0:
320,192,185961,128,0,186029:0:0:0:0:
64,192,186029,128,2,186096:0:0:0:0:
192,192,186096,128,0,186164:0:0:0:50:LR_Kick Beat High Vfast.wav
320,192,186164,1,0,0:0:0:50:electronic32.wav
448,192,186164,128,0,186231:0:0:0:0:
192,192,186231,1,0,0:0:0:0:
64,192,186299,1,2,0:0:0:0:
448,192,186367,1,0,0:0:0:50:LR_Kick Beat High Vfast.wav
64,192,186434,1,0,0:0:0:50:electronic32.wav
192,192,186434,1,0,0:0:0:0:
320,192,186434,128,0,186502:0:0:0:0:
448,192,186502,128,0,186569:0:0:0:0:
192,192,186569,128,2,186637:0:0:0:0:
320,192,186637,128,0,186704:0:0:0:50:LR_Kick Beat High Vfast.wav
64,192,186704,128,4,186772:0:0:0:0:
192,192,186704,1,0,0:0:0:50:electronic32.wav
448,192,186704,1,0,0:0:0:0:
320,192,186772,1,0,0:0:0:0:
64,192,186840,1,2,0:0:0:0:
192,192,186907,1,0,0:0:0:50:LR_Kick Beat High Vfast.wav
320,192,186975,128,4,187177:0:0:0:0:
448,192,186975,1,0,0:0:0:50:electronic32.wav
192,192,187042,1,0,0:0:0:0:
64,192,187110,1,2,0:0:0:0:
448,192,187177,1,0,0:0:0:50:LR_Kick Beat High Vfast.wav
64,192,187245,128,4,187448:0:0:0:0:
192,192,187245,1,0,0:0:0:50:electronic32.wav
320,192,187313,1,0,0:0:0:0:
448,192,187380,1,0,0:0:0:50:LR_Kick Beat High Vfast.wav
192,192,187414,1,0,0:0:0:50:LR_Kick Beat High Vfast.wav
320,192,187448,1,0,0:0:0:50:LR_Kick Beat High Vfast.wav
448,192,187481,1,0,0:0:0:50:LR_Kick Beat High Vfast.wav
64,192,187515,1,2,0:0:0:0:
192,192,187515,128,4,187718:0:0:0:0:
320,192,187583,1,2,0:0:0:0:
448,192,187650,1,2,0:0:0:0:
64,192,187718,1,2,0:0:0:0:
192,192,187786,128,2,187853:0:0:0:0:
320,192,187786,1,4,0:0:0:0:
448,192,187786,1,0,0:0:0:0:
64,192,187921,1,0,0:0:0:0:
320,192,187921,1,0,0:0:0:0:
192,192,187988,1,2,0:0:0:0:
448,192,187988,1,0,0:0:0:0:
64,192,188056,1,0,0:0:0:0:
320,192,188056,1,0,0:0:0:0:
64,192,188191,1,2,0:0:0:0:
192,192,188191,1,4,0:0:0:0:
448,192,188191,1,0,0:0:0:0:
320,192,188326,1,2,0:0:0:0:
448,192,188326,1,0,0:0:0:0:
64,192,188394,1,2,0:0:0:0:
192,192,188394,1,0,0:0:0:0:
320,192,188461,1,2,0:0:0:0:
448,192,188461,1,0,0:0:0:0:
64,192,188596,1,2,0:0:0:0:
192,192,188596,1,4,0:0:0:0:
320,192,188664,1,2,0:0:0:0:
448,192,188664,1,0,0:0:0:0:
64,192,188731,1,2,0:0:0:0:
192,192,188731,1,0,0:0:0:0:
448,192,188799,1,0,0:0:0:0:
64,192,188867,1,2,0:0:0:0:
192,192,188867,128,4,188934:0:0:0:0:
320,192,188867,1,0,0:0:0:0:
448,192,189002,1,6,0:0:0:0:
320,192,189036,1,2,0:0:0:0:
192,192,189069,1,2,0:0:0:0:
64,192,189103,1,2,0:0:0:0:
320,192,189137,1,4,0:0:0:0:
448,192,189137,1,2,0:0:0:0:
64,192,189204,1,2,0:0:0:0:
192,192,189204,1,0,0:0:0:0:
320,192,189272,1,4,0:0:0:0:
448,192,189272,1,2,0:0:0:0:
192,192,189340,1,2,0:0:0:0:
64,192,189407,1,2,0:0:0:0:
320,192,189407,1,4,0:0:0:0:
448,192,189407,1,0,0:0:0:0:
192,192,189475,1,2,0:0:0:0:
64,192,189542,1,4,0:0:0:0:
448,192,189542,1,2,0:0:0:0:
320,192,189610,1,2,0:0:0:0:
64,192,189677,1,4,0:0:0:0:
192,192,189677,1,2,0:0:0:0:
320,192,189745,1,4,0:0:0:0:
448,192,189745,1,2,0:0:0:0:
64,192,189813,1,2,0:0:0:0:
192,192,189813,1,4,0:0:0:0:
320,192,189880,1,2,0:0:0:0:
448,192,189880,1,4,0:0:0:0:
64,192,189948,128,4,190286:0:0:0:0:
192,192,189948,1,2,0:0:0:0:
320,192,190015,1,0,0:0:0:0:
448,192,190083,1,0,0:0:0:0:
192,192,190150,1,0,0:0:0:0:
320,192,190218,1,0,0:0:0:0:
448,192,190286,1,0,0:0:0:0:
64,192,190353,128,0,190421:0:0:0:0:
320,192,190353,1,0,0:0:0:0:
192,192,190421,128,0,190488:0:0:0:0:
64,192,190488,128,0,190758:0:0:0:0:
448,192,190488,1,0,0:0:0:0:
320,192,190556,1,0,0:0:0:0:
192,192,190623,1,0,0:0:0:0:
448,192,190691,128,0,190758:0:0:0:0:
320,192,190758,1,0,0:0:0:0:
192,192,190826,1,0,0:0:0:0:
64,192,190894,1,0,0:0:0:0:
448,192,190894,128,0,190961:0:0:0:0:
192,192,190961,128,0,191029:0:0:0:0:
320,192,191029,1,0,0:0:0:0:
448,192,191029,128,0,191299:0:0:0:0:
64,192,191096,1,0,0:0:0:0:
192,192,191164,1,0,0:0:0:0:
320,192,191231,1,0,0:0:0:0:
64,192,191299,1,0,0:0:0:0:
320,192,191367,1,0,0:0:0:0:
192,192,191434,128,0,191502:0:0:0:0:
448,192,191434,1,0,0:0:0:0:
64,192,191502,128,0,191569:0:0:0:0:
192,192,191569,128,0,191840:0:0:0:0:
320,192,191569,1,0,0:0:0:0:
448,192,191637,1,0,0:0:0:0:
64,192,191704,128,0,191840:0:0:0:0:
320,192,191772,128,0,191840:0:0:0:0:
448,192,191840,1,0,0:0:0:0:
64,192,191907,1,2,0:0:0:0:
192,192,191907,1,0,0:0:0:0:
320,192,191975,1,2,0:0:0:0:
448,192,191975,1,0,0:0:0:0:
192,192,192042,1,2,0:0:0:0:
64,192,192110,1,4,0:0:0:0:
320,192,192110,1,2,0:0:0:0:
448,192,192110,128,0,192448:0:0:0:0:
192,192,192177,1,0,0:0:0:0:
64,192,192245,1,0,0:0:0:0:
320,192,192313,1,0,0:0:0:0:
192,192,192380,1,0,0:0:0:0:
64,192,192448,1,0,0:0:0:0:
192,192,192515,1,0,0:0:0:0:
448,192,192515,128,0,192583:0:0:0:0:
320,192,192583,128,0,192650:0:0:0:0:
64,192,192650,1,0,0:0:0:0:
448,192,192650,128,0,192921:0:0:0:0:
192,192,192718,1,0,0:0:0:0:
320,192,192786,1,0,0:0:0:0:
64,192,192853,1,0,0:0:0:0:
192,192,192921,1,0,0:0:0:0:
320,192,192988,1,0,0:0:0:0:
64,192,193056,128,0,193123:0:0:0:0:
448,192,193056,1,0,0:0:0:0:
320,192,193123,128,0,193191:0:0:0:0:
64,192,193191,128,0,193461:0:0:0:0:
192,192,193191,1,0,0:0:0:0:
448,192,193258,1,0,0:0:0:0:
320,192,193326,1,0,0:0:0:0:
192,192,193394,1,0,0:0:0:0:
448,192,193461,1,0,0:0:0:0:
192,192,193529,1,0,0:0:0:0:
64,192,193596,1,0,0:0:0:0:
320,192,193596,128,0,193664:0:0:0:0:
448,192,193664,128,0,193731:0:0:0:0:
192,192,193731,1,0,0:0:0:0:
320,192,193731,128,0,194002:0:0:0:0:
64,192,193799,1,0,0:0:0:0:
448,192,193867,128,0,194002:0:0:0:0:
192,192,193934,128,0,194002:0:0:0:0:
64,192,194002,1,0,0:0:0:0:
448,192,194069,1,0,0:0:0:0:
320,192,194137,1,0,0:0:0:0:
192,192,194204,1,0,0:0:0:0:
64,192,194542,1,4,0:0:0:0:
192,192,194542,1,2,0:0:0:0:
320,192,194542,1,0,0:0:0:0:
64,192,194632,1,2,0:0:0:0:
192,192,194632,1,4,0:0:0:0:
192,192,194722,1,4,0:0:0:0:
320,192,194722,1,2,0:0:0:0:
448,192,194722,1,0,0:0:0:0:
320,192,194813,1,4,0:0:0:0:
448,192,194813,1,2,0:0:0:0:
64,192,194903,1,2,0:0:0:0:
192,192,194903,1,4,0:0:0:0:
320,192,194903,1,0,0:0:0:0:
64,192,194993,1,2,0:0:0:0:
192,192,194993,1,4,0:0:0:0:
192,192,195083,1,2,0:0:0:0:
320,192,195083,1,4,0:0:0:0:
448,192,195083,1,0,0:0:0:0:
320,192,195173,1,2,0:0:0:0:
448,192,195173,1,4,0:0:0:0:
64,192,195263,1,2,0:0:0:0:
192,192,195263,1,4,0:0:0:0:
320,192,195263,1,0,0:0:0:0:
64,192,195353,1,2,0:0:0:0:
192,192,195353,1,4,0:0:0:0:
192,192,195443,1,4,0:0:0:0:
320,192,195443,1,2,0:0:0:0:
448,192,195443,1,0,0:0:0:0:
320,192,195533,1,2,0:0:0:0:
448,192,195533,1,4,0:0:0:0:
64,192,195623,1,2,0:0:0:0:
192,192,195623,1,4,0:0:0:0:
320,192,195623,1,0,0:0:0:0:
64,192,195713,1,4,0:0:0:0:
192,192,195713,1,2,0:0:0:0:
192,192,195804,1,4,0:0:0:0:
320,192,195804,1,2,0:0:0:0:
448,192,195804,1,0,0:0:0:0:
320,192,195894,1,4,0:0:0:0:
448,192,195894,1,2,0:0:0:0:
64,192,195984,1,4,0:0:0:0:
192,192,195984,1,2,0:0:0:0:
320,192,195984,1,0,0:0:0:0:
64,192,196074,1,4,0:0:0:0:
192,192,196074,1,2,0:0:0:0:
192,192,196164,1,2,0:0:0:0:
320,192,196164,1,4,0:0:0:0:
448,192,196164,1,0,0:0:0:0:
320,192,196254,1,2,0:0:0:0:
448,192,196254,1,4,0:0:0:0:
64,192,196344,1,2,0:0:0:0:
192,192,196344,1,4,0:0:0:0:
320,192,196344,1,0,0:0:0:0:
64,192,196434,1,2,0:0:0:0:
192,192,196434,1,4,0:0:0:0:
448,192,196434,128,0,197380:0:0:0:0:
64,192,196930,1,0,0:0:0:0:
320,192,196975,1,0,0:0:0:0:
64,192,197245,1,2,0:0:0:0:
192,192,197313,1,2,0:0:0:0:
320,192,197380,128,2,197448:0:0:0:0:
192,192,197448,128,2,197515:0:0:0:0:
64,192,197515,128,2,197583:0:0:0:0:
320,192,197515,1,4,0:0:0:0:
448,192,197515,1,0,0:0:0:0:
192,192,197583,128,0,197650:0:0:0:0:
320,192,197650,128,0,197718:0:0:0:0:
448,192,197718,128,0,197786:0:0:0:0:
64,192,197786,1,4,0:0:0:0:
192,192,197786,128,0,197853:0:0:0:0:
320,192,197853,128,0,197988:0:0:0:0:
192,192,197921,128,0,198056:0:0:0:0:
64,192,197988,128,0,198123:0:0:0:0:
320,192,198056,128,4,198123:0:0:0:0:
448,192,198123,128,0,198191:0:0:0:0:
192,192,198191,1,0,0:0:0:0:
320,192,198258,1,0,0:0:0:0:
64,192,198326,1,0,0:0:0:70:Clap Drum.wav
192,192,198326,1,0,0:0:0:0:
448,192,198326,1,0,0:0:0:0:
192,192,198596,1,2,0:0:0:0:
320,192,198596,1,4,0:0:0:0:
448,192,198596,128,0,198664:0:0:0:0:
64,192,198664,1,0,0:0:0:0:
320,192,198731,128,0,198799:0:0:0:0:
192,192,198799,1,0,0:0:0:50:LR_Kick Beat High Vfast.wav
64,192,198867,128,2,198934:0:0:0:0:
448,192,198867,1,0,0:0:0:0:
320,192,198934,1,0,0:0:0:0:
192,192,199002,128,0,199069:0:0:0:0:
320,192,199069,1,0,0:0:0:50:LR_Kick Beat High Vfast.wav
64,192,199137,1,2,0:0:0:0:
448,192,199137,128,0,199204:0:0:0:0:
192,192,199204,1,0,0:0:0:0:
320,192,199272,128,0,199340:0:0:0:0:
192,192,199340,1,0,0:0:0:50:LR_Kick Beat High Vfast.wav
64,192,199407,128,2,199475:0:0:0:0:
448,192,199407,1,0,0:0:0:0:
320,192,199475,1,0,0:0:0:0:
192,192,199542,128,0,199610:0:0:0:0:
64,192,199610,1,0,0:0:0:50:LR_Kick Beat High Vfast.wav
320,192,199677,1,2,0:0:0:0:
448,192,199677,128,0,199745:0:0:0:0:
64,192,199745,1,0,0:0:0:0:
192,192,199813,128,0,199880:0:0:0:0:
320,192,199880,1,0,0:0:0:50:LR_Kick Beat High Vfast.wav
64,192,199948,1,2,0:0:0:0:
448,192,199948,1,0,0:0:0:0:
192,192,200015,1,0,0:0:0:0:
320,192,200083,128,0,200150:0:0:0:0:
64,192,200150,1,0,0:0:0:50:LR_Kick Beat High Vfast.wav
320,192,200218,1,2,0:0:0:0:
448,192,200218,1,0,0:0:0:0:
192,192,200286,1,0,0:0:0:0:
64,192,200353,128,0,200421:0:0:0:0:
320,192,200421,1,0,0:0:0:50:LR_Kick Beat High Vfast.wav
64,192,200488,1,2,0:0:0:0:
192,192,200488,128,0,200556:0:0:0:0:
320,192,200556,1,0,0:0:0:0:
448,192,200623,128,0,200691:0:0:0:0:
192,192,200691,1,0,0:0:0:50:LR_Kick Beat High Vfast.wav
320,192,200758,128,2,200826:0:0:0:0:
448,192,200758,1,0,0:0:0:0:
192,192,200826,1,0,0:0:0:0:
64,192,200894,128,0,200961:0:0:0:0:
320,192,200961,1,0,0:0:0:50:LR_Kick Beat High Vfast.wav
64,192,201029,1,2,0:0:0:0:
192,192,201029,128,0,201096:0:0:0:0:
448,192,201096,1,0,0:0:0:0:
320,192,201164,128,0,201231:0:0:0:0:
192,192,201231,1,0,0:0:0:50:LR_Kick Beat High Vfast.wav
320,192,201299,1,2,0:0:0:0:
448,192,201299,128,0,201367:0:0:0:0:
64,192,201367,1,0,0:0:0:0:
192,192,201434,128,0,201502:0:0:0:0:
320,192,201502,1,0,0:0:0:50:LR_Kick Beat High Vfast.wav
64,192,201569,128,2,201637:0:0:0:0:
192,192,201569,1,0,0:0:0:0:
448,192,201637,1,0,0:0:0:0:
320,192,201704,128,0,201772:0:0:0:0:
192,192,201772,1,0,0:0:0:50:LR_Kick Beat High Vfast.wav
64,192,201840,1,2,0:0:0:0:
448,192,201840,128,0,201907:0:0:0:0:
192,192,201907,1,0,0:0:0:0:
320,192,201975,1,0,0:0:0:0:
448,192,202042,1,0,0:0:0:50:LR_Kick Beat High Vfast.wav
64,192,202110,1,2,0:0:0:0:
192,192,202110,128,0,202177:0:0:0:0:
448,192,202177,1,0,0:0:0:0:
320,192,202245,1,0,0:0:0:0:
192,192,202313,1,0,0:0:0:50:LR_Kick Beat High Vfast.wav
64,192,202380,128,2,202448:0:0:0:0:
448,192,202380,1,0,0:0:0:0:
192,192,202448,1,0,0:0:0:0:
320,192,202515,1,0,0:0:0:0:
448,192,202583,1,0,0:0:0:50:LR_Kick Beat High Vfast.wav
64,192,202650,1,2,0:0:0:0:
192,192,202650,128,0,202718:0:0:0:0:
320,192,202718,1,0,0:0:0:0:
64,192,202786,1,2,0:0:0:0:
192,192,202786,1,0,0:0:0:0:
320,192,202853,1,2,0:0:0:0:
64,192,202921,1,4,0:0:0:0:
192,192,202921,1,2,0:0:0:0:
448,192,202921,128,0,202988:0:0:0:0:
320,192,203056,1,0,0:0:0:0:
192,192,203123,1,0,0:0:0:50:LR_Kick Beat High Vfast.wav
64,192,203191,128,2,203371:0:0:0:0:
448,192,203191,1,0,0:0:0:0:
320,192,203281,128,0,203461:0:0:0:0:
192,192,203371,128,0,203461:0:0:0:0:
64,192,203461,1,2,0:0:0:0:
448,192,203461,128,0,203641:0:0:0:0:
320,192,203551,128,0,203731:0:0:0:0:
192,192,203641,128,0,203731:0:0:0:0:
64,192,203731,128,2,203912:0:0:0:0:
448,192,203731,1,0,0:0:0:0:
192,192,203822,128,0,203912:0:0:0:0:
320,192,203912,128,0,204002:0:0:0:0:
64,192,204002,1,4,0:0:0:0:
192,192,204002,1,2,0:0:0:0:
448,192,204002,128,0,204069:0:0:0:0:
320,192,204137,1,0,0:0:0:0:
192,192,204204,1,0,0:0:0:50:LR_Kick Beat High Vfast.wav
64,192,204272,1,2,0:0:0:0:
448,192,204272,128,0,204452:0:0:0:0:
192,192,204362,128,0,204452:0:0:0:0:
320,192,204452,128,0,204542:0:0:0:0:
64,192,204542,1,4,0:0:0:0:
192,192,204542,128,2,204722:0:0:0:0:
448,192,204542,1,0,0:0:0:0:
320,192,204632,128,0,204813:0:0:0:0:
448,192,204722,128,0,204813:0:0:0:0:
64,192,204813,128,2,204993:0:0:0:0:
192,192,204813,1,0,0:0:0:0:
320,192,204903,128,0,204993:0:0:0:0:
192,192,204993,128,0,205083:0:0:0:0:
64,192,205083,1,4,0:0:0:0:
320,192,205083,128,2,205150:0:0:0:0:
448,192,205083,1,0,0:0:0:0:
192,192,205150,1,0,0:0:0:0:
448,192,205218,128,0,205286:0:0:0:0:
320,192,205286,1,0,0:0:0:50:LR_Kick Beat High Vfast.wav
64,192,205353,1,2,0:0:0:0:
192,192,205353,128,0,205421:0:0:0:0:
448,192,205421,1,0,0:0:0:0:
64,192,205488,128,0,205556:0:0:0:0:
192,192,205556,1,0,0:0:0:50:LR_Kick Beat High Vfast.wav
320,192,205623,128,2,205691:0:0:0:0:
448,192,205623,1,0,0:0:0:0:
192,192,205691,1,0,0:0:0:0:
64,192,205758,128,0,205826:0:0:0:0:
320,192,205826,1,0,0:0:0:50:LR_Kick Beat High Vfast.wav
192,192,205894,1,2,0:0:0:0:
448,192,205894,128,0,205961:0:0:0:0:
320,192,205961,1,0,0:0:0:0:
64,192,206029,1,0,0:0:0:0:
192,192,206029,128,0,206096:0:0:0:0:
320,192,206096,1,0,0:0:0:50:LR_Kick Beat High Vfast.wav
448,192,206096,1,0,0:0:0:0:
64,192,206164,128,2,206231:0:0:0:0:
192,192,206164,1,0,0:0:0:0:
320,192,206231,128,0,206299:0:0:0:0:
448,192,206299,128,0,206367:0:0:0:50:LR_Kick Beat High Vfast.wav
64,192,206333,1,0,0:0:0:50:LR_Kick Beat High Vfast.wav
192,192,206367,1,0,0:0:0:50:LR_Kick Beat High Vfast.wav
320,192,206400,1,0,0:0:0:50:LR_Kick Beat High Vfast.wav
64,192,206434,128,2,206502:0:0:0:0:
448,192,206434,1,0,0:0:0:0:
192,192,206502,128,0,206569:0:0:0:0:
320,192,206569,128,2,206637:0:0:0:0:
448,192,206637,128,0,206704:0:0:0:0:
64,192,206704,1,2,0:0:0:0:
192,192,206704,128,0,206840:0:0:0:0:
448,192,206772,128,0,206907:0:0:0:0:
320,192,206840,128,2,206975:0:0:0:0:
192,192,206907,128,2,206975:0:0:0:0:
64,192,206975,128,0,207110:0:0:0:0:
448,192,206975,1,0,0:0:0:0:
192,192,207042,128,0,207177:0:0:0:0:
320,192,207110,128,2,207177:0:0:0:0:
448,192,207177,128,2,207245:0:0:0:0:
64,192,207245,128,2,207313:0:0:0:0:
192,192,207245,1,4,0:0:0:0:
320,192,207245,1,0,0:0:0:0:
448,192,207313,1,0,0:0:0:0:
192,192,207380,128,0,207448:0:0:0:0:
320,192,207448,1,0,0:0:0:50:LR_Kick Beat High Vfast.wav
64,192,207515,1,2,0:0:0:0:
448,192,207515,128,0,207583:0:0:0:0:
192,192,207583,1,0,0:0:0:0:
320,192,207650,128,0,207718:0:0:0:0:
192,192,207718,1,0,0:0:0:50:LR_Kick Beat High Vfast.wav
64,192,207786,128,2,207853:0:0:0:0:
448,192,207786,1,0,0:0:0:0:
320,192,207853,1,0,0:0:0:0:
192,192,207921,128,0,207988:0:0:0:0:
320,192,207988,1,0,0:0:0:50:LR_Kick Beat High Vfast.wav
64,192,208056,1,2,0:0:0:0:
448,192,208056,128,0,208123:0:0:0:0:
192,192,208123,1,0,0:0:0:0:
320,192,208191,128,0,208258:0:0:0:0:
448,192,208258,1,0,0:0:0:50:LR_Kick Beat High Vfast.wav
64,192,208326,128,2,208394:0:0:0:0:
192,192,208326,1,0,0:0:0:0:
448,192,208394,1,0,0:0:0:0:
320,192,208461,128,0,208529:0:0:0:0:
192,192,208529,1,0,0:0:0:50:LR_Kick Beat High Vfast.wav
64,192,208596,1,2,0:0:0:0:
448,192,208596,1,0,0:0:0:0:
320,192,208664,1,0,0:0:0:0:
192,192,208731,128,0,208799:0:0:0:0:
448,192,208799,1,0,0:0:0:50:LR_Kick Beat High Vfast.wav
64,192,208867,1,2,0:0:0:0:
192,192,208867,1,0,0:0:0:0:
320,192,208934,1,0,0:0:0:0:
448,192,209002,128,0,209069:0:0:0:0:
192,192,209069,1,0,0:0:0:50:LR_Kick Beat High Vfast.wav
320,192,209137,128,2,209204:0:0:0:0:
448,192,209137,1,0,0:0:0:0:
192,192,209204,1,0,0:0:0:0:
64,192,209272,128,0,209340:0:0:0:0:
320,192,209340,1,0,0:0:0:50:LR_Kick Beat High Vfast.wav
64,192,209407,1,2,0:0:0:0:
192,192,209407,128,0,209475:0:0:0:0:
320,192,209475,1,0,0:0:0:0:
448,192,209542,128,0,209610:0:0:0:0:
192,192,209610,1,0,0:0:0:50:LR_Kick Beat High Vfast.wav
320,192,209677,128,2,209745:0:0:0:0:
448,192,209677,1,0,0:0:0:0:
64,192,209745,1,0,0:0:0:0:
192,192,209813,128,0,209880:0:0:0:0:
320,192,209880,1,0,0:0:0:50:LR_Kick Beat High Vfast.wav
64,192,209948,128,2,210015:0:0:0:0:
192,192,209948,1,0,0:0:0:0:
448,192,210015,1,0,0:0:0:0:
320,192,210083,128,0,210150:0:0:0:0:
192,192,210150,1,0,0:0:0:50:LR_Kick Beat High Vfast.wav
320,192,210218,1,2,0:0:0:0:
448,192,210218,128,0,210286:0:0:0:0:
64,192,210286,1,0,0:0:0:0:
192,192,210353,128,0,210421:0:0:0:0:
320,192,210421,1,0,0:0:0:50:LR_Kick Beat High Vfast.wav
64,192,210488,128,2,210556:0:0:0:0:
448,192,210488,1,0,0:0:0:0:
320,192,210556,1,0,0:0:0:0:
192,192,210623,1,0,0:0:0:0:
64,192,210691,1,0,0:0:0:50:LR_Kick Beat High Vfast.wav
320,192,210758,128,2,210826:0:0:0:0:
448,192,210758,1,0,0:0:0:0:
64,192,210826,1,0,0:0:0:0:
192,192,210894,1,0,0:0:0:0:
320,192,210961,1,0,0:0:0:50:LR_Kick Beat High Vfast.wav
64,192,211029,1,2,0:0:0:0:
448,192,211029,128,0,211096:0:0:0:0:
320,192,211096,1,0,0:0:0:0:
192,192,211164,1,0,0:0:0:0:
64,192,211231,1,0,0:0:0:50:LR_Kick Beat High Vfast.wav
320,192,211299,128,2,211367:0:0:0:0:
448,192,211299,1,0,0:0:0:0:
192,192,211367,1,0,0:0:0:0:
320,192,211434,1,2,0:0:0:0:
448,192,211434,1,0,0:0:0:0:
192,192,211502,1,2,0:0:0:0:
64,192,211569,128,4,211637:0:0:0:0:
320,192,211569,1,2,0:0:0:0:
448,192,211569,1,0,0:0:0:0:
192,192,211704,1,0,0:0:0:0:
320,192,211772,1,0,0:0:0:50:LR_Kick Beat High Vfast.wav
64,192,211840,1,2,0:0:0:0:
448,192,211840,128,0,212020:0:0:0:0:
192,192,211930,128,0,212110:0:0:0:0:
320,192,212020,128,0,212110:0:0:0:0:
64,192,212110,128,2,212290:0:0:0:0:
448,192,212110,1,0,0:0:0:0:
192,192,212200,128,0,212380:0:0:0:0:
320,192,212290,128,0,212380:0:0:0:0:
64,192,212380,1,2,0:0:0:0:
448,192,212380,128,0,212560:0:0:0:0:
320,192,212470,128,0,212560:0:0:0:0:
192,192,212560,128,0,212650:0:0:0:0:
64,192,212650,128,4,212718:0:0:0:0:
320,192,212650,1,2,0:0:0:0:
448,192,212650,1,0,0:0:0:0:
192,192,212786,1,0,0:0:0:0:
320,192,212853,1,0,0:0:0:50:LR_Kick Beat High Vfast.wav
64,192,212921,128,2,213101:0:0:0:0:
448,192,212921,1,0,0:0:0:0:
320,192,213011,128,0,213101:0:0:0:0:
192,192,213101,128,0,213191:0:0:0:0:
64,192,213191,1,4,0:0:0:0:
320,192,213191,128,2,213371:0:0:0:0:
448,192,213191,1,0,0:0:0:0:
192,192,213281,128,0,213461:0:0:0:0:
64,192,213371,128,0,213461:0:0:0:0:
320,192,213461,1,2,0:0:0:0:
448,192,213461,128,0,213641:0:0:0:0:
192,192,213551,128,0,213641:0:0:0:0:
320,192,213641,128,0,213731:0:0:0:0:
64,192,213731,1,4,0:0:0:0:
192,192,213731,128,2,213799:0:0:0:0:
448,192,213731,1,0,0:0:0:0:
320,192,213799,1,0,0:0:0:0:
64,192,213867,128,0,213934:0:0:0:0:
192,192,213934,1,0,0:0:0:50:LR_Kick Beat High Vfast.wav
64,192,214002,1,2,0:0:0:0:
320,192,214002,128,4,214069:0:0:0:0:
448,192,214002,1,0,0:0:0:0:
192,192,214069,1,0,0:0:0:0:
448,192,214137,128,0,214204:0:0:0:0:
320,192,214204,1,0,0:0:0:50:LR_Kick Beat High Vfast.wav
64,192,214272,1,4,0:0:0:0:
192,192,214272,128,2,214340:0:0:0:0:
448,192,214272,1,0,0:0:0:0:
320,192,214340,1,0,0:0:0:0:
448,192,214407,128,0,214475:0:0:0:0:
192,192,214475,1,0,0:0:0:50:LR_Kick Beat High Vfast.wav
64,192,214542,128,2,214610:0:0:0:0:
320,192,214542,1,4,0:0:0:0:
448,192,214542,1,0,0:0:0:0:
192,192,214610,1,0,0:0:0:0:
320,192,214677,128,4,214745:0:0:0:0:
448,192,214677,1,2,0:0:0:0:
64,192,214745,1,4,0:0:0:0:
192,192,214745,1,2,0:0:0:0:
320,192,214813,1,2,0:0:0:0:
448,192,214813,128,4,214880:0:0:0:0:
192,192,214880,128,0,214948:0:0:0:0:
64,192,214948,128,0,215015:0:0:0:50:LR_Kick Beat High Vfast.wav
448,192,214981,1,0,0:0:0:50:LR_Kick Beat High Vfast.wav
320,192,215015,1,4,0:0:0:0:
192,192,215049,1,0,0:0:0:50:LR_Kick Beat High Vfast.wav
64,192,215083,1,2,0:0:0:0:
448,192,215083,128,0,215150:0:0:0:0:
320,192,215150,128,0,215218:0:0:0:0:
192,192,215218,128,2,215286:0:0:0:0:
448,192,215218,1,4,0:0:0:0:
64,192,215286,128,0,215353:0:0:0:0:
192,192,215353,1,4,0:0:0:0:
448,192,215353,128,2,215488:0:0:0:0:
320,192,215421,128,0,215488:0:0:0:0:
64,192,215488,128,2,215556:0:0:0:0:
192,192,215488,128,4,215623:0:0:0:0:
320,192,215556,128,4,215691:0:0:0:0:
448,192,215556,128,2,215691:0:0:0:0:
64,192,215623,128,4,215758:0:0:0:0:
192,192,215691,128,6,215758:0:0:0:0:
320,192,215758,128,2,215826:0:0:0:0:
448,192,215758,128,4,215826:0:0:0:0:
64,192,215826,128,2,215894:0:0:0:0:
192,192,215826,128,4,215894:0:0:0:0:
320,192,215894,1,2,0:0:0:0:
448,192,215894,1,4,0:0:0:0:
192,192,215961,1,0,0:0:0:0:
320,192,216029,1,0,0:0:0:0:
64,192,216096,1,0,0:0:0:50:LR_Kick Beat High Vfast.wav
192,192,216096,1,0,0:0:0:0:
64,192,216164,128,2,216231:0:0:0:0:
192,192,216164,128,0,216231:0:0:0:50:electronic32.wav
448,192,216231,1,0,0:0:0:0:
320,192,216299,1,0,0:0:0:0:
320,192,216367,128,0,216434:0:0:0:50:LR_Kick Beat High Vfast.wav
64,192,216434,1,2,0:0:0:0:
192,192,216434,1,0,0:0:0:0:
448,192,216502,1,0,0:0:0:0:
448,192,216569,128,0,216637:0:0:0:0:
320,192,216637,1,0,0:0:0:50:LR_Kick Beat High Vfast.wav
64,192,216704,1,2,0:0:0:0:
192,192,216704,128,0,216772:0:0:0:50:electronic32.wav
320,192,216772,128,0,216840:0:0:0:0:
448,192,216840,128,0,216907:0:0:0:0:
64,192,216907,128,0,216975:0:0:0:50:LR_Kick Beat High Vfast.wav
192,192,216907,1,0,0:0:0:0:
320,192,216975,128,2,217110:0:0:0:0:
448,192,216975,1,0,0:0:0:0:
192,192,217042,128,0,217110:0:0:0:0:
64,192,217110,128,0,217177:0:0:0:0:
320,192,217177,1,0,0:0:0:50:LR_Kick Beat High Vfast.wav
448,192,217177,128,0,217245:0:0:0:0:
64,192,217245,1,2,0:0:0:0:
192,192,217245,128,0,217313:0:0:0:50:electronic32.wav
320,192,217313,128,0,217380:0:0:0:0:
64,192,217380,128,0,217448:0:0:0:0:
192,192,217380,1,0,0:0:0:0:
448,192,217380,128,0,217448:0:0:0:0:
320,192,217515,1,2,0:0:0:0:
448,192,217515,1,0,0:0:0:0:
64,192,217583,128,0,217650:0:0:0:0:
192,192,217650,128,0,217718:0:0:0:0:
64,192,217718,1,0,0:0:0:50:LR_Kick Beat High Vfast.wav
320,192,217718,128,0,217786:0:0:0:0:
192,192,217786,128,2,217853:0:0:0:0:
448,192,217786,1,0,0:0:0:50:electronic32.wav
320,192,217853,128,0,217921:0:0:0:0:
64,192,217921,128,0,217988:0:0:0:0:
192,192,217988,128,0,218056:0:0:0:50:LR_Kick Beat High Vfast.wav
64,192,218056,1,2,0:0:0:0:
320,192,218056,128,0,218123:0:0:0:0:
448,192,218056,128,0,218123:0:0:0:0:
320,192,218191,128,0,218258:0:0:0:0:
64,192,218258,1,0,0:0:0:50:LR_Kick Beat High Vfast.wav
192,192,218258,128,0,218326:0:0:0:0:
320,192,218326,1,2,0:0:0:0:
448,192,218326,128,0,218394:0:0:0:50:electronic32.wav
64,192,218394,128,0,218461:0:0:0:0:
448,192,218461,128,0,218529:0:0:0:0:
192,192,218529,1,0,0:0:0:50:LR_Kick Beat High Vfast.wav
320,192,218529,128,0,218596:0:0:0:0:
64,192,218596,128,2,218664:0:0:0:0:
448,192,218596,1,0,0:0:0:0:
192,192,218664,128,0,218731:0:0:0:0:
320,192,218731,128,0,218799:0:0:0:0:
64,192,218799,1,0,0:0:0:50:LR_Kick Beat High Vfast.wav
192,192,218799,128,0,218867:0:0:0:0:
320,192,218867,1,2,0:0:0:0:
448,192,218867,128,0,218934:0:0:0:50:electronic32.wav
64,192,218934,128,0,219002:0:0:0:0:
192,192,219002,128,0,219069:0:0:0:0:
64,192,219069,1,0,0:0:0:50:LR_Kick Beat High Vfast.wav
320,192,219069,128,0,219137:0:0:0:0:
192,192,219137,128,2,219340:0:0:0:0:
448,192,219137,128,0,219272:0:0:0:0:
320,192,219204,128,0,219272:0:0:0:0:
64,192,219272,128,0,219340:0:0:0:0:
320,192,219340,128,0,219407:0:0:0:50:LR_Kick Beat High Vfast.wav
448,192,219340,128,0,219407:0:0:0:0:
64,192,219407,128,2,219542:0:0:0:0:
192,192,219407,1,0,0:0:0:50:electronic32.wav
448,192,219475,128,0,219542:0:0:0:0:
320,192,219542,128,0,219610:0:0:0:0:
64,192,219610,1,0,0:0:0:50:LR_Kick Beat High Vfast.wav
192,192,219610,128,0,219677:0:0:0:0:
320,192,219677,128,2,219745:0:0:0:0:
448,192,219677,1,0,0:0:0:50:electronic32.wav
64,192,219745,128,0,219813:0:0:0:50:electronic32.wav
192,192,219745,1,0,0:0:0:0:
448,192,219813,128,0,219880:0:0:0:0:
192,192,219880,1,0,0:0:0:0:
320,192,219880,128,0,219948:0:0:0:0:
64,192,219948,128,2,220015:0:0:0:0:
448,192,219948,1,0,0:0:0:50:electronic32.wav
192,192,220015,128,0,220083:0:0:0:0:
320,192,220083,128,2,220150:0:0:0:0:
448,192,220083,1,0,0:0:0:0:
64,192,220150,128,2,220218:0:0:0:0:
192,192,220218,1,4,0:0:0:0:
320,192,220218,128,2,220286:0:0:0:0:
448,192,220218,128,0,220286:0:0:0:0:
64,192,220353,128,0,220421:0:0:0:0:
320,192,220421,128,0,220488:0:0:0:50:LR_Kick Beat High Vfast.wav
448,192,220421,1,0,0:0:0:0:
64,192,220488,1,2,0:0:0:0:
192,192,220488,128,0,220556:0:0:0:50:electronic32.wav
448,192,220556,128,0,220623:0:0:0:0:
192,192,220623,128,0,220691:0:0:0:0:
64,192,220691,128,0,220758:0:0:0:50:LR_Kick Beat High Vfast.wav
320,192,220691,1,0,0:0:0:0:
192,192,220758,128,2,220961:0:0:0:0:
448,192,220758,128,0,220894:0:0:0:0:
320,192,220826,128,0,220894:0:0:0:0:
64,192,220894,128,0,220961:0:0:0:0:
320,192,220961,128,0,221029:0:0:0:50:LR_Kick Beat High Vfast.wav
448,192,220961,128,0,221029:0:0:0:0:
64,192,221029,128,2,221096:0:0:0:0:
192,192,221029,1,0,0:0:0:50:electronic32.wav
448,192,221096,128,0,221164:0:0:0:0:
320,192,221164,128,0,221231:0:0:0:0:
192,192,221231,128,0,221299:0:0:0:50:LR_Kick Beat High Vfast.wav
64,192,221299,128,4,221367:0:0:0:0:
320,192,221299,1,2,0:0:0:0:
448,192,221299,128,0,221367:0:0:0:0:
448,192,221434,128,0,221502:0:0:0:0:
64,192,221502,128,0,221569:0:0:0:50:LR_Kick Beat High Vfast.wav
192,192,221502,1,0,0:0:0:0:
320,192,221569,128,2,221637:0:0:0:0:
448,192,221569,1,0,0:0:0:50:electronic32.wav
192,192,221637,128,0,221704:0:0:0:0:
320,192,221704,128,0,221772:0:0:0:0:
64,192,221772,1,0,0:0:0:50:LR_Kick Beat High Vfast.wav
448,192,221772,128,0,221840:0:0:0:0:
192,192,221840,128,4,221975:0:0:0:0:
320,192,221840,128,2,222042:0:0:0:0:
64,192,221907,128,0,221975:0:0:0:0:
448,192,221975,128,0,222042:0:0:0:0:
64,192,222042,128,0,222177:0:0:0:50:LR_Kick Beat High Vfast.wav
192,192,222042,128,0,222110:0:0:0:0:
320,192,222110,128,2,222245:0:0:0:0:
448,192,222110,128,0,222313:0:0:0:50:electronic32.wav
192,192,222177,128,0,222313:0:0:0:0:
64,192,222245,128,0,222313:0:0:0:0:
320,192,222313,128,0,222380:0:0:0:50:LR_Kick Beat High Vfast.wav
64,192,222380,128,4,222583:0:0:0:0:
192,192,222380,128,2,222583:0:0:0:0:
448,192,222380,1,0,0:0:0:0:
320,192,222583,1,0,0:0:0:50:LR_Kick Beat High Vfast.wav
448,192,222583,1,0,0:0:0:0:
64,192,222650,1,2,0:0:0:0:
320,192,222650,128,0,222853:0:0:0:50:electronic32.wav
448,192,222650,128,0,222853:0:0:0:0:
64,192,222853,1,0,0:0:0:50:LR_Kick Beat High Vfast.wav
192,192,222853,1,0,0:0:0:0:
64,192,222921,128,2,223123:0:0:0:0:
192,192,222921,128,0,223123:0:0:0:0:
448,192,222921,1,0,0:0:0:0:
320,192,223123,1,0,0:0:0:50:LR_Kick Beat High Vfast.wav
448,192,223123,1,0,0:0:0:0:
192,192,223191,1,2,0:0:0:0:
320,192,223191,128,0,223326:0:0:0:50:electronic32.wav
448,192,223191,128,0,223326:0:0:0:0:
64,192,223326,128,2,223394:0:0:0:0:
192,192,223326,1,4,0:0:0:0:
320,192,223394,1,2,0:0:0:0:
448,192,223394,128,4,223461:0:0:0:0:
64,192,223461,1,4,0:0:0:0:
192,192,223461,128,2,223529:0:0:0:0:
320,192,223529,128,0,223596:0:0:0:0:
64,192,223596,128,0,223664:0:0:0:50:LR_Kick Beat High Vfast.wav
192,192,223630,1,0,0:0:0:50:LR_Kick Beat High Vfast.wav
320,192,223664,128,4,223731:0:0:0:0:
448,192,223698,1,0,0:0:0:50:LR_Kick Beat High Vfast.wav
64,192,223731,1,0,0:0:0:50:LR_Kick Beat High Vfast.wav
192,192,223731,128,0,223799:0:0:0:0:
448,192,223799,128,0,223867:0:0:0:0:
64,192,223867,128,2,223934:0:0:0:0:
192,192,223867,1,4,0:0:0:0:
320,192,223934,128,4,224002:0:0:0:0:
448,192,223934,1,2,0:0:0:0:
64,192,224002,1,4,0:0:0:0:
192,192,224002,128,2,224137:0:0:0:0:
448,192,224069,128,0,224137:0:0:0:0:
320,192,224137,128,4,224340:0:0:0:0:
64,192,224204,128,2,224407:0:0:0:0:
192,192,224204,128,4,224272:0:0:0:0:
448,192,224272,128,0,224340:0:0:0:0:
192,192,224340,128,6,224407:0:0:0:0:
320,192,224407,128,2,224475:0:0:0:0:
448,192,224407,128,4,224475:0:0:0:0:
64,192,224475,128,2,224542:0:0:0:0:
192,192,224475,128,4,224542:0:0:0:0:
320,192,224542,1,4,0:0:0:0:
448,192,224542,128,0,224610:0:0:0:50:electronic32.wav
64,192,224610,1,0,0:0:0:0:
192,192,224677,1,2,0:0:0:0:
448,192,224677,1,0,0:0:0:0:
320,192,224745,1,0,0:0:0:50:LR_Kick Beat High Vfast.wav
64,192,224813,1,0,0:0:0:50:electronic32.wav
192,192,224813,128,0,224880:0:0:0:0:
448,192,224880,128,0,224948:0:0:0:0:
192,192,224948,1,2,0:0:0:0:
320,192,224948,128,0,225015:0:0:0:0:
64,192,225015,1,0,0:0:0:50:LR_Kick Beat High Vfast.wav
320,192,225083,1,0,0:0:0:50:electronic32.wav
448,192,225083,128,0,225150:0:0:0:0:
64,192,225150,128,0,225218:0:0:0:0:
192,192,225218,128,2,225286:0:0:0:0:
320,192,225218,1,0,0:0:0:0:
448,192,225286,128,0,225353:0:0:0:50:LR_Kick Beat High Vfast.wav
64,192,225353,128,0,225421:0:0:0:50:electronic32.wav
192,192,225353,1,0,0:0:0:0:
448,192,225421,1,0,0:0:0:0:
64,192,225488,1,2,0:0:0:0:
320,192,225488,128,0,225556:0:0:0:0:
192,192,225556,128,0,225623:0:0:0:50:LR_Kick Beat High Vfast.wav
320,192,225623,1,0,0:0:0:50:electronic32.wav
448,192,225623,128,0,225691:0:0:0:0:
64,192,225691,128,0,225758:0:0:0:0:
192,192,225758,128,2,225826:0:0:0:0:
320,192,225758,1,0,0:0:0:0:
448,192,225826,128,0,225894:0:0:0:50:LR_Kick Beat High Vfast.wav
64,192,225894,128,0,225961:0:0:0:50:electronic32.wav
192,192,225894,1,0,0:0:0:0:
448,192,225961,128,0,226029:0:0:0:0:
192,192,226029,1,2,0:0:0:0:
320,192,226029,128,0,226096:0:0:0:0:
64,192,226096,128,0,226164:0:0:0:50:LR_Kick Beat High Vfast.wav
320,192,226164,128,0,226231:0:0:0:50:electronic32.wav
448,192,226164,128,0,226299:0:0:0:0:
64,192,226231,128,0,226299:0:0:0:0:
192,192,226299,128,2,226367:0:0:0:0:
320,192,226299,128,0,226434:0:0:0:0:
448,192,226367,128,0,226434:0:0:0:50:LR_Kick Beat High Vfast.wav
64,192,226434,128,0,226569:0:0:0:50:electronic32.wav
192,192,226434,128,0,226502:0:0:0:0:
448,192,226502,128,0,226569:0:0:0:0:
192,192,226569,128,2,226637:0:0:0:0:
320,192,226569,128,0,226637:0:0:0:0:
64,192,226637,128,0,226704:0:0:0:50:LR_Kick Beat High Vfast.wav
192,192,226704,128,4,226840:0:0:0:0:
320,192,226704,1,0,0:0:0:50:electronic32.wav
448,192,226704,128,0,226772:0:0:0:0:
64,192,226772,128,0,226840:0:0:0:0:
320,192,226840,128,2,226907:0:0:0:0:
448,192,226840,128,0,226975:0:0:0:0:
192,192,226907,128,0,226975:0:0:0:50:LR_Kick Beat High Vfast.wav
64,192,226975,128,0,227042:0:0:0:50:electronic32.wav
320,192,226975,128,0,227110:0:0:0:0:
448,192,227042,128,0,227110:0:0:0:0:
64,192,227110,128,2,227245:0:0:0:0:
192,192,227110,128,0,227177:0:0:0:0:
320,192,227177,128,0,227245:0:0:0:50:LR_Kick Beat High Vfast.wav
192,192,227245,128,0,227380:0:0:0:50:electronic32.wav
448,192,227245,128,0,227313:0:0:0:0:
64,192,227313,128,0,227380:0:0:0:0:
320,192,227380,128,2,227448:0:0:0:0:
448,192,227380,128,0,227515:0:0:0:0:
192,192,227448,128,0,227515:0:0:0:50:LR_Kick Beat High Vfast.wav
64,192,227515,128,0,227583:0:0:0:50:electronic32.wav
320,192,227515,128,0,227650:0:0:0:0:
448,192,227583,128,0,227650:0:0:0:0:
64,192,227650,128,2,227718:0:0:0:0:
192,192,227650,128,0,227718:0:0:0:0:
320,192,227718,128,0,227786:0:0:0:50:LR_Kick Beat High Vfast.wav
64,192,227786,1,4,0:0:0:0:
192,192,227786,128,0,227853:0:0:0:50:electronic32.wav
448,192,227786,128,0,227921:0:0:0:0:
320,192,227853,128,0,227988:0:0:0:0:
64,192,227921,128,2,227988:0:0:0:0:
192,192,227921,128,0,227988:0:0:0:0:
448,192,227988,128,0,228056:0:0:0:50:LR_Kick Beat High Vfast.wav
64,192,228056,128,4,228123:0:0:0:0:
320,192,228056,128,0,228191:0:0:0:50:electronic32.wav
192,192,228123,128,0,228258:0:0:0:0:
64,192,228191,128,2,228258:0:0:0:0:
448,192,228191,128,0,228258:0:0:0:0:
320,192,228258,128,0,228326:0:0:0:50:LR_Kick Beat High Vfast.wav
64,192,228326,128,4,228427:0:0:0:0:
192,192,228326,128,0,228394:0:0:0:50:electronic32.wav
448,192,228326,128,0,228461:0:0:0:0:
320,192,228394,128,0,228495:0:0:0:0:
192,192,228461,128,0,228529:0:0:0:50:LR_Kick Beat High Vfast.wav
64,192,228495,1,0,0:0:0:50:LR_Kick Beat High Vfast.wav
448,192,228529,128,0,228664:0:0:0:50:LR_Kick Beat High Vfast.wav
320,192,228563,1,0,0:0:0:50:LR_Kick Beat High Vfast.wav
64,192,228596,128,4,228731:0:0:0:0:
192,192,228596,128,2,228664:0:0:0:0:
320,192,228664,128,2,228799:0:0:0:0:
192,192,228731,128,2,228867:0:0:0:0:
448,192,228731,128,0,228799:0:0:0:0:
64,192,228799,128,2,228867:0:0:0:0:
320,192,228867,1,4,0:0:0:0:
448,192,228867,1,2,0:0:0:0:
64,192,228934,1,2,0:0:0:0:
192,192,228934,1,4,0:0:0:0:
320,192,229002,1,0,0:0:0:0:
64,192,229069,1,4,0:0:0:0:
448,192,229069,1,2,0:0:0:0:
192,192,229137,1,2,0:0:0:0:
320,192,229137,1,4,0:0:0:0:
448,192,229204,1,0,0:0:0:0:
64,192,229272,1,2,0:0:0:0:
192,192,229272,1,4,0:0:0:0:
320,192,229340,1,4,0:0:0:0:
448,192,229340,1,2,0:0:0:0:
64,192,229407,1,0,0:0:0:0:
192,192,229475,1,4,0:0:0:0:
320,192,229475,1,2,0:0:0:0:
64,192,229542,1,2,0:0:0:0:
448,192,229542,1,4,0:0:0:0:
320,192,229610,1,0,0:0:0:0:
64,192,229677,1,2,0:0:0:0:
192,192,229677,1,4,0:0:0:0:
320,192,229745,1,4,0:0:0:0:
448,192,229745,1,2,0:0:0:0:
64,192,229813,1,4,0:0:0:0:
192,192,229813,1,2,0:0:0:0:
320,192,229880,1,2,0:0:0:0:
448,192,229880,1,4,0:0:0:0:
64,192,229948,1,2,0:0:0:0:
192,192,229948,1,4,0:0:0:0:
320,192,230015,1,4,0:0:0:0:
448,192,230015,1,2,0:0:0:0:
192,192,230083,1,0,0:0:0:0:
64,192,230150,1,2,0:0:0:0:
320,192,230150,1,4,0:0:0:0:
192,192,230218,1,4,0:0:0:0:
448,192,230218,1,2,0:0:0:0:
64,192,230286,1,0,0:0:0:0:
320,192,230353,1,4,0:0:0:0:
448,192,230353,1,2,0:0:0:0:
64,192,230421,1,2,0:0:0:0:
192,192,230421,1,4,0:0:0:0:
320,192,230488,1,0,0:0:0:0:
192,192,230556,1,2,0:0:0:0:
448,192,230556,1,4,0:0:0:0:
64,192,230623,1,4,0:0:0:0:
320,192,230623,1,2,0:0:0:0:
192,192,230691,1,0,0:0:0:0:
320,192,230758,1,4,0:0:0:0:
448,192,230758,1,2,0:0:0:0:
64,192,230826,1,2,0:0:0:0:
192,192,230826,1,4,0:0:0:0:
448,192,230894,1,6,0:0:0:0:
320,192,230927,1,2,0:0:0:0:
192,192,230961,1,6,0:0:0:0:
64,192,230995,1,2,0:0:0:0:
320,192,231029,1,4,0:0:0:0:
448,192,231029,1,2,0:0:0:0:
64,192,231096,1,2,0:0:0:0:
192,192,231096,1,4,0:0:0:0:
320,192,231164,1,2,0:0:0:0:
448,192,231198,1,2,0:0:0:0:
64,192,231231,1,6,0:0:0:0:
192,192,231265,1,2,0:0:0:0:
320,192,231299,1,2,0:0:0:0:
448,192,231299,1,4,0:0:0:0:
64,192,231367,1,0,0:0:0:0:
192,192,231367,1,0,0:0:0:0:
448,192,231434,1,6,0:0:0:0:
320,192,231468,1,2,0:0:0:0:
192,192,231502,1,6,0:0:0:0:
64,192,231536,1,2,0:0:0:0:
320,192,231569,1,2,0:0:0:0:
448,192,231569,1,0,0:0:0:0:
64,192,231637,1,4,0:0:0:0:
192,192,231637,1,2,0:0:0:0:
320,192,231704,1,6,0:0:0:0:
448,192,231738,1,2,0:0:0:0:
64,192,231772,1,2,0:0:0:0:
192,192,231806,1,2,0:0:0:0:
320,192,231840,1,4,0:0:0:0:
448,192,231840,1,2,0:0:0:0:
64,192,231907,1,4,0:0:0:0:
192,192,231907,1,2,0:0:0:0:
448,192,231975,1,6,0:0:0:0:
320,192,232008,1,2,0:0:0:0:
192,192,232042,1,6,0:0:0:0:
64,192,232110,1,4,0:0:0:0:
320,192,232110,1,2,0:0:0:0:
448,192,232110,128,0,232177:0:0:0:0:
192,192,232177,128,0,232245:0:0:0:0:
64,192,232245,128,0,232313:0:0:0:0:
320,192,232313,128,0,232380:0:0:0:0:
64,192,232380,128,0,232448:0:0:0:0:
192,192,232380,128,0,232448:0:0:0:0:
448,192,232448,128,0,232515:0:0:0:0:
320,192,232515,128,0,232583:0:0:0:0:
192,192,232583,128,0,232650:0:0:0:0:
64,192,232650,128,0,232718:0:0:0:0:
320,192,232718,128,0,232786:0:0:0:0:
192,192,232786,128,0,232853:0:0:0:0:
64,192,232853,128,0,232921:0:0:0:0:
448,192,232921,128,0,232988:0:0:0:0:
320,192,232988,128,0,233056:0:0:0:0:
192,192,233056,128,0,233123:0:0:0:0:
320,192,233123,128,0,233191:0:0:0:0:
64,192,233191,128,0,233258:0:0:0:0:
192,192,233258,128,0,233326:0:0:0:0:
64,192,233326,128,0,233394:0:0:0:0:
320,192,233394,128,0,233461:0:0:0:0:
448,192,233394,128,0,233461:0:0:0:0:
192,192,233461,128,0,233529:0:0:0:0:
64,192,233529,128,0,233596:0:0:0:0:
448,192,233596,128,0,233664:0:0:0:0:
320,192,233664,128,0,233731:0:0:0:0:
192,192,233731,128,0,233799:0:0:0:0:
320,192,233799,128,0,233867:0:0:0:0:
448,192,233867,128,0,233934:0:0:0:0:
192,192,233934,128,0,234002:0:0:0:0:
320,192,234002,128,0,234069:0:0:0:0:
448,192,234069,128,0,234137:0:0:0:0:
64,192,234137,128,0,234204:0:0:0:0:
192,192,234204,128,0,234272:0:0:0:0:
320,192,234272,1,0,0:0:0:0:
448,192,234340,1,0,0:0:0:0:
192,192,234407,1,0,0:0:0:0:
320,192,234497,1,0,0:0:0:0:
64,192,234542,1,2,0:0:0:0:
192,192,234542,1,4,0:0:0:0:
448,192,234542,128,0,237515:0:0:0:0:
64,192,234948,1,0,0:0:0:0:
320,192,235083,1,0,0:0:0:0:
192,192,235218,1,0,0:0:0:0:
320,192,235353,1,0,0:0:0:0:
64,192,235488,1,0,0:0:0:0:
192,192,235758,1,0,0:0:0:0:
320,192,235894,1,0,0:0:0:0:
64,192,236029,1,0,0:0:0:0:
320,192,236164,1,0,0:0:0:0:
192,192,236299,1,0,0:0:0:0:
64,192,236569,1,0,0:0:0:0:
192,192,236704,1,0,0:0:0:0:
320,192,236840,1,0,0:0:0:0:
192,192,236975,1,0,0:0:0:0:
64,192,237110,1,0,0:0:0:0:
320,192,237245,1,0,0:0:0:0:
192,192,237380,1,0,0:0:0:0:
64,192,237515,1,0,0:0:0:0:
320,192,237650,1,0,0:0:0:0:
448,192,237786,1,0,0:0:0:0:
64,192,237921,1,0,0:0:0:0:
192,192,238056,1,0,0:0:0:0:
448,192,238191,1,0,0:0:0:0:
320,192,238461,1,0,0:0:0:0:
320,192,238596,1,0,0:0:0:0:
192,192,238731,1,0,0:0:0:0:
64,192,238867,1,0,0:0:0:0:
320,192,239002,1,0,0:0:0:0:
448,192,239137,1,0,0:0:0:0:
320,192,239272,1,0,0:0:0:0:
192,192,239407,1,0,0:0:0:0:
64,192,239542,1,0,0:0:0:0:
320,192,239677,1,0,0:0:0:0:
448,192,239813,1,0,0:0:0:0:
192,192,239948,1,0,0:0:0:0:
320,192,240083,1,0,0:0:0:0:
64,192,240218,1,0,0:0:0:0:
192,192,240353,1,0,0:0:0:0:
320,192,240488,1,0,0:0:0:0:
64,192,240623,1,0,0:0:0:0:
448,192,240623,1,0,0:0:0:0:
192,192,240894,1,0,0:0:0:0:
320,192,241029,1,0,0:0:0:0:
64,192,241164,1,0,0:0:0:0:
448,192,241299,1,0,0:0:0:0:
320,192,241434,1,0,0:0:0:0:
192,192,241569,1,0,0:0:0:0:
64,192,241704,1,0,0:0:0:0:
320,192,241840,1,0,0:0:0:0:
192,192,241975,1,2,0:0:0:0:
448,192,241975,1,0,0:0:0:0:
192,192,242110,1,2,0:0:0:0:
448,192,242110,1,0,0:0:0:0:
64,192,242245,1,2,0:0:0:0:
320,192,242245,1,0,0:0:0:0:
64,192,242380,1,2,0:0:0:0:
320,192,242380,1,0,0:0:0:0:
192,192,242515,1,2,0:0:0:0:
320,192,242515,1,0,0:0:0:0:
448,192,242515,1,0,0:0:0:0:
192,192,242650,1,2,0:0:0:0:
320,192,242650,1,4,0:0:0:0:
448,192,242650,1,0,0:0:0:0:
64,192,242786,128,2,243056:0:0:0:0:
192,192,242786,128,4,243056:0:0:0:0:
320,192,242786,128,0,242921:0:0:0:0:
448,192,242786,128,0,242921:0:0:0:0:
