osu file format v14

[General]
AudioFilename: audio.mp3
AudioLeadIn: 0
PreviewTime: 29646
Countdown: 0
SampleSet: Soft
StackLeniency: 0.7
Mode: 3
LetterboxInBreaks: 0
SpecialStyle: 0
WidescreenStoryboard: 0

[Editor]
DistanceSpacing: 0.8
BeatDivisor: 4
GridSize: 32
TimelineZoom: 2.3

[Metadata]
Title:Mirage Garden
TitleUnicode:Mirage Garden
Artist:xi
ArtistUnicode:xi
Creator:ilikexd
Version:Insane
Source:
Tags:rock prog progression fusion parousia diverse system 100sec records bof2009 the bms of fighters revolutionary battles piano famoss instrumental
BeatmapID:2820008
BeatmapSetID:1280470

[Difficulty]
HPDrainRate:8
CircleSize:4
OverallDifficulty:8
ApproachRate:5
SliderMultiplier:1.4
SliderTickRate:1

[Events]
//Background and Video events
0,0,"mgbg.jpg",0,0
//Break Periods
//Storyboard Layer 0 (Background)
//Storyboard Layer 1 (Fail)
//Storyboard Layer 2 (Pass)
//Storyboard Layer 3 (Foreground)
//Storyboard Layer 4 (Overlay)
//Storyboard Sound Samples

[TimingPoints]
1010,461.538461538462,4,2,1,40,1,0
1010,-83.3333333333333,4,2,1,40,0,0
2702,461.538461538462,4,2,1,40,1,0
2702,-83.3333333333333,4,2,1,40,0,0
4394,461.538461538462,4,2,1,40,1,0
4394,-83.3333333333333,4,2,1,40,0,0
6086,461.538461538462,4,2,1,40,1,0
6086,-83.3333333333333,4,2,1,40,0,0
7779,461.538461538462,4,2,1,40,1,0
7779,-83.3333333333333,4,2,1,40,0,0
9471,461.538461538462,4,2,1,40,1,0
9471,-83.3333333333333,4,2,1,40,0,0
11010,461.538461538462,4,2,1,40,1,0
11010,-83.3333333333333,4,2,1,40,0,0
12548,461.538461538462,4,2,1,40,1,0
12548,-83.3333333333333,4,2,1,40,0,0
14394,461.538461538462,4,2,1,40,1,0
14394,-83.3333333333333,4,2,1,40,0,0
16086,461.538461538462,4,2,1,40,1,0
16086,-83.3333333333333,4,2,1,40,0,0
17779,461.538461538462,4,2,1,40,1,0
17779,-83.3333333333333,4,2,1,40,0,0
19471,461.538461538462,4,2,1,40,1,0
19471,-83.3333333333333,4,2,1,40,0,0
21163,461.538461538462,4,2,1,40,1,0
21163,-83.3333333333333,4,2,1,40,0,0
22856,461.538461538462,4,2,1,40,1,0
22856,-83.3333333333333,4,2,1,40,0,0
24558,476.190476190477,4,2,1,40,1,0
24558,-80.6451612903226,4,2,1,40,0,0
25035,491.803278688525,4,2,1,40,1,8
25035,-78.125,4,2,1,40,0,8
25525,512.820512820513,4,2,1,40,1,8
25525,-75.187969924812,4,2,1,40,0,8
26040,530.973451327434,4,2,1,40,1,8
26040,-72.463768115942,4,2,1,40,0,8
26571,384.615384615385,4,2,1,45,1,0
29647,384.615384615385,4,2,1,55,1,0
32628,384.615384615385,4,2,1,55,1,0
35609,384.615384615385,4,2,1,55,1,0
38590,384.615384615385,4,2,1,55,1,0
41667,384.615384615385,4,2,1,55,1,0
44647,384.615384615385,4,2,1,55,1,0
47628,384.615384615385,4,2,1,55,1,0
50609,384.615384615385,4,2,1,55,1,0
53686,384.615384615385,7,2,1,55,1,0
64647,384.615384615385,7,2,1,55,1,0
72724,384.615384615385,8,2,1,55,1,0
75609,384.615384615385,4,2,1,55,1,0
81378,384.615384615385,4,2,1,55,1,0
102532,384.615384615385,4,2,1,55,1,0
105609,384.615384615385,4,2,1,55,1,0
108301,384.615384615385,4,2,1,55,1,0
111378,384.615384615385,4,2,1,55,1,0
114071,384.615384615385,4,2,1,55,1,0
117147,384.615384615385,4,2,1,55,1,0
123306,769.230769230769,2,2,1,45,1,0
123306,-50,4,2,1,45,0,0
140219,769.230769230769,4,2,1,45,1,0
140219,-50,4,2,1,45,0,0
144844,384.615384615385,4,2,1,50,1,0
147921,384.615384615385,4,2,1,55,1,0
200229,384.615384615385,4,2,1,55,1,0
203210,384.615384615385,4,2,1,55,1,0
206191,384.615384615385,4,2,1,55,1,0
209172,384.615384615385,4,2,1,55,1,0
212249,384.615384615385,4,2,1,55,1,0
215229,384.615384615385,4,2,1,55,1,0
218210,384.615384615385,4,2,1,55,1,0
221191,384.615384615385,4,2,1,55,1,0
224268,384.615384615385,4,2,1,55,1,0
226976,384.615384615385,4,2,1,55,1,0
227088,384.615384615385,4,2,1,55,1,0
227345,384.615384615385,7,2,1,55,1,0

[HitObjects]
64,192,1010,5,2,0:0:0:0:
192,192,1010,1,4,0:0:0:0:
448,192,1010,1,0,0:0:0:0:
64,192,1317,1,0,0:0:0:0:
192,192,1471,1,0,0:0:0:0:
448,192,1779,1,0,0:0:0:0:
64,192,2086,1,2,0:0:0:0:
192,192,2240,1,0,0:0:0:0:
320,192,2394,1,0,0:0:0:0:
448,192,2548,1,0,0:0:0:0:
192,192,2702,1,2,0:0:0:0:
320,192,2702,1,0,0:0:0:0:
64,192,3009,1,0,0:0:0:0:
320,192,3163,1,0,0:0:0:0:
448,192,3471,1,0,0:0:0:0:
192,192,3625,1,0,0:0:0:0:
64,192,3778,1,0,0:0:0:0:
320,192,3932,1,2,0:0:0:0:
448,192,4009,1,2,0:0:0:0:
64,192,4086,1,2,0:0:0:0:
320,192,4086,1,0,0:0:0:0:
192,192,4240,1,2,0:0:0:0:
64,192,4394,1,4,0:0:0:0:
320,192,4394,1,2,0:0:0:0:
448,192,4394,1,0,0:0:0:0:
64,192,4701,1,0,0:0:0:0:
192,192,4855,1,0,0:0:0:0:
320,192,5163,1,0,0:0:0:0:
64,192,5470,1,2,0:0:0:0:
448,192,5470,1,0,0:0:0:0:
192,192,5624,1,0,0:0:0:0:
64,192,5778,1,2,0:0:0:0:
320,192,5778,1,0,0:0:0:0:
192,192,5881,1,2,0:0:0:0:
320,192,5980,1,2,0:0:0:0:
64,192,6086,1,2,0:0:0:0:
448,192,6086,1,0,0:0:0:0:
192,192,6393,1,0,0:0:0:0:
320,192,6547,1,0,0:0:0:0:
64,192,6855,1,2,0:0:0:0:
448,192,6855,1,0,0:0:0:0:
192,192,7162,1,2,0:0:0:0:
320,192,7162,1,0,0:0:0:0:
64,192,7268,1,0,0:0:0:0:
448,192,7368,1,0,0:0:0:0:
320,192,7470,1,2,0:0:0:0:
192,192,7547,1,0,0:0:0:0:
64,192,7624,1,2,0:0:0:0:
448,192,7701,1,0,0:0:0:0:
64,192,7778,1,0,0:0:0:0:
192,192,7778,1,0,0:0:0:0:
320,192,7778,1,0,0:0:0:0:
64,192,8086,1,0,0:0:0:0:
192,192,8240,1,0,0:0:0:0:
320,192,8548,1,0,0:0:0:0:
192,192,8702,1,0,0:0:0:0:
320,192,8779,1,0,0:0:0:0:
64,192,8855,1,2,0:0:0:0:
448,192,8855,1,0,0:0:0:0:
192,192,9086,1,2,0:0:0:0:
448,192,9086,1,0,0:0:0:0:
320,192,9317,1,2,0:0:0:0:
448,192,9317,1,0,0:0:0:0:
192,192,9471,1,2,0:0:0:0:
320,192,9471,1,4,0:0:0:0:
448,192,9471,1,0,0:0:0:0:
64,192,9624,1,0,0:0:0:0:
192,192,9778,1,0,0:0:0:0:
448,192,9932,1,0,0:0:0:0:
320,192,10086,1,2,0:0:0:0:
64,192,10394,1,2,0:0:0:0:
320,192,10394,1,0,0:0:0:0:
192,192,10701,1,0,0:0:0:0:
320,192,10855,1,2,0:0:0:0:
64,192,11010,1,2,0:0:0:0:
192,192,11010,1,4,0:0:0:0:
448,192,11010,1,0,0:0:0:0:
64,192,11317,1,0,0:0:0:0:
192,192,11471,1,0,0:0:0:0:
448,192,11625,1,0,0:0:0:0:
64,192,11933,1,2,0:0:0:0:
448,192,11933,1,0,0:0:0:0:
448,192,12240,1,2,0:0:0:0:
320,192,12317,1,0,0:0:0:0:
192,192,12394,1,2,0:0:0:0:
64,192,12548,1,2,0:0:0:0:
320,192,12548,1,4,0:0:0:0:
448,192,12548,1,0,0:0:0:0:
192,192,12701,1,2,0:0:0:0:
64,192,12855,1,0,0:0:0:0:
192,192,12932,1,0,0:0:0:0:
320,192,13009,1,0,0:0:0:0:
64,192,13163,1,0,0:0:0:0:
320,192,13317,1,0,0:0:0:0:
192,192,13471,1,2,0:0:0:0:
320,192,13499,1,0,0:0:0:0:
448,192,13528,1,0,0:0:0:0:
64,192,13624,1,8,0:0:0:0:
64,192,13778,1,8,0:0:0:0:
192,192,13932,1,2,0:0:0:0:
64,192,14086,1,2,0:0:0:0:
448,192,14086,1,0,0:0:0:0:
320,192,14240,1,2,0:0:0:0:
64,192,14394,1,4,0:0:0:0:
192,192,14394,1,2,0:0:0:0:
448,192,14394,1,0,0:0:0:0:
64,192,14701,1,0,0:0:0:0:
192,192,14855,1,0,0:0:0:0:
448,192,15163,1,0,0:0:0:0:
64,192,15470,1,2,0:0:0:0:
192,192,15624,1,0,0:0:0:0:
320,192,15778,1,0,0:0:0:0:
448,192,15932,1,0,0:0:0:0:
192,192,16086,1,2,0:0:0:0:
320,192,16086,1,0,0:0:0:0:
64,192,16393,1,0,0:0:0:0:
320,192,16547,1,0,0:0:0:0:
448,192,16855,1,0,0:0:0:0:
192,192,17009,1,0,0:0:0:0:
64,192,17162,1,0,0:0:0:0:
320,192,17316,1,0,0:0:0:0:
448,192,17393,1,2,0:0:0:0:
64,192,17470,1,2,0:0:0:0:
320,192,17470,1,0,0:0:0:0:
192,192,17624,1,2,0:0:0:0:
64,192,17778,1,0,0:0:0:0:
320,192,17778,1,0,0:0:0:0:
448,192,17778,1,0,0:0:0:0:
64,192,18086,1,0,0:0:0:0:
192,192,18240,1,0,0:0:0:0:
320,192,18548,1,0,0:0:0:0:
64,192,18855,1,2,0:0:0:0:
448,192,18855,1,0,0:0:0:0:
192,192,19009,1,0,0:0:0:0:
64,192,19163,1,2,0:0:0:0:
320,192,19163,1,0,0:0:0:0:
192,192,19266,1,2,0:0:0:0:
320,192,19368,1,0,0:0:0:0:
64,192,19471,1,2,0:0:0:0:
448,192,19471,1,0,0:0:0:0:
192,192,19778,1,0,0:0:0:0:
320,192,19932,1,0,0:0:0:0:
64,192,20240,1,0,0:0:0:0:
448,192,20240,1,0,0:0:0:0:
192,192,20547,1,2,0:0:0:0:
320,192,20547,1,0,0:0:0:0:
64,192,20650,1,0,0:0:0:0:
448,192,20753,1,0,0:0:0:0:
320,192,20855,1,2,0:0:0:0:
192,192,20932,1,0,0:0:0:0:
64,192,21009,1,2,0:0:0:0:
448,192,21086,1,0,0:0:0:0:
64,192,21163,1,2,0:0:0:0:
192,192,21163,1,4,0:0:0:0:
320,192,21163,1,0,0:0:0:0:
64,192,21470,1,0,0:0:0:0:
192,192,21624,1,0,0:0:0:0:
320,192,21932,1,0,0:0:0:0:
192,192,22086,1,0,0:0:0:0:
320,192,22163,1,0,0:0:0:0:
64,192,22239,1,2,0:0:0:0:
448,192,22239,1,0,0:0:0:0:
192,192,22470,1,2,0:0:0:0:
448,192,22470,1,0,0:0:0:0:
320,192,22701,1,2,0:0:0:0:
448,192,22701,1,0,0:0:0:0:
192,192,22855,1,0,0:0:0:0:
320,192,22855,1,0,0:0:0:0:
448,192,22855,1,0,0:0:0:0:
64,192,23009,1,0,0:0:0:0:
192,192,23163,1,0,0:0:0:0:
448,192,23317,1,0,0:0:0:0:
320,192,23471,1,2,0:0:0:0:
64,192,23779,1,2,0:0:0:0:
320,192,23779,1,0,0:0:0:0:
64,192,24096,1,0,0:0:0:0:
192,192,24148,1,0,0:0:0:0:
320,192,24211,1,0,0:0:0:0:
448,192,24394,1,0,0:0:0:0:
64,192,24558,1,0,0:0:0:0:
192,192,24558,1,0,0:0:0:0:
448,192,24558,1,0,0:0:0:0:
192,192,24875,1,0,0:0:0:0:
320,192,25034,1,0,0:0:0:0:
64,192,25188,1,0,0:0:0:0:
192,192,25525,1,2,0:0:0:0:
448,192,25525,1,0,0:0:0:0:
320,192,25845,1,2,0:0:0:0:
64,192,26037,1,0,0:0:0:0:
192,192,26205,1,0,0:0:0:0:
64,192,26570,1,0,0:0:0:0:
192,192,26570,1,0,0:0:0:0:
320,192,26570,1,0,0:0:0:0:
448,192,26570,1,0,0:0:0:0:
192,192,28109,1,2,0:0:0:0:
64,192,28301,1,8,0:0:0:0:
448,192,28301,1,0,0:0:0:0:
448,192,28494,1,2,0:0:0:0:
320,192,28590,1,2,0:0:0:0:
192,192,28686,1,2,0:0:0:0:
64,192,28782,1,2,0:0:0:0:
320,192,28878,1,8,0:0:0:0:
448,192,28878,1,0,0:0:0:0:
64,192,28974,1,8,0:0:0:0:
192,192,28974,1,0,0:0:0:0:
448,192,29071,1,8,0:0:0:0:
320,192,29119,1,0,0:0:0:0:
64,192,29167,1,8,0:0:0:0:
448,192,29215,1,0,0:0:0:0:
192,192,29263,1,10,0:0:0:0:
64,192,29311,1,8,0:0:0:0:
448,192,29359,1,8,0:0:0:0:
320,192,29407,1,8,0:0:0:0:
192,192,29455,1,10,0:0:0:0:
64,192,29503,1,0,0:0:0:0:
192,192,29647,1,2,0:0:0:0:
320,192,29647,1,4,0:0:0:0:
448,192,29647,1,0,0:0:0:0:
64,192,29743,1,0,0:0:0:0:
192,192,29839,1,8,0:0:0:0:
320,192,29935,1,8,0:0:0:0:
448,192,30031,1,2,0:0:0:0:
64,192,30127,1,2,0:0:0:0:
320,192,30127,1,0,0:0:0:0:
192,192,30320,1,2,0:0:0:0:
448,192,30320,1,0,0:0:0:0:
64,192,30512,1,2,0:0:0:0:
192,192,30608,1,8,0:0:0:0:
448,192,30608,1,0,0:0:0:0:
64,192,30704,1,8,0:0:0:0:
320,192,30800,1,8,0:0:0:0:
192,192,30864,1,2,0:0:0:0:
448,192,30929,1,2,0:0:0:0:
64,192,30993,1,2,0:0:0:0:
192,192,31057,1,2,0:0:0:0:
320,192,31121,1,2,0:0:0:0:
64,192,31185,1,4,0:0:0:0:
192,192,31185,1,2,0:0:0:0:
448,192,31185,1,0,0:0:0:0:
320,192,31281,1,0,0:0:0:0:
192,192,31377,1,2,0:0:0:0:
64,192,31473,1,2,0:0:0:0:
192,192,31570,1,8,0:0:0:0:
448,192,31570,1,0,0:0:0:0:
64,192,31666,1,2,0:0:0:0:
320,192,31666,1,0,0:0:0:0:
192,192,31858,1,2,0:0:0:0:
320,192,31858,1,4,0:0:0:0:
320,192,32050,1,2,0:0:0:0:
448,192,32050,1,4,0:0:0:0:
192,192,32243,1,4,0:0:0:0:
448,192,32243,1,2,0:0:0:0:
320,192,32339,1,8,0:0:0:0:
192,192,32435,1,8,0:0:0:0:
64,192,32627,1,0,0:0:0:0:
320,192,32627,1,0,0:0:0:0:
448,192,32627,1,0,0:0:0:0:
192,192,32724,1,0,0:0:0:0:
320,192,32820,1,8,0:0:0:0:
448,192,32916,1,8,0:0:0:0:
64,192,33012,1,2,0:0:0:0:
192,192,33108,1,2,0:0:0:0:
320,192,33108,1,0,0:0:0:0:
64,192,33301,1,2,0:0:0:0:
448,192,33301,1,0,0:0:0:0:
192,192,33493,1,8,0:0:0:0:
64,192,33589,1,2,0:0:0:0:
448,192,33589,1,8,0:0:0:0:
192,192,33685,1,8,0:0:0:0:
320,192,33781,1,2,0:0:0:0:
448,192,33845,1,2,0:0:0:0:
320,192,33910,1,2,0:0:0:0:
64,192,33974,1,2,0:0:0:0:
192,192,34038,1,2,0:0:0:0:
320,192,34102,1,2,0:0:0:0:
64,192,34166,1,2,0:0:0:0:
192,192,34166,1,4,0:0:0:0:
448,192,34166,1,0,0:0:0:0:
320,192,34262,1,0,0:0:0:0:
192,192,34358,1,2,0:0:0:0:
64,192,34454,1,8,0:0:0:0:
192,192,34551,1,2,0:0:0:0:
320,192,34647,1,8,0:0:0:0:
448,192,34647,1,0,0:0:0:0:
64,192,34839,1,2,0:0:0:0:
192,192,34839,1,4,0:0:0:0:
320,192,34839,1,0,0:0:0:0:
192,192,35031,1,2,0:0:0:0:
320,192,35031,1,4,0:0:0:0:
448,192,35031,1,0,0:0:0:0:
64,192,35224,1,4,0:0:0:0:
192,192,35224,1,2,0:0:0:0:
448,192,35224,1,0,0:0:0:0:
320,192,35320,1,8,0:0:0:0:
64,192,35416,1,8,0:0:0:0:
192,192,35608,1,0,0:0:0:0:
320,192,35608,1,0,0:0:0:0:
448,192,35608,1,0,0:0:0:0:
64,192,35705,1,0,0:0:0:0:
192,192,35801,1,8,0:0:0:0:
320,192,35897,1,8,0:0:0:0:
448,192,35993,1,2,0:0:0:0:
64,192,36089,1,2,0:0:0:0:
320,192,36089,1,0,0:0:0:0:
192,192,36282,1,2,0:0:0:0:
448,192,36282,1,0,0:0:0:0:
320,192,36474,1,2,0:0:0:0:
192,192,36570,1,8,0:0:0:0:
448,192,36570,1,0,0:0:0:0:
320,192,36666,1,8,0:0:0:0:
192,192,36762,1,2,0:0:0:0:
320,192,36826,1,2,0:0:0:0:
192,192,36891,1,2,0:0:0:0:
64,192,36955,1,2,0:0:0:0:
192,192,37019,1,2,0:0:0:0:
320,192,37083,1,2,0:0:0:0:
64,192,37147,1,4,0:0:0:0:
448,192,37147,1,2,0:0:0:0:
320,192,37243,1,0,0:0:0:0:
192,192,37339,1,2,0:0:0:0:
64,192,37435,1,4,0:0:0:0:
448,192,37435,1,2,0:0:0:0:
192,192,37532,1,8,0:0:0:0:
320,192,37628,1,2,0:0:0:0:
64,192,37724,1,4,0:0:0:0:
448,192,37724,1,2,0:0:0:0:
320,192,37820,1,8,0:0:0:0:
192,192,37916,1,2,0:0:0:0:
64,192,38012,1,2,0:0:0:0:
448,192,38012,1,4,0:0:0:0:
192,192,38109,1,8,0:0:0:0:
320,192,38205,1,2,0:0:0:0:
64,192,38301,1,4,0:0:0:0:
448,192,38301,1,2,0:0:0:0:
320,192,38397,1,8,0:0:0:0:
192,192,38493,1,2,0:0:0:0:
64,192,38589,1,0,0:0:0:0:
192,192,38782,1,2,0:0:0:0:
320,192,38782,1,4,0:0:0:0:
448,192,38782,1,0,0:0:0:0:
64,192,38878,1,2,0:0:0:0:
448,192,38974,1,8,0:0:0:0:
320,192,39070,1,8,0:0:0:0:
64,192,39166,1,2,0:0:0:0:
192,192,39231,1,0,0:0:0:0:
320,192,39295,1,0,0:0:0:0:
64,192,39359,1,4,0:0:0:0:
192,192,39359,1,2,0:0:0:0:
448,192,39359,1,0,0:0:0:0:
320,192,39551,1,8,0:0:0:0:
192,192,39647,1,8,0:0:0:0:
64,192,39743,1,2,0:0:0:0:
320,192,39743,1,0,0:0:0:0:
64,192,40032,1,4,0:0:0:0:
320,192,40032,1,2,0:0:0:0:
448,192,40032,1,0,0:0:0:0:
192,192,40320,1,8,0:0:0:0:
320,192,40320,1,2,0:0:0:0:
448,192,40513,1,2,0:0:0:0:
320,192,40609,1,0,0:0:0:0:
192,192,40705,1,2,0:0:0:0:
64,192,40801,1,2,0:0:0:0:
320,192,40897,1,2,0:0:0:0:
448,192,40897,1,0,0:0:0:0:
192,192,40993,1,8,0:0:0:0:
64,192,41090,1,8,0:0:0:0:
192,192,41186,1,8,0:0:0:0:
320,192,41282,1,8,0:0:0:0:
448,192,41282,1,2,0:0:0:0:
64,192,41378,1,0,0:0:0:0:
448,192,41474,1,2,0:0:0:0:
320,192,41538,1,2,0:0:0:0:
64,192,41602,1,2,0:0:0:0:
192,192,41666,1,4,0:0:0:0:
320,192,41666,1,2,0:0:0:0:
448,192,41666,1,0,0:0:0:0:
64,192,41763,1,0,0:0:0:0:
192,192,41859,1,8,0:0:0:0:
320,192,41955,1,8,0:0:0:0:
448,192,42051,1,2,0:0:0:0:
64,192,42147,1,2,0:0:0:0:
320,192,42147,1,0,0:0:0:0:
192,192,42340,1,2,0:0:0:0:
448,192,42340,1,0,0:0:0:0:
64,192,42532,1,2,0:0:0:0:
192,192,42628,1,8,0:0:0:0:
448,192,42628,1,0,0:0:0:0:
64,192,42724,1,8,0:0:0:0:
320,192,42820,1,2,0:0:0:0:
192,192,42884,1,2,0:0:0:0:
448,192,42949,1,2,0:0:0:0:
64,192,43013,1,2,0:0:0:0:
192,192,43077,1,2,0:0:0:0:
320,192,43141,1,2,0:0:0:0:
64,192,43205,1,4,0:0:0:0:
192,192,43205,1,2,0:0:0:0:
448,192,43205,1,0,0:0:0:0:
320,192,43301,1,0,0:0:0:0:
192,192,43397,1,2,0:0:0:0:
64,192,43493,1,2,0:0:0:0:
192,192,43590,1,8,0:0:0:0:
448,192,43590,1,0,0:0:0:0:
64,192,43686,1,2,0:0:0:0:
320,192,43686,1,0,0:0:0:0:
192,192,43878,1,2,0:0:0:0:
320,192,43878,1,4,0:0:0:0:
64,192,44070,1,2,0:0:0:0:
448,192,44070,1,4,0:0:0:0:
192,192,44263,1,4,0:0:0:0:
448,192,44263,1,2,0:0:0:0:
320,192,44359,1,8,0:0:0:0:
192,192,44455,1,10,0:0:0:0:
64,192,44647,1,2,0:0:0:0:
320,192,44647,1,4,0:0:0:0:
448,192,44647,1,0,0:0:0:0:
192,192,44743,1,0,0:0:0:0:
320,192,44839,1,8,0:0:0:0:
448,192,44935,1,8,0:0:0:0:
64,192,45031,1,2,0:0:0:0:
192,192,45127,1,2,0:0:0:0:
320,192,45127,1,0,0:0:0:0:
64,192,45320,1,2,0:0:0:0:
448,192,45320,1,0,0:0:0:0:
192,192,45512,1,8,0:0:0:0:
64,192,45608,1,2,0:0:0:0:
448,192,45608,1,8,0:0:0:0:
192,192,45704,1,8,0:0:0:0:
320,192,45800,1,2,0:0:0:0:
448,192,45864,1,2,0:0:0:0:
320,192,45929,1,2,0:0:0:0:
64,192,45993,1,2,0:0:0:0:
192,192,46057,1,2,0:0:0:0:
320,192,46121,1,2,0:0:0:0:
64,192,46185,1,2,0:0:0:0:
192,192,46185,1,4,0:0:0:0:
448,192,46185,1,0,0:0:0:0:
320,192,46281,1,0,0:0:0:0:
192,192,46377,1,2,0:0:0:0:
64,192,46473,1,2,0:0:0:0:
192,192,46570,1,2,0:0:0:0:
320,192,46666,1,8,0:0:0:0:
448,192,46666,1,0,0:0:0:0:
64,192,46858,1,2,0:0:0:0:
192,192,46858,1,4,0:0:0:0:
320,192,46858,1,0,0:0:0:0:
192,192,47050,1,2,0:0:0:0:
320,192,47050,1,4,0:0:0:0:
448,192,47050,1,0,0:0:0:0:
64,192,47243,1,4,0:0:0:0:
192,192,47243,1,2,0:0:0:0:
448,192,47243,1,0,0:0:0:0:
320,192,47339,1,8,0:0:0:0:
64,192,47435,1,8,0:0:0:0:
192,192,47627,1,0,0:0:0:0:
320,192,47627,1,0,0:0:0:0:
448,192,47627,1,0,0:0:0:0:
64,192,47724,1,8,0:0:0:0:
192,192,47820,1,8,0:0:0:0:
320,192,47916,1,8,0:0:0:0:
448,192,48012,1,2,0:0:0:0:
64,192,48108,1,2,0:0:0:0:
320,192,48108,1,0,0:0:0:0:
192,192,48301,1,2,0:0:0:0:
448,192,48301,1,0,0:0:0:0:
320,192,48493,1,2,0:0:0:0:
192,192,48589,1,8,0:0:0:0:
448,192,48589,1,0,0:0:0:0:
320,192,48685,1,8,0:0:0:0:
64,192,48781,1,2,0:0:0:0:
448,192,48845,1,2,0:0:0:0:
320,192,48910,1,2,0:0:0:0:
192,192,48974,1,2,0:0:0:0:
64,192,49038,1,2,0:0:0:0:
192,192,49102,1,2,0:0:0:0:
320,192,49166,1,4,0:0:0:0:
448,192,49166,1,2,0:0:0:0:
64,192,49262,1,0,0:0:0:0:
192,192,49358,1,2,0:0:0:0:
320,192,49454,1,4,0:0:0:0:
448,192,49454,1,2,0:0:0:0:
192,192,49551,1,8,0:0:0:0:
64,192,49647,1,2,0:0:0:0:
320,192,49743,1,4,0:0:0:0:
448,192,49743,1,2,0:0:0:0:
64,192,49839,1,8,0:0:0:0:
192,192,49935,1,2,0:0:0:0:
320,192,50031,1,2,0:0:0:0:
448,192,50031,1,4,0:0:0:0:
192,192,50128,1,8,0:0:0:0:
64,192,50224,1,2,0:0:0:0:
320,192,50320,1,4,0:0:0:0:
448,192,50320,1,2,0:0:0:0:
64,192,50416,1,8,0:0:0:0:
192,192,50512,1,2,0:0:0:0:
64,192,50608,1,0,0:0:0:0:
192,192,50801,1,2,0:0:0:0:
320,192,50801,1,4,0:0:0:0:
448,192,50801,1,0,0:0:0:0:
64,192,50897,1,2,0:0:0:0:
448,192,50993,1,8,0:0:0:0:
320,192,51089,1,8,0:0:0:0:
64,192,51185,1,2,0:0:0:0:
192,192,51250,1,0,0:0:0:0:
320,192,51314,1,0,0:0:0:0:
64,192,51378,1,4,0:0:0:0:
192,192,51378,1,2,0:0:0:0:
448,192,51378,1,0,0:0:0:0:
320,192,51570,1,8,0:0:0:0:
192,192,51666,1,8,0:0:0:0:
64,192,51762,1,2,0:0:0:0:
320,192,51762,1,0,0:0:0:0:
64,192,52051,1,2,0:0:0:0:
320,192,52051,1,4,0:0:0:0:
448,192,52051,1,0,0:0:0:0:
192,192,52339,1,8,0:0:0:0:
448,192,52339,1,0,0:0:0:0:
320,192,52532,1,2,0:0:0:0:
192,192,52628,1,0,0:0:0:0:
448,192,52724,1,2,0:0:0:0:
192,192,52820,1,2,0:0:0:0:
64,192,52916,1,2,0:0:0:0:
320,192,52916,1,0,0:0:0:0:
448,192,53012,1,2,0:0:0:0:
192,192,53109,1,2,0:0:0:0:
448,192,53205,1,2,0:0:0:0:
64,192,53301,1,8,0:0:0:0:
320,192,53301,1,2,0:0:0:0:
192,192,53365,1,0,0:0:0:0:
64,192,53429,1,0,0:0:0:0:
448,192,53493,1,2,0:0:0:0:
320,192,53557,1,0,0:0:0:0:
192,192,53621,1,0,0:0:0:0:
64,192,53686,1,4,0:0:0:0:
320,192,53686,1,2,0:0:0:0:
448,192,53686,1,0,0:0:0:0:
192,192,53782,1,2,0:0:0:0:
320,192,53878,1,10,0:0:0:0:
448,192,53974,1,2,0:0:0:0:
64,192,54166,1,8,0:0:0:0:
192,192,54166,1,0,0:0:0:0:
320,192,54262,1,2,0:0:0:0:
448,192,54359,1,2,0:0:0:0:
320,192,54455,1,2,0:0:0:0:
64,192,54647,1,2,0:0:0:0:
64,192,54839,1,8,0:0:0:0:
448,192,54839,1,0,0:0:0:0:
192,192,54936,1,8,0:0:0:0:
320,192,55032,1,2,0:0:0:0:
192,192,55128,1,8,0:0:0:0:
448,192,55128,1,2,0:0:0:0:
320,192,55224,1,2,0:0:0:0:
64,192,55416,1,2,0:0:0:0:
192,192,55512,1,2,0:0:0:0:
320,192,55609,1,8,0:0:0:0:
448,192,55609,1,2,0:0:0:0:
64,192,55705,1,2,0:0:0:0:
64,192,55897,1,2,0:0:0:0:
192,192,55993,1,2,0:0:0:0:
320,192,55993,1,8,0:0:0:0:
64,192,56089,1,8,0:0:0:0:
448,192,56089,1,0,0:0:0:0:
320,192,56186,1,2,0:0:0:0:
192,192,56282,1,2,0:0:0:0:
64,192,56378,1,2,0:0:0:0:
320,192,56378,1,4,0:0:0:0:
448,192,56378,1,0,0:0:0:0:
192,192,56474,1,2,0:0:0:0:
320,192,56570,1,10,0:0:0:0:
448,192,56666,1,2,0:0:0:0:
64,192,56859,1,8,0:0:0:0:
192,192,56859,1,0,0:0:0:0:
320,192,56955,1,2,0:0:0:0:
448,192,57051,1,2,0:0:0:0:
320,192,57147,1,2,0:0:0:0:
64,192,57339,1,2,0:0:0:0:
64,192,57532,1,8,0:0:0:0:
320,192,57532,1,0,0:0:0:0:
192,192,57628,1,8,0:0:0:0:
320,192,57724,1,2,0:0:0:0:
64,192,57820,1,2,0:0:0:0:
448,192,57820,1,8,0:0:0:0:
320,192,57916,1,2,0:0:0:0:
64,192,58109,1,2,0:0:0:0:
192,192,58205,1,2,0:0:0:0:
64,192,58301,1,2,0:0:0:0:
320,192,58301,1,8,0:0:0:0:
192,192,58397,1,2,0:0:0:0:
192,192,58589,1,2,0:0:0:0:
64,192,58686,1,8,0:0:0:0:
448,192,58686,1,2,0:0:0:0:
192,192,58782,1,8,0:0:0:0:
320,192,58782,1,0,0:0:0:0:
448,192,58878,1,2,0:0:0:0:
64,192,58974,1,2,0:0:0:0:
192,192,59070,1,4,0:0:0:0:
320,192,59070,1,2,0:0:0:0:
448,192,59070,1,0,0:0:0:0:
64,192,59166,1,2,0:0:0:0:
320,192,59262,1,10,0:0:0:0:
448,192,59359,1,2,0:0:0:0:
192,192,59551,1,8,0:0:0:0:
448,192,59551,1,0,0:0:0:0:
320,192,59647,1,2,0:0:0:0:
448,192,59743,1,2,0:0:0:0:
320,192,59839,1,2,0:0:0:0:
64,192,60032,1,2,0:0:0:0:
64,192,60224,1,8,0:0:0:0:
320,192,60224,1,0,0:0:0:0:
192,192,60320,1,8,0:0:0:0:
320,192,60416,1,2,0:0:0:0:
192,192,60512,1,8,0:0:0:0:
448,192,60512,1,2,0:0:0:0:
320,192,60609,1,2,0:0:0:0:
64,192,60801,1,2,0:0:0:0:
192,192,60897,1,2,0:0:0:0:
320,192,60993,1,8,0:0:0:0:
448,192,60993,1,2,0:0:0:0:
64,192,61089,1,2,0:0:0:0:
64,192,61282,1,2,0:0:0:0:
192,192,61378,1,2,0:0:0:0:
320,192,61378,1,8,0:0:0:0:
64,192,61474,1,8,0:0:0:0:
448,192,61474,1,0,0:0:0:0:
320,192,61570,1,2,0:0:0:0:
192,192,61666,1,2,0:0:0:0:
64,192,61762,1,4,0:0:0:0:
320,192,61762,1,2,0:0:0:0:
448,192,61762,1,0,0:0:0:0:
192,192,61859,1,2,0:0:0:0:
320,192,61955,1,10,0:0:0:0:
448,192,62051,1,2,0:0:0:0:
64,192,62243,1,8,0:0:0:0:
192,192,62243,1,0,0:0:0:0:
320,192,62339,1,2,0:0:0:0:
448,192,62436,1,2,0:0:0:0:
320,192,62532,1,2,0:0:0:0:
64,192,62724,1,8,0:0:0:0:
448,192,62724,1,0,0:0:0:0:
448,192,62916,1,2,0:0:0:0:
320,192,63012,1,2,0:0:0:0:
64,192,63109,1,2,0:0:0:0:
192,192,63109,1,8,0:0:0:0:
320,192,63205,1,2,0:0:0:0:
448,192,63301,1,2,0:0:0:0:
64,192,63397,1,2,0:0:0:0:
192,192,63493,1,2,0:0:0:0:
320,192,63589,1,2,0:0:0:0:
192,192,63686,1,8,0:0:0:0:
448,192,63686,1,2,0:0:0:0:
64,192,63782,1,2,0:0:0:0:
320,192,63878,1,2,0:0:0:0:
448,192,63878,1,8,0:0:0:0:
64,192,63974,1,8,0:0:0:0:
192,192,63974,1,0,0:0:0:0:
320,192,64070,1,2,0:0:0:0:
64,192,64166,1,2,0:0:0:0:
448,192,64166,1,8,0:0:0:0:
192,192,64262,1,8,0:0:0:0:
320,192,64262,1,2,0:0:0:0:
64,192,64327,1,2,0:0:0:0:
448,192,64391,1,2,0:0:0:0:
320,192,64455,1,2,0:0:0:0:
192,192,64519,1,2,0:0:0:0:
64,192,64583,1,2,0:0:0:0:
192,192,64647,1,2,0:0:0:0:
320,192,64647,1,4,0:0:0:0:
448,192,64647,1,0,0:0:0:0:
64,192,64743,1,2,0:0:0:0:
448,192,64839,1,2,0:0:0:0:
320,192,64935,1,2,0:0:0:0:
192,192,65031,1,2,0:0:0:0:
64,192,65127,1,8,0:0:0:0:
448,192,65127,1,2,0:0:0:0:
320,192,65223,1,2,0:0:0:0:
448,192,65320,1,2,0:0:0:0:
64,192,65416,1,2,0:0:0:0:
320,192,65512,1,2,0:0:0:0:
192,192,65608,1,2,0:0:0:0:
448,192,65704,1,2,0:0:0:0:
64,192,65800,1,8,0:0:0:0:
320,192,65800,1,2,0:0:0:0:
192,192,65897,1,2,0:0:0:0:
320,192,65993,1,2,0:0:0:0:
192,192,66089,1,8,0:0:0:0:
448,192,66089,1,2,0:0:0:0:
64,192,66185,1,2,0:0:0:0:
448,192,66281,1,2,0:0:0:0:
64,192,66377,1,2,0:0:0:0:
192,192,66473,1,2,0:0:0:0:
320,192,66570,1,2,0:0:0:0:
448,192,66570,1,8,0:0:0:0:
192,192,66666,1,2,0:0:0:0:
64,192,66762,1,2,0:0:0:0:
320,192,66858,1,2,0:0:0:0:
192,192,66954,1,8,0:0:0:0:
448,192,66954,1,2,0:0:0:0:
64,192,67050,1,2,0:0:0:0:
320,192,67050,1,0,0:0:0:0:
192,192,67147,1,2,0:0:0:0:
64,192,67243,1,2,0:0:0:0:
192,192,67339,1,4,0:0:0:0:
320,192,67339,1,2,0:0:0:0:
448,192,67339,1,0,0:0:0:0:
64,192,67435,1,2,0:0:0:0:
192,192,67531,1,2,0:0:0:0:
448,192,67627,1,2,0:0:0:0:
320,192,67723,1,2,0:0:0:0:
64,192,67820,1,2,0:0:0:0:
192,192,67820,1,8,0:0:0:0:
320,192,67916,1,2,0:0:0:0:
448,192,68012,1,2,0:0:0:0:
192,192,68108,1,2,0:0:0:0:
64,192,68204,1,2,0:0:0:0:
320,192,68300,1,2,0:0:0:0:
192,192,68397,1,2,0:0:0:0:
320,192,68493,1,2,0:0:0:0:
448,192,68493,1,8,0:0:0:0:
64,192,68589,1,2,0:0:0:0:
320,192,68685,1,2,0:0:0:0:
192,192,68781,1,2,0:0:0:0:
448,192,68781,1,8,0:0:0:0:
64,192,68877,1,2,0:0:0:0:
448,192,68973,1,2,0:0:0:0:
192,192,69070,1,2,0:0:0:0:
320,192,69166,1,2,0:0:0:0:
192,192,69262,1,8,0:0:0:0:
448,192,69262,1,2,0:0:0:0:
64,192,69358,1,2,0:0:0:0:
448,192,69454,1,2,0:0:0:0:
320,192,69550,1,2,0:0:0:0:
64,192,69647,1,2,0:0:0:0:
192,192,69647,1,8,0:0:0:0:
320,192,69743,1,2,0:0:0:0:
448,192,69743,1,0,0:0:0:0:
192,192,69839,1,2,0:0:0:0:
64,192,69935,1,2,0:0:0:0:
192,192,70031,1,2,0:0:0:0:
320,192,70031,1,4,0:0:0:0:
448,192,70031,1,0,0:0:0:0:
64,192,70127,1,2,0:0:0:0:
192,192,70223,1,2,0:0:0:0:
320,192,70320,1,2,0:0:0:0:
448,192,70416,1,2,0:0:0:0:
64,192,70512,1,8,0:0:0:0:
320,192,70512,1,2,0:0:0:0:
192,192,70608,1,2,0:0:0:0:
448,192,70704,1,2,0:0:0:0:
320,192,70800,1,2,0:0:0:0:
192,192,70897,1,2,0:0:0:0:
64,192,70993,1,2,0:0:0:0:
320,192,71089,1,2,0:0:0:0:
64,192,71185,1,8,0:0:0:0:
448,192,71185,1,2,0:0:0:0:
192,192,71281,1,2,0:0:0:0:
320,192,71377,1,2,0:0:0:0:
192,192,71473,1,8,0:0:0:0:
448,192,71473,1,2,0:0:0:0:
64,192,71570,1,2,0:0:0:0:
320,192,71666,1,2,0:0:0:0:
192,192,71762,1,2,0:0:0:0:
320,192,71858,1,2,0:0:0:0:
192,192,71954,1,2,0:0:0:0:
448,192,71954,1,8,0:0:0:0:
64,192,72050,1,2,0:0:0:0:
448,192,72147,1,2,0:0:0:0:
320,192,72243,1,2,0:0:0:0:
64,192,72339,1,8,0:0:0:0:
448,192,72339,1,2,0:0:0:0:
192,192,72435,1,2,0:0:0:0:
320,192,72435,1,0,0:0:0:0:
64,192,72531,1,2,0:0:0:0:
448,192,72627,1,2,0:0:0:0:
64,192,72723,1,4,0:0:0:0:
192,192,72723,1,2,0:0:0:0:
320,192,72723,1,0,0:0:0:0:
448,192,72820,1,2,0:0:0:0:
192,192,72916,1,2,0:0:0:0:
320,192,73012,1,2,0:0:0:0:
192,192,73108,1,2,0:0:0:0:
64,192,73204,1,2,0:0:0:0:
448,192,73204,1,8,0:0:0:0:
320,192,73300,1,2,0:0:0:0:
192,192,73397,1,2,0:0:0:0:
320,192,73493,1,2,0:0:0:0:
448,192,73589,1,2,0:0:0:0:
64,192,73685,1,2,0:0:0:0:
192,192,73781,1,2,0:0:0:0:
64,192,73877,1,2,0:0:0:0:
320,192,73877,1,8,0:0:0:0:
448,192,73974,1,2,0:0:0:0:
64,192,74070,1,2,0:0:0:0:
192,192,74070,1,8,0:0:0:0:
320,192,74166,1,2,0:0:0:0:
448,192,74166,1,8,0:0:0:0:
192,192,74262,1,2,0:0:0:0:
64,192,74358,1,2,0:0:0:0:
448,192,74358,1,0,0:0:0:0:
192,192,74454,1,2,0:0:0:0:
320,192,74550,1,2,0:0:0:0:
448,192,74647,1,2,0:0:0:0:
64,192,74743,1,2,0:0:0:0:
320,192,74839,1,8,0:0:0:0:
448,192,74839,1,2,0:0:0:0:
64,192,74903,1,2,0:0:0:0:
192,192,74903,1,0,0:0:0:0:
448,192,74967,1,2,0:0:0:0:
320,192,75031,1,0,0:0:0:0:
192,192,75095,1,2,0:0:0:0:
64,192,75159,1,0,0:0:0:0:
192,192,75224,1,8,0:0:0:0:
320,192,75224,1,0,0:0:0:0:
64,192,75320,1,8,0:0:0:0:
448,192,75320,1,0,0:0:0:0:
320,192,75416,1,2,0:0:0:0:
192,192,75512,1,2,0:0:0:0:
64,192,75608,1,0,0:0:0:0:
320,192,75608,1,0,0:0:0:0:
448,192,75608,1,0,0:0:0:0:
192,192,75897,1,2,0:0:0:0:
64,192,76185,128,2,76442:0:0:0:0:
320,192,76185,128,8,76442:0:0:0:0:
448,192,76955,1,8,0:0:0:0:
320,192,77339,1,0,0:0:0:0:
64,192,77724,1,2,0:0:0:0:
192,192,77820,1,8,0:0:0:0:
320,192,77916,1,0,0:0:0:0:
320,192,78109,1,2,0:0:0:0:
192,192,78205,1,0,0:0:0:0:
448,192,78301,1,8,0:0:0:0:
320,192,78397,1,0,0:0:0:0:
192,192,78493,1,2,0:0:0:0:
64,192,78685,1,2,0:0:0:0:
448,192,78685,1,0,0:0:0:0:
192,192,78974,1,2,0:0:0:0:
64,192,79262,128,2,79519:0:0:0:0:
320,192,79262,128,8,79519:0:0:0:0:
192,192,79647,1,2,0:0:0:0:
320,192,80032,1,8,0:0:0:0:
448,192,80416,1,0,0:0:0:0:
64,192,80801,1,2,0:0:0:0:
192,192,80993,1,8,0:0:0:0:
64,192,81089,1,2,0:0:0:0:
192,192,81185,1,8,0:0:0:0:
320,192,81282,1,2,0:0:0:0:
64,192,81378,1,2,0:0:0:0:
448,192,81378,1,0,0:0:0:0:
192,192,81666,1,2,0:0:0:0:
64,192,81954,128,2,82211:0:0:0:0:
320,192,81954,128,8,82211:0:0:0:0:
448,192,82339,1,2,0:0:0:0:
192,192,82531,1,2,0:0:0:0:
64,192,82724,1,8,0:0:0:0:
192,192,82820,1,0,0:0:0:0:
320,192,82916,1,0,0:0:0:0:
192,192,83012,1,0,0:0:0:0:
64,192,83108,1,0,0:0:0:0:
192,192,83204,1,0,0:0:0:0:
320,192,83301,1,2,0:0:0:0:
192,192,83397,1,0,0:0:0:0:
64,192,83493,1,2,0:0:0:0:
192,192,83589,1,8,0:0:0:0:
320,192,83685,1,0,0:0:0:0:
192,192,83781,1,0,0:0:0:0:
64,192,83878,1,2,0:0:0:0:
192,192,83974,1,8,0:0:0:0:
320,192,84070,1,8,0:0:0:0:
192,192,84166,1,0,0:0:0:0:
320,192,84262,1,2,0:0:0:0:
448,192,84358,1,0,0:0:0:0:
320,192,84454,1,2,0:0:0:0:
192,192,84551,1,0,0:0:0:0:
320,192,84647,1,0,0:0:0:0:
448,192,84743,1,2,0:0:0:0:
320,192,84839,1,0,0:0:0:0:
192,192,84935,1,0,0:0:0:0:
64,192,85031,128,8,85288:0:0:0:0:
320,192,85031,1,0,0:0:0:0:
448,192,85128,1,0,0:0:0:0:
320,192,85224,1,0,0:0:0:0:
192,192,85320,1,0,0:0:0:0:
320,192,85416,1,2,0:0:0:0:
448,192,85512,1,0,0:0:0:0:
320,192,85608,1,2,0:0:0:0:
192,192,85704,1,0,0:0:0:0:
448,192,85801,1,8,0:0:0:0:
64,192,85897,1,0,0:0:0:0:
320,192,85993,1,0,0:0:0:0:
192,192,86089,1,0,0:0:0:0:
320,192,86185,1,0,0:0:0:0:
448,192,86281,1,0,0:0:0:0:
320,192,86378,1,2,0:0:0:0:
192,192,86474,1,8,0:0:0:0:
320,192,86570,1,0,0:0:0:0:
448,192,86666,1,0,0:0:0:0:
64,192,86762,1,6,0:0:0:0:
448,192,86858,1,0,0:0:0:0:
320,192,86954,1,8,0:0:0:0:
192,192,87051,1,2,0:0:0:0:
320,192,87147,1,2,0:0:0:0:
64,192,87243,1,2,0:0:0:0:
448,192,87243,1,0,0:0:0:0:
64,192,87435,1,4,0:0:0:0:
320,192,87435,1,2,0:0:0:0:
448,192,87435,1,0,0:0:0:0:
192,192,87820,1,2,0:0:0:0:
64,192,88108,128,8,88365:0:0:0:0:
320,192,88108,128,2,88365:0:0:0:0:
64,192,88493,1,2,0:0:0:0:
192,192,88685,1,2,0:0:0:0:
320,192,88878,1,8,0:0:0:0:
448,192,89262,1,2,0:0:0:0:
320,192,89647,1,2,0:0:0:0:
64,192,90031,1,2,0:0:0:0:
448,192,90224,1,8,0:0:0:0:
320,192,90320,1,0,0:0:0:0:
192,192,90416,1,2,0:0:0:0:
64,192,90512,1,0,0:0:0:0:
320,192,90608,1,2,0:0:0:0:
448,192,90608,1,0,0:0:0:0:
192,192,90897,1,2,0:0:0:0:
64,192,91185,128,8,91442:0:0:0:0:
320,192,91185,128,2,91442:0:0:0:0:
64,192,91570,1,2,0:0:0:0:
320,192,91762,1,2,0:0:0:0:
192,192,91954,1,8,0:0:0:0:
320,192,92051,1,0,0:0:0:0:
448,192,92147,1,0,0:0:0:0:
320,192,92243,1,0,0:0:0:0:
192,192,92339,1,0,0:0:0:0:
64,192,92435,1,0,0:0:0:0:
448,192,92531,1,2,0:0:0:0:
192,192,92628,1,0,0:0:0:0:
320,192,92724,1,0,0:0:0:0:
64,192,92820,1,8,0:0:0:0:
192,192,92916,1,0,0:0:0:0:
64,192,93012,1,0,0:0:0:0:
320,192,93108,1,2,0:0:0:0:
192,192,93204,1,0,0:0:0:0:
320,192,93301,1,8,0:0:0:0:
64,192,93397,1,0,0:0:0:0:
448,192,93493,1,8,0:0:0:0:
320,192,93557,1,0,0:0:0:0:
192,192,93621,1,0,0:0:0:0:
64,192,93685,1,2,0:0:0:0:
448,192,93685,1,0,0:0:0:0:
192,192,93974,1,2,0:0:0:0:
64,192,94262,128,2,94519:0:0:0:0:
320,192,94262,128,8,94519:0:0:0:0:
192,192,94647,1,2,0:0:0:0:
192,192,94839,1,2,0:0:0:0:
64,192,94935,1,0,0:0:0:0:
192,192,95031,1,8,0:0:0:0:
320,192,95095,1,0,0:0:0:0:
192,192,95160,1,0,0:0:0:0:
64,192,95224,1,2,0:0:0:0:
448,192,95224,1,0,0:0:0:0:
192,192,95512,1,2,0:0:0:0:
64,192,95801,128,2,96057:0:0:0:0:
320,192,95801,128,0,96057:0:0:0:0:
192,192,96185,1,2,0:0:0:0:
64,192,96378,1,8,0:0:0:0:
192,192,96442,1,0,0:0:0:0:
320,192,96506,1,0,0:0:0:0:
192,192,96570,1,2,0:0:0:0:
320,192,96666,1,0,0:0:0:0:
64,192,96762,1,2,0:0:0:0:
448,192,96762,1,0,0:0:0:0:
192,192,97051,1,2,0:0:0:0:
64,192,97339,1,2,0:0:0:0:
320,192,97339,1,8,0:0:0:0:
448,192,97403,1,0,0:0:0:0:
64,192,97467,1,0,0:0:0:0:
192,192,97531,1,0,0:0:0:0:
448,192,97531,1,0,0:0:0:0:
320,192,97724,1,2,0:0:0:0:
192,192,97916,1,2,0:0:0:0:
64,192,98108,1,8,0:0:0:0:
192,192,98172,1,0,0:0:0:0:
320,192,98236,1,0,0:0:0:0:
64,192,98301,1,2,0:0:0:0:
448,192,98301,1,0,0:0:0:0:
64,192,98589,1,8,0:0:0:0:
320,192,98589,1,0,0:0:0:0:
192,192,98685,1,0,0:0:0:0:
448,192,98685,1,0,0:0:0:0:
320,192,98781,1,2,0:0:0:0:
320,192,98974,1,2,0:0:0:0:
64,192,99070,128,2,99839:0:0:0:0:
448,192,99070,1,0,0:0:0:0:
192,192,99358,1,0,0:0:0:0:
320,192,99454,1,2,0:0:0:0:
448,192,99454,1,0,0:0:0:0:
192,192,99839,1,2,0:0:0:0:
320,192,99839,1,0,0:0:0:0:
448,192,99839,1,0,0:0:0:0:
64,192,100031,1,12,0:0:0:0:
192,192,100079,1,0,0:0:0:0:
320,192,100128,128,0,100416:0:0:0:0:
192,192,100416,1,0,0:0:0:0:
64,192,100512,1,0,0:0:0:0:
448,192,100608,1,0,0:0:0:0:
192,192,100608,128,8,100897:0:0:0:0:
64,192,100897,128,2,101185:0:0:0:0:
320,192,101185,128,2,102147:0:0:0:0:
448,192,101185,1,0,0:0:0:0:
64,192,101313,1,0,0:0:0:0:
192,192,101890,1,8,0:0:0:0:
64,192,102147,1,8,0:0:0:0:
448,192,102147,1,0,0:0:0:0:
192,192,102243,1,0,0:0:0:0:
64,192,102339,1,8,0:0:0:0:
320,192,102339,1,0,0:0:0:0:
192,192,102435,1,0,0:0:0:0:
320,192,102532,1,2,0:0:0:0:
448,192,102532,128,0,102820:0:0:0:0:
192,192,102724,1,8,0:0:0:0:
64,192,102820,128,0,103108:0:0:0:0:
448,192,103108,1,0,0:0:0:0:
192,192,103205,1,0,0:0:0:0:
320,192,103301,1,8,0:0:0:0:
448,192,103301,1,0,0:0:0:0:
64,192,103397,1,0,0:0:0:0:
320,192,103493,1,2,0:0:0:0:
64,192,103589,1,0,0:0:0:0:
320,192,103685,1,0,0:0:0:0:
192,192,103782,1,0,0:0:0:0:
64,192,103878,1,8,0:0:0:0:
448,192,103878,1,2,0:0:0:0:
192,192,103974,1,0,0:0:0:0:
320,192,103974,1,0,0:0:0:0:
448,192,104070,1,2,0:0:0:0:
320,192,104198,1,0,0:0:0:0:
64,192,104262,1,8,0:0:0:0:
192,192,104326,1,0,0:0:0:0:
448,192,104390,1,0,0:0:0:0:
320,192,104455,1,2,0:0:0:0:
64,192,104551,1,0,0:0:0:0:
192,192,104583,1,0,0:0:0:0:
320,192,104647,1,8,0:0:0:0:
448,192,104647,1,0,0:0:0:0:
192,192,104711,1,0,0:0:0:0:
64,192,104775,1,0,0:0:0:0:
320,192,104839,1,2,0:0:0:0:
448,192,104839,1,0,0:0:0:0:
320,192,104967,1,0,0:0:0:0:
448,192,104967,1,0,0:0:0:0:
192,192,105032,1,2,0:0:0:0:
64,192,105096,1,0,0:0:0:0:
320,192,105224,1,2,0:0:0:0:
448,192,105352,1,0,0:0:0:0:
192,192,105416,1,8,0:0:0:0:
320,192,105416,1,0,0:0:0:0:
64,192,105480,1,8,0:0:0:0:
448,192,105480,1,0,0:0:0:0:
192,192,105544,1,8,0:0:0:0:
64,192,105609,1,2,0:0:0:0:
320,192,105609,128,4,105897:0:0:0:0:
448,192,105609,1,0,0:0:0:0:
192,192,105801,1,8,0:0:0:0:
64,192,105897,128,0,106185:0:0:0:0:
320,192,106185,128,8,106570:0:0:0:0:
64,192,106378,1,2,0:0:0:0:
448,192,106570,128,0,106762:0:0:0:0:
192,192,106762,1,2,0:0:0:0:
64,192,106859,1,0,0:0:0:0:
192,192,106955,1,8,0:0:0:0:
448,192,106955,1,0,0:0:0:0:
320,192,107051,1,2,0:0:0:0:
192,192,107083,1,0,0:0:0:0:
64,192,107147,1,2,0:0:0:0:
448,192,107147,128,0,107435:0:0:0:0:
192,192,107435,128,0,107628:0:0:0:0:
64,192,107660,1,0,0:0:0:0:
192,192,107724,1,8,0:0:0:0:
448,192,107724,128,0,107916:0:0:0:0:
64,192,107916,1,8,0:0:0:0:
320,192,107916,1,0,0:0:0:0:
192,192,108012,1,0,0:0:0:0:
320,192,108109,1,8,0:0:0:0:
448,192,108109,1,0,0:0:0:0:
64,192,108205,1,0,0:0:0:0:
192,192,108301,128,2,108974:0:0:0:0:
320,192,108301,1,4,0:0:0:0:
448,192,108301,1,0,0:0:0:0:
64,192,108493,1,8,0:0:0:0:
64,192,109070,1,4,0:0:0:0:
192,192,109070,128,2,109358:0:0:0:0:
448,192,109070,1,0,0:0:0:0:
64,192,109358,128,0,109647:0:0:0:0:
192,192,109647,1,8,0:0:0:0:
448,192,109743,128,0,110512:0:0:0:0:
64,192,109839,1,2,0:0:0:0:
192,192,109839,1,4,0:0:0:0:
320,192,109839,1,0,0:0:0:0:
64,192,110031,1,8,0:0:0:0:
64,192,110352,1,8,0:0:0:0:
320,192,110544,1,0,0:0:0:0:
192,192,110608,128,2,110865:0:0:0:0:
320,192,110865,128,0,111121:0:0:0:0:
64,192,110993,1,8,0:0:0:0:
64,192,111121,1,8,0:0:0:0:
448,192,111121,128,0,111281:0:0:0:0:
64,192,111249,1,8,0:0:0:0:
192,192,111378,1,2,0:0:0:0:
320,192,111378,1,4,0:0:0:0:
448,192,111378,1,0,0:0:0:0:
320,192,111570,1,8,0:0:0:0:
64,192,111634,1,0,0:0:0:0:
320,192,111698,1,0,0:0:0:0:
64,192,111762,1,0,0:0:0:0:
448,192,111826,1,0,0:0:0:0:
192,192,111890,1,0,0:0:0:0:
320,192,111954,1,0,0:0:0:0:
64,192,112019,1,0,0:0:0:0:
320,192,112083,1,0,0:0:0:0:
64,192,112147,1,8,0:0:0:0:
448,192,112211,1,0,0:0:0:0:
192,192,112275,1,0,0:0:0:0:
448,192,112339,1,0,0:0:0:0:
192,192,112403,1,0,0:0:0:0:
320,192,112467,1,0,0:0:0:0:
64,192,112531,1,0,0:0:0:0:
448,192,112595,1,0,0:0:0:0:
64,192,112660,1,0,0:0:0:0:
320,192,112724,1,8,0:0:0:0:
192,192,112788,1,0,0:0:0:0:
320,192,112852,1,0,0:0:0:0:
64,192,112916,1,2,0:0:0:0:
448,192,112980,1,0,0:0:0:0:
64,192,113044,1,0,0:0:0:0:
448,192,113108,1,8,0:0:0:0:
320,192,113172,1,0,0:0:0:0:
192,192,113236,1,0,0:0:0:0:
64,192,113301,1,0,0:0:0:0:
320,192,113365,1,0,0:0:0:0:
64,192,113429,1,0,0:0:0:0:
448,192,113493,1,0,0:0:0:0:
192,192,113557,1,0,0:0:0:0:
448,192,113621,1,0,0:0:0:0:
64,192,113685,1,8,0:0:0:0:
192,192,113749,1,0,0:0:0:0:
320,192,113813,1,0,0:0:0:0:
192,192,113878,1,8,0:0:0:0:
320,192,113942,1,0,0:0:0:0:
448,192,114006,1,0,0:0:0:0:
64,192,114070,1,2,0:0:0:0:
320,192,114135,1,0,0:0:0:0:
64,192,114199,1,0,0:0:0:0:
320,192,114263,1,2,0:0:0:0:
192,192,114327,1,0,0:0:0:0:
448,192,114391,1,0,0:0:0:0:
64,192,114455,1,0,0:0:0:0:
320,192,114519,1,0,0:0:0:0:
64,192,114583,1,0,0:0:0:0:
448,192,114647,1,0,0:0:0:0:
192,192,114712,1,0,0:0:0:0:
448,192,114776,1,0,0:0:0:0:
320,192,114840,1,8,0:0:0:0:
192,192,114904,1,0,0:0:0:0:
64,192,114968,1,0,0:0:0:0:
320,192,115032,1,0,0:0:0:0:
192,192,115096,1,0,0:0:0:0:
64,192,115160,1,0,0:0:0:0:
320,192,115224,1,0,0:0:0:0:
192,192,115288,1,0,0:0:0:0:
64,192,115353,1,0,0:0:0:0:
448,192,115417,1,10,0:0:0:0:
64,192,115481,1,0,0:0:0:0:
192,192,115545,1,0,0:0:0:0:
320,192,115609,128,2,115801:0:0:0:0:
448,192,115609,128,0,115801:0:0:0:0:
192,192,115897,128,2,116090:0:0:0:0:
320,192,115897,128,0,116090:0:0:0:0:
192,192,116186,128,2,116378:0:0:0:0:
448,192,116186,128,0,116378:0:0:0:0:
64,192,116378,128,8,116571:0:0:0:0:
320,192,116378,128,0,116571:0:0:0:0:
64,192,116667,128,2,116923:0:0:0:0:
192,192,116667,128,0,116923:0:0:0:0:
320,192,116955,128,8,117051:0:0:0:0:
448,192,116955,128,0,117051:0:0:0:0:
320,192,117147,128,2,117339:0:0:0:0:
448,192,117147,128,0,117339:0:0:0:0:
192,192,117339,1,12,0:0:0:0:
64,192,117435,128,0,118108:0:0:0:0:
320,192,117435,1,0,0:0:0:0:
448,192,117435,128,0,118108:0:0:0:0:
64,192,118204,1,0,0:0:0:0:
192,192,118300,128,0,118429:0:0:0:0:
448,192,118300,1,0,0:0:0:0:
320,192,118429,128,0,118557:0:0:0:0:
64,192,118493,1,2,0:0:0:0:
448,192,118557,128,0,118685:0:0:0:0:
192,192,118685,128,2,118973:0:0:0:0:
448,192,118877,1,2,0:0:0:0:
64,192,118973,128,0,119262:0:0:0:0:
320,192,119262,128,0,119839:0:0:0:0:
448,192,119454,1,8,0:0:0:0:
192,192,119839,1,0,0:0:0:0:
320,192,119935,1,0,0:0:0:0:
64,192,120031,1,8,0:0:0:0:
448,192,120031,1,0,0:0:0:0:
320,192,120095,1,2,0:0:0:0:
192,192,120159,1,2,0:0:0:0:
64,192,120223,1,4,0:0:0:0:
320,192,120223,128,2,121281:0:0:0:0:
448,192,120223,1,0,0:0:0:0:
192,192,120416,1,8,0:0:0:0:
192,192,120993,1,8,0:0:0:0:
448,192,121281,128,0,121570:0:0:0:0:
320,192,121570,1,2,0:0:0:0:
192,192,121666,1,2,0:0:0:0:
64,192,121762,1,4,0:0:0:0:
320,192,121762,1,2,0:0:0:0:
448,192,121762,1,0,0:0:0:0:
192,192,121954,1,8,0:0:0:0:
320,192,121954,1,0,0:0:0:0:
64,192,122147,1,2,0:0:0:0:
192,192,122147,1,0,0:0:0:0:
320,192,122211,1,0,0:0:0:0:
448,192,122275,1,0,0:0:0:0:
320,192,122339,1,8,0:0:0:0:
192,192,122403,1,0,0:0:0:0:
64,192,122467,1,0,0:0:0:0:
320,192,122531,1,2,0:0:0:0:
448,192,122531,1,0,0:0:0:0:
192,192,122659,1,8,0:0:0:0:
448,192,122659,1,2,0:0:0:0:
64,192,122788,1,2,0:0:0:0:
448,192,122788,1,0,0:0:0:0:
192,192,122916,1,2,0:0:0:0:
320,192,122916,1,0,0:0:0:0:
64,192,123044,1,2,0:0:0:0:
320,192,123044,1,0,0:0:0:0:
64,192,123172,1,2,0:0:0:0:
192,192,123172,1,0,0:0:0:0:
64,192,123300,128,0,124844:0:0:0:0:
320,192,123300,1,0,0:0:0:0:
448,192,123300,1,0,0:0:0:0:
192,192,123818,1,0,0:0:0:0:
320,192,123947,1,0,0:0:0:0:
448,192,124075,1,0,0:0:0:0:
320,192,124331,1,0,0:0:0:0:
192,192,124588,1,0,0:0:0:0:
448,192,124844,1,2,0:0:0:0:
320,192,124972,1,0,0:0:0:0:
192,192,125100,1,0,0:0:0:0:
448,192,125229,1,0,0:0:0:0:
320,192,125357,1,0,0:0:0:0:
192,192,125485,1,2,0:0:0:0:
64,192,125613,1,8,0:0:0:0:
448,192,125613,1,0,0:0:0:0:
320,192,125741,1,8,0:0:0:0:
192,192,125870,1,2,0:0:0:0:
448,192,125998,1,2,0:0:0:0:
64,192,126126,1,2,0:0:0:0:
192,192,126254,1,2,0:0:0:0:
64,192,126382,1,4,0:0:0:0:
320,192,126382,1,2,0:0:0:0:
448,192,126382,1,0,0:0:0:0:
64,192,126895,1,0,0:0:0:0:
192,192,126981,1,0,0:0:0:0:
64,192,127066,1,0,0:0:0:0:
192,192,127152,1,0,0:0:0:0:
320,192,127163,1,0,0:0:0:0:
448,192,127178,1,0,0:0:0:0:
64,192,127664,1,2,0:0:0:0:
192,192,127793,1,2,0:0:0:0:
320,192,127921,1,2,0:0:0:0:
448,192,127921,1,0,0:0:0:0:
192,192,128177,1,0,0:0:0:0:
320,192,128306,1,0,0:0:0:0:
448,192,128434,1,0,0:0:0:0:
320,192,128562,1,0,0:0:0:0:
192,192,128690,1,0,0:0:0:0:
64,192,128818,1,0,0:0:0:0:
192,192,128947,1,2,0:0:0:0:
320,192,129032,1,0,0:0:0:0:
448,192,129117,1,0,0:0:0:0:
320,192,129203,1,0,0:0:0:0:
64,192,129331,1,2,0:0:0:0:
192,192,129459,1,6,0:0:0:0:
320,192,129486,1,0,0:0:0:0:
448,192,129507,1,0,0:0:0:0:
64,192,129716,1,0,0:0:0:0:
192,192,129844,1,0,0:0:0:0:
64,192,129972,1,0,0:0:0:0:
192,192,130058,1,0,0:0:0:0:
320,192,130143,1,0,0:0:0:0:
64,192,130229,1,0,0:0:0:0:
448,192,130229,1,0,0:0:0:0:
192,192,130485,1,0,0:0:0:0:
448,192,130485,1,0,0:0:0:0:
64,192,130741,1,2,0:0:0:0:
448,192,130741,1,0,0:0:0:0:
64,192,130998,1,2,0:0:0:0:
320,192,130998,1,4,0:0:0:0:
64,192,131511,1,0,0:0:0:0:
192,192,131767,1,0,0:0:0:0:
448,192,131767,1,0,0:0:0:0:
64,192,132023,1,8,0:0:0:0:
448,192,132088,1,0,0:0:0:0:
64,192,132152,1,0,0:0:0:0:
320,192,132280,1,2,0:0:0:0:
192,192,132365,1,0,0:0:0:0:
64,192,132451,1,0,0:0:0:0:
192,192,132536,1,4,0:0:0:0:
320,192,132536,1,2,0:0:0:0:
448,192,132536,1,0,0:0:0:0:
64,192,133049,1,0,0:0:0:0:
448,192,133135,1,0,0:0:0:0:
64,192,133220,1,0,0:0:0:0:
192,192,133306,1,2,0:0:0:0:
448,192,133306,1,0,0:0:0:0:
320,192,133562,1,0,0:0:0:0:
192,192,133818,1,2,0:0:0:0:
192,192,133947,1,2,0:0:0:0:
64,192,134075,1,2,0:0:0:0:
448,192,134075,1,0,0:0:0:0:
192,192,134459,1,0,0:0:0:0:
64,192,134844,1,2,0:0:0:0:
320,192,134844,1,0,0:0:0:0:
192,192,135100,1,2,0:0:0:0:
64,192,135357,1,2,0:0:0:0:
192,192,135613,1,2,0:0:0:0:
320,192,135613,1,4,0:0:0:0:
448,192,135613,1,0,0:0:0:0:
64,192,136126,1,0,0:0:0:0:
192,192,136254,1,0,0:0:0:0:
320,192,136382,1,0,0:0:0:0:
192,192,136639,1,0,0:0:0:0:
64,192,136895,1,0,0:0:0:0:
320,192,137152,1,2,0:0:0:0:
448,192,137152,1,0,0:0:0:0:
192,192,137280,1,0,0:0:0:0:
64,192,137408,1,0,0:0:0:0:
320,192,137536,1,0,0:0:0:0:
192,192,137664,1,0,0:0:0:0:
64,192,137793,1,2,0:0:0:0:
192,192,137921,1,8,0:0:0:0:
320,192,137921,1,0,0:0:0:0:
448,192,138049,1,8,0:0:0:0:
192,192,138177,1,2,0:0:0:0:
320,192,138306,1,2,0:0:0:0:
448,192,138434,1,2,0:0:0:0:
64,192,138562,1,2,0:0:0:0:
192,192,138690,1,4,0:0:0:0:
320,192,138690,1,2,0:0:0:0:
448,192,138690,1,0,0:0:0:0:
64,192,139203,1,0,0:0:0:0:
192,192,139288,1,0,0:0:0:0:
64,192,139374,1,0,0:0:0:0:
192,192,139459,1,0,0:0:0:0:
320,192,139471,1,0,0:0:0:0:
448,192,139487,1,0,0:0:0:0:
320,192,139716,1,0,0:0:0:0:
448,192,139972,1,2,0:0:0:0:
320,192,140219,1,2,0:0:0:0:
448,192,140219,1,0,0:0:0:0:
192,192,140731,1,0,0:0:0:0:
320,192,140795,1,0,0:0:0:0:
192,192,140860,1,0,0:0:0:0:
64,192,140924,1,0,0:0:0:0:
320,192,140988,1,0,0:0:0:0:
448,192,140988,1,0,0:0:0:0:
192,192,141244,1,2,0:0:0:0:
64,192,141330,1,0,0:0:0:0:
192,192,141415,1,0,0:0:0:0:
320,192,141501,1,0,0:0:0:0:
448,192,141757,1,0,0:0:0:0:
64,192,141757,1,4,0:0:0:0:
320,192,141757,1,2,0:0:0:0:
192,192,141805,1,0,0:0:0:0:
448,192,142013,1,0,0:0:0:0:
192,192,142142,1,0,0:0:0:0:
64,192,142270,1,0,0:0:0:0:
192,192,142398,1,0,0:0:0:0:
448,192,142526,1,0,0:0:0:0:
320,192,142654,1,0,0:0:0:0:
448,192,142783,1,0,0:0:0:0:
192,192,142911,1,0,0:0:0:0:
64,192,143039,1,2,0:0:0:0:
192,192,143167,1,0,0:0:0:0:
64,192,143295,1,2,0:0:0:0:
448,192,143295,1,0,0:0:0:0:
320,192,143381,1,0,0:0:0:0:
448,192,143466,1,0,0:0:0:0:
192,192,143552,1,0,0:0:0:0:
64,192,143637,1,0,0:0:0:0:
192,192,143723,1,0,0:0:0:0:
448,192,143808,1,2,0:0:0:0:
320,192,143894,1,0,0:0:0:0:
448,192,143979,1,0,0:0:0:0:
192,192,144065,1,2,0:0:0:0:
64,192,144150,1,0,0:0:0:0:
192,192,144236,1,0,0:0:0:0:
64,192,144321,1,8,0:0:0:0:
448,192,144321,1,0,0:0:0:0:
320,192,144407,1,0,0:0:0:0:
448,192,144492,1,0,0:0:0:0:
64,192,144577,1,2,0:0:0:0:
320,192,144577,1,0,0:0:0:0:
192,192,144663,1,2,0:0:0:0:
320,192,144748,1,2,0:0:0:0:
64,192,144834,1,4,0:0:0:0:
192,192,144834,1,2,0:0:0:0:
448,192,144834,1,0,0:0:0:0:
320,192,144868,1,0,0:0:0:0:
64,192,145356,1,0,0:0:0:0:
192,192,145485,1,0,0:0:0:0:
64,192,145613,1,2,0:0:0:0:
320,192,145613,1,8,0:0:0:0:
448,192,145741,1,0,0:0:0:0:
64,192,145805,1,8,0:0:0:0:
320,192,145869,1,0,0:0:0:0:
64,192,145997,1,8,0:0:0:0:
192,192,145997,1,2,0:0:0:0:
320,192,146126,1,0,0:0:0:0:
64,192,146190,1,8,0:0:0:0:
448,192,146254,1,0,0:0:0:0:
192,192,146382,1,8,0:0:0:0:
320,192,146382,1,2,0:0:0:0:
192,192,146574,1,2,0:0:0:0:
320,192,146574,1,8,0:0:0:0:
192,192,146767,1,2,0:0:0:0:
320,192,146767,1,8,0:0:0:0:
192,192,146959,1,8,0:0:0:0:
320,192,146959,1,2,0:0:0:0:
64,192,147151,1,8,0:0:0:0:
448,192,147151,1,2,0:0:0:0:
64,192,147344,1,8,0:0:0:0:
448,192,147344,1,2,0:0:0:0:
192,192,147440,1,2,0:0:0:0:
320,192,147440,1,0,0:0:0:0:
64,192,147536,1,8,0:0:0:0:
448,192,147536,1,2,0:0:0:0:
320,192,147600,1,2,0:0:0:0:
192,192,147664,1,2,0:0:0:0:
64,192,147728,1,8,0:0:0:0:
448,192,147728,1,2,0:0:0:0:
192,192,147792,1,8,0:0:0:0:
320,192,147856,1,8,0:0:0:0:
64,192,147920,1,0,0:0:0:0:
192,192,147920,1,0,0:0:0:0:
448,192,147920,1,0,0:0:0:0:
192,192,148209,1,2,0:0:0:0:
64,192,148305,1,2,0:0:0:0:
320,192,148305,1,8,0:0:0:0:
192,192,148497,1,2,0:0:0:0:
320,192,148594,1,2,0:0:0:0:
448,192,148690,1,2,0:0:0:0:
64,192,148786,1,8,0:0:0:0:
320,192,148786,1,0,0:0:0:0:
192,192,148882,1,0,0:0:0:0:
320,192,148978,1,2,0:0:0:0:
64,192,149074,1,2,0:0:0:0:
192,192,149074,1,8,0:0:0:0:
320,192,149171,1,8,0:0:0:0:
192,192,149267,1,2,0:0:0:0:
64,192,149363,1,2,0:0:0:0:
448,192,149459,1,2,0:0:0:0:
192,192,149555,1,0,0:0:0:0:
320,192,149651,1,0,0:0:0:0:
64,192,149747,1,2,0:0:0:0:
192,192,149844,1,8,0:0:0:0:
320,192,149844,1,2,0:0:0:0:
448,192,149940,1,0,0:0:0:0:
192,192,150036,1,2,0:0:0:0:
64,192,150132,1,2,0:0:0:0:
448,192,150228,1,0,0:0:0:0:
64,192,150324,1,2,0:0:0:0:
192,192,150324,1,8,0:0:0:0:
320,192,150421,1,0,0:0:0:0:
64,192,150517,1,2,0:0:0:0:
192,192,150613,1,8,0:0:0:0:
448,192,150613,1,0,0:0:0:0:
320,192,150709,1,2,0:0:0:0:
192,192,150805,1,10,0:0:0:0:
64,192,150901,1,2,0:0:0:0:
192,192,150997,1,2,0:0:0:0:
320,192,150997,1,0,0:0:0:0:
192,192,151286,1,2,0:0:0:0:
320,192,151382,1,2,0:0:0:0:
448,192,151382,1,8,0:0:0:0:
64,192,151574,1,2,0:0:0:0:
320,192,151671,1,2,0:0:0:0:
64,192,151767,1,2,0:0:0:0:
192,192,151767,1,0,0:0:0:0:
64,192,152055,1,2,0:0:0:0:
448,192,152055,1,0,0:0:0:0:
192,192,152151,1,2,0:0:0:0:
320,192,152151,1,8,0:0:0:0:
64,192,152344,1,2,0:0:0:0:
320,192,152344,1,0,0:0:0:0:
192,192,152440,1,2,0:0:0:0:
320,192,152536,1,2,0:0:0:0:
192,192,152632,1,2,0:0:0:0:
448,192,152632,1,0,0:0:0:0:
448,192,152824,1,2,0:0:0:0:
64,192,152921,1,8,0:0:0:0:
320,192,152921,1,2,0:0:0:0:
320,192,153209,1,0,0:0:0:0:
448,192,153209,1,0,0:0:0:0:
64,192,153305,1,8,0:0:0:0:
192,192,153305,1,2,0:0:0:0:
320,192,153401,1,8,0:0:0:0:
448,192,153401,1,0,0:0:0:0:
192,192,153497,1,8,0:0:0:0:
64,192,153594,1,2,0:0:0:0:
192,192,153690,1,8,0:0:0:0:
320,192,153690,1,2,0:0:0:0:
64,192,153786,1,2,0:0:0:0:
448,192,153786,1,0,0:0:0:0:
192,192,153882,1,2,0:0:0:0:
320,192,153978,1,2,0:0:0:0:
64,192,154074,1,4,0:0:0:0:
192,192,154074,1,2,0:0:0:0:
448,192,154074,1,0,0:0:0:0:
320,192,154267,1,2,0:0:0:0:
192,192,154363,1,2,0:0:0:0:
320,192,154459,1,2,0:0:0:0:
448,192,154459,1,8,0:0:0:0:
64,192,154555,1,0,0:0:0:0:
192,192,154651,1,0,0:0:0:0:
320,192,154747,1,2,0:0:0:0:
448,192,154844,1,2,0:0:0:0:
64,192,154940,1,8,0:0:0:0:
320,192,154940,1,0,0:0:0:0:
192,192,155036,1,0,0:0:0:0:
320,192,155132,1,2,0:0:0:0:
64,192,155228,1,2,0:0:0:0:
448,192,155228,1,8,0:0:0:0:
192,192,155324,1,8,0:0:0:0:
320,192,155421,1,2,0:0:0:0:
64,192,155517,1,2,0:0:0:0:
192,192,155613,1,2,0:0:0:0:
448,192,155613,1,0,0:0:0:0:
320,192,155901,1,2,0:0:0:0:
64,192,155997,1,8,0:0:0:0:
192,192,155997,1,2,0:0:0:0:
448,192,156190,1,8,0:0:0:0:
320,192,156286,1,2,0:0:0:0:
64,192,156382,1,0,0:0:0:0:
192,192,156430,1,0,0:0:0:0:
320,192,156478,1,2,0:0:0:0:
448,192,156478,1,8,0:0:0:0:
192,192,156671,1,2,0:0:0:0:
64,192,156767,1,8,0:0:0:0:
448,192,156767,1,0,0:0:0:0:
320,192,156863,1,2,0:0:0:0:
192,192,156959,1,10,0:0:0:0:
320,192,157055,1,2,0:0:0:0:
64,192,157151,1,2,0:0:0:0:
192,192,157151,1,0,0:0:0:0:
448,192,157344,1,2,0:0:0:0:
64,192,157440,1,2,0:0:0:0:
192,192,157536,1,2,0:0:0:0:
448,192,157536,1,8,0:0:0:0:
320,192,157632,1,0,0:0:0:0:
192,192,157728,1,2,0:0:0:0:
64,192,157824,1,2,0:0:0:0:
448,192,157921,1,2,0:0:0:0:
64,192,158017,1,8,0:0:0:0:
192,192,158113,1,0,0:0:0:0:
320,192,158209,1,2,0:0:0:0:
64,192,158305,1,2,0:0:0:0:
448,192,158305,1,8,0:0:0:0:
320,192,158369,1,0,0:0:0:0:
192,192,158433,1,0,0:0:0:0:
320,192,158497,1,10,0:0:0:0:
192,192,158562,1,0,0:0:0:0:
64,192,158626,1,0,0:0:0:0:
192,192,158690,1,2,0:0:0:0:
320,192,158690,1,0,0:0:0:0:
64,192,158786,1,2,0:0:0:0:
64,192,158978,1,2,0:0:0:0:
192,192,159074,1,10,0:0:0:0:
320,192,159086,1,0,0:0:0:0:
448,192,159098,1,0,0:0:0:0:
320,192,159363,1,8,0:0:0:0:
64,192,159459,1,2,0:0:0:0:
448,192,159459,1,8,0:0:0:0:
320,192,159523,1,0,0:0:0:0:
192,192,159587,1,0,0:0:0:0:
64,192,159651,1,10,0:0:0:0:
448,192,159715,1,2,0:0:0:0:
320,192,159779,1,2,0:0:0:0:
192,192,159844,1,2,0:0:0:0:
64,192,159908,1,2,0:0:0:0:
192,192,159972,1,2,0:0:0:0:
320,192,160036,1,10,0:0:0:0:
448,192,160100,1,2,0:0:0:0:
64,192,160164,1,2,0:0:0:0:
192,192,160228,1,4,0:0:0:0:
320,192,160228,1,2,0:0:0:0:
448,192,160228,1,0,0:0:0:0:
192,192,160517,1,2,0:0:0:0:
64,192,160613,1,2,0:0:0:0:
320,192,160613,1,8,0:0:0:0:
192,192,160805,1,2,0:0:0:0:
320,192,160901,1,2,0:0:0:0:
448,192,160997,1,2,0:0:0:0:
64,192,161094,1,8,0:0:0:0:
320,192,161094,1,0,0:0:0:0:
192,192,161190,1,0,0:0:0:0:
320,192,161286,1,2,0:0:0:0:
192,192,161382,1,2,0:0:0:0:
448,192,161382,1,8,0:0:0:0:
320,192,161478,1,8,0:0:0:0:
192,192,161574,1,2,0:0:0:0:
64,192,161671,1,2,0:0:0:0:
448,192,161767,1,2,0:0:0:0:
320,192,161863,1,0,0:0:0:0:
448,192,161959,1,2,0:0:0:0:
320,192,162055,1,2,0:0:0:0:
192,192,162151,1,8,0:0:0:0:
448,192,162151,1,2,0:0:0:0:
320,192,162247,1,0,0:0:0:0:
64,192,162344,1,0,0:0:0:0:
192,192,162440,1,2,0:0:0:0:
448,192,162440,1,0,0:0:0:0:
64,192,162632,1,2,0:0:0:0:
448,192,162632,1,8,0:0:0:0:
320,192,162728,1,0,0:0:0:0:
64,192,162824,1,2,0:0:0:0:
192,192,162921,1,8,0:0:0:0:
448,192,162921,1,0,0:0:0:0:
64,192,163017,1,2,0:0:0:0:
448,192,163113,1,10,0:0:0:0:
192,192,163209,1,2,0:0:0:0:
448,192,163305,1,2,0:0:0:0:
320,192,163401,1,0,0:0:0:0:
64,192,163497,1,2,0:0:0:0:
192,192,163594,1,2,0:0:0:0:
64,192,163690,1,2,0:0:0:0:
320,192,163690,1,8,0:0:0:0:
448,192,163754,1,0,0:0:0:0:
320,192,163818,1,0,0:0:0:0:
192,192,163882,1,2,0:0:0:0:
64,192,163978,1,2,0:0:0:0:
448,192,164074,1,2,0:0:0:0:
320,192,164171,1,0,0:0:0:0:
64,192,164267,1,0,0:0:0:0:
448,192,164363,1,2,0:0:0:0:
64,192,164459,1,2,0:0:0:0:
192,192,164459,1,8,0:0:0:0:
448,192,164523,1,0,0:0:0:0:
192,192,164587,1,0,0:0:0:0:
320,192,164651,1,2,0:0:0:0:
64,192,164747,1,2,0:0:0:0:
192,192,164844,1,2,0:0:0:0:
64,192,164940,1,2,0:0:0:0:
320,192,164940,1,0,0:0:0:0:
320,192,165132,1,2,0:0:0:0:
64,192,165228,1,8,0:0:0:0:
448,192,165228,1,2,0:0:0:0:
64,192,165421,1,2,0:0:0:0:
192,192,165517,1,0,0:0:0:0:
320,192,165517,1,0,0:0:0:0:
64,192,165613,1,8,0:0:0:0:
448,192,165613,1,2,0:0:0:0:
192,192,165709,1,8,0:0:0:0:
320,192,165709,1,0,0:0:0:0:
448,192,165805,1,8,0:0:0:0:
64,192,165901,1,2,0:0:0:0:
320,192,165997,1,8,0:0:0:0:
448,192,165997,1,2,0:0:0:0:
192,192,166062,1,0,0:0:0:0:
64,192,166094,1,2,0:0:0:0:
320,192,166126,1,0,0:0:0:0:
448,192,166190,1,2,0:0:0:0:
64,192,166286,1,2,0:0:0:0:
192,192,166382,1,4,0:0:0:0:
320,192,166382,1,2,0:0:0:0:
448,192,166382,1,0,0:0:0:0:
64,192,166574,1,0,0:0:0:0:
320,192,166671,1,2,0:0:0:0:
192,192,166767,1,2,0:0:0:0:
448,192,166767,1,8,0:0:0:0:
64,192,166863,1,0,0:0:0:0:
192,192,166959,1,2,0:0:0:0:
320,192,167055,1,2,0:0:0:0:
448,192,167151,1,2,0:0:0:0:
64,192,167247,1,8,0:0:0:0:
192,192,167344,1,0,0:0:0:0:
320,192,167440,1,2,0:0:0:0:
64,192,167536,1,2,0:0:0:0:
192,192,167536,1,8,0:0:0:0:
320,192,167632,1,8,0:0:0:0:
448,192,167728,1,2,0:0:0:0:
64,192,167824,1,2,0:0:0:0:
192,192,167921,1,2,0:0:0:0:
448,192,167921,1,0,0:0:0:0:
192,192,168209,1,2,0:0:0:0:
320,192,168209,1,0,0:0:0:0:
64,192,168305,1,8,0:0:0:0:
448,192,168305,1,2,0:0:0:0:
320,192,168497,1,8,0:0:0:0:
64,192,168690,1,0,0:0:0:0:
192,192,168738,1,0,0:0:0:0:
320,192,168786,1,2,0:0:0:0:
448,192,168786,1,8,0:0:0:0:
320,192,168978,1,2,0:0:0:0:
192,192,169074,1,8,0:0:0:0:
448,192,169074,1,0,0:0:0:0:
64,192,169171,1,2,0:0:0:0:
192,192,169267,1,10,0:0:0:0:
320,192,169363,1,2,0:0:0:0:
64,192,169459,1,2,0:0:0:0:
448,192,169459,1,0,0:0:0:0:
192,192,169651,1,2,0:0:0:0:
64,192,169844,1,2,0:0:0:0:
320,192,169844,1,8,0:0:0:0:
320,192,170036,1,2,0:0:0:0:
64,192,170132,1,2,0:0:0:0:
192,192,170132,1,0,0:0:0:0:
448,192,170324,1,0,0:0:0:0:
320,192,170421,1,2,0:0:0:0:
192,192,170517,1,2,0:0:0:0:
64,192,170613,1,2,0:0:0:0:
448,192,170613,1,8,0:0:0:0:
192,192,170677,1,0,0:0:0:0:
320,192,170741,1,0,0:0:0:0:
448,192,170805,1,10,0:0:0:0:
320,192,170869,1,0,0:0:0:0:
192,192,170933,1,0,0:0:0:0:
64,192,170997,1,2,0:0:0:0:
320,192,170997,1,0,0:0:0:0:
192,192,171094,1,2,0:0:0:0:
192,192,171286,1,2,0:0:0:0:
64,192,171382,1,10,0:0:0:0:
320,192,171394,1,0,0:0:0:0:
448,192,171406,1,0,0:0:0:0:
192,192,171574,1,2,0:0:0:0:
320,192,171671,1,8,0:0:0:0:
64,192,171767,1,8,0:0:0:0:
448,192,171767,1,2,0:0:0:0:
320,192,171831,1,8,0:0:0:0:
64,192,171895,1,8,0:0:0:0:
448,192,171959,1,8,0:0:0:0:
320,192,172023,1,2,0:0:0:0:
192,192,172087,1,2,0:0:0:0:
64,192,172151,1,2,0:0:0:0:
192,192,172247,1,2,0:0:0:0:
320,192,172344,1,8,0:0:0:0:
448,192,172440,1,2,0:0:0:0:
64,192,172536,128,4,173690:0:0:0:0:
192,192,172536,1,2,0:0:0:0:
320,192,172536,1,0,0:0:0:0:
448,192,172824,1,2,0:0:0:0:
192,192,172921,1,2,0:0:0:0:
320,192,172921,1,8,0:0:0:0:
448,192,173113,1,0,0:0:0:0:
192,192,173401,1,8,0:0:0:0:
448,192,173401,1,0,0:0:0:0:
192,192,173594,1,2,0:0:0:0:
320,192,173690,128,2,174459:0:0:0:0:
448,192,173690,1,8,0:0:0:0:
192,192,173882,1,2,0:0:0:0:
448,192,173978,1,2,0:0:0:0:
64,192,174074,1,2,0:0:0:0:
64,192,174267,1,2,0:0:0:0:
64,192,174459,1,8,0:0:0:0:
192,192,174459,128,2,174844:0:0:0:0:
448,192,174555,1,0,0:0:0:0:
320,192,174747,1,2,0:0:0:0:
64,192,174844,1,0,0:0:0:0:
192,192,174940,1,2,0:0:0:0:
448,192,174940,1,8,0:0:0:0:
192,192,175132,1,2,0:0:0:0:
64,192,175228,1,8,0:0:0:0:
320,192,175228,1,0,0:0:0:0:
192,192,175421,1,2,0:0:0:0:
320,192,175421,1,8,0:0:0:0:
448,192,175613,128,2,176767:0:0:0:0:
192,192,175805,1,2,0:0:0:0:
64,192,175997,1,2,0:0:0:0:
320,192,175997,1,8,0:0:0:0:
192,192,176094,1,2,0:0:0:0:
64,192,176286,1,2,0:0:0:0:
192,192,176478,1,0,0:0:0:0:
64,192,176671,1,2,0:0:0:0:
192,192,176767,128,2,177151:0:0:0:0:
320,192,176767,1,8,0:0:0:0:
64,192,176959,1,2,0:0:0:0:
448,192,177055,1,2,0:0:0:0:
320,192,177151,128,2,177536:0:0:0:0:
448,192,177247,1,2,0:0:0:0:
64,192,177536,1,8,0:0:0:0:
192,192,177536,128,2,177921:0:0:0:0:
320,192,177632,1,0,0:0:0:0:
64,192,177921,1,8,0:0:0:0:
448,192,177921,1,2,0:0:0:0:
192,192,178017,1,8,0:0:0:0:
320,192,178113,1,8,0:0:0:0:
192,192,178209,1,2,0:0:0:0:
448,192,178209,1,0,0:0:0:0:
64,192,178305,1,10,0:0:0:0:
448,192,178401,1,2,0:0:0:0:
64,192,178497,1,2,0:0:0:0:
320,192,178497,1,0,0:0:0:0:
192,192,178594,1,2,0:0:0:0:
64,192,178690,1,4,0:0:0:0:
320,192,178690,1,2,0:0:0:0:
448,192,178690,1,0,0:0:0:0:
448,192,178882,1,0,0:0:0:0:
192,192,178978,128,0,179651:0:0:0:0:
320,192,179074,1,10,0:0:0:0:
448,192,179171,1,0,0:0:0:0:
320,192,179363,1,2,0:0:0:0:
320,192,179555,1,8,0:0:0:0:
448,192,179555,1,0,0:0:0:0:
64,192,179651,1,0,0:0:0:0:
448,192,179747,1,2,0:0:0:0:
64,192,179844,1,2,0:0:0:0:
320,192,179844,1,8,0:0:0:0:
192,192,179940,1,0,0:0:0:0:
64,192,180036,1,2,0:0:0:0:
448,192,180036,1,0,0:0:0:0:
320,192,180132,1,2,0:0:0:0:
64,192,180228,1,2,0:0:0:0:
320,192,180292,1,0,0:0:0:0:
448,192,180356,1,0,0:0:0:0:
64,192,180421,1,0,0:0:0:0:
192,192,180485,1,0,0:0:0:0:
64,192,180549,1,0,0:0:0:0:
192,192,180613,1,10,0:0:0:0:
320,192,180677,1,0,0:0:0:0:
448,192,180741,1,0,0:0:0:0:
64,192,180805,1,0,0:0:0:0:
320,192,180869,1,0,0:0:0:0:
64,192,180933,1,0,0:0:0:0:
320,192,180997,1,0,0:0:0:0:
192,192,181062,1,0,0:0:0:0:
448,192,181126,1,0,0:0:0:0:
320,192,181190,1,0,0:0:0:0:
192,192,181254,1,0,0:0:0:0:
320,192,181318,1,0,0:0:0:0:
192,192,181382,1,8,0:0:0:0:
64,192,181446,1,0,0:0:0:0:
448,192,181510,1,0,0:0:0:0:
192,192,181574,1,2,0:0:0:0:
320,192,181638,1,0,0:0:0:0:
192,192,181703,1,0,0:0:0:0:
320,192,181767,1,2,0:0:0:0:
64,192,181831,1,0,0:0:0:0:
192,192,181895,1,0,0:0:0:0:
448,192,181959,1,0,0:0:0:0:
64,192,182023,1,0,0:0:0:0:
448,192,182087,1,0,0:0:0:0:
64,192,182151,1,10,0:0:0:0:
192,192,182215,1,0,0:0:0:0:
320,192,182279,1,0,0:0:0:0:
448,192,182344,1,0,0:0:0:0:
192,192,182408,1,0,0:0:0:0:
448,192,182472,1,0,0:0:0:0:
192,192,182536,1,2,0:0:0:0:
320,192,182600,1,0,0:0:0:0:
64,192,182664,1,0,0:0:0:0:
192,192,182728,1,0,0:0:0:0:
448,192,182792,1,0,0:0:0:0:
192,192,182856,1,0,0:0:0:0:
448,192,182921,1,10,0:0:0:0:
64,192,182985,1,0,0:0:0:0:
192,192,183049,1,0,0:0:0:0:
320,192,183113,1,2,0:0:0:0:
448,192,183177,1,0,0:0:0:0:
320,192,183241,1,0,0:0:0:0:
192,192,183305,1,8,0:0:0:0:
448,192,183305,1,2,0:0:0:0:
64,192,183369,1,2,0:0:0:0:
448,192,183433,1,2,0:0:0:0:
64,192,183497,1,2,0:0:0:0:
192,192,183594,1,2,0:0:0:0:
320,192,183594,1,0,0:0:0:0:
448,192,183690,1,10,0:0:0:0:
320,192,183786,1,8,0:0:0:0:
64,192,183882,1,2,0:0:0:0:
192,192,183882,1,8,0:0:0:0:
448,192,183978,1,12,0:0:0:0:
64,192,184074,1,2,0:0:0:0:
320,192,184074,1,0,0:0:0:0:
192,192,184171,1,8,0:0:0:0:
320,192,184267,1,8,0:0:0:0:
64,192,184363,1,2,0:0:0:0:
448,192,184363,1,0,0:0:0:0:
320,192,184459,1,2,0:0:0:0:
192,192,184555,1,0,0:0:0:0:
64,192,184651,1,2,0:0:0:0:
320,192,184651,1,0,0:0:0:0:
448,192,184747,1,2,0:0:0:0:
64,192,184844,1,4,0:0:0:0:
192,192,184844,128,2,186382:0:0:0:0:
320,192,184844,1,0,0:0:0:0:
448,192,185132,1,0,0:0:0:0:
64,192,185228,1,2,0:0:0:0:
320,192,185228,1,8,0:0:0:0:
448,192,185421,1,0,0:0:0:0:
320,192,185517,1,2,0:0:0:0:
64,192,185613,1,2,0:0:0:0:
320,192,185709,1,8,0:0:0:0:
448,192,185709,1,0,0:0:0:0:
64,192,185901,1,2,0:0:0:0:
320,192,185997,1,2,0:0:0:0:
448,192,185997,1,8,0:0:0:0:
64,192,186190,1,2,0:0:0:0:
320,192,186382,128,2,187151:0:0:0:0:
192,192,186574,1,0,0:0:0:0:
64,192,186767,1,8,0:0:0:0:
448,192,186767,1,2,0:0:0:0:
192,192,186863,1,0,0:0:0:0:
64,192,187055,1,2,0:0:0:0:
448,192,187151,1,2,0:0:0:0:
64,192,187247,1,8,0:0:0:0:
192,192,187247,1,2,0:0:0:0:
320,192,187440,1,2,0:0:0:0:
192,192,187536,1,8,0:0:0:0:
448,192,187536,1,0,0:0:0:0:
320,192,187728,1,10,0:0:0:0:
64,192,187824,1,2,0:0:0:0:
192,192,187921,1,2,0:0:0:0:
64,192,188017,128,0,188497:0:0:0:0:
448,192,188113,1,0,0:0:0:0:
192,192,188305,1,2,0:0:0:0:
320,192,188305,1,8,0:0:0:0:
448,192,188401,1,0,0:0:0:0:
192,192,188497,1,2,0:0:0:0:
320,192,188690,1,2,0:0:0:0:
192,192,188818,1,0,0:0:0:0:
64,192,188946,1,0,0:0:0:0:
192,192,189074,1,2,0:0:0:0:
448,192,189074,1,8,0:0:0:0:
320,192,189203,1,0,0:0:0:0:
64,192,189267,1,2,0:0:0:0:
448,192,189331,1,0,0:0:0:0:
448,192,189459,1,2,0:0:0:0:
192,192,189555,1,2,0:0:0:0:
320,192,189651,1,0,0:0:0:0:
64,192,189844,1,8,0:0:0:0:
320,192,189844,1,2,0:0:0:0:
192,192,189940,1,0,0:0:0:0:
448,192,190036,1,2,0:0:0:0:
64,192,190228,1,8,0:0:0:0:
192,192,190228,1,2,0:0:0:0:
320,192,190324,1,8,0:0:0:0:
448,192,190324,1,0,0:0:0:0:
64,192,190421,1,8,0:0:0:0:
192,192,190421,1,0,0:0:0:0:
320,192,190517,1,2,0:0:0:0:
64,192,190613,1,8,0:0:0:0:
448,192,190613,1,2,0:0:0:0:
192,192,190709,1,2,0:0:0:0:
320,192,190709,1,0,0:0:0:0:
64,192,190805,1,2,0:0:0:0:
448,192,190901,1,2,0:0:0:0:
64,192,190997,1,4,0:0:0:0:
192,192,190997,1,2,0:0:0:0:
320,192,190997,1,0,0:0:0:0:
320,192,191190,1,2,0:0:0:0:
64,192,191286,128,0,191959:0:0:0:0:
192,192,191382,1,2,0:0:0:0:
448,192,191382,1,8,0:0:0:0:
320,192,191478,1,0,0:0:0:0:
192,192,191671,1,2,0:0:0:0:
320,192,191863,1,8,0:0:0:0:
448,192,191863,1,0,0:0:0:0:
192,192,191959,1,0,0:0:0:0:
448,192,192055,1,2,0:0:0:0:
192,192,192151,1,2,0:0:0:0:
320,192,192151,1,8,0:0:0:0:
64,192,192247,1,0,0:0:0:0:
320,192,192344,1,2,0:0:0:0:
448,192,192440,1,2,0:0:0:0:
192,192,192536,1,2,0:0:0:0:
64,192,192600,1,0,0:0:0:0:
192,192,192664,1,0,0:0:0:0:
320,192,192728,1,0,0:0:0:0:
192,192,192792,1,0,0:0:0:0:
320,192,192856,1,0,0:0:0:0:
64,192,192921,1,8,0:0:0:0:
448,192,192921,1,2,0:0:0:0:
320,192,192985,1,0,0:0:0:0:
448,192,193049,1,0,0:0:0:0:
192,192,193113,1,8,0:0:0:0:
320,192,193209,1,2,0:0:0:0:
448,192,193305,1,0,0:0:0:0:
64,192,193401,1,2,0:0:0:0:
320,192,193401,1,8,0:0:0:0:
192,192,193497,1,0,0:0:0:0:
320,192,193690,1,8,0:0:0:0:
448,192,193690,1,0,0:0:0:0:
64,192,193786,1,2,0:0:0:0:
192,192,193882,1,10,0:0:0:0:
320,192,193978,1,2,0:0:0:0:
192,192,194074,1,2,0:0:0:0:
448,192,194074,128,0,194747:0:0:0:0:
192,192,194267,1,0,0:0:0:0:
64,192,194459,1,2,0:0:0:0:
320,192,194459,1,8,0:0:0:0:
192,192,194555,1,0,0:0:0:0:
64,192,194747,1,2,0:0:0:0:
320,192,194844,1,2,0:0:0:0:
448,192,194844,1,0,0:0:0:0:
192,192,195036,1,2,0:0:0:0:
448,192,195036,1,0,0:0:0:0:
192,192,195228,1,2,0:0:0:0:
320,192,195228,1,8,0:0:0:0:
64,192,195356,1,2,0:0:0:0:
320,192,195356,1,0,0:0:0:0:
64,192,195485,1,2,0:0:0:0:
192,192,195485,1,0,0:0:0:0:
64,192,195613,1,4,0:0:0:0:
320,192,195613,1,2,0:0:0:0:
448,192,195613,1,0,0:0:0:0:
192,192,195805,1,2,0:0:0:0:
320,192,195901,1,2,0:0:0:0:
64,192,195997,1,8,0:0:0:0:
192,192,195997,1,2,0:0:0:0:
448,192,195997,1,4,0:0:0:0:
64,192,196286,1,2,0:0:0:0:
320,192,196286,1,8,0:0:0:0:
448,192,196286,1,4,0:0:0:0:
192,192,196478,1,2,0:0:0:0:
320,192,196574,1,2,0:0:0:0:
64,192,196671,1,2,0:0:0:0:
192,192,196767,1,2,0:0:0:0:
320,192,196767,1,4,0:0:0:0:
448,192,196767,1,8,0:0:0:0:
192,192,196959,1,2,0:0:0:0:
64,192,197151,1,2,0:0:0:0:
320,192,197151,1,4,0:0:0:0:
448,192,197151,1,0,0:0:0:0:
192,192,197344,1,8,0:0:0:0:
320,192,197440,1,8,0:0:0:0:
192,192,197536,1,2,0:0:0:0:
448,192,197632,1,2,0:0:0:0:
64,192,197728,1,2,0:0:0:0:
192,192,197824,1,4,0:0:0:0:
320,192,197824,1,2,0:0:0:0:
448,192,197824,1,0,0:0:0:0:
64,192,198017,1,8,0:0:0:0:
448,192,198113,1,8,0:0:0:0:
64,192,198209,1,8,0:0:0:0:
448,192,198305,1,8,0:0:0:0:
320,192,198401,1,2,0:0:0:0:
192,192,198497,1,2,0:0:0:0:
64,192,198594,1,2,0:0:0:0:
320,192,198690,1,10,0:0:0:0:
192,192,198754,1,8,0:0:0:0:
320,192,198818,1,8,0:0:0:0:
192,192,198882,1,8,0:0:0:0:
448,192,198978,1,2,0:0:0:0:
64,192,199074,1,2,0:0:0:0:
320,192,199138,1,2,0:0:0:0:
64,192,199203,1,2,0:0:0:0:
320,192,199267,1,2,0:0:0:0:
192,192,199363,1,2,0:0:0:0:
448,192,199459,1,2,0:0:0:0:
64,192,199555,1,8,0:0:0:0:
448,192,199651,1,8,0:0:0:0:
320,192,199699,1,0,0:0:0:0:
64,192,199747,1,8,0:0:0:0:
448,192,199796,1,0,0:0:0:0:
192,192,199844,1,10,0:0:0:0:
64,192,199892,1,8,0:0:0:0:
448,192,199940,1,8,0:0:0:0:
320,192,199988,1,8,0:0:0:0:
192,192,200036,1,2,0:0:0:0:
64,192,200084,1,0,0:0:0:0:
192,192,200228,1,0,0:0:0:0:
320,192,200228,1,0,0:0:0:0:
448,192,200228,1,0,0:0:0:0:
64,192,200325,1,0,0:0:0:0:
192,192,200421,1,0,0:0:0:0:
320,192,200517,1,0,0:0:0:0:
448,192,200613,1,2,0:0:0:0:
64,192,200709,1,2,0:0:0:0:
192,192,200709,1,0,0:0:0:0:
320,192,200902,1,2,0:0:0:0:
448,192,200902,1,0,0:0:0:0:
64,192,201094,1,2,0:0:0:0:
320,192,201190,1,8,0:0:0:0:
448,192,201190,1,0,0:0:0:0:
64,192,201286,1,8,0:0:0:0:
320,192,201382,1,2,0:0:0:0:
192,192,201446,1,2,0:0:0:0:
448,192,201511,1,2,0:0:0:0:
64,192,201575,1,2,0:0:0:0:
192,192,201639,1,2,0:0:0:0:
320,192,201703,1,2,0:0:0:0:
64,192,201767,1,4,0:0:0:0:
448,192,201767,1,2,0:0:0:0:
320,192,201863,1,0,0:0:0:0:
192,192,201959,1,2,0:0:0:0:
64,192,202055,1,2,0:0:0:0:
192,192,202152,1,8,0:0:0:0:
448,192,202152,1,0,0:0:0:0:
64,192,202248,1,2,0:0:0:0:
320,192,202248,1,0,0:0:0:0:
192,192,202440,1,2,0:0:0:0:
320,192,202440,1,4,0:0:0:0:
320,192,202632,1,2,0:0:0:0:
448,192,202632,1,4,0:0:0:0:
192,192,202825,1,4,0:0:0:0:
448,192,202825,1,2,0:0:0:0:
320,192,202921,1,8,0:0:0:0:
192,192,203017,1,8,0:0:0:0:
64,192,203209,1,0,0:0:0:0:
320,192,203209,1,0,0:0:0:0:
448,192,203209,1,0,0:0:0:0:
192,192,203306,1,0,0:0:0:0:
320,192,203402,1,8,0:0:0:0:
448,192,203498,1,8,0:0:0:0:
64,192,203594,1,2,0:0:0:0:
192,192,203690,1,2,0:0:0:0:
320,192,203690,1,0,0:0:0:0:
64,192,203883,1,2,0:0:0:0:
448,192,203883,1,0,0:0:0:0:
192,192,204075,1,8,0:0:0:0:
64,192,204171,1,2,0:0:0:0:
448,192,204171,1,8,0:0:0:0:
192,192,204267,1,8,0:0:0:0:
448,192,204363,1,2,0:0:0:0:
320,192,204427,1,2,0:0:0:0:
448,192,204492,1,2,0:0:0:0:
64,192,204556,1,2,0:0:0:0:
192,192,204620,1,2,0:0:0:0:
320,192,204684,1,2,0:0:0:0:
64,192,204748,1,2,0:0:0:0:
448,192,204748,1,4,0:0:0:0:
320,192,204844,1,0,0:0:0:0:
192,192,204940,1,2,0:0:0:0:
64,192,205036,1,2,0:0:0:0:
192,192,205133,1,2,0:0:0:0:
320,192,205229,1,8,0:0:0:0:
448,192,205229,1,0,0:0:0:0:
64,192,205421,1,2,0:0:0:0:
192,192,205421,1,4,0:0:0:0:
320,192,205421,1,0,0:0:0:0:
192,192,205613,1,2,0:0:0:0:
320,192,205613,1,4,0:0:0:0:
448,192,205613,1,0,0:0:0:0:
64,192,205806,1,4,0:0:0:0:
192,192,205806,1,2,0:0:0:0:
448,192,205806,1,0,0:0:0:0:
320,192,205902,1,8,0:0:0:0:
64,192,205998,1,8,0:0:0:0:
192,192,206190,1,0,0:0:0:0:
320,192,206190,1,0,0:0:0:0:
448,192,206190,1,0,0:0:0:0:
64,192,206287,1,0,0:0:0:0:
192,192,206383,1,8,0:0:0:0:
320,192,206479,1,8,0:0:0:0:
448,192,206575,1,2,0:0:0:0:
64,192,206671,1,2,0:0:0:0:
320,192,206671,1,0,0:0:0:0:
192,192,206864,1,2,0:0:0:0:
448,192,206864,1,0,0:0:0:0:
320,192,207056,1,2,0:0:0:0:
192,192,207152,1,8,0:0:0:0:
448,192,207152,1,0,0:0:0:0:
320,192,207248,1,8,0:0:0:0:
64,192,207344,1,8,0:0:0:0:
448,192,207408,1,2,0:0:0:0:
320,192,207473,1,2,0:0:0:0:
192,192,207537,1,2,0:0:0:0:
64,192,207601,1,2,0:0:0:0:
192,192,207665,1,2,0:0:0:0:
320,192,207729,1,4,0:0:0:0:
448,192,207729,1,2,0:0:0:0:
64,192,207825,1,0,0:0:0:0:
192,192,207921,1,2,0:0:0:0:
320,192,208017,1,4,0:0:0:0:
448,192,208017,1,2,0:0:0:0:
192,192,208114,1,8,0:0:0:0:
64,192,208210,1,2,0:0:0:0:
320,192,208306,1,4,0:0:0:0:
448,192,208306,1,2,0:0:0:0:
64,192,208402,1,8,0:0:0:0:
192,192,208498,1,2,0:0:0:0:
320,192,208594,1,2,0:0:0:0:
448,192,208594,1,4,0:0:0:0:
192,192,208691,1,8,0:0:0:0:
64,192,208787,1,2,0:0:0:0:
320,192,208883,1,4,0:0:0:0:
448,192,208883,1,2,0:0:0:0:
64,192,208979,1,8,0:0:0:0:
192,192,209075,1,2,0:0:0:0:
64,192,209171,1,0,0:0:0:0:
192,192,209364,1,2,0:0:0:0:
320,192,209364,1,4,0:0:0:0:
448,192,209364,1,0,0:0:0:0:
64,192,209460,1,2,0:0:0:0:
320,192,209556,1,8,0:0:0:0:
192,192,209652,1,8,0:0:0:0:
64,192,209748,1,8,0:0:0:0:
192,192,209813,1,0,0:0:0:0:
320,192,209877,1,0,0:0:0:0:
64,192,209941,1,4,0:0:0:0:
192,192,209941,1,2,0:0:0:0:
448,192,209941,1,0,0:0:0:0:
320,192,210133,1,8,0:0:0:0:
192,192,210229,1,8,0:0:0:0:
64,192,210325,1,2,0:0:0:0:
320,192,210325,1,0,0:0:0:0:
64,192,210614,1,2,0:0:0:0:
320,192,210614,1,4,0:0:0:0:
448,192,210614,1,0,0:0:0:0:
192,192,210902,1,8,0:0:0:0:
320,192,210902,1,2,0:0:0:0:
448,192,211095,1,2,0:0:0:0:
320,192,211191,1,2,0:0:0:0:
192,192,211287,1,2,0:0:0:0:
64,192,211383,1,2,0:0:0:0:
448,192,211479,1,8,0:0:0:0:
320,192,211543,1,0,0:0:0:0:
448,192,211607,1,0,0:0:0:0:
64,192,211672,1,0,0:0:0:0:
192,192,211736,1,2,0:0:0:0:
320,192,211800,1,0,0:0:0:0:
448,192,211864,1,2,0:0:0:0:
192,192,211928,1,0,0:0:0:0:
320,192,211992,1,2,0:0:0:0:
64,192,212056,1,8,0:0:0:0:
448,192,212120,1,2,0:0:0:0:
64,192,212184,1,2,0:0:0:0:
192,192,212248,1,0,0:0:0:0:
320,192,212248,1,0,0:0:0:0:
448,192,212248,1,0,0:0:0:0:
64,192,212345,1,0,0:0:0:0:
192,192,212441,1,8,0:0:0:0:
320,192,212537,1,8,0:0:0:0:
448,192,212633,1,2,0:0:0:0:
64,192,212729,1,2,0:0:0:0:
320,192,212729,1,0,0:0:0:0:
192,192,212922,1,2,0:0:0:0:
448,192,212922,1,0,0:0:0:0:
64,192,213114,1,2,0:0:0:0:
192,192,213210,1,8,0:0:0:0:
448,192,213210,1,0,0:0:0:0:
64,192,213306,1,8,0:0:0:0:
320,192,213402,1,2,0:0:0:0:
192,192,213466,1,2,0:0:0:0:
448,192,213531,1,2,0:0:0:0:
64,192,213595,1,2,0:0:0:0:
192,192,213659,1,2,0:0:0:0:
320,192,213723,1,2,0:0:0:0:
64,192,213787,1,4,0:0:0:0:
448,192,213787,1,2,0:0:0:0:
320,192,213883,1,0,0:0:0:0:
192,192,213979,1,2,0:0:0:0:
64,192,214075,1,2,0:0:0:0:
192,192,214172,1,8,0:0:0:0:
448,192,214172,1,0,0:0:0:0:
64,192,214268,1,2,0:0:0:0:
320,192,214268,1,0,0:0:0:0:
192,192,214460,1,2,0:0:0:0:
320,192,214460,1,4,0:0:0:0:
64,192,214652,1,2,0:0:0:0:
448,192,214652,1,4,0:0:0:0:
192,192,214845,1,4,0:0:0:0:
448,192,214845,1,2,0:0:0:0:
320,192,214941,1,8,0:0:0:0:
192,192,215037,1,10,0:0:0:0:
64,192,215229,1,2,0:0:0:0:
320,192,215229,1,4,0:0:0:0:
448,192,215229,1,0,0:0:0:0:
192,192,215325,1,0,0:0:0:0:
320,192,215421,1,8,0:0:0:0:
448,192,215517,1,8,0:0:0:0:
64,192,215613,1,2,0:0:0:0:
192,192,215709,1,2,0:0:0:0:
320,192,215709,1,0,0:0:0:0:
64,192,215902,1,2,0:0:0:0:
448,192,215902,1,0,0:0:0:0:
192,192,216094,1,8,0:0:0:0:
64,192,216190,1,2,0:0:0:0:
448,192,216190,1,8,0:0:0:0:
192,192,216286,1,8,0:0:0:0:
320,192,216382,1,2,0:0:0:0:
448,192,216446,1,2,0:0:0:0:
320,192,216511,1,2,0:0:0:0:
64,192,216575,1,2,0:0:0:0:
192,192,216639,1,2,0:0:0:0:
320,192,216703,1,2,0:0:0:0:
64,192,216767,1,2,0:0:0:0:
448,192,216767,1,4,0:0:0:0:
320,192,216863,1,0,0:0:0:0:
192,192,216959,1,2,0:0:0:0:
64,192,217055,1,2,0:0:0:0:
192,192,217152,1,2,0:0:0:0:
320,192,217248,1,8,0:0:0:0:
448,192,217248,1,0,0:0:0:0:
64,192,217440,1,2,0:0:0:0:
192,192,217440,1,4,0:0:0:0:
320,192,217440,1,0,0:0:0:0:
64,192,217632,1,2,0:0:0:0:
320,192,217632,1,4,0:0:0:0:
448,192,217632,1,0,0:0:0:0:
64,192,217825,1,4,0:0:0:0:
192,192,217825,1,2,0:0:0:0:
448,192,217825,1,0,0:0:0:0:
320,192,217921,1,8,0:0:0:0:
64,192,218017,1,8,0:0:0:0:
192,192,218209,1,0,0:0:0:0:
320,192,218209,1,0,0:0:0:0:
448,192,218209,1,0,0:0:0:0:
64,192,218306,1,8,0:0:0:0:
192,192,218402,1,8,0:0:0:0:
320,192,218498,1,8,0:0:0:0:
448,192,218594,1,2,0:0:0:0:
64,192,218690,1,2,0:0:0:0:
320,192,218690,1,0,0:0:0:0:
192,192,218883,1,2,0:0:0:0:
448,192,218883,1,0,0:0:0:0:
320,192,219075,1,2,0:0:0:0:
192,192,219171,1,8,0:0:0:0:
448,192,219171,1,0,0:0:0:0:
320,192,219267,1,8,0:0:0:0:
192,192,219363,1,8,0:0:0:0:
320,192,219427,1,2,0:0:0:0:
192,192,219492,1,2,0:0:0:0:
64,192,219556,1,2,0:0:0:0:
192,192,219620,1,2,0:0:0:0:
320,192,219684,1,2,0:0:0:0:
64,192,219748,1,4,0:0:0:0:
448,192,219748,1,2,0:0:0:0:
320,192,219844,1,0,0:0:0:0:
192,192,219940,1,2,0:0:0:0:
64,192,220036,1,4,0:0:0:0:
448,192,220036,1,2,0:0:0:0:
192,192,220133,1,8,0:0:0:0:
320,192,220229,1,2,0:0:0:0:
64,192,220325,1,4,0:0:0:0:
448,192,220325,1,2,0:0:0:0:
320,192,220421,1,8,0:0:0:0:
192,192,220517,1,2,0:0:0:0:
64,192,220613,1,2,0:0:0:0:
448,192,220613,1,4,0:0:0:0:
192,192,220710,1,8,0:0:0:0:
320,192,220806,1,2,0:0:0:0:
64,192,220902,1,4,0:0:0:0:
448,192,220902,1,2,0:0:0:0:
320,192,220998,1,8,0:0:0:0:
192,192,221094,1,2,0:0:0:0:
64,192,221190,1,2,0:0:0:0:
192,192,221383,1,2,0:0:0:0:
320,192,221383,1,4,0:0:0:0:
448,192,221383,1,0,0:0:0:0:
64,192,221479,1,2,0:0:0:0:
320,192,221575,1,8,0:0:0:0:
192,192,221671,1,8,0:0:0:0:
64,192,221767,1,2,0:0:0:0:
192,192,221832,1,2,0:0:0:0:
320,192,221896,1,2,0:0:0:0:
64,192,221960,1,4,0:0:0:0:
192,192,221960,1,2,0:0:0:0:
448,192,221960,1,0,0:0:0:0:
320,192,222152,1,8,0:0:0:0:
192,192,222248,1,8,0:0:0:0:
64,192,222344,1,2,0:0:0:0:
320,192,222344,1,0,0:0:0:0:
64,192,222633,1,4,0:0:0:0:
320,192,222633,1,2,0:0:0:0:
448,192,222633,1,0,0:0:0:0:
448,192,222921,1,8,0:0:0:0:
64,192,223017,1,8,0:0:0:0:
192,192,223114,1,8,0:0:0:0:
320,192,223114,1,0,0:0:0:0:
448,192,223242,1,2,0:0:0:0:
192,192,223370,1,8,0:0:0:0:
320,192,223370,1,0,0:0:0:0:
64,192,223498,1,2,0:0:0:0:
448,192,223498,1,0,0:0:0:0:
320,192,223626,1,0,0:0:0:0:
192,192,223755,1,2,0:0:0:0:
320,192,223883,1,2,0:0:0:0:
448,192,223883,1,0,0:0:0:0:
192,192,224011,1,0,0:0:0:0:
64,192,224139,1,2,0:0:0:0:
448,192,224268,1,2,0:0:0:0:
320,192,224396,1,2,0:0:0:0:
192,192,224524,1,2,0:0:0:0:
64,192,224652,1,8,0:0:0:0:
448,192,224652,1,0,0:0:0:0:
192,192,224780,1,8,0:0:0:0:
64,192,224909,1,8,0:0:0:0:
448,192,224909,1,0,0:0:0:0:
320,192,225037,1,2,0:0:0:0:
192,192,225101,1,2,0:0:0:0:
320,192,225165,1,2,0:0:0:0:
320,192,225293,1,2,0:0:0:0:
192,192,225421,1,2,0:0:0:0:
192,192,225550,1,2,0:0:0:0:
64,192,225678,1,2,0:0:0:0:
320,192,225806,1,8,0:0:0:0:
448,192,225806,1,0,0:0:0:0:
64,192,225870,1,8,0:0:0:0:
192,192,225870,1,0,0:0:0:0:
448,192,225934,1,2,0:0:0:0:
320,192,225998,1,2,0:0:0:0:
192,192,226062,1,2,0:0:0:0:
64,192,226126,1,2,0:0:0:0:
320,192,226191,1,2,0:0:0:0:
192,192,226255,1,2,0:0:0:0:
448,192,226319,1,2,0:0:0:0:
320,192,226383,1,2,0:0:0:0:
192,192,226447,1,2,0:0:0:0:
64,192,226511,1,2,0:0:0:0:
320,192,226575,1,2,0:0:0:0:
192,192,226639,1,2,0:0:0:0:
448,192,226703,1,2,0:0:0:0:
320,192,226768,1,2,0:0:0:0:
64,192,226832,1,2,0:0:0:0:
448,192,226896,1,2,0:0:0:0:
192,192,226960,1,8,0:0:0:0:
320,192,226976,1,0,0:0:0:0:
64,192,227088,1,0,0:0:0:0:
192,192,227344,128,0,227505:0:0:0:0:
320,192,227344,128,0,227505:0:0:0:0:
448,192,227345,128,6,227505:0:0:0:0:
192,192,227601,128,2,227761:0:0:0:0:
320,192,227601,128,4,227761:0:0:0:0:
448,192,227601,128,0,227761:0:0:0:0:
192,192,227857,128,4,228018:0:0:0:0:
320,192,227857,128,2,228018:0:0:0:0:
448,192,227857,128,0,228018:0:0:0:0:
192,192,228114,128,2,228402:0:0:0:0:
320,192,228114,128,4,228402:0:0:0:0:
448,192,228114,128,0,228402:0:0:0:0:
64,192,228627,128,4,228787:0:0:0:0:
192,192,228627,128,2,228787:0:0:0:0:
448,192,228627,128,0,228787:0:0:0:0:
64,192,228883,128,4,229043:0:0:0:0:
320,192,228883,128,2,229043:0:0:0:0:
448,192,228883,128,0,229043:0:0:0:0:
192,192,229139,128,2,229364:0:0:0:0:
320,192,229139,128,4,229364:0:0:0:0:
448,192,229139,128,0,229364:0:0:0:0:
448,192,229652,1,0,0:0:0:0:
320,192,229700,1,0,0:0:0:0:
64,192,229748,1,0,0:0:0:0:
448,192,229796,1,0,0:0:0:0:
192,192,229845,1,2,0:0:0:0:
64,192,229893,1,2,0:0:0:0:
448,192,229941,1,2,0:0:0:0:
320,192,229989,1,2,0:0:0:0:
64,192,230037,1,2,0:0:0:0:
192,192,230037,128,4,230614:0:0:0:0:
