osu file format v14

[General]
AudioFilename: audio.mp3
AudioLeadIn: 0
PreviewTime: 147895
Countdown: 0
SampleSet: Normal
StackLeniency: 0.2
Mode: 1
LetterboxInBreaks: 0
WidescreenStoryboard: 1

[Editor]
Bookmarks: 1003,29626,53665,75588,99819,123279,147895,172510,200203,230011
DistanceSpacing: 1
BeatDivisor: 8
GridSize: 32
TimelineZoom: 2.703361

[Metadata]
Title:Mirage Garden
TitleUnicode:Mirage Garden
Artist:xi
ArtistUnicode:xi
Creator:Genjuro
Version:Kantan
Source:
Tags:electronic instrumental jazz progressive fusion piano parousia diverse system 100sec records bof2009 the bms of fighters revolutionary battles
BeatmapID:2589028
BeatmapSetID:1243153

[Difficulty]
HPDrainRate:7
CircleSize:2
OverallDifficulty:3
ApproachRate:10
SliderMultiplier:1.4
SliderTickRate:1

[Events]
//Background and Video events
0,0,"bg.jpg",0,-130
//Break Periods
//Storyboard Layer 0 (Background)
//Storyboard Layer 1 (Fail)
//Storyboard Layer 2 (Pass)
//Storyboard Layer 3 (Foreground)
//Storyboard Layer 4 (Overlay)
//Storyboard Sound Samples

[TimingPoints]
1003,461.538461538462,4,1,0,75,1,0
2695,461.538461538462,4,1,0,75,1,0
4387,461.538461538462,4,1,0,75,1,0
6079,461.538461538462,4,1,0,75,1,0
7772,461.538461538462,4,1,0,75,1,0
9464,461.538461538462,4,1,0,75,1,0
11003,461.538461538462,4,1,0,75,1,0
12541,461.538461538462,4,1,0,75,1,0
14387,461.538461538462,4,1,0,75,1,0
16079,461.538461538462,4,1,0,75,1,0
17772,461.538461538462,4,1,0,75,1,0
19464,461.538461538462,4,1,0,75,1,0
21156,461.538461538462,4,1,0,75,1,0
22849,461.538461538462,4,1,0,75,1,0
24541,476.190476190477,4,1,0,75,1,0
24541,-96.9230799053255,4,1,0,75,0,0
25017,491.803278688525,4,1,0,75,1,8
25017,-93.8461538894674,4,1,0,75,0,0
25508,512.820512820513,4,1,0,75,1,8
25508,-90.0000009,4,1,0,75,0,0
26020,530.973451327434,4,1,0,75,1,8
26020,-86.9230769288272,4,1,0,75,0,8
26550,384.615384615385,4,1,0,75,1,0
26550,-120.00000000048,4,1,0,75,0,0
26646,-100,4,1,0,75,0,0
28184,-100,4,1,0,100,0,0
29626,384.615384615385,4,1,0,100,1,0
32607,384.615384615385,4,1,0,100,1,0
35588,384.615384615385,4,1,0,100,1,0
38569,384.615384615385,4,1,0,100,1,0
41645,384.615384615385,4,1,0,100,1,8
41646,384.615384615385,4,1,0,100,1,0
44626,384.615384615385,4,1,0,100,1,0
47607,384.615384615385,4,1,0,100,1,0
50588,384.615384615385,4,1,0,100,1,0
53664,384.615384615385,7,1,0,100,1,8
53665,384.615384615385,7,1,0,100,1,0
61741,384.615384615385,8,1,0,100,1,8
61742,384.615384615385,8,1,0,100,1,0
64626,384.615384615385,7,1,0,100,1,0
72702,384.615384615385,8,1,0,100,1,8
72703,384.615384615385,8,1,0,100,1,0
75588,384.615384615385,4,1,0,100,1,0
81357,384.615384615385,4,1,0,100,1,0
99818,384.615384615385,4,1,0,100,1,8
99819,384.615384615385,4,1,0,100,1,0
100011,-100,4,1,0,100,0,1
102511,384.615384615385,4,1,0,100,1,1
105587,384.615384615385,4,1,0,100,1,9
105588,384.615384615385,4,1,0,100,1,1
108280,384.615384615385,4,1,0,100,1,1
111356,384.615384615385,4,1,0,100,1,9
111357,384.615384615385,4,1,0,100,1,1
114050,384.615384615385,4,1,0,100,1,1
117126,384.615384615385,4,1,0,100,1,1
123279,769.230769230769,2,1,0,100,1,0
123279,-50,4,1,0,100,0,0
123375,-50,4,1,0,75,0,0
144817,769.230769230769,2,1,0,75,1,8
144818,384.615384615385,4,1,0,75,1,0
145154,-100,4,1,0,40,0,0
145346,-100,4,1,0,50,0,0
145539,-100,4,1,0,60,0,0
145731,-100,4,1,0,70,0,0
145923,-100,4,1,0,80,0,0
146116,-100,4,1,0,90,0,0
146308,-100,4,1,0,100,0,0
147894,384.615384615385,4,1,0,100,1,8
147895,384.615384615385,4,1,0,100,1,1
147895,-100,4,1,0,100,0,1
197125,-100,4,1,0,100,0,0
197221,-100,4,1,0,75,0,0
200154,-100,4,1,0,100,0,0
200202,384.615384615385,4,1,0,100,1,8
200203,384.615384615385,4,1,0,100,1,0
203184,384.615384615385,4,1,0,100,1,0
206165,384.615384615385,4,1,0,100,1,0
209146,384.615384615385,4,1,0,100,1,0
212222,384.615384615385,4,1,0,100,1,8
212223,384.615384615385,4,1,0,100,1,0
215203,384.615384615385,4,1,0,100,1,0
218184,384.615384615385,4,1,0,100,1,0
221165,384.615384615385,4,1,0,100,1,0
224193,-100,4,1,0,75,0,0
224241,384.615384615385,4,1,0,75,1,8
224242,384.615384615385,4,1,0,75,1,0
227270,-100,4,1,0,100,0,0
227318,384.615384615385,4,1,0,100,1,8
227319,384.615384615385,7,1,0,100,1,0

[HitObjects]
256,192,1003,5,12,0:0:0:0:
256,192,2079,1,0,0:0:0:0:
256,192,2387,1,0,0:0:0:0:
256,192,2695,1,8,0:0:0:0:
256,192,3464,1,8,0:0:0:0:
256,192,3925,1,8,0:0:0:0:
256,192,4387,1,0,0:0:0:0:
256,192,5463,1,0,0:0:0:0:
256,192,5771,1,8,0:0:0:0:
256,192,6079,1,0,0:0:0:0:
256,192,6848,1,0,0:0:0:0:
256,192,7155,1,8,0:0:0:0:
256,192,7772,1,0,0:0:0:0:
256,192,8848,1,8,0:0:0:0:
256,192,9464,1,0,0:0:0:0:
256,192,9925,1,8,0:0:0:0:
256,192,10387,1,0,0:0:0:0:
256,192,11003,1,8,0:0:0:0:
256,192,11926,1,8,0:0:0:0:
256,192,12233,1,8,0:0:0:0:
256,192,12541,1,0,0:0:0:0:
256,192,13464,1,0,0:0:0:0:
256,192,13771,1,8,0:0:0:0:
256,192,14079,1,0,0:0:0:0:
256,192,14387,1,12,0:0:0:0:
256,192,15463,1,0,0:0:0:0:
256,192,15771,1,0,0:0:0:0:
256,192,16079,1,8,0:0:0:0:
256,192,16848,1,8,0:0:0:0:
256,192,17309,1,8,0:0:0:0:
256,192,17772,1,0,0:0:0:0:
256,192,18848,1,0,0:0:0:0:
256,192,19156,1,8,0:0:0:0:
256,192,19464,1,0,0:0:0:0:
256,192,20233,1,0,0:0:0:0:
256,192,20540,1,8,0:0:0:0:
256,192,21156,1,0,0:0:0:0:
256,192,22232,1,8,0:0:0:0:
256,192,22849,1,0,0:0:0:0:
256,192,23310,1,8,0:0:0:0:
256,192,23772,1,0,0:0:0:0:
256,192,24541,1,8,0:0:0:0:
256,192,25017,1,0,0:0:0:0:
256,192,25508,1,8,0:0:0:0:
256,192,25849,1,0,0:0:0:0:
256,192,26196,1,0,0:0:0:0:
256,192,26550,1,12,0:0:0:0:
256,192,28280,1,8,0:0:0:0:
256,192,28857,1,8,0:0:0:0:
256,192,29242,1,0,0:0:0:0:
256,192,29626,1,12,0:0:0:0:
256,192,30299,1,0,0:0:0:0:
256,192,31164,1,0,0:0:0:0:
256,192,31837,1,8,0:0:0:0:
256,192,32222,1,8,0:0:0:0:
256,192,32607,1,0,0:0:0:0:
256,192,33280,1,8,0:0:0:0:
256,192,34145,1,8,0:0:0:0:
256,192,34818,1,0,0:0:0:0:
256,192,35203,1,0,0:0:0:0:
256,192,35588,1,8,0:0:0:0:
256,192,36261,1,0,0:0:0:0:
256,192,37126,1,8,0:0:0:0:
256,192,38280,1,0,0:0:0:0:
256,192,38761,1,8,0:0:0:0:
256,192,39338,1,0,0:0:0:0:
256,192,40011,1,8,0:0:0:0:
256,192,40876,1,8,0:0:0:0:
256,192,41261,1,0,0:0:0:0:
256,192,41646,1,12,0:0:0:0:
256,192,42319,1,0,0:0:0:0:
256,192,43184,1,0,0:0:0:0:
256,192,43857,1,8,0:0:0:0:
256,192,44242,1,8,0:0:0:0:
256,192,44626,1,0,0:0:0:0:
256,192,45299,1,8,0:0:0:0:
256,192,46164,1,8,0:0:0:0:
256,192,46837,1,0,0:0:0:0:
256,192,47222,1,0,0:0:0:0:
256,192,47607,1,8,0:0:0:0:
256,192,48280,1,0,0:0:0:0:
256,192,49145,1,8,0:0:0:0:
256,192,50299,1,0,0:0:0:0:
256,192,50780,1,8,0:0:0:0:
256,192,51357,1,0,0:0:0:0:
256,192,52030,1,8,0:0:0:0:
256,192,52895,1,8,0:0:0:0:
256,192,53280,1,0,0:0:0:0:
256,192,53665,1,8,0:0:0:0:
256,192,53953,1,8,0:0:0:0:
256,192,54434,1,0,0:0:0:0:
256,192,54818,1,8,0:0:0:0:
256,192,55203,1,0,0:0:0:0:
256,192,56357,1,8,0:0:0:0:
256,192,56645,1,8,0:0:0:0:
256,192,57126,1,0,0:0:0:0:
256,192,57511,1,8,0:0:0:0:
256,192,57895,1,0,0:0:0:0:
256,192,59049,1,8,0:0:0:0:
256,192,59338,1,8,0:0:0:0:
256,192,59818,1,0,0:0:0:0:
256,192,60203,1,8,0:0:0:0:
256,192,60588,1,0,0:0:0:0:
256,192,61742,1,8,0:0:0:0:
256,192,62030,1,8,0:0:0:0:
256,192,62511,1,0,0:0:0:0:
256,192,62895,1,8,0:0:0:0:
256,192,63280,1,8,0:0:0:0:
256,192,63665,1,8,0:0:0:0:
256,192,64049,1,0,0:0:0:0:
256,192,64626,1,8,0:0:0:0:
256,192,64914,1,8,0:0:0:0:
256,192,65395,1,0,0:0:0:0:
256,192,65779,1,8,0:0:0:0:
256,192,66164,1,0,0:0:0:0:
256,192,67318,1,8,0:0:0:0:
256,192,67606,1,8,0:0:0:0:
256,192,68087,1,0,0:0:0:0:
256,192,68472,1,8,0:0:0:0:
256,192,68856,1,8,0:0:0:0:
256,192,69241,1,0,0:0:0:0:
256,192,70010,1,8,0:0:0:0:
256,192,70299,1,8,0:0:0:0:
256,192,70779,1,0,0:0:0:0:
256,192,71164,1,8,0:0:0:0:
256,192,71549,1,0,0:0:0:0:
256,192,72703,1,8,0:0:0:0:
256,192,72991,1,8,0:0:0:0:
256,192,73472,1,0,0:0:0:0:
256,192,73856,1,8,0:0:0:0:
256,192,74241,1,8,0:0:0:0:
256,192,74818,1,8,0:0:0:0:
256,192,75203,1,0,0:0:0:0:
256,192,75588,1,12,0:0:0:0:
256,192,76164,1,8,0:0:0:0:
256,192,77318,1,8,0:0:0:0:
256,192,78088,1,0,0:0:0:0:
256,192,78664,1,8,0:0:0:0:
256,192,79241,1,8,0:0:0:0:
256,192,80011,1,0,0:0:0:0:
256,192,80395,1,8,0:0:0:0:
256,192,80972,1,0,0:0:0:0:
256,192,81357,1,8,0:0:0:0:
256,192,81933,1,8,0:0:0:0:
256,192,82895,1,8,0:0:0:0:
256,192,83280,1,0,0:0:0:0:
256,192,83664,1,0,0:0:0:0:
256,192,84433,1,8,0:0:0:0:
256,192,85203,1,0,0:0:0:0:
256,192,85587,1,0,0:0:0:0:
256,192,85972,1,8,0:0:0:0:
256,192,86357,1,8,0:0:0:0:
256,192,86741,1,0,0:0:0:0:
256,192,87414,1,12,0:0:0:0:
256,192,88087,1,8,0:0:0:0:
256,192,89241,1,8,0:0:0:0:
256,192,89626,1,8,0:0:0:0:
256,192,90203,1,0,0:0:0:0:
256,192,90587,1,8,0:0:0:0:
256,192,91164,1,8,0:0:0:0:
256,192,92126,1,8,0:0:0:0:
256,192,92510,1,8,0:0:0:0:
256,192,92895,1,0,0:0:0:0:
256,192,93664,1,8,0:0:0:0:
256,192,94241,1,8,0:0:0:0:
256,192,94818,1,0,0:0:0:0:
256,192,95203,1,8,0:0:0:0:
256,192,95780,1,8,0:0:0:0:
256,192,96357,1,0,0:0:0:0:
256,192,96741,1,8,0:0:0:0:
256,192,97510,1,8,0:0:0:0:
256,192,98280,1,8,0:0:0:0:
256,192,98664,1,8,0:0:0:0:
256,192,99049,1,0,0:0:0:0:
256,192,99433,1,8,0:0:0:0:
256,192,100011,1,12,0:0:0:0:
256,192,100588,1,0,0:0:0:0:
256,192,101165,1,8,0:0:0:0:
256,192,102126,1,0,0:0:0:0:
256,192,102511,1,8,0:0:0:0:
256,192,103280,1,0,0:0:0:0:
256,192,103664,1,0,0:0:0:0:
256,192,104049,1,8,0:0:0:0:
256,192,104818,1,8,0:0:0:0:
256,192,105203,1,8,0:0:0:0:
256,192,105588,1,0,0:0:0:0:
256,192,106164,1,8,0:0:0:0:
256,192,107126,1,0,0:0:0:0:
256,192,107703,1,8,0:0:0:0:
256,192,108280,1,8,0:0:0:0:
256,192,109049,1,0,0:0:0:0:
256,192,109722,1,8,0:0:0:0:
256,192,110587,1,0,0:0:0:0:
256,192,111100,1,8,0:0:0:0:
256,192,111549,1,0,0:0:0:0:
256,192,112126,1,8,0:0:0:0:
256,192,112510,1,0,0:0:0:0:
256,192,112895,1,8,0:0:0:0:
256,192,113664,1,0,0:0:0:0:
256,192,114050,1,8,0:0:0:0:
256,192,114434,1,8,0:0:0:0:
256,192,114819,1,0,0:0:0:0:
256,192,115203,1,0,0:0:0:0:
256,192,115588,1,8,0:0:0:0:
256,192,116357,1,0,0:0:0:0:
256,192,116934,1,8,0:0:0:0:
256,192,117414,1,0,0:0:0:0:
256,192,118279,1,0,0:0:0:0:
256,192,118664,1,8,0:0:0:0:
256,192,119241,1,8,0:0:0:0:
256,192,119818,1,0,0:0:0:0:
256,192,120202,1,8,0:0:0:0:
256,192,121260,1,8,0:0:0:0:
256,192,121741,1,0,0:0:0:0:
256,192,122510,1,8,0:0:0:0:
256,192,122895,1,0,0:0:0:0:
256,192,123279,1,12,0:0:0:0:
256,192,124817,1,8,0:0:0:0:
256,192,125586,1,0,0:0:0:0:
256,192,126355,1,8,0:0:0:0:
256,192,127894,1,0,0:0:0:0:
256,192,128663,1,8,0:0:0:0:
256,192,129432,1,0,0:0:0:0:
256,192,130971,1,8,0:0:0:0:
256,192,132509,1,0,0:0:0:0:
256,192,134048,1,8,0:0:0:0:
256,192,134817,1,8,0:0:0:0:
256,192,135586,1,4,0:0:0:0:
256,192,137125,1,8,0:0:0:0:
256,192,137894,1,0,0:0:0:0:
256,192,138663,1,8,0:0:0:0:
256,192,139432,1,8,0:0:0:0:
256,192,140202,1,0,0:0:0:0:
256,192,141740,1,8,0:0:0:0:
256,192,142509,1,8,0:0:0:0:
256,192,143279,1,8,0:0:0:0:
256,192,143791,1,8,0:0:0:0:
256,192,144304,1,8,0:0:0:0:
256,192,144818,1,0,0:0:0:0:
256,192,146356,1,4,0:0:0:0:
256,192,146741,1,4,0:0:0:0:
256,192,147125,1,12,0:0:0:0:
256,192,147510,1,12,0:0:0:0:
256,192,147895,1,4,0:0:0:0:
256,192,148471,1,8,0:0:0:0:
256,192,149048,1,0,0:0:0:0:
256,192,149433,1,8,0:0:0:0:
256,192,149818,1,8,0:0:0:0:
256,192,150587,1,0,0:0:0:0:
256,192,150971,1,8,0:0:0:0:
256,192,151741,1,0,0:0:0:0:
256,192,152318,1,8,0:0:0:0:
256,192,152895,1,0,0:0:0:0:
256,192,154048,1,8,0:0:0:0:
256,192,154818,1,0,0:0:0:0:
256,192,155202,1,0,0:0:0:0:
256,192,155587,1,8,0:0:0:0:
256,192,156164,1,0,0:0:0:0:
256,192,156741,1,8,0:0:0:0:
256,192,157125,1,8,0:0:0:0:
256,192,157895,1,0,0:0:0:0:
256,192,158664,1,0,0:0:0:0:
256,192,159048,1,8,0:0:0:0:
256,192,160202,1,4,0:0:0:0:
256,192,160779,1,8,0:0:0:0:
256,192,161356,1,0,0:0:0:0:
256,192,161741,1,8,0:0:0:0:
256,192,162414,1,8,0:0:0:0:
256,192,162895,1,0,0:0:0:0:
256,192,163279,1,8,0:0:0:0:
256,192,164048,1,0,0:0:0:0:
256,192,164914,1,8,0:0:0:0:
256,192,165491,1,0,0:0:0:0:
256,192,166356,1,8,0:0:0:0:
256,192,167125,1,0,0:0:0:0:
256,192,167510,1,0,0:0:0:0:
256,192,167895,1,8,0:0:0:0:
256,192,168471,1,0,0:0:0:0:
256,192,169048,1,0,0:0:0:0:
256,192,169433,1,8,0:0:0:0:
256,192,170106,1,0,0:0:0:0:
256,192,170587,1,8,0:0:0:0:
256,192,170971,1,0,0:0:0:0:
256,192,171356,1,8,0:0:0:0:
256,192,171741,1,8,0:0:0:0:
256,192,172510,1,12,0:0:0:0:
256,192,173664,1,8,0:0:0:0:
256,192,174433,1,0,0:0:0:0:
256,192,174818,1,8,0:0:0:0:
256,192,175587,1,8,0:0:0:0:
256,192,176741,1,0,0:0:0:0:
256,192,177125,1,8,0:0:0:0:
256,192,177510,1,0,0:0:0:0:
256,192,177895,1,8,0:0:0:0:
256,192,178664,1,8,0:0:0:0:
256,192,179818,1,0,0:0:0:0:
256,192,180202,1,8,0:0:0:0:
256,192,180587,1,8,0:0:0:0:
256,192,180971,1,0,0:0:0:0:
256,192,181741,1,8,0:0:0:0:
256,192,182125,1,8,0:0:0:0:
256,192,182510,1,0,0:0:0:0:
256,192,182895,1,8,0:0:0:0:
256,192,183279,1,0,0:0:0:0:
256,192,184048,1,8,0:0:0:0:
256,192,184818,1,12,0:0:0:0:
256,192,186356,1,0,0:0:0:0:
256,192,187125,1,8,0:0:0:0:
256,192,187510,1,0,0:0:0:0:
256,192,187895,1,8,0:0:0:0:
256,192,188664,1,0,0:0:0:0:
256,192,189048,1,0,0:0:0:0:
256,192,189433,1,8,0:0:0:0:
256,192,190010,1,0,0:0:0:0:
256,192,190587,1,8,0:0:0:0:
256,192,190971,1,8,0:0:0:0:
256,192,192125,1,0,0:0:0:0:
256,192,192510,1,8,0:0:0:0:
256,192,192895,1,0,0:0:0:0:
256,192,193664,1,8,0:0:0:0:
256,192,194048,1,0,0:0:0:0:
256,192,194818,1,8,0:0:0:0:
256,192,195202,1,8,0:0:0:0:
256,192,195587,1,0,0:0:0:0:
256,192,196260,1,8,0:0:0:0:
256,192,196741,1,0,0:0:0:0:
256,192,197125,1,8,0:0:0:0:
256,192,197798,1,0,0:0:0:0:
256,192,198279,1,8,0:0:0:0:
256,192,198664,1,0,0:0:0:0:
256,192,199818,1,0,0:0:0:0:
256,192,200203,1,12,0:0:0:0:
256,192,200876,1,0,0:0:0:0:
256,192,201741,1,0,0:0:0:0:
256,192,202414,1,8,0:0:0:0:
256,192,202799,1,8,0:0:0:0:
256,192,203184,1,0,0:0:0:0:
256,192,203857,1,8,0:0:0:0:
256,192,204722,1,8,0:0:0:0:
256,192,205395,1,0,0:0:0:0:
256,192,205780,1,0,0:0:0:0:
256,192,206165,1,8,0:0:0:0:
256,192,206838,1,0,0:0:0:0:
256,192,207703,1,8,0:0:0:0:
256,192,208857,1,0,0:0:0:0:
256,192,209338,1,8,0:0:0:0:
256,192,209915,1,0,0:0:0:0:
256,192,210588,1,8,0:0:0:0:
256,192,211453,1,8,0:0:0:0:
256,192,211838,1,0,0:0:0:0:
256,192,212223,1,12,0:0:0:0:
256,192,212896,1,0,0:0:0:0:
256,192,213761,1,0,0:0:0:0:
256,192,214434,1,8,0:0:0:0:
256,192,214819,1,8,0:0:0:0:
256,192,215203,1,0,0:0:0:0:
256,192,215876,1,8,0:0:0:0:
256,192,216741,1,8,0:0:0:0:
256,192,217414,1,0,0:0:0:0:
256,192,217799,1,0,0:0:0:0:
256,192,218184,1,8,0:0:0:0:
256,192,218857,1,0,0:0:0:0:
256,192,219722,1,8,0:0:0:0:
256,192,220876,1,0,0:0:0:0:
256,192,221357,1,8,0:0:0:0:
256,192,221934,1,0,0:0:0:0:
256,192,222607,1,8,0:0:0:0:
256,192,223472,1,8,0:0:0:0:
256,192,223857,1,0,0:0:0:0:
256,192,224242,1,8,0:0:0:0:
256,192,225011,1,0,0:0:0:0:
256,192,225780,1,8,0:0:0:0:
256,192,226165,1,8,0:0:0:0:
256,192,226549,1,0,0:0:0:0:
256,192,227319,1,12,0:0:0:0:
256,192,228088,1,12,0:0:0:0:
256,192,228601,1,4,0:0:0:0:
256,192,229113,1,12,0:0:0:0:
256,192,230011,1,4,0:0:0:0:
