osu file format v14

[General]
AudioFilename: audio.mp3
AudioLeadIn: 0
PreviewTime: 147895
Countdown: 0
SampleSet: Normal
StackLeniency: 0.2
Mode: 1
LetterboxInBreaks: 0
WidescreenStoryboard: 1

[Editor]
Bookmarks: 1003,29626,53665,75588,99819,123279,147895,172510,200203,230011
DistanceSpacing: 1
BeatDivisor: 4
GridSize: 32
TimelineZoom: 3.30336

[Metadata]
Title:Mirage Garden
TitleUnicode:Mirage Garden
Artist:xi
ArtistUnicode:xi
Creator:Genjuro
Version:Inner Oni
Source:
Tags:electronic instrumental jazz progressive fusion piano parousia diverse system 100sec records bof2009 the bms of fighters revolutionary battles
BeatmapID:2584974
BeatmapSetID:1243153

[Difficulty]
HPDrainRate:6
CircleSize:2
OverallDifficulty:6
ApproachRate:10
SliderMultiplier:1.4
SliderTickRate:1

[Events]
//Background and Video events
0,0,"bg.jpg",0,-130
//Break Periods
//Storyboard Layer 0 (Background)
//Storyboard Layer 1 (Fail)
//Storyboard Layer 2 (Pass)
//Storyboard Layer 3 (Foreground)
//Storyboard Layer 4 (Overlay)
//Storyboard Sound Samples

[TimingPoints]
1003,461.538461538462,4,1,0,75,1,0
2695,461.538461538462,4,1,0,75,1,0
4387,461.538461538462,4,1,0,75,1,0
6079,461.538461538462,4,1,0,75,1,0
7772,461.538461538462,4,1,0,75,1,0
9464,461.538461538462,4,1,0,75,1,0
11003,461.538461538462,4,1,0,75,1,0
12541,461.538461538462,4,1,0,75,1,0
14387,461.538461538462,4,1,0,75,1,0
16079,461.538461538462,4,1,0,75,1,0
17772,461.538461538462,4,1,0,75,1,0
19464,461.538461538462,4,1,0,75,1,0
21156,461.538461538462,4,1,0,75,1,0
22849,461.538461538462,4,1,0,75,1,0
24541,476.190476190477,4,1,0,75,1,0
24541,-96.9230799053255,4,1,0,75,0,0
24858,-99.082594259749,4,1,0,75,0,0
25017,491.803278688525,4,1,0,75,1,8
25017,-97.017880299912,4,1,0,75,0,0
25344,-99.2542475163701,4,1,0,75,0,0
25508,512.820512820513,4,1,0,75,1,8
25508,-96.296267764069,4,1,0,75,0,0
25849,-98.5954995249974,4,1,0,75,0,0
26020,530.973451327434,4,1,0,75,1,8
26196,-97.5539748013078,4,1,0,75,0,0
26550,384.615384615385,4,1,0,75,1,0
28184,-100,4,1,0,100,0,0
29626,384.615384615385,4,1,0,100,1,0
29626,-90.9090909090909,4,1,0,100,0,0
32607,384.615384615385,4,1,0,100,1,0
32607,-90.9090909090909,4,1,0,100,0,0
35588,384.615384615385,4,1,0,100,1,0
35588,-90.9090909090909,4,1,0,100,0,0
38569,384.615384615385,4,1,0,100,1,0
38569,-90.9090909090909,4,1,0,100,0,0
41645,384.615384615385,4,1,0,100,1,8
41646,384.615384615385,4,1,0,100,1,0
41646,-90.9090909090909,4,1,0,100,0,0
44626,384.615384615385,4,1,0,100,1,0
44626,-90.9090909090909,4,1,0,100,0,0
47607,384.615384615385,4,1,0,100,1,0
47607,-90.9090909090909,4,1,0,100,0,0
50588,384.615384615385,4,1,0,100,1,0
50588,-90.9090909090909,4,1,0,100,0,0
53472,-93.0232558139535,4,1,0,100,0,0
53664,384.615384615385,7,1,0,100,1,8
53665,384.615384615385,7,1,0,100,1,0
53665,-95.2380952380953,4,1,0,100,0,0
61741,384.615384615385,8,1,0,100,1,8
61742,384.615384615385,8,1,0,100,1,0
61742,-95.2380952380953,4,1,0,100,0,0
64626,384.615384615385,7,1,0,100,1,0
64626,-95.2380952380953,4,1,0,100,0,0
72702,384.615384615385,8,1,0,100,1,8
72703,384.615384615385,8,1,0,100,1,0
72703,-95.2380952380953,4,1,0,100,0,0
75588,384.615384615385,4,1,0,100,1,0
75588,-95.2380952380953,4,1,0,100,0,0
75684,-100,4,1,0,100,0,0
81357,384.615384615385,4,1,0,100,1,0
98664,-96.774224765879,4,1,0,100,0,0
99049,-93.7499707031342,4,1,0,100,0,0
99433,-90.9090909090909,4,1,0,100,0,0
99818,384.615384615385,4,1,0,100,1,8
99819,384.615384615385,4,1,0,100,1,0
99819,-85.7142857142857,4,1,0,100,0,0
100011,-83.3333333333333,4,1,0,100,0,1
102511,384.615384615385,4,1,0,100,1,1
102511,-83.3333333333333,4,1,0,100,0,1
105587,384.615384615385,4,1,0,100,1,9
105588,384.615384615385,4,1,0,100,1,1
105588,-83.3333333333333,4,1,0,100,0,1
108280,384.615384615385,4,1,0,100,1,1
108280,-83.3333333333333,4,1,0,100,0,1
111356,384.615384615385,4,1,0,100,1,9
111357,384.615384615385,4,1,0,100,1,1
111357,-83.3333333333333,4,1,0,100,0,1
114050,384.615384615385,4,1,0,100,1,1
114050,-83.3333333333333,4,1,0,100,0,1
117126,384.615384615385,4,1,0,100,1,1
117126,-83.3333333333333,4,1,0,100,0,1
123279,769.230769230769,2,1,0,100,1,0
123279,-41.6666666666667,4,1,0,100,0,0
123375,-50,4,1,0,75,0,0
144817,769.230769230769,2,1,0,75,1,8
144818,384.615384615385,4,1,0,75,1,0
145154,-100,4,1,0,40,0,0
145346,-98.5957014246093,4,1,0,50,0,0
145539,-97.2302032014017,4,1,0,60,0,0
145731,-95.9021031331217,4,1,0,70,0,0
145923,-94.6097960875065,4,1,0,80,0,0
146116,-93.3517671956289,4,1,0,90,0,0
146308,-92.1268402336337,4,1,0,100,0,0
146500,-90.9336429926989,4,1,0,100,0,0
146693,-89.7708777886201,4,1,0,100,0,0
146885,-88.6375521853588,4,1,0,100,0,0
147077,-87.5324854936788,4,1,0,100,0,0
147269,-86.4545590514897,4,1,0,100,0,0
147462,-85.4029310285929,4,1,0,100,0,0
147654,-84.3765794240961,4,1,0,100,0,0
147894,384.615384615385,4,1,0,100,1,8
147895,384.615384615385,4,1,0,100,1,1
147895,-83.3333333333333,4,1,0,100,0,1
197077,-100,4,1,0,100,0,1
197125,-100,4,1,0,100,0,0
197221,-100,4,1,0,75,0,0
200154,-100,4,1,0,100,0,0
200202,384.615384615385,4,1,0,100,1,8
200203,384.615384615385,4,1,0,100,1,0
200203,-90.9090909090909,4,1,0,100,0,0
203184,384.615384615385,4,1,0,100,1,0
203184,-90.9090909090909,4,1,0,100,0,0
206165,384.615384615385,4,1,0,100,1,0
206165,-90.9090909090909,4,1,0,100,0,0
209146,384.615384615385,4,1,0,100,1,0
209146,-90.9090909090909,4,1,0,100,0,0
212222,384.615384615385,4,1,0,100,1,8
212223,384.615384615385,4,1,0,100,1,0
212223,-90.9090909090909,4,1,0,100,0,0
215203,384.615384615385,4,1,0,100,1,0
215203,-90.9090909090909,4,1,0,100,0,0
218184,384.615384615385,4,1,0,100,1,0
218184,-90.9090909090909,4,1,0,100,0,0
221165,384.615384615385,4,1,0,100,1,0
221165,-90.9090909090909,4,1,0,100,0,0
222991,-91.5032799350693,4,1,0,100,0,0
223088,-92.1052873961283,4,1,0,100,0,0
223216,-92.92039509752,4,1,0,100,0,0
223344,-93.7499707031342,4,1,0,100,0,0
223472,-94.594581811543,4,1,0,100,0,0
223857,-97.2222627314984,4,1,0,100,0,0
224193,-97.2222627314984,4,1,0,75,0,0
224241,384.615384615385,4,1,0,75,1,8
224242,384.615384615385,4,1,0,75,1,0
227270,-100,4,1,0,100,0,0
227318,384.615384615385,4,1,0,100,1,8
227319,384.615384615385,7,1,0,100,1,0
227319,-90.9090909090909,7,1,0,100,0,0

[HitObjects]
256,192,1003,5,12,0:0:0:0:
256,192,1310,1,0,0:0:0:0:
256,192,1464,1,8,0:0:0:0:
256,192,1772,1,0,0:0:0:0:
256,192,1926,1,8,0:0:0:0:
256,192,2003,1,8,0:0:0:0:
256,192,2079,1,8,0:0:0:0:
256,192,2233,1,0,0:0:0:0:
256,192,2387,1,8,0:0:0:0:
256,192,2541,1,0,0:0:0:0:
256,192,2695,1,8,0:0:0:0:
256,192,3002,1,0,0:0:0:0:
256,192,3156,1,8,0:0:0:0:
256,192,3464,1,0,0:0:0:0:
256,192,3618,1,8,0:0:0:0:
256,192,3771,1,0,0:0:0:0:
256,192,3925,1,8,0:0:0:0:
256,192,4002,1,8,0:0:0:0:
256,192,4079,1,0,0:0:0:0:
256,192,4233,1,0,0:0:0:0:
256,192,4387,1,8,0:0:0:0:
256,192,4694,1,0,0:0:0:0:
256,192,4848,1,8,0:0:0:0:
256,192,5156,1,0,0:0:0:0:
256,192,5463,1,0,0:0:0:0:
256,192,5617,1,8,0:0:0:0:
256,192,5771,1,0,0:0:0:0:
256,192,5874,1,0,0:0:0:0:
256,192,5976,1,0,0:0:0:0:
256,192,6079,1,8,0:0:0:0:
256,192,6386,1,0,0:0:0:0:
256,192,6540,1,8,0:0:0:0:
256,192,6848,1,0,0:0:0:0:
256,192,7002,1,0,0:0:0:0:
256,192,7155,1,8,0:0:0:0:
256,192,7463,1,8,0:0:0:0:
256,192,7540,1,8,0:0:0:0:
256,192,7617,1,0,0:0:0:0:
256,192,7694,1,0,0:0:0:0:
256,192,7772,1,8,0:0:0:0:
256,192,8079,1,0,0:0:0:0:
256,192,8233,1,8,0:0:0:0:
256,192,8541,1,0,0:0:0:0:
256,192,8848,1,8,0:0:0:0:
256,192,9079,1,0,0:0:0:0:
256,192,9310,1,0,0:0:0:0:
256,192,9464,1,8,0:0:0:0:
256,192,9617,1,8,0:0:0:0:
256,192,9771,1,0,0:0:0:0:
256,192,9925,1,8,0:0:0:0:
256,192,10079,1,0,0:0:0:0:
256,192,10233,1,0,0:0:0:0:
256,192,10387,1,8,0:0:0:0:
256,192,10694,1,0,0:0:0:0:
256,192,10848,1,8,0:0:0:0:
256,192,11003,1,0,0:0:0:0:
256,192,11310,1,0,0:0:0:0:
256,192,11464,1,8,0:0:0:0:
256,192,11772,1,0,0:0:0:0:
256,192,11926,1,8,0:0:0:0:
256,192,12233,1,0,0:0:0:0:
256,192,12541,1,0,0:0:0:0:
256,192,12694,1,8,0:0:0:0:
256,192,12848,1,8,0:0:0:0:
256,192,13002,1,0,0:0:0:0:
256,192,13310,1,8,0:0:0:0:
256,192,13464,1,0,0:0:0:0:
256,192,13617,1,8,0:0:0:0:
256,192,13771,1,8,0:0:0:0:
256,192,13925,1,0,0:0:0:0:
256,192,14079,1,0,0:0:0:0:
256,192,14233,1,0,0:0:0:0:
256,192,14387,1,12,0:0:0:0:
256,192,14694,1,0,0:0:0:0:
256,192,14848,1,8,0:0:0:0:
256,192,15156,1,0,0:0:0:0:
256,192,15310,1,8,0:0:0:0:
256,192,15387,1,8,0:0:0:0:
256,192,15463,1,8,0:0:0:0:
256,192,15617,1,0,0:0:0:0:
256,192,15771,1,8,0:0:0:0:
256,192,15925,1,0,0:0:0:0:
256,192,16079,1,8,0:0:0:0:
256,192,16386,1,0,0:0:0:0:
256,192,16540,1,8,0:0:0:0:
256,192,16848,1,0,0:0:0:0:
256,192,17002,1,8,0:0:0:0:
256,192,17155,1,0,0:0:0:0:
256,192,17309,1,8,0:0:0:0:
256,192,17386,1,8,0:0:0:0:
256,192,17463,1,0,0:0:0:0:
256,192,17617,1,0,0:0:0:0:
256,192,17772,1,8,0:0:0:0:
256,192,18079,1,0,0:0:0:0:
256,192,18233,1,8,0:0:0:0:
256,192,18541,1,0,0:0:0:0:
256,192,18848,1,0,0:0:0:0:
256,192,19002,1,8,0:0:0:0:
256,192,19156,1,0,0:0:0:0:
256,192,19259,1,0,0:0:0:0:
256,192,19361,1,0,0:0:0:0:
256,192,19464,1,8,0:0:0:0:
256,192,19771,1,0,0:0:0:0:
256,192,19925,1,8,0:0:0:0:
256,192,20233,1,0,0:0:0:0:
256,192,20387,1,0,0:0:0:0:
256,192,20540,1,8,0:0:0:0:
256,192,20848,1,8,0:0:0:0:
256,192,20925,1,8,0:0:0:0:
256,192,21002,1,0,0:0:0:0:
256,192,21079,1,0,0:0:0:0:
256,192,21156,1,8,0:0:0:0:
256,192,21463,1,0,0:0:0:0:
256,192,21617,1,8,0:0:0:0:
256,192,21925,1,0,0:0:0:0:
256,192,22232,1,8,0:0:0:0:
256,192,22463,1,0,0:0:0:0:
256,192,22694,1,0,0:0:0:0:
256,192,22849,1,8,0:0:0:0:
256,192,23002,1,8,0:0:0:0:
256,192,23156,1,0,0:0:0:0:
256,192,23310,1,8,0:0:0:0:
256,192,23464,1,0,0:0:0:0:
256,192,23618,1,0,0:0:0:0:
256,192,23772,1,8,0:0:0:0:
256,192,24079,1,0,0:0:0:0:
256,192,24156,1,0,0:0:0:0:
256,192,24233,1,8,0:0:0:0:
256,192,24387,1,0,0:0:0:0:
256,192,24541,1,8,0:0:0:0:
256,192,24858,1,0,0:0:0:0:
256,192,25017,1,8,0:0:0:0:
256,192,25344,1,0,0:0:0:0:
256,192,25508,1,8,0:0:0:0:
256,192,25849,1,0,0:0:0:0:
256,192,26196,1,0,0:0:0:0:
256,192,26550,1,8,0:0:0:0:
256,192,26742,1,0,0:0:0:0:
256,192,26870,1,0,0:0:0:0:
256,192,26934,1,8,0:0:0:0:
256,192,27126,1,0,0:0:0:0:
256,192,27255,1,0,0:0:0:0:
256,192,27319,1,8,0:0:0:0:
256,192,27511,1,0,0:0:0:0:
256,192,27639,1,0,0:0:0:0:
256,192,27703,1,8,0:0:0:0:
256,192,27896,1,0,0:0:0:0:
256,192,28024,1,8,0:0:0:0:
256,192,28088,1,0,0:0:0:0:
256,192,28280,1,8,0:0:0:0:
256,192,28473,1,0,0:0:0:0:
256,192,28569,1,0,0:0:0:0:
256,192,28665,1,0,0:0:0:0:
256,192,28857,1,8,0:0:0:0:
256,192,28953,1,8,0:0:0:0:
256,192,29050,1,8,0:0:0:0:
256,192,29242,1,0,0:0:0:0:
256,192,29306,1,0,0:0:0:0:
256,192,29370,1,0,0:0:0:0:
256,192,29434,1,0,0:0:0:0:
256,192,29626,1,12,0:0:0:0:
256,192,29818,1,0,0:0:0:0:
256,192,29914,1,8,0:0:0:0:
256,192,30010,1,8,0:0:0:0:
256,192,30106,1,0,0:0:0:0:
256,192,30299,1,8,0:0:0:0:
256,192,30491,1,0,0:0:0:0:
256,192,30587,1,8,0:0:0:0:
256,192,30683,1,0,0:0:0:0:
256,192,30779,1,8,0:0:0:0:
256,192,30843,1,8,0:0:0:0:
256,192,30908,1,8,0:0:0:0:
256,192,30972,1,0,0:0:0:0:
256,192,31036,1,0,0:0:0:0:
256,192,31100,1,0,0:0:0:0:
256,192,31164,1,8,0:0:0:0:
256,192,31260,1,0,0:0:0:0:
256,192,31356,1,8,0:0:0:0:
256,192,31452,1,0,0:0:0:0:
256,192,31549,1,0,0:0:0:0:
256,192,31645,1,8,0:0:0:0:
256,192,31837,1,4,0:0:0:0:
256,192,32029,1,12,0:0:0:0:
256,192,32222,1,4,0:0:0:0:
256,192,32607,1,8,0:0:0:0:
256,192,32703,1,0,0:0:0:0:
256,192,32799,1,0,0:0:0:0:
256,192,32895,1,8,0:0:0:0:
256,192,32991,1,8,0:0:0:0:
256,192,33087,1,0,0:0:0:0:
256,192,33280,1,8,0:0:0:0:
256,192,33472,1,0,0:0:0:0:
256,192,33568,1,8,0:0:0:0:
256,192,33664,1,0,0:0:0:0:
256,192,33760,1,8,0:0:0:0:
256,192,33824,1,0,0:0:0:0:
256,192,33889,1,0,0:0:0:0:
256,192,33953,1,8,0:0:0:0:
256,192,34017,1,0,0:0:0:0:
256,192,34081,1,0,0:0:0:0:
256,192,34145,1,8,0:0:0:0:
256,192,34241,1,0,0:0:0:0:
256,192,34337,1,8,0:0:0:0:
256,192,34433,1,8,0:0:0:0:
256,192,34530,1,0,0:0:0:0:
256,192,34626,1,8,0:0:0:0:
256,192,34818,1,4,0:0:0:0:
256,192,35010,1,12,0:0:0:0:
256,192,35203,1,12,0:0:0:0:
256,192,35588,1,8,0:0:0:0:
256,192,35780,1,0,0:0:0:0:
256,192,35876,1,8,0:0:0:0:
256,192,35972,1,8,0:0:0:0:
256,192,36068,1,0,0:0:0:0:
256,192,36261,1,8,0:0:0:0:
256,192,36453,1,0,0:0:0:0:
256,192,36549,1,8,0:0:0:0:
256,192,36645,1,0,0:0:0:0:
256,192,36741,1,8,0:0:0:0:
256,192,36805,1,8,0:0:0:0:
256,192,36870,1,8,0:0:0:0:
256,192,36934,1,0,0:0:0:0:
256,192,36998,1,8,0:0:0:0:
256,192,37062,1,8,0:0:0:0:
256,192,37126,1,0,0:0:0:0:
256,192,37414,1,0,0:0:0:0:
256,192,37703,1,12,0:0:0:0:
256,192,37991,1,12,0:0:0:0:
256,192,38280,1,12,0:0:0:0:
256,192,38761,1,12,0:0:0:0:
256,192,38953,1,0,0:0:0:0:
256,192,39049,1,0,0:0:0:0:
256,192,39145,1,0,0:0:0:0:
256,192,39338,1,8,0:0:0:0:
256,192,39530,1,0,0:0:0:0:
256,192,39722,1,8,0:0:0:0:
256,192,40011,1,0,0:0:0:0:
256,192,40299,1,8,0:0:0:0:
256,192,40492,1,0,0:0:0:0:
256,192,40684,1,0,0:0:0:0:
256,192,40876,1,8,0:0:0:0:
256,192,40972,1,8,0:0:0:0:
256,192,41069,1,0,0:0:0:0:
256,192,41165,1,0,0:0:0:0:
256,192,41261,1,8,0:0:0:0:
256,192,41453,1,0,0:0:0:0:
256,192,41646,1,12,0:0:0:0:
256,192,41838,1,0,0:0:0:0:
256,192,41934,1,8,0:0:0:0:
256,192,42030,1,8,0:0:0:0:
256,192,42126,1,0,0:0:0:0:
256,192,42319,1,8,0:0:0:0:
256,192,42511,1,0,0:0:0:0:
256,192,42607,1,8,0:0:0:0:
256,192,42703,1,0,0:0:0:0:
256,192,42799,1,8,0:0:0:0:
256,192,42863,1,8,0:0:0:0:
256,192,42928,1,8,0:0:0:0:
256,192,42992,1,0,0:0:0:0:
256,192,43056,1,0,0:0:0:0:
256,192,43120,1,0,0:0:0:0:
256,192,43184,1,8,0:0:0:0:
256,192,43280,1,0,0:0:0:0:
256,192,43376,1,8,0:0:0:0:
256,192,43472,1,0,0:0:0:0:
256,192,43569,1,0,0:0:0:0:
256,192,43665,1,8,0:0:0:0:
256,192,43857,1,4,0:0:0:0:
256,192,44049,1,12,0:0:0:0:
256,192,44242,1,4,0:0:0:0:
256,192,44626,1,8,0:0:0:0:
256,192,44722,1,0,0:0:0:0:
256,192,44818,1,0,0:0:0:0:
256,192,44914,1,8,0:0:0:0:
256,192,45010,1,8,0:0:0:0:
256,192,45106,1,0,0:0:0:0:
256,192,45299,1,8,0:0:0:0:
256,192,45491,1,0,0:0:0:0:
256,192,45587,1,8,0:0:0:0:
256,192,45683,1,0,0:0:0:0:
256,192,45779,1,8,0:0:0:0:
256,192,45843,1,0,0:0:0:0:
256,192,45908,1,0,0:0:0:0:
256,192,45972,1,8,0:0:0:0:
256,192,46036,1,0,0:0:0:0:
256,192,46100,1,0,0:0:0:0:
256,192,46164,1,8,0:0:0:0:
256,192,46260,1,0,0:0:0:0:
256,192,46356,1,8,0:0:0:0:
256,192,46452,1,8,0:0:0:0:
256,192,46549,1,0,0:0:0:0:
256,192,46645,1,8,0:0:0:0:
256,192,46837,1,4,0:0:0:0:
256,192,47029,1,12,0:0:0:0:
256,192,47222,1,12,0:0:0:0:
256,192,47607,1,8,0:0:0:0:
256,192,47799,1,0,0:0:0:0:
256,192,47895,1,8,0:0:0:0:
256,192,47991,1,8,0:0:0:0:
256,192,48087,1,0,0:0:0:0:
256,192,48280,1,8,0:0:0:0:
256,192,48472,1,0,0:0:0:0:
256,192,48568,1,8,0:0:0:0:
256,192,48664,1,0,0:0:0:0:
256,192,48760,1,8,0:0:0:0:
256,192,48824,1,8,0:0:0:0:
256,192,48889,1,8,0:0:0:0:
256,192,48953,1,0,0:0:0:0:
256,192,49017,1,8,0:0:0:0:
256,192,49081,1,8,0:0:0:0:
256,192,49145,1,0,0:0:0:0:
256,192,49433,1,0,0:0:0:0:
256,192,49722,1,12,0:0:0:0:
256,192,50010,1,12,0:0:0:0:
256,192,50299,1,12,0:0:0:0:
256,192,50780,1,12,0:0:0:0:
256,192,50972,1,0,0:0:0:0:
256,192,51068,1,0,0:0:0:0:
256,192,51164,1,0,0:0:0:0:
256,192,51357,1,8,0:0:0:0:
256,192,51549,1,0,0:0:0:0:
256,192,51741,1,8,0:0:0:0:
256,192,52030,1,0,0:0:0:0:
256,192,52318,1,8,0:0:0:0:
256,192,52511,1,0,0:0:0:0:
256,192,52703,1,0,0:0:0:0:
256,192,52799,1,0,0:0:0:0:
256,192,52895,1,8,0:0:0:0:
256,192,52991,1,0,0:0:0:0:
256,192,53088,1,8,0:0:0:0:
256,192,53184,1,8,0:0:0:0:
256,192,53280,1,0,0:0:0:0:
256,192,53472,1,8,0:0:0:0:
256,192,53665,1,0,0:0:0:0:
256,192,53761,1,0,0:0:0:0:
256,192,53857,1,0,0:0:0:0:
256,192,53953,1,8,0:0:0:0:
256,192,54145,1,0,0:0:0:0:
256,192,54241,1,8,0:0:0:0:
256,192,54338,1,8,0:0:0:0:
256,192,54434,1,0,0:0:0:0:
256,192,54626,1,8,0:0:0:0:
256,192,54818,1,0,0:0:0:0:
256,192,54915,1,0,0:0:0:0:
256,192,55011,1,8,0:0:0:0:
256,192,55107,1,8,0:0:0:0:
256,192,55203,1,0,0:0:0:0:
256,192,55395,1,0,0:0:0:0:
256,192,55491,1,0,0:0:0:0:
256,192,55588,1,8,0:0:0:0:
256,192,55684,1,0,0:0:0:0:
256,192,55876,1,0,0:0:0:0:
256,192,55972,1,8,0:0:0:0:
256,192,56068,1,0,0:0:0:0:
256,192,56165,1,8,0:0:0:0:
256,192,56357,1,0,0:0:0:0:
256,192,56453,1,0,0:0:0:0:
256,192,56549,1,0,0:0:0:0:
256,192,56645,1,8,0:0:0:0:
256,192,56838,1,0,0:0:0:0:
256,192,56934,1,8,0:0:0:0:
256,192,57030,1,8,0:0:0:0:
256,192,57126,1,0,0:0:0:0:
256,192,57318,1,8,0:0:0:0:
256,192,57511,1,0,0:0:0:0:
256,192,57607,1,0,0:0:0:0:
256,192,57703,1,8,0:0:0:0:
256,192,57799,1,8,0:0:0:0:
256,192,57895,1,0,0:0:0:0:
256,192,58088,1,0,0:0:0:0:
256,192,58184,1,0,0:0:0:0:
256,192,58280,1,8,0:0:0:0:
256,192,58376,1,0,0:0:0:0:
256,192,58568,1,0,0:0:0:0:
256,192,58665,1,8,0:0:0:0:
256,192,58761,1,0,0:0:0:0:
256,192,58857,1,8,0:0:0:0:
256,192,59049,1,0,0:0:0:0:
256,192,59145,1,0,0:0:0:0:
256,192,59241,1,0,0:0:0:0:
256,192,59338,1,8,0:0:0:0:
256,192,59530,1,0,0:0:0:0:
256,192,59626,1,8,0:0:0:0:
256,192,59722,1,8,0:0:0:0:
256,192,59818,1,0,0:0:0:0:
256,192,60011,1,8,0:0:0:0:
256,192,60203,1,0,0:0:0:0:
256,192,60299,1,0,0:0:0:0:
256,192,60395,1,8,0:0:0:0:
256,192,60491,1,8,0:0:0:0:
256,192,60588,1,0,0:0:0:0:
256,192,60780,1,0,0:0:0:0:
256,192,60876,1,0,0:0:0:0:
256,192,60972,1,8,0:0:0:0:
256,192,61068,1,0,0:0:0:0:
256,192,61261,1,0,0:0:0:0:
256,192,61357,1,8,0:0:0:0:
256,192,61453,1,0,0:0:0:0:
256,192,61549,1,8,0:0:0:0:
256,192,61742,1,0,0:0:0:0:
256,192,61838,1,0,0:0:0:0:
256,192,61934,1,0,0:0:0:0:
256,192,62030,1,8,0:0:0:0:
256,192,62222,1,0,0:0:0:0:
256,192,62318,1,8,0:0:0:0:
256,192,62415,1,8,0:0:0:0:
256,192,62511,1,0,0:0:0:0:
256,192,62703,1,8,0:0:0:0:
256,192,62895,1,0,0:0:0:0:
256,192,62992,1,0,0:0:0:0:
256,192,63088,1,8,0:0:0:0:
256,192,63184,1,8,0:0:0:0:
256,192,63280,1,0,0:0:0:0:
256,192,63376,1,8,0:0:0:0:
256,192,63472,1,8,0:0:0:0:
256,192,63568,1,8,0:0:0:0:
256,192,63665,1,0,0:0:0:0:
256,192,63761,1,0,0:0:0:0:
256,192,63857,1,8,0:0:0:0:
256,192,63953,1,8,0:0:0:0:
256,192,64049,1,0,0:0:0:0:
256,192,64145,1,8,0:0:0:0:
256,192,64242,1,0,0:0:0:0:
256,192,64306,1,8,0:0:0:0:
256,192,64370,1,8,0:0:0:0:
256,192,64434,1,0,0:0:0:0:
256,192,64498,1,8,0:0:0:0:
256,192,64562,1,8,0:0:0:0:
256,192,64626,1,0,0:0:0:0:
256,192,64722,1,0,0:0:0:0:
256,192,64818,1,0,0:0:0:0:
256,192,64914,1,8,0:0:0:0:
256,192,65106,1,0,0:0:0:0:
256,192,65202,1,8,0:0:0:0:
256,192,65299,1,8,0:0:0:0:
256,192,65395,1,0,0:0:0:0:
256,192,65491,1,8,0:0:0:0:
256,192,65587,1,0,0:0:0:0:
256,192,65779,1,8,0:0:0:0:
256,192,65876,1,0,0:0:0:0:
256,192,65972,1,8,0:0:0:0:
256,192,66068,1,8,0:0:0:0:
256,192,66164,1,0,0:0:0:0:
256,192,66356,1,8,0:0:0:0:
256,192,66452,1,8,0:0:0:0:
256,192,66549,1,8,0:0:0:0:
256,192,66645,1,0,0:0:0:0:
256,192,66837,1,0,0:0:0:0:
256,192,66933,1,8,0:0:0:0:
256,192,67029,1,0,0:0:0:0:
256,192,67126,1,8,0:0:0:0:
256,192,67222,1,8,0:0:0:0:
256,192,67318,1,0,0:0:0:0:
256,192,67414,1,0,0:0:0:0:
256,192,67510,1,0,0:0:0:0:
256,192,67606,1,8,0:0:0:0:
256,192,67799,1,0,0:0:0:0:
256,192,67895,1,8,0:0:0:0:
256,192,67991,1,8,0:0:0:0:
256,192,68087,1,0,0:0:0:0:
256,192,68183,1,8,0:0:0:0:
256,192,68279,1,0,0:0:0:0:
256,192,68472,1,8,0:0:0:0:
256,192,68568,1,0,0:0:0:0:
256,192,68664,1,8,0:0:0:0:
256,192,68760,1,8,0:0:0:0:
256,192,68856,1,0,0:0:0:0:
256,192,69049,1,8,0:0:0:0:
256,192,69145,1,8,0:0:0:0:
256,192,69241,1,8,0:0:0:0:
256,192,69337,1,0,0:0:0:0:
256,192,69529,1,0,0:0:0:0:
256,192,69626,1,8,0:0:0:0:
256,192,69722,1,0,0:0:0:0:
256,192,69818,1,8,0:0:0:0:
256,192,69914,1,8,0:0:0:0:
256,192,70010,1,0,0:0:0:0:
256,192,70106,1,0,0:0:0:0:
256,192,70202,1,0,0:0:0:0:
256,192,70299,1,8,0:0:0:0:
256,192,70491,1,0,0:0:0:0:
256,192,70587,1,8,0:0:0:0:
256,192,70683,1,8,0:0:0:0:
256,192,70779,1,0,0:0:0:0:
256,192,70876,1,8,0:0:0:0:
256,192,70972,1,0,0:0:0:0:
256,192,71164,1,8,0:0:0:0:
256,192,71260,1,0,0:0:0:0:
256,192,71356,1,8,0:0:0:0:
256,192,71452,1,8,0:0:0:0:
256,192,71549,1,0,0:0:0:0:
256,192,71741,1,8,0:0:0:0:
256,192,71837,1,8,0:0:0:0:
256,192,71933,1,8,0:0:0:0:
256,192,72029,1,0,0:0:0:0:
256,192,72222,1,0,0:0:0:0:
256,192,72318,1,8,0:0:0:0:
256,192,72414,1,0,0:0:0:0:
256,192,72510,1,8,0:0:0:0:
256,192,72606,1,8,0:0:0:0:
256,192,72703,1,0,0:0:0:0:
256,192,72799,1,0,0:0:0:0:
256,192,72895,1,0,0:0:0:0:
256,192,72991,1,8,0:0:0:0:
256,192,73183,1,0,0:0:0:0:
256,192,73279,1,8,0:0:0:0:
256,192,73376,1,8,0:0:0:0:
256,192,73472,1,0,0:0:0:0:
256,192,73568,1,8,0:0:0:0:
256,192,73664,1,0,0:0:0:0:
256,192,73856,1,8,0:0:0:0:
256,192,73953,1,0,0:0:0:0:
256,192,74049,1,8,0:0:0:0:
256,192,74145,1,8,0:0:0:0:
256,192,74241,1,0,0:0:0:0:
256,192,74337,1,8,0:0:0:0:
256,192,74433,1,8,0:0:0:0:
256,192,74529,1,8,0:0:0:0:
256,192,74626,1,0,0:0:0:0:
256,192,74722,1,8,0:0:0:0:
256,192,74818,1,0,0:0:0:0:
256,192,74882,1,0,0:0:0:0:
256,192,74946,1,8,0:0:0:0:
256,192,75074,1,0,0:0:0:0:
256,192,75203,1,8,0:0:0:0:
256,192,75299,1,8,0:0:0:0:
256,192,75395,1,0,0:0:0:0:
256,192,75491,1,0,0:0:0:0:
256,192,75588,1,12,0:0:0:0:
256,192,75876,1,0,0:0:0:0:
256,192,76164,1,8,0:0:0:0:
256,192,77318,1,8,0:0:0:0:
256,192,78088,1,8,0:0:0:0:
256,192,78472,1,0,0:0:0:0:
256,192,78664,1,8,0:0:0:0:
256,192,78953,1,0,0:0:0:0:
256,192,79241,1,8,0:0:0:0:
256,192,80011,1,0,0:0:0:0:
256,192,80395,1,8,0:0:0:0:
256,192,80780,1,0,0:0:0:0:
256,192,80972,1,8,0:0:0:0:
256,192,81068,1,8,0:0:0:0:
256,192,81164,1,0,0:0:0:0:
256,192,81261,1,0,0:0:0:0:
256,192,81357,1,8,0:0:0:0:
256,192,81645,1,0,0:0:0:0:
256,192,81933,1,8,0:0:0:0:
256,192,82510,1,0,0:0:0:0:
256,192,82703,1,0,0:0:0:0:
256,192,82799,1,0,0:0:0:0:
256,192,82895,1,8,0:0:0:0:
256,192,82991,1,0,0:0:0:0:
256,192,83087,1,0,0:0:0:0:
256,192,83183,1,0,0:0:0:0:
256,192,83280,1,8,0:0:0:0:
256,192,83376,1,0,0:0:0:0:
256,192,83472,1,0,0:0:0:0:
256,192,83568,1,0,0:0:0:0:
256,192,83664,1,8,0:0:0:0:
256,192,83760,1,0,0:0:0:0:
256,192,83857,1,0,0:0:0:0:
256,192,83953,1,0,0:0:0:0:
256,192,84049,1,8,0:0:0:0:
256,192,84145,1,0,0:0:0:0:
256,192,84241,1,0,0:0:0:0:
256,192,84337,1,8,0:0:0:0:
256,192,84433,1,8,0:0:0:0:
256,192,84530,1,0,0:0:0:0:
256,192,84626,1,8,0:0:0:0:
256,192,84722,1,8,0:0:0:0:
256,192,84818,1,8,0:0:0:0:
256,192,84914,1,0,0:0:0:0:
256,192,85010,1,8,0:0:0:0:
256,192,85107,1,8,0:0:0:0:
256,192,85203,1,8,0:0:0:0:
256,192,85299,1,0,0:0:0:0:
256,192,85395,1,8,0:0:0:0:
256,192,85491,1,8,0:0:0:0:
256,192,85587,1,8,0:0:0:0:
256,192,85683,1,0,0:0:0:0:
256,192,85780,1,8,0:0:0:0:
256,192,85876,1,0,0:0:0:0:
256,192,85972,1,8,0:0:0:0:
256,192,86068,1,8,0:0:0:0:
256,192,86164,1,0,0:0:0:0:
256,192,86260,1,8,0:0:0:0:
256,192,86357,1,0,0:0:0:0:
256,192,86453,1,0,0:0:0:0:
256,192,86549,1,8,0:0:0:0:
256,192,86645,1,0,0:0:0:0:
256,192,86741,1,8,0:0:0:0:
256,192,86837,1,8,0:0:0:0:
256,192,86933,1,8,0:0:0:0:
256,192,87030,1,0,0:0:0:0:
256,192,87126,1,0,0:0:0:0:
256,192,87222,1,8,0:0:0:0:
256,192,87414,1,12,0:0:0:0:
256,192,87799,1,0,0:0:0:0:
256,192,88087,1,8,0:0:0:0:
256,192,89241,1,8,0:0:0:0:
256,192,89626,1,8,0:0:0:0:
256,192,90010,1,0,0:0:0:0:
256,192,90203,1,8,0:0:0:0:
256,192,90299,1,8,0:0:0:0:
256,192,90395,1,0,0:0:0:0:
256,192,90491,1,0,0:0:0:0:
256,192,90587,1,8,0:0:0:0:
256,192,90876,1,0,0:0:0:0:
256,192,91164,1,8,0:0:0:0:
256,192,91933,1,0,0:0:0:0:
256,192,92030,1,0,0:0:0:0:
256,192,92126,1,8,0:0:0:0:
256,192,92222,1,8,0:0:0:0:
256,192,92318,1,8,0:0:0:0:
256,192,92414,1,0,0:0:0:0:
256,192,92510,1,8,0:0:0:0:
256,192,92607,1,8,0:0:0:0:
256,192,92703,1,8,0:0:0:0:
256,192,92799,1,0,0:0:0:0:
256,192,92895,1,8,0:0:0:0:
256,192,92991,1,0,0:0:0:0:
256,192,93087,1,8,0:0:0:0:
256,192,93183,1,8,0:0:0:0:
256,192,93280,1,0,0:0:0:0:
256,192,93376,1,8,0:0:0:0:
256,192,93472,1,0,0:0:0:0:
256,192,93568,1,0,0:0:0:0:
256,192,93664,1,8,0:0:0:0:
256,192,93953,1,0,0:0:0:0:
256,192,94241,1,8,0:0:0:0:
256,192,94626,1,0,0:0:0:0:
256,192,94818,1,8,0:0:0:0:
256,192,94914,1,8,0:0:0:0:
256,192,95010,1,0,0:0:0:0:
256,192,95074,1,0,0:0:0:0:
256,192,95139,1,0,0:0:0:0:
256,192,95203,1,8,0:0:0:0:
256,192,95491,1,0,0:0:0:0:
256,192,95780,1,8,0:0:0:0:
256,192,96164,1,0,0:0:0:0:
256,192,96357,1,8,0:0:0:0:
256,192,96421,1,8,0:0:0:0:
256,192,96485,1,8,0:0:0:0:
256,192,96549,1,0,0:0:0:0:
256,192,96645,1,0,0:0:0:0:
256,192,96741,1,8,0:0:0:0:
256,192,97030,1,0,0:0:0:0:
256,192,97318,1,8,0:0:0:0:
256,192,97382,1,0,0:0:0:0:
256,192,97446,1,0,0:0:0:0:
256,192,97510,1,8,0:0:0:0:
256,192,98087,1,8,0:0:0:0:
256,192,98151,1,8,0:0:0:0:
256,192,98215,1,0,0:0:0:0:
256,192,98280,1,8,0:0:0:0:
256,192,98664,1,8,0:0:0:0:
256,192,99049,1,0,0:0:0:0:
256,192,99433,1,8,0:0:0:0:
256,192,100011,1,12,0:0:0:0:
256,192,100395,1,0,0:0:0:0:
256,192,100492,1,0,0:0:0:0:
256,192,100588,1,8,0:0:0:0:
256,192,100780,1,8,0:0:0:0:
256,192,100876,1,0,0:0:0:0:
256,192,101165,1,8,0:0:0:0:
256,192,101357,1,0,0:0:0:0:
256,192,101549,1,8,0:0:0:0:
256,192,101645,1,0,0:0:0:0:
256,192,101742,1,0,0:0:0:0:
256,192,101934,1,8,0:0:0:0:
256,192,102126,1,8,0:0:0:0:
256,192,102222,1,8,0:0:0:0:
256,192,102319,1,0,0:0:0:0:
256,192,102415,1,0,0:0:0:0:
256,192,102511,1,8,0:0:0:0:
256,192,102703,1,8,0:0:0:0:
256,192,102799,1,0,0:0:0:0:
256,192,103087,1,8,0:0:0:0:
256,192,103184,1,8,0:0:0:0:
256,192,103280,1,0,0:0:0:0:
256,192,103376,1,8,0:0:0:0:
256,192,103472,1,0,0:0:0:0:
256,192,103568,1,0,0:0:0:0:
256,192,103664,1,8,0:0:0:0:
256,192,103761,1,0,0:0:0:0:
256,192,103857,1,0,0:0:0:0:
256,192,103953,1,0,0:0:0:0:
256,192,104049,1,8,0:0:0:0:
256,192,104177,1,0,0:0:0:0:
256,192,104305,1,0,0:0:0:0:
256,192,104434,1,8,0:0:0:0:
256,192,104530,1,0,0:0:0:0:
256,192,104626,1,8,0:0:0:0:
256,192,104690,1,8,0:0:0:0:
256,192,104754,1,8,0:0:0:0:
256,192,104818,1,0,0:0:0:0:
256,192,104914,1,8,0:0:0:0:
256,192,105011,1,0,0:0:0:0:
256,192,105075,1,8,0:0:0:0:
256,192,105139,1,8,0:0:0:0:
256,192,105203,1,0,0:0:0:0:
256,192,105299,1,8,0:0:0:0:
256,192,105395,1,0,0:0:0:0:
256,192,105459,1,0,0:0:0:0:
256,192,105523,1,0,0:0:0:0:
256,192,105588,1,8,0:0:0:0:
256,192,105780,1,8,0:0:0:0:
256,192,105876,1,0,0:0:0:0:
256,192,106164,1,8,0:0:0:0:
256,192,106549,1,8,0:0:0:0:
256,192,106741,1,0,0:0:0:0:
256,192,106838,1,8,0:0:0:0:
256,192,106934,1,0,0:0:0:0:
256,192,107030,1,0,0:0:0:0:
256,192,107126,1,8,0:0:0:0:
256,192,107318,1,8,0:0:0:0:
256,192,107414,1,0,0:0:0:0:
256,192,107703,1,8,0:0:0:0:
256,192,107895,1,0,0:0:0:0:
256,192,107991,1,8,0:0:0:0:
256,192,108088,1,8,0:0:0:0:
256,192,108184,1,0,0:0:0:0:
256,192,108280,1,8,0:0:0:0:
256,192,108472,1,8,0:0:0:0:
256,192,108664,1,0,0:0:0:0:
256,192,108760,1,0,0:0:0:0:
256,192,108856,1,0,0:0:0:0:
256,192,109049,1,8,0:0:0:0:
256,192,109337,1,8,0:0:0:0:
256,192,109626,1,0,0:0:0:0:
256,192,109722,1,8,0:0:0:0:
256,192,110010,1,8,0:0:0:0:
256,192,110106,1,0,0:0:0:0:
256,192,110203,1,0,0:0:0:0:
256,192,110395,1,8,0:0:0:0:
256,192,110587,1,0,0:0:0:0:
256,192,110844,1,0,0:0:0:0:
256,192,111100,1,8,0:0:0:0:
256,192,111549,1,8,0:0:0:0:
256,192,111613,1,8,0:0:0:0:
256,192,111677,1,8,0:0:0:0:
256,192,111741,1,0,0:0:0:0:
256,192,111837,1,8,0:0:0:0:
256,192,111933,1,0,0:0:0:0:
256,192,111998,1,8,0:0:0:0:
256,192,112062,1,8,0:0:0:0:
256,192,112126,1,0,0:0:0:0:
256,192,112222,1,8,0:0:0:0:
256,192,112318,1,0,0:0:0:0:
256,192,112382,1,0,0:0:0:0:
256,192,112446,1,0,0:0:0:0:
256,192,112510,1,8,0:0:0:0:
256,192,112607,1,0,0:0:0:0:
256,192,112703,1,8,0:0:0:0:
256,192,112767,1,0,0:0:0:0:
256,192,112831,1,0,0:0:0:0:
256,192,112895,1,8,0:0:0:0:
256,192,113087,1,0,0:0:0:0:
256,192,113280,1,8,0:0:0:0:
256,192,113344,1,8,0:0:0:0:
256,192,113408,1,8,0:0:0:0:
256,192,113472,1,0,0:0:0:0:
256,192,113568,1,8,0:0:0:0:
256,192,113664,1,0,0:0:0:0:
256,192,113728,1,0,0:0:0:0:
256,192,113792,1,0,0:0:0:0:
256,192,113857,1,8,0:0:0:0:
256,192,113953,1,0,0:0:0:0:
256,192,114050,1,8,0:0:0:0:
256,192,114242,1,0,0:0:0:0:
256,192,114434,1,8,0:0:0:0:
256,192,114498,1,0,0:0:0:0:
256,192,114562,1,0,0:0:0:0:
256,192,114626,1,8,0:0:0:0:
256,192,114691,1,0,0:0:0:0:
256,192,114755,1,0,0:0:0:0:
256,192,114819,1,8,0:0:0:0:
256,192,114883,1,8,0:0:0:0:
256,192,114947,1,0,0:0:0:0:
256,192,115011,1,8,0:0:0:0:
256,192,115075,1,8,0:0:0:0:
256,192,115139,1,0,0:0:0:0:
256,192,115203,1,8,0:0:0:0:
256,192,115267,1,8,0:0:0:0:
256,192,115332,1,8,0:0:0:0:
256,192,115396,1,0,0:0:0:0:
256,192,115460,1,0,0:0:0:0:
256,192,115524,1,0,0:0:0:0:
256,192,115588,1,8,0:0:0:0:
256,192,115780,1,0,0:0:0:0:
256,192,115876,1,8,0:0:0:0:
256,192,116069,1,8,0:0:0:0:
256,192,116165,1,0,0:0:0:0:
256,192,116357,1,8,0:0:0:0:
256,192,116453,1,0,0:0:0:0:
256,192,116550,1,0,0:0:0:0:
256,192,116646,1,8,0:0:0:0:
256,192,116838,1,8,0:0:0:0:
256,192,116934,1,0,0:0:0:0:
256,192,117318,1,0,0:0:0:0:
256,192,117414,1,8,0:0:0:0:
256,192,117510,1,0,0:0:0:0:
256,192,117702,1,8,0:0:0:0:
256,192,117895,1,8,0:0:0:0:
256,192,117991,1,0,0:0:0:0:
256,192,118183,1,0,0:0:0:0:
256,192,118279,1,8,0:0:0:0:
256,192,118408,1,0,0:0:0:0:
256,192,118536,1,0,0:0:0:0:
256,192,118664,1,8,0:0:0:0:
256,192,118984,1,0,0:0:0:0:
256,192,119305,1,8,0:0:0:0:
256,192,119818,1,8,0:0:0:0:
256,192,119914,1,8,0:0:0:0:
256,192,120010,1,0,0:0:0:0:
256,192,120074,1,0,0:0:0:0:
256,192,120138,1,0,0:0:0:0:
256,192,120202,1,8,0:0:0:0:
256,192,120395,1,8,0:0:0:0:
256,192,120587,1,0,0:0:0:0:
256,192,120683,1,8,0:0:0:0:
256,192,120779,1,0,0:0:0:0:
256,192,120972,1,8,0:0:0:0:
256,192,121068,1,0,0:0:0:0:
256,192,121260,1,8,0:0:0:0:
256,192,121549,1,0,0:0:0:0:
256,192,121741,1,8,0:0:0:0:
256,192,121837,1,8,0:0:0:0:
256,192,121933,1,0,0:0:0:0:
256,192,122029,1,8,0:0:0:0:
256,192,122126,1,0,0:0:0:0:
256,192,122222,1,0,0:0:0:0:
256,192,122318,1,8,0:0:0:0:
256,192,122510,1,0,0:0:0:0:
256,192,122638,1,0,0:0:0:0:
256,192,122767,1,0,0:0:0:0:
256,192,122895,1,8,0:0:0:0:
256,192,123023,1,8,0:0:0:0:
256,192,123151,1,8,0:0:0:0:
256,192,123279,1,4,0:0:0:0:
256,192,124048,1,8,0:0:0:0:
256,192,124304,1,0,0:0:0:0:
256,192,124561,1,0,0:0:0:0:
256,192,124817,1,8,0:0:0:0:
256,192,124945,1,8,0:0:0:0:
256,192,125073,1,0,0:0:0:0:
256,192,125202,1,8,0:0:0:0:
256,192,125330,1,0,0:0:0:0:
256,192,125458,1,0,0:0:0:0:
256,192,125586,1,8,0:0:0:0:
256,192,125714,1,8,0:0:0:0:
256,192,125843,1,0,0:0:0:0:
256,192,125971,1,8,0:0:0:0:
256,192,126099,1,0,0:0:0:0:
256,192,126227,1,0,0:0:0:0:
256,192,126355,1,8,0:0:0:0:
256,192,126868,1,0,0:0:0:0:
256,192,127125,1,8,0:0:0:0:
256,192,128150,1,0,0:0:0:0:
256,192,128279,1,0,0:0:0:0:
256,192,128407,1,8,0:0:0:0:
256,192,128535,1,0,0:0:0:0:
256,192,128663,1,8,0:0:0:0:
256,192,128791,1,8,0:0:0:0:
256,192,128920,1,0,0:0:0:0:
256,192,129005,1,8,0:0:0:0:
256,192,129090,1,8,0:0:0:0:
256,192,129176,1,8,0:0:0:0:
256,192,129304,1,0,0:0:0:0:
256,192,129432,1,8,0:0:0:0:
256,192,129689,1,0,0:0:0:0:
256,192,129817,1,8,0:0:0:0:
256,192,129945,1,0,0:0:0:0:
256,192,130031,1,0,0:0:0:0:
256,192,130116,1,0,0:0:0:0:
256,192,130202,1,8,0:0:0:0:
256,192,130458,1,8,0:0:0:0:
256,192,130714,1,8,0:0:0:0:
256,192,130971,1,0,0:0:0:0:
256,192,131484,1,0,0:0:0:0:
256,192,131740,1,8,0:0:0:0:
256,192,131996,1,8,0:0:0:0:
256,192,132061,1,8,0:0:0:0:
256,192,132125,1,8,0:0:0:0:
256,192,132253,1,0,0:0:0:0:
256,192,132509,1,8,0:0:0:0:
256,192,133279,1,0,0:0:0:0:
256,192,134048,1,8,0:0:0:0:
256,192,134817,1,0,0:0:0:0:
256,192,135073,1,0,0:0:0:0:
256,192,135330,1,0,0:0:0:0:
256,192,135586,1,12,0:0:0:0:
256,192,136099,1,0,0:0:0:0:
256,192,136227,1,0,0:0:0:0:
256,192,136355,1,8,0:0:0:0:
256,192,136612,1,0,0:0:0:0:
256,192,136868,1,0,0:0:0:0:
256,192,137125,1,8,0:0:0:0:
256,192,137253,1,8,0:0:0:0:
256,192,137381,1,0,0:0:0:0:
256,192,137509,1,8,0:0:0:0:
256,192,137637,1,0,0:0:0:0:
256,192,137766,1,0,0:0:0:0:
256,192,137894,1,8,0:0:0:0:
256,192,138022,1,8,0:0:0:0:
256,192,138150,1,0,0:0:0:0:
256,192,138279,1,8,0:0:0:0:
256,192,138407,1,8,0:0:0:0:
256,192,138535,1,8,0:0:0:0:
256,192,138663,1,0,0:0:0:0:
256,192,139176,1,0,0:0:0:0:
256,192,139432,1,8,0:0:0:0:
256,192,139689,1,8,0:0:0:0:
256,192,139945,1,8,0:0:0:0:
256,192,140202,1,0,0:0:0:0:
256,192,140714,1,8,0:0:0:0:
256,192,140779,1,8,0:0:0:0:
256,192,140907,1,8,0:0:0:0:
256,192,140971,1,0,0:0:0:0:
256,192,141227,1,0,0:0:0:0:
256,192,141313,1,0,0:0:0:0:
256,192,141398,1,0,0:0:0:0:
256,192,141484,1,8,0:0:0:0:
256,192,141740,1,0,0:0:0:0:
256,192,141868,1,0,0:0:0:0:
256,192,141996,1,8,0:0:0:0:
256,192,142125,1,0,0:0:0:0:
256,192,142253,1,8,0:0:0:0:
256,192,142381,1,8,0:0:0:0:
256,192,142509,1,0,0:0:0:0:
256,192,142637,1,0,0:0:0:0:
256,192,142766,1,8,0:0:0:0:
256,192,142894,1,0,0:0:0:0:
256,192,143022,1,8,0:0:0:0:
256,192,143150,1,8,0:0:0:0:
256,192,143279,1,0,0:0:0:0:
256,192,143364,1,0,0:0:0:0:
256,192,143449,1,8,0:0:0:0:
256,192,143535,1,0,0:0:0:0:
256,192,143620,1,8,0:0:0:0:
256,192,143706,1,8,0:0:0:0:
256,192,143791,1,0,0:0:0:0:
256,192,143877,1,0,0:0:0:0:
256,192,143962,1,8,0:0:0:0:
256,192,144048,1,0,0:0:0:0:
256,192,144133,1,8,0:0:0:0:
256,192,144219,1,8,0:0:0:0:
256,192,144304,1,0,0:0:0:0:
256,192,144390,1,0,0:0:0:0:
256,192,144475,1,0,0:0:0:0:
256,192,144561,1,8,0:0:0:0:
256,192,144646,1,8,0:0:0:0:
256,192,144731,1,8,0:0:0:0:
256,192,144818,1,0,0:0:0:0:
256,192,145202,1,0,0:0:0:0:
256,192,145394,1,0,0:0:0:0:
256,192,145587,1,0,0:0:0:0:
256,192,145779,1,8,0:0:0:0:
256,192,145971,1,8,0:0:0:0:
256,192,146164,1,8,0:0:0:0:
256,192,146356,1,4,0:0:0:0:
256,192,146548,1,4,0:0:0:0:
256,192,146741,1,4,0:0:0:0:
256,192,146933,1,4,0:0:0:0:
256,192,147125,1,12,0:0:0:0:
256,192,147318,1,12,0:0:0:0:
256,192,147510,1,12,0:0:0:0:
256,192,147702,1,12,0:0:0:0:
256,192,147895,1,4,0:0:0:0:
256,192,148183,1,8,0:0:0:0:
256,192,148279,1,0,0:0:0:0:
256,192,148471,1,0,0:0:0:0:
256,192,148568,1,0,0:0:0:0:
256,192,148664,1,8,0:0:0:0:
256,192,148760,1,8,0:0:0:0:
256,192,148856,1,8,0:0:0:0:
256,192,148952,1,0,0:0:0:0:
256,192,149048,1,8,0:0:0:0:
256,192,149145,1,8,0:0:0:0:
256,192,149241,1,0,0:0:0:0:
256,192,149337,1,0,0:0:0:0:
256,192,149433,1,8,0:0:0:0:
256,192,149529,1,0,0:0:0:0:
256,192,149625,1,8,0:0:0:0:
256,192,149721,1,8,0:0:0:0:
256,192,149818,1,0,0:0:0:0:
256,192,149914,1,8,0:0:0:0:
256,192,150010,1,0,0:0:0:0:
256,192,150106,1,0,0:0:0:0:
256,192,150202,1,8,0:0:0:0:
256,192,150298,1,8,0:0:0:0:
256,192,150395,1,8,0:0:0:0:
256,192,150491,1,0,0:0:0:0:
256,192,150587,1,8,0:0:0:0:
256,192,150683,1,0,0:0:0:0:
256,192,150779,1,0,0:0:0:0:
256,192,150875,1,0,0:0:0:0:
256,192,150971,1,8,0:0:0:0:
256,192,151260,1,0,0:0:0:0:
256,192,151356,1,8,0:0:0:0:
256,192,151548,1,0,0:0:0:0:
256,192,151645,1,0,0:0:0:0:
256,192,151741,1,8,0:0:0:0:
256,192,152029,1,0,0:0:0:0:
256,192,152125,1,8,0:0:0:0:
256,192,152318,1,8,0:0:0:0:
256,192,152414,1,8,0:0:0:0:
256,192,152510,1,0,0:0:0:0:
256,192,152606,1,8,0:0:0:0:
256,192,152798,1,0,0:0:0:0:
256,192,152895,1,8,0:0:0:0:
256,192,152991,1,0,0:0:0:0:
256,192,153183,1,8,0:0:0:0:
256,192,153279,1,0,0:0:0:0:
256,192,153375,1,8,0:0:0:0:
256,192,153471,1,8,0:0:0:0:
256,192,153664,1,0,0:0:0:0:
256,192,153760,1,8,0:0:0:0:
256,192,153856,1,0,0:0:0:0:
256,192,153952,1,0,0:0:0:0:
256,192,154048,1,8,0:0:0:0:
256,192,154337,1,0,0:0:0:0:
256,192,154433,1,8,0:0:0:0:
256,192,154625,1,0,0:0:0:0:
256,192,154721,1,0,0:0:0:0:
256,192,154818,1,8,0:0:0:0:
256,192,154914,1,0,0:0:0:0:
256,192,155106,1,0,0:0:0:0:
256,192,155202,1,8,0:0:0:0:
256,192,155298,1,0,0:0:0:0:
256,192,155395,1,8,0:0:0:0:
256,192,155491,1,8,0:0:0:0:
256,192,155587,1,0,0:0:0:0:
256,192,155875,1,8,0:0:0:0:
256,192,155971,1,0,0:0:0:0:
256,192,156164,1,8,0:0:0:0:
256,192,156356,1,0,0:0:0:0:
256,192,156404,1,0,0:0:0:0:
256,192,156452,1,8,0:0:0:0:
256,192,156645,1,8,0:0:0:0:
256,192,156741,1,8,0:0:0:0:
256,192,156837,1,0,0:0:0:0:
256,192,156933,1,0,0:0:0:0:
256,192,157029,1,0,0:0:0:0:
256,192,157125,1,8,0:0:0:0:
256,192,157318,1,8,0:0:0:0:
256,192,157414,1,0,0:0:0:0:
256,192,157510,1,8,0:0:0:0:
256,192,157606,1,8,0:0:0:0:
256,192,157702,1,0,0:0:0:0:
256,192,157895,1,0,0:0:0:0:
256,192,157991,1,8,0:0:0:0:
256,192,158087,1,0,0:0:0:0:
256,192,158183,1,0,0:0:0:0:
256,192,158279,1,8,0:0:0:0:
256,192,158343,1,8,0:0:0:0:
256,192,158407,1,8,0:0:0:0:
256,192,158471,1,0,0:0:0:0:
256,192,158664,1,0,0:0:0:0:
256,192,158760,1,8,0:0:0:0:
256,192,158952,1,0,0:0:0:0:
256,192,159048,1,8,0:0:0:0:
256,192,159145,1,0,0:0:0:0:
256,192,159337,1,8,0:0:0:0:
256,192,159433,1,0,0:0:0:0:
256,192,159497,1,8,0:0:0:0:
256,192,159561,1,8,0:0:0:0:
256,192,159625,1,0,0:0:0:0:
256,192,159721,1,8,0:0:0:0:
256,192,159818,1,0,0:0:0:0:
256,192,159882,1,0,0:0:0:0:
256,192,159946,1,0,0:0:0:0:
256,192,160010,1,8,0:0:0:0:
256,192,160202,1,4,0:0:0:0:
256,192,160491,1,8,0:0:0:0:
256,192,160587,1,0,0:0:0:0:
256,192,160779,1,0,0:0:0:0:
256,192,160875,1,0,0:0:0:0:
256,192,160971,1,8,0:0:0:0:
256,192,161068,1,8,0:0:0:0:
256,192,161164,1,8,0:0:0:0:
256,192,161260,1,0,0:0:0:0:
256,192,161356,1,8,0:0:0:0:
256,192,161452,1,8,0:0:0:0:
256,192,161548,1,0,0:0:0:0:
256,192,161645,1,0,0:0:0:0:
256,192,161741,1,8,0:0:0:0:
256,192,161837,1,8,0:0:0:0:
256,192,161933,1,8,0:0:0:0:
256,192,162029,1,0,0:0:0:0:
256,192,162125,1,8,0:0:0:0:
256,192,162221,1,0,0:0:0:0:
256,192,162318,1,0,0:0:0:0:
256,192,162414,1,8,0:0:0:0:
256,192,162606,1,8,0:0:0:0:
256,192,162702,1,8,0:0:0:0:
256,192,162798,1,0,0:0:0:0:
256,192,162895,1,8,0:0:0:0:
256,192,162991,1,0,0:0:0:0:
256,192,163087,1,0,0:0:0:0:
256,192,163183,1,0,0:0:0:0:
256,192,163279,1,8,0:0:0:0:
256,192,163375,1,8,0:0:0:0:
256,192,163471,1,0,0:0:0:0:
256,192,163568,1,8,0:0:0:0:
256,192,163664,1,0,0:0:0:0:
256,192,163728,1,8,0:0:0:0:
256,192,163792,1,8,0:0:0:0:
256,192,163856,1,0,0:0:0:0:
256,192,163952,1,0,0:0:0:0:
256,192,164048,1,8,0:0:0:0:
256,192,164145,1,0,0:0:0:0:
256,192,164241,1,8,0:0:0:0:
256,192,164337,1,8,0:0:0:0:
256,192,164433,1,0,0:0:0:0:
256,192,164497,1,0,0:0:0:0:
256,192,164561,1,0,0:0:0:0:
256,192,164625,1,8,0:0:0:0:
256,192,164721,1,0,0:0:0:0:
256,192,164818,1,0,0:0:0:0:
256,192,164914,1,8,0:0:0:0:
256,192,165106,1,0,0:0:0:0:
256,192,165202,1,8,0:0:0:0:
256,192,165298,1,0,0:0:0:0:
256,192,165491,1,8,0:0:0:0:
256,192,165587,1,8,0:0:0:0:
256,192,165683,1,0,0:0:0:0:
256,192,165779,1,8,0:0:0:0:
256,192,165971,1,0,0:0:0:0:
256,192,166068,1,8,0:0:0:0:
256,192,166164,1,0,0:0:0:0:
256,192,166260,1,0,0:0:0:0:
256,192,166356,1,8,0:0:0:0:
256,192,166645,1,0,0:0:0:0:
256,192,166741,1,8,0:0:0:0:
256,192,166933,1,0,0:0:0:0:
256,192,167029,1,0,0:0:0:0:
256,192,167125,1,8,0:0:0:0:
256,192,167221,1,0,0:0:0:0:
256,192,167414,1,0,0:0:0:0:
256,192,167510,1,8,0:0:0:0:
256,192,167606,1,0,0:0:0:0:
256,192,167702,1,8,0:0:0:0:
256,192,167798,1,8,0:0:0:0:
256,192,167895,1,0,0:0:0:0:
256,192,168183,1,8,0:0:0:0:
256,192,168279,1,0,0:0:0:0:
256,192,168471,1,8,0:0:0:0:
256,192,168664,1,0,0:0:0:0:
256,192,168712,1,0,0:0:0:0:
256,192,168760,1,8,0:0:0:0:
256,192,168952,1,8,0:0:0:0:
256,192,169048,1,8,0:0:0:0:
256,192,169145,1,0,0:0:0:0:
256,192,169241,1,0,0:0:0:0:
256,192,169337,1,0,0:0:0:0:
256,192,169433,1,8,0:0:0:0:
256,192,169625,1,8,0:0:0:0:
256,192,169818,1,8,0:0:0:0:
256,192,169914,1,8,0:0:0:0:
256,192,170010,1,0,0:0:0:0:
256,192,170106,1,0,0:0:0:0:
256,192,170298,1,8,0:0:0:0:
256,192,170395,1,0,0:0:0:0:
256,192,170491,1,0,0:0:0:0:
256,192,170587,1,8,0:0:0:0:
256,192,170651,1,8,0:0:0:0:
256,192,170715,1,8,0:0:0:0:
256,192,170779,1,0,0:0:0:0:
256,192,170971,1,0,0:0:0:0:
256,192,171068,1,8,0:0:0:0:
256,192,171260,1,0,0:0:0:0:
256,192,171356,1,8,0:0:0:0:
256,192,171452,1,0,0:0:0:0:
256,192,171645,1,8,0:0:0:0:
256,192,171741,1,0,0:0:0:0:
256,192,171805,1,0,0:0:0:0:
256,192,171869,1,0,0:0:0:0:
256,192,171933,1,8,0:0:0:0:
256,192,172029,1,8,0:0:0:0:
256,192,172125,1,0,0:0:0:0:
256,192,172318,1,0,0:0:0:0:
256,192,172414,1,0,0:0:0:0:
256,192,172510,1,12,0:0:0:0:
256,192,172702,1,0,0:0:0:0:
256,192,172895,1,8,0:0:0:0:
256,192,172991,1,0,0:0:0:0:
256,192,173183,1,0,0:0:0:0:
256,192,173375,1,8,0:0:0:0:
256,192,173568,1,0,0:0:0:0:
256,192,173664,1,8,0:0:0:0:
256,192,173760,1,0,0:0:0:0:
256,192,173856,1,0,0:0:0:0:
256,192,174048,1,8,0:0:0:0:
256,192,174241,1,0,0:0:0:0:
256,192,174433,1,8,0:0:0:0:
256,192,174529,1,0,0:0:0:0:
256,192,174721,1,0,0:0:0:0:
256,192,174818,1,8,0:0:0:0:
256,192,174914,1,8,0:0:0:0:
256,192,175010,1,0,0:0:0:0:
256,192,175106,1,8,0:0:0:0:
256,192,175202,1,0,0:0:0:0:
256,192,175298,1,0,0:0:0:0:
256,192,175395,1,8,0:0:0:0:
256,192,175587,1,8,0:0:0:0:
256,192,175779,1,0,0:0:0:0:
256,192,175971,1,8,0:0:0:0:
256,192,176068,1,0,0:0:0:0:
256,192,176260,1,0,0:0:0:0:
256,192,176452,1,8,0:0:0:0:
256,192,176645,1,0,0:0:0:0:
256,192,176741,1,8,0:0:0:0:
256,192,176837,1,8,0:0:0:0:
256,192,176933,1,0,0:0:0:0:
256,192,177125,1,8,0:0:0:0:
256,192,177318,1,0,0:0:0:0:
256,192,177414,1,0,0:0:0:0:
256,192,177510,1,8,0:0:0:0:
256,192,177606,1,8,0:0:0:0:
256,192,177702,1,0,0:0:0:0:
256,192,177895,1,8,0:0:0:0:
256,192,177991,1,0,0:0:0:0:
256,192,178087,1,0,0:0:0:0:
256,192,178183,1,8,0:0:0:0:
256,192,178279,1,0,0:0:0:0:
256,192,178375,1,0,0:0:0:0:
256,192,178471,1,8,0:0:0:0:
256,192,178664,1,8,0:0:0:0:
256,192,178856,1,0,0:0:0:0:
256,192,179048,1,8,0:0:0:0:
256,192,179145,1,0,0:0:0:0:
256,192,179337,1,0,0:0:0:0:
256,192,179529,1,8,0:0:0:0:
256,192,179721,1,0,0:0:0:0:
256,192,179818,1,8,0:0:0:0:
256,192,180010,1,0,0:0:0:0:
256,192,180074,1,0,0:0:0:0:
256,192,180138,1,0,0:0:0:0:
256,192,180202,1,8,0:0:0:0:
256,192,180298,1,8,0:0:0:0:
256,192,180395,1,0,0:0:0:0:
256,192,180459,1,0,0:0:0:0:
256,192,180523,1,0,0:0:0:0:
256,192,180587,1,8,0:0:0:0:
256,192,180683,1,8,0:0:0:0:
256,192,180779,1,0,0:0:0:0:
256,192,180843,1,8,0:0:0:0:
256,192,180907,1,8,0:0:0:0:
256,192,180971,1,0,0:0:0:0:
256,192,181068,1,8,0:0:0:0:
256,192,181164,1,0,0:0:0:0:
256,192,181228,1,8,0:0:0:0:
256,192,181292,1,8,0:0:0:0:
256,192,181356,1,0,0:0:0:0:
256,192,181452,1,8,0:0:0:0:
256,192,181548,1,0,0:0:0:0:
256,192,181612,1,0,0:0:0:0:
256,192,181677,1,0,0:0:0:0:
256,192,181741,1,8,0:0:0:0:
256,192,181837,1,0,0:0:0:0:
256,192,181933,1,8,0:0:0:0:
256,192,181997,1,8,0:0:0:0:
256,192,182061,1,8,0:0:0:0:
256,192,182125,1,0,0:0:0:0:
256,192,182221,1,8,0:0:0:0:
256,192,182318,1,0,0:0:0:0:
256,192,182382,1,0,0:0:0:0:
256,192,182446,1,0,0:0:0:0:
256,192,182510,1,8,0:0:0:0:
256,192,182606,1,0,0:0:0:0:
256,192,182702,1,8,0:0:0:0:
256,192,182766,1,8,0:0:0:0:
256,192,182830,1,8,0:0:0:0:
256,192,182895,1,0,0:0:0:0:
256,192,182991,1,8,0:0:0:0:
256,192,183087,1,0,0:0:0:0:
256,192,183151,1,8,0:0:0:0:
256,192,183215,1,8,0:0:0:0:
256,192,183279,1,0,0:0:0:0:
256,192,183471,1,8,0:0:0:0:
256,192,183568,1,8,0:0:0:0:
256,192,183664,1,0,0:0:0:0:
256,192,183760,1,0,0:0:0:0:
256,192,183856,1,0,0:0:0:0:
256,192,183952,1,8,0:0:0:0:
256,192,184145,1,0,0:0:0:0:
256,192,184241,1,8,0:0:0:0:
256,192,184337,1,8,0:0:0:0:
256,192,184433,1,0,0:0:0:0:
256,192,184625,1,0,0:0:0:0:
256,192,184721,1,0,0:0:0:0:
256,192,184818,1,12,0:0:0:0:
256,192,185010,1,0,0:0:0:0:
256,192,185202,1,8,0:0:0:0:
256,192,185298,1,0,0:0:0:0:
256,192,185491,1,0,0:0:0:0:
256,192,185683,1,8,0:0:0:0:
256,192,185875,1,0,0:0:0:0:
256,192,185971,1,8,0:0:0:0:
256,192,186068,1,0,0:0:0:0:
256,192,186164,1,0,0:0:0:0:
256,192,186356,1,8,0:0:0:0:
256,192,186548,1,0,0:0:0:0:
256,192,186741,1,8,0:0:0:0:
256,192,186837,1,0,0:0:0:0:
256,192,187029,1,0,0:0:0:0:
256,192,187125,1,8,0:0:0:0:
256,192,187221,1,8,0:0:0:0:
256,192,187318,1,0,0:0:0:0:
256,192,187414,1,8,0:0:0:0:
256,192,187510,1,0,0:0:0:0:
256,192,187606,1,0,0:0:0:0:
256,192,187702,1,8,0:0:0:0:
256,192,187895,1,8,0:0:0:0:
256,192,187991,1,0,0:0:0:0:
256,192,188183,1,0,0:0:0:0:
256,192,188279,1,8,0:0:0:0:
256,192,188471,1,0,0:0:0:0:
256,192,188664,1,8,0:0:0:0:
256,192,188792,1,8,0:0:0:0:
256,192,188920,1,8,0:0:0:0:
256,192,189048,1,0,0:0:0:0:
256,192,189177,1,0,0:0:0:0:
256,192,189305,1,0,0:0:0:0:
256,192,189433,1,8,0:0:0:0:
256,192,189625,1,0,0:0:0:0:
256,192,189721,1,8,0:0:0:0:
256,192,189818,1,0,0:0:0:0:
256,192,190010,1,8,0:0:0:0:
256,192,190202,1,0,0:0:0:0:
256,192,190298,1,8,0:0:0:0:
256,192,190395,1,0,0:0:0:0:
256,192,190491,1,0,0:0:0:0:
256,192,190587,1,8,0:0:0:0:
256,192,190683,1,8,0:0:0:0:
256,192,190779,1,0,0:0:0:0:
256,192,190971,1,8,0:0:0:0:
256,192,191164,1,0,0:0:0:0:
256,192,191356,1,8,0:0:0:0:
256,192,191452,1,0,0:0:0:0:
256,192,191645,1,0,0:0:0:0:
256,192,191837,1,8,0:0:0:0:
256,192,192029,1,0,0:0:0:0:
256,192,192125,1,8,0:0:0:0:
256,192,192318,1,0,0:0:0:0:
256,192,192510,1,8,0:0:0:0:
256,192,192574,1,8,0:0:0:0:
256,192,192638,1,0,0:0:0:0:
256,192,192702,1,8,0:0:0:0:
256,192,192766,1,0,0:0:0:0:
256,192,192830,1,0,0:0:0:0:
256,192,192895,1,8,0:0:0:0:
256,192,192959,1,8,0:0:0:0:
256,192,193023,1,8,0:0:0:0:
256,192,193087,1,0,0:0:0:0:
256,192,193151,1,0,0:0:0:0:
256,192,193215,1,8,0:0:0:0:
256,192,193375,1,0,0:0:0:0:
256,192,193471,1,8,0:0:0:0:
256,192,193568,1,0,0:0:0:0:
256,192,193760,1,8,0:0:0:0:
256,192,193856,1,8,0:0:0:0:
256,192,193952,1,0,0:0:0:0:
256,192,194048,1,8,0:0:0:0:
256,192,194241,1,0,0:0:0:0:
256,192,194337,1,0,0:0:0:0:
256,192,194433,1,8,0:0:0:0:
256,192,194529,1,8,0:0:0:0:
256,192,194625,1,0,0:0:0:0:
256,192,194818,1,8,0:0:0:0:
256,192,195010,1,0,0:0:0:0:
256,192,195202,1,8,0:0:0:0:
256,192,195330,1,0,0:0:0:0:
256,192,195459,1,0,0:0:0:0:
256,192,195587,1,8,0:0:0:0:
256,192,195779,1,0,0:0:0:0:
256,192,195971,1,8,0:0:0:0:
256,192,196068,1,0,0:0:0:0:
256,192,196260,1,8,0:0:0:0:
256,192,196452,1,8,0:0:0:0:
256,192,196548,1,0,0:0:0:0:
256,192,196645,1,0,0:0:0:0:
256,192,196741,1,8,0:0:0:0:
256,192,197125,1,0,0:0:0:0:
256,192,197318,1,8,0:0:0:0:
256,192,197414,1,8,0:0:0:0:
256,192,197510,1,0,0:0:0:0:
256,192,197606,1,8,0:0:0:0:
256,192,197702,1,8,0:0:0:0:
256,192,197798,1,0,0:0:0:0:
256,192,197991,1,0,0:0:0:0:
256,192,198087,1,8,0:0:0:0:
256,192,198183,1,0,0:0:0:0:
256,192,198279,1,8,0:0:0:0:
256,192,198375,1,8,0:0:0:0:
256,192,198471,1,0,0:0:0:0:
256,192,198568,1,0,0:0:0:0:
256,192,198664,1,8,0:0:0:0:
256,192,198728,1,8,0:0:0:0:
256,192,198792,1,0,0:0:0:0:
256,192,198856,1,8,0:0:0:0:
256,192,198952,1,0,0:0:0:0:
256,192,199048,1,8,0:0:0:0:
256,192,199112,1,0,0:0:0:0:
256,192,199177,1,0,0:0:0:0:
256,192,199241,1,8,0:0:0:0:
256,192,199337,1,0,0:0:0:0:
256,192,199433,1,0,0:0:0:0:
256,192,199529,1,8,0:0:0:0:
256,192,199625,1,0,0:0:0:0:
256,192,199721,1,0,0:0:0:0:
256,192,199818,1,8,0:0:0:0:
256,192,200010,1,0,0:0:0:0:
256,192,200203,1,12,0:0:0:0:
256,192,200395,1,0,0:0:0:0:
256,192,200491,1,8,0:0:0:0:
256,192,200587,1,8,0:0:0:0:
256,192,200683,1,0,0:0:0:0:
256,192,200876,1,8,0:0:0:0:
256,192,201068,1,0,0:0:0:0:
256,192,201164,1,8,0:0:0:0:
256,192,201260,1,0,0:0:0:0:
256,192,201356,1,8,0:0:0:0:
256,192,201420,1,8,0:0:0:0:
256,192,201485,1,8,0:0:0:0:
256,192,201549,1,0,0:0:0:0:
256,192,201613,1,0,0:0:0:0:
256,192,201677,1,0,0:0:0:0:
256,192,201741,1,8,0:0:0:0:
256,192,201837,1,0,0:0:0:0:
256,192,201933,1,8,0:0:0:0:
256,192,202029,1,0,0:0:0:0:
256,192,202126,1,0,0:0:0:0:
256,192,202222,1,8,0:0:0:0:
256,192,202414,1,4,0:0:0:0:
256,192,202606,1,12,0:0:0:0:
256,192,202799,1,4,0:0:0:0:
256,192,203184,1,8,0:0:0:0:
256,192,203280,1,0,0:0:0:0:
256,192,203376,1,0,0:0:0:0:
256,192,203472,1,8,0:0:0:0:
256,192,203568,1,8,0:0:0:0:
256,192,203664,1,0,0:0:0:0:
256,192,203857,1,8,0:0:0:0:
256,192,204049,1,0,0:0:0:0:
256,192,204145,1,8,0:0:0:0:
256,192,204241,1,0,0:0:0:0:
256,192,204337,1,8,0:0:0:0:
256,192,204401,1,0,0:0:0:0:
256,192,204466,1,0,0:0:0:0:
256,192,204530,1,8,0:0:0:0:
256,192,204594,1,0,0:0:0:0:
256,192,204658,1,0,0:0:0:0:
256,192,204722,1,8,0:0:0:0:
256,192,204818,1,0,0:0:0:0:
256,192,204914,1,8,0:0:0:0:
256,192,205010,1,8,0:0:0:0:
256,192,205107,1,0,0:0:0:0:
256,192,205203,1,8,0:0:0:0:
256,192,205395,1,4,0:0:0:0:
256,192,205587,1,12,0:0:0:0:
256,192,205780,1,12,0:0:0:0:
256,192,206165,1,8,0:0:0:0:
256,192,206357,1,0,0:0:0:0:
256,192,206453,1,8,0:0:0:0:
256,192,206549,1,8,0:0:0:0:
256,192,206645,1,0,0:0:0:0:
256,192,206838,1,8,0:0:0:0:
256,192,207030,1,0,0:0:0:0:
256,192,207126,1,8,0:0:0:0:
256,192,207222,1,0,0:0:0:0:
256,192,207318,1,8,0:0:0:0:
256,192,207382,1,8,0:0:0:0:
256,192,207447,1,8,0:0:0:0:
256,192,207511,1,0,0:0:0:0:
256,192,207575,1,8,0:0:0:0:
256,192,207639,1,8,0:0:0:0:
256,192,207703,1,0,0:0:0:0:
256,192,207991,1,0,0:0:0:0:
256,192,208280,1,12,0:0:0:0:
256,192,208568,1,12,0:0:0:0:
256,192,208857,1,12,0:0:0:0:
256,192,209338,1,12,0:0:0:0:
256,192,209530,1,0,0:0:0:0:
256,192,209626,1,0,0:0:0:0:
256,192,209722,1,0,0:0:0:0:
256,192,209915,1,8,0:0:0:0:
256,192,210107,1,0,0:0:0:0:
256,192,210299,1,8,0:0:0:0:
256,192,210588,1,0,0:0:0:0:
256,192,210876,1,8,0:0:0:0:
256,192,211069,1,0,0:0:0:0:
256,192,211261,1,0,0:0:0:0:
256,192,211453,1,8,0:0:0:0:
256,192,211517,1,8,0:0:0:0:
256,192,211581,1,8,0:0:0:0:
256,192,211646,1,0,0:0:0:0:
256,192,211742,1,0,0:0:0:0:
256,192,211838,1,8,0:0:0:0:
256,192,212030,1,0,0:0:0:0:
256,192,212223,1,12,0:0:0:0:
256,192,212415,1,0,0:0:0:0:
256,192,212511,1,8,0:0:0:0:
256,192,212607,1,8,0:0:0:0:
256,192,212703,1,0,0:0:0:0:
256,192,212896,1,8,0:0:0:0:
256,192,213088,1,0,0:0:0:0:
256,192,213184,1,8,0:0:0:0:
256,192,213280,1,0,0:0:0:0:
256,192,213376,1,8,0:0:0:0:
256,192,213440,1,8,0:0:0:0:
256,192,213505,1,8,0:0:0:0:
256,192,213569,1,0,0:0:0:0:
256,192,213633,1,0,0:0:0:0:
256,192,213697,1,0,0:0:0:0:
256,192,213761,1,8,0:0:0:0:
256,192,213857,1,0,0:0:0:0:
256,192,213953,1,8,0:0:0:0:
256,192,214049,1,0,0:0:0:0:
256,192,214146,1,0,0:0:0:0:
256,192,214242,1,8,0:0:0:0:
256,192,214434,1,4,0:0:0:0:
256,192,214626,1,12,0:0:0:0:
256,192,214819,1,4,0:0:0:0:
256,192,215203,1,8,0:0:0:0:
256,192,215299,1,0,0:0:0:0:
256,192,215395,1,0,0:0:0:0:
256,192,215491,1,8,0:0:0:0:
256,192,215587,1,8,0:0:0:0:
256,192,215683,1,0,0:0:0:0:
256,192,215876,1,8,0:0:0:0:
256,192,216068,1,0,0:0:0:0:
256,192,216164,1,8,0:0:0:0:
256,192,216260,1,0,0:0:0:0:
256,192,216356,1,8,0:0:0:0:
256,192,216420,1,0,0:0:0:0:
256,192,216485,1,0,0:0:0:0:
256,192,216549,1,8,0:0:0:0:
256,192,216613,1,0,0:0:0:0:
256,192,216677,1,0,0:0:0:0:
256,192,216741,1,8,0:0:0:0:
256,192,216837,1,0,0:0:0:0:
256,192,216933,1,8,0:0:0:0:
256,192,217029,1,8,0:0:0:0:
256,192,217126,1,0,0:0:0:0:
256,192,217222,1,8,0:0:0:0:
256,192,217414,1,4,0:0:0:0:
256,192,217606,1,12,0:0:0:0:
256,192,217799,1,12,0:0:0:0:
256,192,218184,1,8,0:0:0:0:
256,192,218376,1,0,0:0:0:0:
256,192,218472,1,8,0:0:0:0:
256,192,218568,1,8,0:0:0:0:
256,192,218664,1,0,0:0:0:0:
256,192,218857,1,8,0:0:0:0:
256,192,219049,1,0,0:0:0:0:
256,192,219145,1,8,0:0:0:0:
256,192,219241,1,0,0:0:0:0:
256,192,219337,1,8,0:0:0:0:
256,192,219401,1,8,0:0:0:0:
256,192,219466,1,8,0:0:0:0:
256,192,219530,1,0,0:0:0:0:
256,192,219594,1,8,0:0:0:0:
256,192,219658,1,8,0:0:0:0:
256,192,219722,1,0,0:0:0:0:
256,192,220010,1,0,0:0:0:0:
256,192,220299,1,12,0:0:0:0:
256,192,220587,1,12,0:0:0:0:
256,192,220876,1,12,0:0:0:0:
256,192,221357,1,12,0:0:0:0:
256,192,221549,1,0,0:0:0:0:
256,192,221645,1,0,0:0:0:0:
256,192,221741,1,0,0:0:0:0:
256,192,221934,1,8,0:0:0:0:
256,192,222126,1,0,0:0:0:0:
256,192,222318,1,8,0:0:0:0:
256,192,222607,1,0,0:0:0:0:
256,192,222895,1,8,0:0:0:0:
256,192,222991,1,8,0:0:0:0:
256,192,223088,1,8,0:0:0:0:
256,192,223216,1,0,0:0:0:0:
256,192,223344,1,8,0:0:0:0:
256,192,223472,1,0,0:0:0:0:
256,192,223857,1,8,0:0:0:0:
256,192,224242,1,0,0:0:0:0:
256,192,224370,1,0,0:0:0:0:
256,192,224498,1,0,0:0:0:0:
256,192,224626,1,8,0:0:0:0:
256,192,224754,1,0,0:0:0:0:
256,192,224883,1,8,0:0:0:0:
256,192,225011,1,0,0:0:0:0:
256,192,225075,1,0,0:0:0:0:
256,192,225139,1,0,0:0:0:0:
256,192,225267,1,0,0:0:0:0:
256,192,225395,1,8,0:0:0:0:
256,192,225524,1,8,0:0:0:0:
256,192,225652,1,0,0:0:0:0:
256,192,225780,1,8,0:0:0:0:
256,192,225844,1,8,0:0:0:0:
256,192,225908,1,0,0:0:0:0:
256,192,225972,1,8,0:0:0:0:
256,192,226036,1,0,0:0:0:0:
256,192,226100,1,0,0:0:0:0:
256,192,226165,1,8,0:0:0:0:
256,192,226229,1,8,0:0:0:0:
256,192,226293,1,8,0:0:0:0:
256,192,226357,1,8,0:0:0:0:
256,192,226421,1,0,0:0:0:0:
256,192,226485,1,0,0:0:0:0:
256,192,226549,1,8,0:0:0:0:
256,192,226613,1,8,0:0:0:0:
256,192,226677,1,8,0:0:0:0:
256,192,226742,1,0,0:0:0:0:
256,192,226806,1,0,0:0:0:0:
256,192,226870,1,0,0:0:0:0:
256,192,226934,1,8,0:0:0:0:
256,192,227062,1,0,0:0:0:0:
256,192,227319,1,12,0:0:0:0:
256,192,227575,1,12,0:0:0:0:
256,192,227831,1,12,0:0:0:0:
256,192,228088,1,12,0:0:0:0:
256,192,228601,1,4,0:0:0:0:
256,192,228857,1,12,0:0:0:0:
256,192,229113,1,4,0:0:0:0:
256,192,229626,1,8,0:0:0:0:
256,192,229690,1,8,0:0:0:0:
256,192,229754,1,8,0:0:0:0:
256,192,229819,1,0,0:0:0:0:
256,192,230011,1,12,0:0:0:0:
