osu file format v14

[General]
AudioFilename: audio.mp3
AudioLeadIn: 0
PreviewTime: 75387
Countdown: 0
SampleSet: Soft
StackLeniency: 0.7
Mode: 0
LetterboxInBreaks: 0
WidescreenStoryboard: 0

[Editor]
DistanceSpacing: 1
BeatDivisor: 8
GridSize: 8
TimelineZoom: 2.2

[Metadata]
Title:Mirage Garden
TitleUnicode:Mirage Garden
Artist:xi
ArtistUnicode:xi
Creator:DeviousPanda
Version:Effervescence
Source:THE BMS OF FIGHTERS 2009 - revolutionary battles -
Tags:bof2009 progressive fusion mpg mapper's guild Parousia instrumental jazz fa featured artist down luscent knightc0re knightcore paradogi seolv lukas [_l_u_k_a_s_]
BeatmapID:3395094
BeatmapSetID:1663184

[Difficulty]
HPDrainRate:5
CircleSize:3.8
OverallDifficulty:9
ApproachRate:10
SliderMultiplier:2.7
SliderTickRate:1

[Events]
//Background and Video events
0,0,"44413422_p0.jpg",0,0
//Break Periods
//Storyboard Layer 0 (Background)
//Storyboard Layer 1 (Fail)
//Storyboard Layer 2 (Pass)
//Storyboard Layer 3 (Foreground)
//Storyboard Layer 4 (Overlay)
//Storyboard Sound Samples

[TimingPoints]
1828,461.538461538462,4,2,1,40,1,0
1828,-133.333333333333,4,2,1,40,0,0
2289,-102.564102564103,3,2,1,40,0,0
3520,461.538461538462,4,2,1,40,1,0
3520,-133.333333333333,4,2,1,40,0,0
3981,-102.564102564103,3,2,1,40,0,0
5212,461.538461538462,4,2,1,40,1,0
5212,-111.111111111111,4,2,1,40,0,0
5981,-88.8888888888889,3,2,1,40,0,0
6904,461.538461538462,4,2,1,40,1,0
6904,-88.8888888888889,3,2,1,40,0,0
8597,461.538461538462,4,2,1,40,1,0
8597,-133.333333333333,4,2,1,40,0,0
9058,-102.040816326531,3,2,1,40,0,0
10289,461.538461538462,4,2,1,40,1,0
10289,-133.333333333333,4,2,1,40,0,0
11212,-88.8888888888889,3,2,1,40,0,0
11981,468.750000000001,4,2,1,40,1,0
11981,-133.333333333333,4,2,1,40,0,0
12449,-88.8888888888889,3,2,1,40,0,0
12918,483.870967741937,4,2,1,40,1,0
13401,491.803278688524,4,2,1,40,1,0
13892,384.615384615385,4,2,1,40,1,0
16392,-100,4,2,1,70,0,0
16776,-250,4,2,1,70,0,0
16968,384.615384615385,4,2,1,70,1,0
17641,-66.6666666666667,4,2,1,70,0,0
18506,-100,4,2,1,70,0,0
19564,-66.6666666666667,4,2,1,70,0,0
19949,384.615384615385,4,2,1,70,1,0
20621,-66.6666666666667,4,2,1,70,0,0
22544,-50,4,2,1,70,0,0
22736,-133.333333333333,4,2,1,70,0,0
22930,384.615384615385,4,2,1,70,1,0
23602,-66.6666666666667,4,2,1,70,0,0
24467,-100,4,2,1,70,0,0
25911,384.615384615385,4,2,1,70,1,0
26102,-66.6666666666667,4,2,1,70,0,0
27352,-43.4782608695652,4,2,1,70,0,0
27640,-100,4,2,1,70,0,0
27833,-133.333333333333,4,2,1,70,0,0
28025,-200,4,2,1,70,0,0
28602,-100,4,2,1,70,0,0
28988,384.615384615385,4,2,1,70,1,0
29660,-66.6666666666667,4,2,1,70,0,0
30525,-100,4,2,1,70,0,0
31583,-50,4,2,1,70,0,0
31968,384.615384615385,4,2,1,70,1,0
32640,-66.6666666666667,4,2,1,70,0,0
33505,-100,4,2,1,70,0,0
33986,-66.6666666666667,4,2,1,70,0,0
34563,-50,4,2,1,70,0,0
34755,-133.333333333333,4,2,1,70,0,0
34949,384.615384615385,4,2,1,70,1,0
35621,-66.6666666666667,4,2,1,70,0,0
36486,-100,4,2,1,70,0,0
37930,384.615384615385,4,2,1,70,1,0
38121,-66.6666666666667,4,2,1,70,0,0
39371,-50,4,2,1,70,0,0
39659,-100,4,2,1,70,0,0
39852,-133.333333333333,4,2,1,70,0,0
40044,-200,4,2,1,70,0,0
41006,-66.6666666666667,4,2,1,65,0,0
41007,384.615384615385,7,2,1,65,1,0
41007,-66.6666666666667,4,2,1,65,0,0
43025,-133.333333333333,4,2,1,65,0,0
43698,-66.6666666666667,4,2,1,65,0,0
47544,-133.333333333333,4,2,1,65,0,0
47929,-66.6666666666667,4,2,1,65,0,0
48121,-133.333333333333,4,2,1,65,0,0
48506,-66.6666666666667,4,2,1,65,0,0
50237,-100,4,2,1,65,0,0
51968,384.615384615385,4,2,1,65,1,0
51968,-250,4,2,1,65,0,0
52160,-66.6666666666667,4,2,1,55,0,0
52545,-100,4,2,1,55,0,0
52737,-83.3333333333333,4,2,1,55,0,0
54661,384.615384615385,4,2,1,55,1,0
54949,-66.6666666666667,4,2,1,55,0,0
56776,-100,4,2,1,55,0,0
57738,384.615384615385,4,2,1,55,1,0
57738,-66.6666666666667,4,2,1,55,0,0
58026,-58.8235294117647,4,2,1,55,0,0
58314,-100,4,2,1,55,0,0
59276,-66.6666666666667,4,2,1,55,0,0
60430,384.615384615385,4,2,1,55,1,0
60430,-133.333333333333,4,2,1,55,0,0
60622,-66.6666666666667,4,2,1,55,0,0
61583,-58.8235294117647,4,2,1,55,0,0
61776,-100,4,2,1,55,0,0
61968,-58.8235294117647,4,2,1,55,0,0
63122,-100,4,2,1,55,0,0
63507,384.615384615385,4,2,1,65,1,0
63507,-58.8235294117647,4,2,1,55,0,0
63699,-133.333333333333,4,2,1,65,0,0
66199,384.615384615385,4,2,1,65,1,0
66455,-133.333333333333,4,2,1,65,0,0
67737,-50,4,2,1,65,0,0
68442,-100,4,2,1,65,0,0
68699,-133.333333333333,4,2,1,65,0,0
68891,-333.333333333333,4,2,1,65,0,0
69276,384.615384615385,4,2,1,65,1,0
69276,-333.333333333333,4,2,1,65,0,0
69468,-66.6666666666667,4,2,1,65,0,0
70045,-100,4,2,1,65,0,0
70814,-50,4,2,1,65,0,0
71006,-100,4,2,1,65,0,0
71102,-66.6666666666667,4,2,1,65,0,0
72352,-100,4,2,1,65,0,0
72545,-66.6666666666667,4,2,1,65,0,0
73314,-133.333333333333,4,2,1,65,0,0
73506,-66.6666666666667,4,2,1,65,0,0
73795,-133.333333333333,4,2,1,65,0,0
74788,-100,4,2,1,65,0,0
74916,-83.3333333333333,4,2,1,65,0,0
75045,-71.4285714285714,4,2,1,55,0,0
75429,-153.846153846153,4,2,1,40,0,0
78506,-117.647058823529,4,2,1,40,0,0
80045,-200,4,2,1,40,0,0
81583,-166.666666666667,4,2,1,40,0,0
84660,-58.6510263929619,4,2,1,55,0,0
86198,-100,4,2,1,65,0,0
86967,-66.6666666666667,4,2,1,75,0,0
87737,-40,4,2,1,90,0,1
88025,-100,4,2,1,90,0,1
88121,-40,4,2,1,90,0,1
91102,-100,4,2,1,90,0,1
91198,-40,4,2,1,90,0,1
91583,-50,4,2,1,90,0,1
91872,-100,4,2,1,90,0,1
91968,-66.6666666666667,4,2,1,90,0,1
92160,-50,4,2,1,90,0,1
92449,-40,4,2,1,90,0,1
93025,-33.3333333333333,4,2,1,90,0,1
93891,-50,4,2,1,90,0,1
94660,-100,4,2,1,90,0,1
95429,-50,4,2,1,90,0,1
98506,-43.4782608695652,4,2,1,90,0,1
98891,-50,4,2,1,90,0,1
99276,-50,4,2,1,90,0,0
99852,-100,4,2,1,90,0,0
100045,-55.5555555555556,4,2,1,80,0,1
100333,-100,4,2,1,80,0,1
100429,-66.6666666666667,4,2,1,80,0,1
101583,-54.054054054054,4,2,1,80,0,1
102449,-83.3333333333333,4,2,1,80,0,1
102737,-71.4285714285714,4,2,1,80,0,1
102929,-100,4,2,1,80,0,1
103218,-58.8235294117647,4,2,1,80,0,1
104660,-43.4782608695652,4,2,1,80,0,1
105045,-50,4,2,1,80,0,1
105429,-100,4,2,1,80,0,1
106199,-55.5555555555556,4,2,1,80,0,1
107064,-100,4,2,1,80,0,1
107160,-55.5555555555556,4,2,1,80,0,1
107352,-100,4,2,1,80,0,1
108506,-50,4,2,1,80,0,1
109275,-37.037037037037,4,2,1,80,0,1
109756,-40,4,2,1,80,0,1
110045,-100,4,2,1,80,0,1
110237,-200,4,2,1,80,0,1
111199,-40,4,2,1,80,0,1
111487,-33.3333333333333,4,2,1,80,0,1
112160,-250,4,2,1,80,0,1
112352,-100,4,2,1,70,0,0
113025,-66.6666666666667,4,2,1,70,0,0
113891,-100,4,2,1,70,0,0
114949,-66.6666666666667,4,2,1,70,0,0
115334,384.615384615385,4,2,1,70,1,0
116006,-66.6666666666667,4,2,1,70,0,0
116871,-100,4,2,1,70,0,0
117352,-66.6666666666667,4,2,1,70,0,0
118121,-133.333333333333,4,2,1,70,0,0
118315,384.615384615385,4,2,1,70,1,0
118986,-66.6666666666667,4,2,1,70,0,0
119851,-100,4,2,1,70,0,0
121295,384.615384615385,4,2,1,70,1,0
121485,-66.6666666666667,4,2,1,70,0,0
122735,-50,4,2,1,70,0,0
123696,-100,4,2,1,70,0,0
124081,-66.6666666666667,4,2,1,70,0,0
124369,-100,4,2,1,70,0,0
124372,384.615384615385,4,2,1,70,1,0
125043,-66.6666666666667,4,2,1,70,0,0
125908,-100,4,2,1,70,0,0
126966,-50,4,2,1,70,0,0
127353,384.615384615385,4,2,1,70,1,0
128023,-66.6666666666667,4,2,1,70,0,0
128888,-100,4,2,1,70,0,0
129369,-66.6666666666667,4,2,1,70,0,0
129946,-50,4,2,1,70,0,0
130138,-133.333333333333,4,2,1,70,0,0
130334,384.615384615385,4,2,1,70,1,0
131003,-66.6666666666667,4,2,1,70,0,0
131868,-100,4,2,1,70,0,0
133315,384.615384615385,4,2,1,70,1,0
133502,-66.6666666666667,4,2,1,70,0,0
134463,-50,4,2,1,70,0,0
134752,-133.333333333333,4,2,1,70,0,0
135233,-66.6666666666667,4,2,1,70,0,0
135361,-83.3333333333333,4,2,1,70,0,0
135489,-111.111111111111,4,2,1,70,0,0
135617,-66.6666666666667,4,2,1,70,0,0
135874,-90.9090909090909,4,2,1,70,0,0
136002,-66.6666666666667,4,2,1,70,0,0
136258,-90.9090909090909,4,2,1,70,0,0
136392,384.615384615385,4,2,1,80,1,0
136392,-50,4,2,1,80,0,0
138181,-90.9090909090909,4,2,1,80,0,0
138951,-62.5,4,2,1,80,0,0
139079,-666.666666666667,4,2,1,80,0,0

[Colours]
Combo1 : 17,254,176
Combo2 : 159,255,64

[HitObjects]
0,344,1828,6,0,P|40:296|115:265,1,135,6|2,1:2|0:0,0:0:0:0:
67,143,2289,6,0,P|102:217|199:251,1,175.500000669479,2|2,3:0|0:0,0:0:0:0:
184,251,2751,5,2,3:3:0:0:
238,198,2904,5,2,0:0:0:0:
327,174,3058,5,2,0:0:0:0:
433,215,3212,5,2,0:0:0:0:
487,357,3366,5,2,0:0:0:0:
455,130,3520,6,0,P|473:41|516:-60,1,135,6|2,1:2|0:0,0:0:0:0:
324,177,3981,2,0,P|338:223|342:287,1,87.749995983124,2|0,3:0|0:0,0:0:0:0:
378,59,4289,5,2,0:0:0:0:
499,114,4443,2,0,P|478:121|448:146,1,43.874997991562,8|0,3:0|0:0,0:0:0:0:
320,178,4596,2,0,P|275:152|265:88,1,87.749995983124,2|2,3:2|3:0,0:0:0:0:
215,61,4827,1,2,3:2:0:0:
240,38,4904,1,4,1:3:0:0:
433,215,5058,5,4,3:0:0:0:
171,305,5212,6,0,P|104:274|15:256,1,161.999995056153,6|2,1:2|0:0,0:0:0:0:
117,235,5673,2,0,P|156:224|207:196,1,80.9999975280763,2|0,3:0|0:0,0:0:0:0:
0,142,5981,6,0,P|54:192|81:325,1,202.500007724762,2|8,3:2|3:0,0:0:0:0:
82,313,6442,1,2,3:2:0:0:
192,206,6596,5,8,1:3:0:0:
211,175,6699,1,4,1:3:0:0:
258,157,6801,1,4,3:0:0:0:
326,223,6904,6,0,B|377:233|413:272|408:289|426:321|495:333,1,202.500007724762,6|2,1:2|3:2,0:0:0:0:
268,383,7365,2,0,P|273:342|337:320,1,101.250003862381,2|8,3:0|0:0,0:0:0:0:
512,183,7673,6,0,P|523:132|441:75,1,151.875005793572,2|0,3:2|0:0,0:0:0:0:
391,13,7980,5,6,1:2:0:0:
340,23,8083,1,2,3:2:0:0:
327,54,8186,1,2,3:2:0:0:
267,111,8288,5,8,1:3:0:0:
284,119,8365,1,2,3:2:0:0:
298,132,8442,1,4,1:3:0:0:
305,147,8519,1,4,3:0:0:0:
337,175,8597,6,0,P|309:236|297:315,1,135,6|2,1:2|0:2,0:0:0:0:
200,212,9058,6,0,P|244:279|266:391,1,175.499991966248,2|2,3:0|0:0,0:0:0:0:
363,373,9520,5,2,0:0:0:0:
363,373,9597,1,2,0:0:0:0:
363,373,9673,2,0,P|389:358|419:349,1,43.874997991562,10|0,3:0|0:0,0:0:0:0:
165,299,9904,6,0,P|139:284|109:275,1,43.874997991562,14|0,3:0|0:0,0:0:0:0:
431,210,10135,6,0,P|457:195|487:186,1,43.874997991562,6|0,3:0|0:0,0:0:0:0:
102,69,10289,5,6,1:2:0:0:
172,134,10442,2,0,P|132:110|90:98,1,67.5,2|0,3:2|0:0,0:0:0:0:
512,0,10750,5,6,1:2:0:0:
436,66,10904,2,0,P|476:42|511:31,1,67.5,2|0,3:2|0:0,0:0:0:0:
264,12,11212,6,0,B|262:51|278:83|294:86|303:94|318:127|316:162,1,151.875005793572,6|0,1:2|0:0,0:0:0:0:
278,215,11519,1,2,3:2:0:0:
265,223,11571,1,2,3:2:0:0:
258,236,11622,1,2,3:2:0:0:
259,251,11673,1,2,3:0:0:0:
147,201,11827,5,8,3:0:0:0:
314,304,11981,2,0,P|257:287|157:273,1,135,6|2,1:2|3:2,0:0:0:0:
96,257,12449,2,0,P|195:232|306:176,1,202.500007724762,2|0,3:0|0:0,0:0:0:0:
376,98,12918,5,6,1:2:0:0:
69,179,13240,5,8,3:0:0:0:
311,307,13564,5,4,3:0:0:0:
265,384,13892,6,0,P|260:264|246:87,1,270,6|0,1:2|0:0,0:0:0:0:
188,32,14420,5,8,0:0:0:0:
339,102,14661,5,8,0:0:0:0:
129,130,14949,5,8,0:0:0:0:
428,4,15239,5,8,0:0:0:0:
248,114,15430,5,4,3:0:0:0:
265,384,15622,2,0,P|262:336|253:271,1,101.25,8|0,1:0|0:0,0:0:0:0:
244,110,15815,5,8,3:0:0:0:
272,80,15911,1,4,3:0:0:0:
270,40,16007,1,8,1:3:0:0:
243,20,16103,1,4,3:0:0:0:
217,18,16200,6,0,P|196:40|185:63,1,33.75,8|0,1:0|0:0,0:0:0:0:
116,62,16296,2,0,P|119:92|129:115,1,33.75,8|0,3:1|0:0,0:0:0:0:
176,172,16393,5,2,3:2:0:0:
186,198,16441,1,2,3:2:0:0:
203,181,16489,1,2,3:2:0:0:
214,196,16537,1,2,3:2:0:0:
228,190,16585,1,2,1:2:0:0:
238,199,16633,1,2,3:2:0:0:
251,196,16681,1,2,3:2:0:0:
260,202,16729,1,2,3:2:0:0:
268,200,16776,2,0,L|284:207,3,13.5,2|2|2|2,1:2|1:2|1:2|1:2,0:0:0:0:
345,306,16968,6,0,B|336:274|336:274|373:228,1,67.5,6|2,1:0|3:2,0:0:0:0:
482,210,17160,1,2,3:0:0:0:
361,251,17256,1,2,3:2:0:0:
407,181,17352,6,0,L|356:159,1,33.75,4|0,3:0|0:0,0:0:0:0:
360,93,17448,2,0,L|373:162,1,67.5,8|0,1:3|0:0,0:0:0:0:
451,362,17641,2,0,L|488:164,1,151.875005793572,8|0,1:0|0:0,0:0:0:0:
478,132,17833,5,2,3:2:0:0:
512,40,17929,1,8,1:0:0:0:
478,132,18025,1,2,3:2:0:0:
386,22,18121,5,8,1:3:0:0:
344,13,18185,1,8,1:3:0:0:
301,35,18249,1,8,1:3:0:0:
284,68,18314,1,4,1:1:0:0:
257,91,18378,1,4,1:3:0:0:
211,100,18442,1,4,1:3:0:0:
160,77,18506,6,0,B|152:40|152:40|174:13,1,67.5,6|2,1:2|3:2,0:0:0:0:
252,169,18698,1,2,3:2:0:0:
159,195,18794,1,4,3:0:0:0:
64,220,18891,1,8,1:0:0:0:
241,304,18987,6,0,L|289:313,1,33.75,6|0,1:0|0:0,0:0:0:0:
275,304,19179,6,0,L|227:313,1,33.75,6|0,1:2|0:0,0:0:0:0:
241,304,19371,6,0,L|289:313,1,33.75,6|0,1:2|0:0,0:0:0:0:
258,384,19564,6,2,L|251:-4,1,354.375013518334,6|0,1:2|0:0,0:1:0:0:
326,0,19949,6,0,B|357:12|357:12|372:62,1,67.5,6|2,1:0|3:2,0:0:0:0:
457,81,20141,1,2,3:2:0:0:
347,157,20236,1,2,3:2:0:0:
512,214,20332,6,0,L|500:172,1,33.75,4|0,3:0|0:0,0:0:0:0:
492,178,20428,2,0,L|420:153,1,67.5,8|0,1:3|0:0,0:0:0:0:
279,101,20621,2,0,B|205:121|205:121|299:108,1,151.875005793572,8|0,1:0|0:0,0:0:0:0:
354,164,20813,5,2,3:2:0:0:
378,251,20909,1,8,1:0:0:0:
354,164,21005,1,2,3:2:0:0:
301,317,21101,5,8,1:3:0:0:
259,330,21166,1,0,1:0:0:0:
221,311,21230,1,0,1:0:0:0:
209,276,21294,1,4,1:3:0:0:
191,238,21358,1,0,1:0:0:0:
152,218,21422,1,0,1:0:0:0:
106,228,21486,6,0,B|85:275|85:275|120:334,1,101.250003862381,6|2,1:2|3:2,0:0:0:0:
236,115,21678,1,8,3:0:0:0:
114,152,21775,1,4,1:3:0:0:
31,53,21871,1,2,1:2:0:0:
0,171,21967,6,0,L|11:234,1,50.6250019311906,14|0,1:0|0:0,0:0:0:0:
503,220,22159,6,0,L|512:171,1,50.6250019311906,6|0,1:2|0:0,0:0:0:0:
0,171,22352,6,0,L|11:234,1,50.6250019311906,6|0,1:2|0:0,0:0:0:0:
256,320,22545,6,2,L|239:118,1,202.5,6|0,1:2|0:0,0:1:0:0:
231,43,22737,2,0,L|228:5,2,33.7500012874604,8|8|4,1:0|1:3|1:3,0:0:0:0:
320,72,22930,6,0,B|352:87|352:87|365:134,1,67.5,6|2,1:0|3:2,0:0:0:0:
274,222,23121,1,2,3:2:0:0:
364,121,23217,1,2,3:2:0:0:
459,251,23313,6,0,L|446:215,1,33.75,4|0,1:3|0:0,0:0:0:0:
437,216,23409,2,0,L|354:201,1,67.5,8|0,1:3|0:0,0:0:0:0:
86,151,23602,2,0,L|271:114,1,151.875005793572,8|0,1:0|0:0,0:0:0:0:
234,121,23794,5,2,3:2:0:0:
276,36,23890,1,8,1:0:0:0:
185,1,23986,1,2,3:2:0:0:
177,176,24082,5,8,1:3:0:0:
216,200,24147,1,8,1:3:0:0:
229,248,24211,1,8,1:3:0:0:
212,292,24275,1,4,1:3:0:0:
167,313,24339,1,4,1:3:0:0:
134,301,24403,1,4,1:3:0:0:
129,283,24467,6,0,L|139:237,1,33.75,6|0,1:2|0:0,0:0:0:0:
99,211,24563,2,0,L|133:242,1,33.75,0|0,1:0|0:0,0:0:0:0:
176,221,24659,2,0,L|131:235,1,33.75,4|0,1:3|0:0,0:0:0:0:
92,297,24756,6,0,L|123:262,1,33.75,6|0,1:2|0:0,0:0:0:0:
99,172,24852,2,0,L|113:216,1,33.75,0|0,1:0|0:0,0:0:0:0:
197,246,24948,2,0,L|151:236,1,33.75,4|0,1:3|0:0,0:0:0:0:
42,303,25044,6,0,L|86:288,1,33.75,6|0,1:2|0:0,0:0:0:0:
122,132,25140,2,0,L|112:177,1,33.75,0|0,1:0|0:0,0:0:0:0:
219,293,25236,2,0,L|184:261,1,33.75,8|0,1:3|0:0,0:0:0:0:
1,269,25333,6,0,L|46:278,1,33.75,6|0,1:2|0:0,0:0:0:0:
167,110,25429,2,0,L|135:143,1,33.75,0|0,1:0|0:0,0:0:0:0:
213,342,25525,2,0,L|198:296,1,33.75,8|0,1:3|0:0,0:0:0:0:
130,244,25621,5,6,1:2:0:0:
130,244,25717,1,2,3:2:0:0:
130,244,25813,1,0,1:0:0:0:
282,0,26102,6,0,L|260:173,1,151.875005793572,6|0,1:0|0:0,0:0:0:0:
299,221,26294,1,8,1:3:0:0:
336,223,26358,1,4,3:0:0:0:
365,203,26422,1,4,3:0:0:0:
375,165,26486,1,8,1:3:0:0:
405,128,26551,1,12,1:3:0:0:
455,129,26615,1,4,1:3:0:0:
489,161,26679,6,0,B|501:214|501:214|450:252,1,101.250003862381,6|0,1:2|0:0,0:0:0:0:
201,203,26871,1,8,1:0:0:0:
163,212,26935,1,8,1:3:0:0:
146,256,26999,1,4,1:3:0:0:
164,289,27063,2,0,B|223:280|223:280|271:354|271:354|343:344,1,202.500007724762,6|0,1:3|0:0,0:0:0:0:
91,319,27352,6,0,B|103:335|103:335|243:314|243:314|262:281|262:281|371:263,1,310.500005922318,6|0,1:2|0:0,0:0:0:0:
496,353,27640,6,0,L|410:333,1,67.5,8|10,1:0|3:2,0:0:0:0:
319,267,27833,6,0,L|382:257,1,50.6250019311906,8|4,1:3|3:0,0:0:0:0:
467,206,28025,6,0,L|458:248,1,33.75,4|4,3:0|3:0,0:0:0:0:
329,350,28217,5,2,3:2:0:0:
239,383,28313,1,8,1:3:0:0:
179,311,28410,1,4,1:3:0:0:
230,223,28506,1,4,1:3:0:0:
186,130,28602,6,0,B|151:122|151:122|116:156,1,67.5,14|2,1:2|3:2,0:0:0:0:
11,279,28794,5,8,1:3:0:0:
22,301,28858,1,8,1:3:0:0:
46,308,28922,1,4,1:3:0:0:
62,297,28986,6,0,L|78:221,1,67.5,6|2,1:0|3:2,0:0:0:0:
21,117,29179,1,2,3:2:0:0:
72,226,29275,1,2,3:2:0:0:
93,70,29371,6,0,L|102:26,1,33.75,4|0,3:3|0:0,0:0:0:0:
106,29,29467,2,0,B|139:21|139:21|176:54,1,67.5,8|0,1:3|0:0,0:0:0:0:
23,369,29660,2,0,B|93:383|93:383|142:319,1,151.875005793572,8|0,1:0|0:0,0:0:0:0:
228,350,29852,5,2,3:2:0:0:
211,255,29948,1,8,1:0:0:0:
196,158,30044,1,2,3:2:0:0:
180,57,30141,5,8,1:3:0:0:
217,31,30205,1,8,1:3:0:0:
255,36,30270,1,8,1:3:0:0:
282,71,30334,1,4,1:3:0:0:
291,112,30398,1,4,1:3:0:0:
319,140,30462,1,4,1:3:0:0:
349,135,30525,6,0,L|369:58,1,67.5,6|2,1:2|3:2,0:0:0:0:
345,278,30717,1,2,3:2:0:0:
251,231,30813,1,4,1:3:0:0:
345,278,30910,1,8,1:0:0:0:
434,199,31006,6,0,L|426:149,1,33.75,6|0,1:0|0:0,0:0:0:0:
435,167,31198,6,0,L|429:200,1,33.75,6|0,1:2|0:0,0:0:0:0:
434,199,31390,6,0,L|426:149,1,33.75,6|0,1:2|0:0,0:0:0:0:
512,178,31583,6,2,L|59:210,1,405,6|0,1:2|0:0,0:1:0:0:
53,143,31968,6,0,B|59:112|59:112|96:91,1,67.5,6|2,1:0|3:2,0:0:0:0:
278,5,32159,1,2,3:2:0:0:
246,95,32255,1,2,3:2:0:0:
124,24,32351,6,0,L|177:39,1,33.75,4|0,3:0|0:0,0:0:0:0:
160,48,32447,2,0,L|177:144,1,67.5,8|0,3:0|0:0,0:0:0:0:
11,368,32640,2,0,L|34:207,1,151.875005793572,8|0,1:0|0:0,0:0:0:0:
32,217,32832,5,2,3:2:0:0:
131,254,32928,1,8,1:0:0:0:
222,285,33024,1,4,3:0:0:0:
176,118,33120,5,8,1:3:0:0:
169,73,33185,1,8,1:3:0:0:
198,40,33249,1,8,1:3:0:0:
247,36,33313,1,4,1:3:0:0:
275,62,33377,1,4,1:3:0:0:
278,94,33441,1,4,1:3:0:0:
267,118,33505,6,0,L|254:189,1,67.5,6|2,1:2|3:2,0:0:0:0:
355,270,33697,1,2,3:2:0:0:
219,291,33794,1,2,3:2:0:0:
77,312,33890,1,8,3:0:0:0:
227,376,33986,6,0,L|284:386,1,50.6250019311906,14|0,1:0|0:0,0:0:0:0:
285,0,34178,6,0,L|228:10,1,50.6250019311906,6|0,1:2|0:0,0:0:0:0:
227,376,34371,6,0,L|284:386,1,50.6250019311906,6|0,1:2|0:0,0:0:0:0:
453,197,34563,6,2,L|226:179,1,202.5,6|0,1:2|0:0,0:1:0:0:
175,172,34755,2,0,L|132:169,2,33.7500012874604,0|8|4,1:3|1:3|1:3,0:0:0:0:
274,58,34949,6,0,B|262:25|262:25|225:9,1,67.5,6|2,1:0|3:2,0:0:0:0:
90,83,35140,1,2,3:2:0:0:
232,12,35236,1,2,3:2:0:0:
117,6,35332,6,0,L|166:16,1,33.75,4|0,3:0|0:0,0:0:0:0:
156,24,35428,2,0,L|177:111,1,67.5,8|0,1:3|0:0,0:0:0:0:
287,294,35621,2,0,L|315:144,1,151.875005793572,8|0,1:0|0:0,0:0:0:0:
314,144,35813,5,2,3:2:0:0:
412,116,35909,1,8,1:0:0:0:
445,202,36005,1,2,3:2:0:0:
259,220,36101,5,8,1:3:0:0:
227,240,36166,1,8,1:3:0:0:
183,237,36230,1,8,1:3:0:0:
151,198,36294,1,4,1:3:0:0:
146,143,36358,1,4,1:3:0:0:
179,98,36422,1,4,1:3:0:0:
222,102,36486,6,0,L|232:148,1,33.75,6|0,1:2|0:0,0:0:0:0:
192,174,36582,2,0,L|226:143,1,33.75,0|0,1:0|0:0,0:0:0:0:
269,164,36678,2,0,L|224:150,1,33.75,4|0,1:3|0:0,0:0:0:0:
185,88,36775,6,0,L|216:123,1,33.75,6|0,1:2|0:0,0:0:0:0:
192,213,36871,2,0,L|206:169,1,33.75,0|0,1:0|0:0,0:0:0:0:
290,139,36967,2,0,L|244:149,1,33.75,4|0,1:3|0:0,0:0:0:0:
135,82,37063,6,0,L|179:97,1,33.75,6|0,1:2|0:0,0:0:0:0:
215,253,37159,2,0,L|205:208,1,33.75,0|0,1:0|0:0,0:0:0:0:
312,92,37255,2,0,L|277:124,1,33.75,8|0,1:3|0:0,0:0:0:0:
94,116,37352,6,0,L|139:107,1,33.75,6|0,1:2|0:0,0:0:0:0:
260,275,37448,2,0,L|228:242,1,33.75,0|0,1:0|0:0,0:0:0:0:
306,43,37544,2,0,L|291:89,1,33.75,8|0,1:3|0:0,0:0:0:0:
222,154,37640,5,6,1:2:0:0:
222,154,37736,1,0,1:0:0:0:
222,154,37832,1,8,1:3:0:0:
0,369,38121,6,0,L|176:330,1,151.875005793572,6|0,1:0|0:0,0:0:0:0:
175,264,38313,5,8,1:3:0:0:
216,247,38377,1,8,1:3:0:0:
258,266,38441,1,8,1:3:0:0:
278,315,38505,1,4,1:3:0:0:
310,339,38570,1,4,1:3:0:0:
342,332,38634,1,4,1:3:0:0:
352,314,38698,6,0,L|332:203,1,101.250003862381,6|0,1:2|0:0,0:0:0:0:
477,58,38890,1,8,1:0:0:0:
448,90,38954,1,8,1:3:0:0:
428,69,39018,1,4,1:3:0:0:
410,80,39082,2,0,B|362:87|362:87|306:182|306:182|242:194,1,202.500007724762,6|0,1:3|0:0,0:0:0:0:
173,95,39371,6,0,L|553:150,1,337.500012874604,6|0,1:2|0:0,0:0:0:0:
502,148,39660,6,0,L|431:157,1,67.5,8|8,1:0|3:0,0:0:0:0:
267,194,39853,6,0,L|319:202,1,50.6250019311906,4|4,1:3|3:0,0:0:0:0:
454,278,40045,6,0,L|409:284,1,33.75,4|4,3:0|3:0,0:0:0:0:
327,360,40237,5,6,1:2:0:0:
251,380,40333,1,8,1:3:0:0:
194,325,40430,1,4,1:3:0:0:
206,247,40526,1,0,1:0:0:0:
267,194,40622,1,8,1:0:0:0:
287,117,40718,1,8,1:3:0:0:
240,52,40814,1,4,1:3:0:0:
163,63,40910,1,4,3:0:0:0:
85,133,41007,6,0,B|126:138|126:138|131:147|131:147|199:159,1,101.250003862381,6|0,1:0|1:0,0:0:0:0:
284,120,41199,1,4,1:3:0:0:
200,310,41295,2,0,L|182:144,1,151.875005793572,6|0,1:2|0:0,0:0:0:0:
243,49,41487,5,0,1:0:0:0:
337,9,41583,1,2,3:2:0:0:
405,88,41680,1,2,3:2:0:0:
512,16,41776,5,8,1:3:0:0:
512,16,41968,5,4,1:3:0:0:
512,16,42160,5,8,1:0:0:0:
498,109,42257,1,8,1:3:0:0:
486,201,42353,1,8,1:2:0:0:
472,293,42449,1,4,1:3:0:0:
385,364,42545,5,8,1:3:0:0:
385,364,42737,5,8,1:3:0:0:
290,384,42833,1,10,3:2:0:0:
273,288,42930,1,4,1:3:0:0:
370,272,43026,2,0,B|380:216,1,50.6250019311906,4|0,1:3|0:0,0:0:0:0:
328,120,43218,5,4,1:3:0:0:
328,120,43314,1,8,1:3:0:0:
236,97,43410,1,8,1:0:0:0:
144,71,43507,1,4,0:3:0:0:
54,43,43603,1,4,1:3:0:0:
0,174,43699,6,0,B|42:163|42:163|50:166|50:166|116:149,1,101.250003862381,6|0,1:0|1:0,0:0:0:0:
148,75,43891,1,4,1:3:0:0:
85,309,43987,2,0,L|103:146,1,151.875005793572,6|0,1:2|0:0,0:0:0:0:
153,79,44179,5,4,1:3:0:0:
195,168,44276,1,2,3:2:0:0:
122,234,44372,1,8,3:0:0:0:
215,346,44468,5,8,1:3:0:0:
215,346,44660,5,4,1:3:0:0:
215,346,44853,5,10,1:2:0:0:
203,256,44949,1,8,1:3:0:0:
296,246,45045,1,4,3:0:0:0:
306,337,45141,1,4,1:3:0:0:
401,384,45237,5,8,1:3:0:0:
401,384,45430,5,8,1:3:0:0:
413,289,45526,1,8,3:0:0:0:
428,196,45622,1,8,1:2:0:0:
370,99,45718,5,4,1:3:0:0:
370,99,45911,5,4,1:3:0:0:
287,54,46007,1,8,1:0:0:0:
210,107,46103,1,8,1:2:0:0:
235,196,46199,1,8,1:3:0:0:
166,264,46295,1,4,1:3:0:0:
81,221,46392,5,6,1:0:0:0:
74,180,46488,1,0,1:0:0:0:
66,135,46584,1,0,1:0:0:0:
58,92,46680,1,6,1:2:0:0:
52,50,46776,1,0,1:0:0:0:
113,0,46872,5,8,1:0:0:0:
203,27,46968,1,8,1:3:0:0:
296,51,47065,1,8,1:3:0:0:
386,74,47161,1,8,1:3:0:0:
313,135,47257,1,4,1:3:0:0:
238,192,47353,1,4,1:3:0:0:
159,243,47449,1,4,1:3:0:0:
91,300,47545,6,0,L|84:337,1,25.3125009655953,4|0,1:3|0:0,0:0:0:0:
103,304,47641,2,0,L|84:339,1,25.3125009655953,8|0,3:0|0:0,0:0:0:0:
73,218,47737,6,0,L|66:180,1,25.3125009655953,8|0,1:3|0:0,0:0:0:0:
85,214,47833,2,0,L|66:178,1,25.3125009655953,4|0,1:3|0:0,0:0:0:0:
163,247,47930,6,0,B|192:260|192:260|208:295|208:295|248:316,1,101.250003862381,4|0,1:3|1:0,0:0:0:0:
376,321,48122,6,0,L|411:308,1,25.3125009655953,4|0,1:3|0:0,0:0:0:0:
373,308,48218,2,0,L|412:306,1,25.3125009655953,8|0,3:0|0:0,0:0:0:0:
309,240,48314,6,0,L|271:233,1,25.3125009655953,8|0,1:3|0:0,0:0:0:0:
305,252,48410,2,0,L|269:233,1,25.3125009655953,4|0,1:3|0:0,0:0:0:0:
387,210,48507,6,0,B|391:188|391:188|361:146|361:146|366:114,1,101.250003862381,4|0,1:3|1:0,0:0:0:0:
449,68,48699,1,8,1:2:0:0:
356,39,48795,1,8,1:3:0:0:
260,18,48891,1,12,1:3:0:0:
167,0,48987,1,4,1:3:0:0:
84,70,49083,5,6,1:0:0:0:
92,107,49180,1,0,1:0:0:0:
99,141,49276,1,0,1:0:0:0:
107,176,49372,1,6,1:2:0:0:
114,211,49468,1,0,1:0:0:0:
51,302,49564,5,8,1:0:0:0:
12,384,49660,1,8,1:3:0:0:
104,360,49757,1,8,1:3:0:0:
193,331,49853,1,8,1:3:0:0:
282,301,49949,1,4,1:3:0:0:
200,256,50045,1,4,1:3:0:0:
118,215,50141,1,4,1:3:0:0:
92,107,50237,6,0,L|99:69,1,33.75,8|0,1:0|0:0,0:0:0:0:
75,100,50334,2,0,L|94:67,1,33.75,8|0,1:3|0:0,0:0:0:0:
177,141,50430,6,0,L|192:176,1,33.75,8|0,1:3|0:0,0:0:0:0:
194,136,50527,2,0,L|196:174,1,33.75,4|0,1:3|0:0,0:0:0:0:
236,60,50622,5,8,1:3:0:0:
316,11,50718,1,8,1:3:0:0:
402,50,50814,1,8,1:3:0:0:
409,144,50910,1,4,1:3:0:0:
328,193,51007,1,4,1:3:0:0:
291,279,51103,1,4,1:3:0:0:
348,350,51199,5,8,1:0:0:0:
371,356,51263,1,8,1:3:0:0:
389,345,51327,2,0,P|398:312|387:282,1,45,4|0,1:3|0:0,0:0:0:0:
324,197,51455,5,8,1:3:0:0:
292,189,51519,1,12,1:3:0:0:
277,158,51584,2,0,P|279:134|294:114,1,33.75,4|0,1:3|0:0,0:0:0:0:
398,22,51680,5,8,1:3:0:0:
413,117,51776,1,12,1:3:0:0:
426,216,51872,1,4,1:3:0:0:
291,279,51968,6,0,L|243:291,1,40.5,6|0,1:0|0:0,0:0:0:0:
160,200,52160,6,0,B|204:187|204:187|429:318|429:318|497:303,1,354.375013518334,6|0,1:2|0:0,0:0:0:0:
480,303,52545,2,0,L|502:224,1,67.5,2|2,3:2|3:2,0:0:0:0:
283,125,52737,6,0,B|315:145|315:145|339:311|339:311|378:333,2,242.999992584229,6|2|2,1:2|3:2|3:2,0:0:0:0:
243,189,53410,1,8,1:3:0:0:
243,189,53506,1,4,1:3:0:0:
0,319,53699,6,0,B|76:304|76:304|81:299|81:299|165:283,1,161.999995056153,6|8,1:2|3:0,0:0:0:0:
247,193,53987,2,0,B|323:207|323:207|328:213|328:213|412:229,1,161.999995056153,6|4,1:2|3:0,0:0:0:0:
473,145,54276,5,8,1:0:0:0:
498,73,54372,1,0,3:0:0:0:
446,17,54468,1,8,3:0:0:0:
373,39,54564,1,4,3:0:0:0:
392,156,54661,6,0,L|403:237,1,67.5,6|0,1:2|0:0,0:0:0:0:
325,285,54853,2,0,L|337:333,1,33.75,8|0,1:0|0:0,0:0:0:0:
341,319,54949,2,0,B|391:306|391:306|423:163|423:163|493:144,1,253.125009655953,6|0,1:2|0:0,0:0:0:0:
476,148,55237,1,2,3:2:0:0:
441,163,55334,1,2,3:2:0:0:
420,136,55430,1,8,1:0:0:0:
374,148,55526,1,2,3:2:0:0:
347,107,55622,1,8,3:0:0:0:
293,123,55718,1,4,3:0:0:0:
259,80,55814,1,8,1:2:0:0:
205,92,55911,1,2,3:2:0:0:
170,43,56007,1,8,1:3:0:0:
104,50,56103,1,4,1:3:0:0:
48,0,56199,5,6,1:2:0:0:
133,130,56327,5,10,3:0:0:0:
304,14,56455,5,6,3:0:0:0:
352,219,56584,5,6,1:2:0:0:
366,273,56680,1,8,3:1:0:0:
328,309,56776,5,8,1:3:0:0:
305,311,56840,1,8,3:0:0:0:
289,319,56904,1,4,1:3:0:0:
279,336,56968,2,0,B|269:360|269:360|273:390,1,45,6|0,1:2|0:0,0:0:0:0:
512,372,57096,5,8,1:0:0:0:
508,353,57161,1,4,1:3:0:0:
496,336,57225,1,8,3:0:0:0:
479,324,57289,1,4,1:3:0:0:
457,320,57353,2,0,B|422:327|422:327|385:377,1,67.5,6|8,1:2|0:2,0:0:0:0:
186,313,57545,5,8,1:3:0:0:
149,309,57609,1,12,1:3:0:0:
124,281,57673,1,4,1:3:0:0:
125,247,57738,6,0,L|294:203,1,151.875005793572,6|0,1:2|0:0,0:0:0:0:
271,208,57930,1,8,1:0:0:0:
320,278,58026,6,0,B|277:290|277:290|131:164|131:164|73:183,1,286.875005471707,6|0,1:2|0:0,0:0:0:0:
77,175,58314,2,0,B|60:147|60:147|84:100,1,67.5,2|0,3:2|0:0,0:0:0:0:
264,60,58507,2,0,L|246:147,1,67.5,2|2,1:2|3:2,0:0:0:0:
21,357,58699,5,2,1:2:0:0:
58,321,58795,1,2,3:2:0:0:
114,332,58891,1,8,3:0:0:0:
154,280,58987,1,0,1:0:0:0:
227,284,59084,1,4,3:0:0:0:
287,223,59180,5,8,1:3:0:0:
287,223,59228,1,4,1:3:0:0:
287,223,59276,2,0,B|321:232|321:232|376:347|376:347|433:363,1,202.5,6|2,1:2|3:2,0:0:0:0:
494,300,59564,2,0,B|507:253|507:253|449:203,1,101.250003862381,6|4,3:2|1:3,0:0:0:0:
339,92,59757,5,8,1:0:0:0:
437,0,59853,2,0,L|411:178,1,151.875005793572,2|0,3:2|0:0,0:0:0:0:
415,150,60045,5,8,1:2:0:0:
322,173,60141,1,2,1:2:0:0:
343,270,60237,1,4,1:3:0:0:
436,249,60334,1,4,3:0:0:0:
335,88,60430,6,0,L|270:74,1,50.6250019311906,6|0,1:0|0:0,0:0:0:0:
51,195,60622,6,0,L|266:140,1,202.500007724762,6|8,1:2|3:0,0:0:0:0:
11,123,60910,2,0,L|229:69,1,202.500007724762,6|4,1:2|3:0,0:0:0:0:
476,50,61199,6,0,L|435:248,1,202.500007724762,6|8,1:0|3:0,0:0:0:0:
473,313,61455,1,4,3:0:0:0:
473,338,61519,1,4,3:0:0:0:
453,350,61583,2,0,B|422:357|422:357|344:278|344:278|296:291,1,172.125003283024,6|0,1:2|0:0,0:0:0:0:
241,298,61776,6,0,B|232:268|232:268|261:236,1,67.5,8|4,1:3|3:0,0:0:0:0:
318,195,61920,1,4,3:0:0:0:
318,195,61968,2,0,L|282:379,1,172.125003283024,6|0,1:2|0:0,0:0:0:0:
177,364,62160,6,0,B|137:351|137:351|89:213|89:213|29:190,1,229.500004377365,6|8,1:2|3:0,0:0:0:0:
238,301,62449,2,0,B|198:288|198:288|150:150|150:150|90:127,1,229.500004377365,6|4,1:2|3:0,0:0:0:0:
0,62,62737,6,0,L|244:14,1,229.500004377365,6|8,1:2|3:0,0:0:0:0:
288,63,62994,5,4,1:3:0:0:
299,77,63058,1,8,1:3:0:0:
288,82,63122,2,0,L|278:106,2,22.5,8|12|4,1:3|1:3|1:3,0:0:0:0:
366,21,63250,5,4,1:3:0:0:
391,10,63314,1,4,3:0:0:0:
420,20,63378,1,8,1:0:0:0:
433,50,63442,1,8,1:3:0:0:
419,85,63507,6,0,B|407:116|407:116|453:214|453:214|437:267,1,172.125003283024,6|0,1:0|0:0,0:0:0:0:
365,291,63699,5,6,1:2:0:0:
352,254,63763,1,4,1:3:0:0:
330,267,63827,1,4,1:3:0:0:
322,248,63891,2,0,L|283:226,1,33.7500012874604,4|4,1:3|3:0,0:0:0:0:
29,179,64019,5,6,1:2:0:0:
56,203,64083,1,4,1:3:0:0:
69,190,64147,2,0,L|113:184,1,33.7500012874604,4|4,1:3|3:0,0:0:0:0:
343,68,64276,5,6,1:2:0:0:
303,68,64340,1,4,1:3:0:0:
306,94,64404,2,0,L|273:124,1,33.7500012874604,4|4,1:3|3:0,0:0:0:0:
148,377,64532,5,6,1:2:0:0:
179,353,64596,1,4,1:3:0:0:
160,336,64660,1,8,1:3:0:0:
175,322,64724,2,0,L|183:278,1,33.7500012874604,8|8,1:3|3:0,0:0:0:0:
141,51,64853,5,6,1:2:0:0:
146,63,64917,2,0,L|164:103,1,33.7500012874604,8|8,1:3|3:0,0:0:0:0:
215,204,65045,5,6,1:2:0:0:
198,204,65109,1,4,1:3:0:0:
189,189,65173,1,4,1:3:0:0:
198,174,65237,1,4,1:3:0:0:
215,174,65301,1,4,1:3:0:0:
223,189,65365,1,4,1:3:0:0:
219,212,65430,5,6,1:2:0:0:
193,212,65494,1,8,1:3:0:0:
179,189,65558,1,8,1:3:0:0:
193,165,65622,1,8,1:3:0:0:
219,165,65686,1,8,1:3:0:0:
232,189,65750,1,8,1:3:0:0:
181,288,65814,6,0,L|169:339,2,33.7500012874604,6|4|4,1:2|1:3|1:3,0:0:0:0:
235,90,66006,2,0,L|242:57,2,33.7500012874604,8|8|8,1:3|1:3|1:3,0:0:0:0:
7,154,66199,5,6,1:2:0:0:
18,197,66263,1,4,1:3:0:0:
32,172,66327,1,4,1:3:0:0:
44,189,66391,1,4,1:3:0:0:
56,185,66455,2,0,L|99:195,1,33.7500012874604,4|4,3:0|3:0,0:0:0:0:
262,278,66583,5,6,1:2:0:0:
281,307,66647,1,8,1:3:0:0:
290,289,66711,1,8,1:3:0:0:
306,292,66775,2,0,L|349:282,2,33.7500012874604,8|8|8,1:3|1:3|1:3,0:0:0:0:
88,384,66968,5,6,1:2:0:0:
79,377,67032,1,4,1:3:0:0:
90,371,67096,1,4,1:3:0:0:
82,364,67160,1,4,1:3:0:0:
93,359,67224,1,4,1:3:0:0:
85,351,67288,1,4,1:3:0:0:
96,345,67353,1,8,1:3:0:0:
86,338,67417,1,8,1:3:0:0:
98,333,67481,1,8,1:3:0:0:
90,326,67545,1,8,1:3:0:0:
101,321,67609,1,8,1:3:0:0:
93,315,67673,1,8,1:3:0:0:
102,311,67737,6,0,B|145:303|145:303|249:155|249:155|294:146,1,270,6|8,1:0|3:0,0:0:0:0:
335,281,68025,2,0,B|290:271|290:271|185:124|185:124|143:116,1,270,6|4,1:2|3:0,0:0:0:0:
86,166,68266,1,4,3:0:0:0:
86,166,68314,1,8,3:0:0:0:
242,13,68442,5,8,1:3:0:0:
249,35,68506,2,0,L|243:94,1,45,4|0,1:3|0:0,0:0:0:0:
297,150,68634,5,8,1:0:0:0:
289,166,68699,2,0,L|292:203,1,33.7500012874604,4|0,1:3|0:0,0:0:0:0:
222,252,68827,5,4,1:3:0:0:
226,264,68891,2,0,L|223:293,1,26.9999991760254,4|0,3:3|0:0,0:0:0:0:
299,352,69083,5,8,1:3:0:0:
329,348,69147,1,8,3:0:0:0:
342,373,69211,1,4,1:3:0:0:
362,363,69276,2,0,L|390:357,1,26.9999991760254,4|0,1:3|0:0,0:0:0:0:
391,245,69468,5,14,1:0:0:0:
488,344,69564,2,2,L|-8:280,1,405.000015449524,6|0,1:2|0:0,0:1:0:0:
18,326,70045,2,0,B|-1:303|-1:303|23:246,1,67.5,10|0,3:2|0:0,0:0:0:0:
103,203,70237,5,8,3:0:0:0:
128,179,70333,1,4,3:0:0:0:
118,141,70429,5,10,1:2:0:0:
25,179,70557,5,4,3:0:0:0:
163,273,70686,5,8,3:0:0:0:
51,89,70814,6,0,L|89:327,1,202.5,6|0,1:2|0:0,0:0:0:0:
89,292,71006,2,0,B|122:303|122:303,1,33.75,8|0,1:0|0:0,0:0:0:0:
162,376,71102,6,0,B|202:364|202:364|256:262|256:262|312:247,1,202.500007724762,2|2,1:2|3:2,0:0:0:0:
472,322,71391,2,0,B|448:300|448:300|362:312,1,101.250003862381,2|8,1:2|3:0,0:0:0:0:
320,363,71535,1,4,3:0:0:0:
320,363,71583,2,0,L|361:123,1,202.500007724762,6|2,1:2|3:0,0:0:0:0:
354,163,71872,1,2,1:2:0:0:
433,58,71968,2,0,B|480:80|480:80|496:162,1,101.250003862381,0|8,1:3|3:0,0:0:0:0:
307,245,72160,5,8,1:0:0:0:
285,216,72224,1,4,3:0:0:0:
265,232,72288,1,8,3:0:0:0:
258,216,72352,2,0,L|171:194,1,67.5,6|0,1:2|0:0,0:0:0:0:
68,25,72545,6,0,L|120:234,1,202.500007724762,6|10,1:2|3:2,0:0:0:0:
140,0,72833,2,0,L|192:209,1,202.500007724762,6|8,1:2|3:0,0:0:0:0:
158,286,73122,5,8,1:3:0:0:
112,296,73186,1,12,3:3:0:0:
126,320,73250,1,4,3:3:0:0:
110,327,73314,2,0,L|97:353,1,25.3125009655953,4|0,3:0|0:0,0:0:0:0:
196,370,73410,5,4,1:3:0:0:
242,305,73506,2,0,B|238:275|238:275|108:222|108:222|98:175,1,202.500007724762,6|8,1:2|1:3,0:0:0:0:
118,104,73795,5,8,1:3:0:0:
118,104,73843,1,4,1:3:0:0:
118,104,73891,2,0,L|124:69,3,25.3125009655953,6|0|0|0,1:0|1:0|1:0|1:0,0:0:0:0:
36,253,74083,2,0,L|10:277,3,25.3125009655953,6|0|0|0,1:2|1:0|1:0|1:0,0:0:0:0:
186,187,74275,2,0,L|221:181,3,25.3125009655953,8|0|0|0,1:0|1:0|1:0|1:0,0:0:0:0:
27,151,74468,2,0,L|-4:134,3,25.3125009655953,8|0|4|0,1:3|1:0|1:3|1:0,0:0:0:0:
264,4,74660,6,0,P|281:14|292:40,1,33.7500012874604,8|0,1:0|0:0,0:0:0:0:
355,55,74788,6,0,P|353:80|330:108,1,45,8|0,1:3|0:0,0:0:0:0:
362,171,74916,6,0,P|340:191|295:192,1,53.9999983520508,12|0,1:3|0:0,0:0:0:0:
239,217,75045,6,0,P|206:215|175:233,1,62.9999980773926,4|0,1:3|0:0,0:0:0:0:
94,213,75173,6,0,P|74:245|76:276,1,62.9999980773926,4|0,1:3|0:0,0:0:0:0:
9,341,75301,6,0,P|21:376|54:387,1,62.9999980773926,4|0,3:0|0:0,0:0:0:0:
265,384,75429,6,2,P|259:211|235:17,1,350.999983932496,6|2,1:0|3:2,0:1:0:0:
237,34,76455,1,2,0:0:0:0:
237,34,76711,1,2,0:0:0:0:
280,112,76968,5,2,1:2:0:0:
352,87,77096,1,2,0:0:0:0:
411,138,77224,1,2,0:0:0:0:
227,177,77352,5,2,3:2:0:0:
177,159,77480,1,2,0:0:0:0:
137,194,77608,1,4,3:3:0:0:
286,245,77737,5,8,1:0:0:0:
231,297,77865,1,2,3:2:0:0:
269,328,77993,1,8,3:0:0:0:
242,347,78122,1,12,3:0:0:0:
259,366,78250,1,4,1:3:0:0:
243,376,78378,1,4,3:0:0:0:
250,384,78506,6,2,P|250:335|282:69,1,306.000005836487,6|2,1:0|3:2,0:1:0:0:
232,9,79275,5,6,1:2:0:0:
232,9,79307,2,0,P|247:106|253:264,1,248.625004742146,2|0,3:2|0:0,0:0:0:0:
198,304,79788,5,4,3:0:0:0:
281,354,79916,5,8,3:0:0:0:
156,384,80045,6,0,P|107:367|65:359,1,90,8|2,1:3|3:2,0:0:0:0:
69,359,80429,1,2,0:2:0:0:
18,305,80557,1,2,3:2:0:0:
56,235,80686,1,2,0:2:0:0:
134,238,80814,1,2,3:2:0:0:
195,190,80942,1,2,3:2:0:0:
193,110,81070,5,2,3:2:0:0:
161,89,81156,1,2,3:2:0:0:
128,94,81241,1,2,3:2:0:0:
106,120,81327,5,2,3:2:0:0:
269,216,81455,1,2,3:2:0:0:
85,308,81583,6,0,P|73:336|69:364,2,53.9999983520508,6|2|2,1:2|3:2|3:2,0:0:0:0:
272,219,81968,6,0,P|298:203|317:183,2,53.9999983520508,2|2|2,1:2|3:2|3:2,0:0:0:0:
68,181,82352,6,0,P|37:178|9:183,2,53.9999983520508,2|2|2,1:2|3:2|3:2,0:0:0:0:
210,331,82737,6,0,P|232:351|258:363,2,53.9999983520508,2|2|2,1:2|3:2|3:2,0:0:0:0:
185,117,83122,5,6,1:2:0:0:
168,76,83207,1,2,3:2:0:0:
183,24,83293,1,2,3:2:0:0:
235,0,83378,1,2,1:2:0:0:
287,12,83463,1,2,3:2:0:0:
315,58,83549,1,2,3:2:0:0:
343,90,83634,1,2,1:2:0:0:
386,99,83720,1,2,3:2:0:0:
418,85,83805,1,2,3:2:0:0:
426,62,83891,1,2,1:2:0:0:
409,40,83976,1,2,3:2:0:0:
378,38,84062,1,2,3:2:0:0:
341,67,84147,1,2,1:2:0:0:
348,115,84233,1,2,3:2:0:0:
386,139,84318,1,2,3:2:0:0:
427,170,84404,1,8,1:3:0:0:
435,219,84489,2,0,P|417:243|399:252,1,35.9999989013672,12|4,1:3|1:3,0:0:0:0:
274,251,84660,5,6,1:2:0:0:
274,251,84692,2,2,B|296:246|322:230|337:195|337:125|332:70|285:47|234:46|184:78|181:127|186:198|205:233|230:233,1,421.875,6|0,1:0|1:0,0:2:0:0:
2,381,85172,5,2,1:2:0:0:
52,315,85301,5,2,1:2:0:0:
141,264,85429,5,4,1:3:0:0:
234,237,85557,5,2,1:2:0:0:
337,187,85685,5,2,1:2:0:0:
411,113,85813,5,8,1:0:0:0:
437,29,85942,5,2,1:2:0:0:
437,29,86006,1,8,3:0:0:0:
437,29,86070,1,2,1:2:0:0:
111,117,86198,6,0,P|80:102|50:79,1,67.5,6|0,1:2|0:0,0:0:0:0:
349,305,86390,6,0,P|365:335|376:371,1,67.5,6|0,1:2|0:0,0:0:0:0:
320,65,86583,6,0,P|324:30|337:-4,1,67.5,6|0,1:2|0:0,0:0:0:0:
136,292,86775,6,0,P|112:316|81:338,1,67.5,6|0,1:2|0:0,0:0:0:0:
503,161,86967,6,0,P|440:157|395:166,1,101.250003862381,14|0,1:2|0:0,0:0:0:0:
39,88,87160,6,0,P|87:128|129:147,1,101.250003862381,6|0,1:2|0:0,0:0:0:0:
391,381,87352,6,0,P|375:320|352:279,1,101.250003862381,6|0,1:2|0:0,0:0:0:0:
326,0,87544,6,0,P|311:35|304:79,1,50.6250019311906,2|0,1:2|0:0,0:0:0:0:
286,58,87640,2,0,P|283:96|292:139,1,50.6250019311906,0|0,1:1|0:0,0:0:0:0:
230,233,87737,6,2,B|205:233|186:198|181:127|184:78|234:46|285:47|332:70|337:125|337:195|322:230|296:246|273:252,1,421.875,6|0,1:0|0:0,0:1:0:0:
221,313,88025,2,0,P|200:318|182:328,1,33.75,2|0,1:2|0:0,0:0:0:0:
74,289,88122,6,0,B|93:292|116:281|131:271|136:241|155:221|205:212|236:253|249:290|243:302|251:341|277:378|336:378,1,337.5,8|2,1:0|3:2,0:0:0:0:
334,377,88410,1,2,1:2:0:0:
443,384,88506,5,6,1:2:0:0:
489,323,88602,1,8,1:2:0:0:
472,246,88698,1,2,1:2:0:0:
406,224,88794,1,4,1:3:0:0:
353,238,88890,1,8,1:0:0:0:
303,237,88986,1,2,1:2:0:0:
269,202,89083,1,8,1:3:0:0:
275,165,89179,1,4,1:3:0:0:
334,81,89275,5,6,1:2:0:0:
385,70,89371,1,2,1:2:0:0:
416,100,89467,1,2,1:2:0:0:
414,128,89563,1,8,1:3:0:0:
300,240,89660,5,8,1:0:0:0:
267,254,89756,1,2,1:2:0:0:
260,301,89852,1,2,1:2:0:0:
300,334,89948,1,8,1:3:0:0:
470,315,90044,5,6,1:2:0:0:
456,294,90140,1,4,1:3:0:0:
425,291,90236,1,2,1:2:0:0:
416,257,90333,1,4,1:3:0:0:
379,245,90429,1,8,1:0:0:0:
373,196,90525,1,8,1:3:0:0:
316,169,90621,1,0,1:0:0:0:
305,106,90717,1,8,1:3:0:0:
188,50,90813,6,2,B|175:50|131:64|98:93|111:135|135:168|168:163|214:161|250:136|280:122|314:96|318:58|307:16|264:5|239:8|214:16|197:26,1,421.875,6|0,1:0|0:0,0:1:0:0:
122,18,91102,2,0,P|101:14|76:1,1,33.75,4|0,1:3|0:0,0:0:0:0:
0,109,91198,6,0,P|113:65|337:17,1,337.5,8|2,1:0|3:2,0:0:0:0:
323,18,91487,1,6,3:0:0:0:
415,90,91583,6,0,B|408:122|367:143|326:118|308:95|299:59|289:35|265:10|245:5|212:13|195:37,1,270,6|2,1:2|3:0,0:0:0:0:
212,210,91872,6,0,P|225:190|248:178,1,33.75,8|0,1:3|0:0,0:0:0:0:
308,194,91968,2,0,B|292:202|269:193|264:166|268:151|280:135|286:122|288:103|283:93|268:82|252:83,1,151.875005793572,8|0,1:0|0:0,0:0:0:0:
149,91,92160,6,0,B|117:108|64:106|-12:57|1:0|47:-22|89:-14|108:-3|122:19,1,270,6|4,1:2|1:3,0:0:0:0:
325,277,92449,6,0,B|369:284|432:272|488:174|451:119|396:104|348:133|330:150|309:172|306:187|316:201,1,337.5,6|4,1:2|1:3,0:0:0:0:
225,254,92737,5,8,1:0:0:0:
186,274,92833,1,8,3:0:0:0:
204,254,92929,1,4,1:3:0:0:
89,231,93025,6,0,B|65:231|44:212|4:155|-8:54|38:34|66:33|87:32|122:52|130:103|140:114|142:133|150:171|137:200|121:199,1,405.000015449524,6|8,1:2|1:3,0:0:0:0:
0,359,93314,5,2,1:2:0:0:
0,319,93410,1,8,1:3:0:0:
41,297,93506,1,8,1:0:0:0:
97,311,93602,1,8,1:3:0:0:
134,369,93699,1,12,1:3:0:0:
207,382,93795,1,4,1:3:0:0:
269,325,93891,6,2,P|266:223|221:37,1,270,6|2,1:0|3:2,0:1:0:0:
229,59,94179,1,8,1:3:0:0:
292,5,94275,5,2,1:2:0:0:
322,4,94340,1,4,1:3:0:0:
349,22,94404,1,4,1:3:0:0:
364,52,94468,1,8,1:3:0:0:
380,89,94532,1,8,1:3:0:0:
420,103,94596,1,8,1:3:0:0:
460,87,94660,6,0,P|468:44|478:17,1,67.5,6|8,1:2|1:2,0:0:0:0:
350,210,94852,2,0,P|342:167|332:140,1,67.5,8|4,1:3|1:3,0:0:0:0:
473,225,95045,5,8,1:0:0:0:
508,247,95141,1,0,1:0:0:0:
503,297,95237,1,8,1:3:0:0:
446,352,95333,5,8,1:3:0:0:
446,352,95381,1,4,1:3:0:0:
446,352,95429,2,2,B|363:373|323:275|330:268|336:259|296:160|196:167,1,337.5,6|0,1:1|0:0,0:1:0:0:
141,113,95718,2,0,P|106:138|118:191,1,67.5,8|0,1:3|0:0,0:0:0:0:
138,275,95814,6,0,P|154:164|213:17,1,270,8|2,1:0|3:0,0:0:0:0:
212,18,96102,1,4,1:3:0:0:
62,43,96199,5,4,1:3:0:0:
62,43,96247,1,8,1:3:0:0:
62,43,96295,2,0,P|185:44|196:167,1,270,6|4,1:2|1:3,0:0:0:0:
81,218,96583,5,8,1:0:0:0:
26,274,96679,1,2,1:3:0:0:
40,337,96775,1,8,1:3:0:0:
81,358,96872,1,4,1:3:0:0:
145,315,96968,6,2,B|139:296|143:275|166:258|200:245|235:230|264:246|281:278|272:314|246:338|212:340|190:337|178:322,1,270,6|2,1:0|1:3,0:1:0:0:
77,214,97256,5,8,1:3:0:0:
28,156,97352,1,8,1:0:0:0:
42,99,97449,1,2,1:3:0:0:
82,77,97545,1,2,1:3:0:0:
124,79,97641,1,8,1:3:0:0:
149,106,97737,1,4,1:3:0:0:
193,123,97833,1,4,3:0:0:0:
254,113,97929,1,2,1:3:0:0:
291,46,98025,1,8,1:3:0:0:
367,10,98122,5,14,1:2:0:0:
380,41,98186,1,2,1:3:0:0:
404,28,98250,1,2,1:3:0:0:
411,43,98314,1,8,1:3:0:0:
423,40,98378,1,12,1:3:0:0:
429,47,98442,1,4,1:3:0:0:
476,124,98506,6,2,B|480:148|468:165|442:187|396:182|364:155|364:131|365:99|368:92|359:80|363:51|361:40|329:11|280:-5|260:-4|234:11|211:37|212:48|211:55|201:65|176:84|158:97|93:58,1,465.750008883476,6|4,1:0|1:3,0:1:0:0:
98,267,98891,6,2,P|274:130|454:36,1,405,14|8,1:0|1:3,0:1:0:0:
480,128,99275,5,14,1:0:0:0:
479,160,99340,1,2,1:3:0:0:
449,182,99404,1,2,1:3:0:0:
413,175,99468,1,8,1:3:0:0:
374,184,99532,1,8,1:3:0:0:
353,217,99596,1,4,1:3:0:0:
362,258,99660,1,4,1:3:0:0:
350,298,99724,1,2,1:3:0:0:
309,317,99788,1,2,1:3:0:0:
241,270,99852,6,0,P|235:234|217:196,1,67.5,4|8,1:3|1:3,0:0:0:0:
259,378,100045,6,2,L|297:84,1,242.999992584229,6|2,1:0|1:3,0:1:0:0:
150,75,100333,6,0,B|138:80|138:80|122:102,1,33.75,4|0,1:3|0:0,0:0:0:0:
152,167,100429,2,0,B|189:181|189:181|207:257|207:257|258:286,1,151.875005793572,8|0,1:0|0:0,0:0:0:0:
241,278,100622,2,0,L|301:267,1,50.6250019311906,2|0,1:3|0:0,0:0:0:0:
238,354,100718,2,0,L|298:343,1,50.6250019311906,8|0,1:3|0:0,0:0:0:0:
381,291,100814,5,4,1:3:0:0:
91,313,100910,2,0,L|315:344,1,202.500007724762,8|8,1:0|3:0,0:0:0:0:
360,384,101150,1,4,1:3:0:0:
360,384,101199,2,0,B|372:353|372:353|281:251,1,151.875005793572,10|0,1:2|0:0,0:0:0:0:
295,258,101391,2,0,L|316:193,1,50.6250019311906,2|0,1:3|0:0,0:0:0:0:
220,241,101487,2,0,L|242:177,1,50.6250019311906,8|0,1:3|0:0,0:0:0:0:
258,89,101583,6,0,L|292:352,1,249.749999047279,6|2,1:2|1:3,0:0:0:0:
104,322,101872,5,8,1:3:0:0:
104,322,101920,1,4,1:3:0:0:
104,322,101968,2,2,B|118:282|118:282|406:188|406:188|434:118,1,374.624998570919,14|4,1:0|1:3,0:1:0:0:
262,93,102352,5,6,1:3:0:0:
378,241,102449,2,0,L|485:262,1,80.9999975280763,10|0,1:2|0:0,0:0:0:0:
239,196,102641,5,8,1:3:0:0:
472,35,102737,2,0,L|379:51,1,94.4999971160889,8|8,1:0|1:3,0:0:0:0:
296,292,102929,6,0,L|291:259,1,33.75,2|0,1:3|0:0,0:0:0:0:
271,130,103025,2,0,L|266:97,1,33.75,4|0,1:3|0:0,0:0:0:0:
209,34,103122,5,6,1:3:0:0:
209,34,103170,1,10,1:3:0:0:
209,34,103218,2,2,B|199:14|199:14|-8:-16|-8:-16|50:111|50:111|505:0|505:0|427:125|427:125|260:90,1,1147.50002188683,6|4,1:0|1:3,0:1:0:0:
204,152,104275,5,8,1:0:0:0:
259,204,104372,1,2,1:3:0:0:
220,272,104468,1,8,1:3:0:0:
270,327,104564,1,4,1:3:0:0:
215,384,104660,6,2,B|149:375|149:375|108:295|108:295|365:235|365:235|338:298|338:298,1,465.750008883476,6|8,1:0|1:3,0:1:0:0:
425,337,104997,1,4,1:3:0:0:
425,337,105045,2,2,B|350:353|350:353|425:173|425:173|288:120|288:120|318:200,1,472.5,10|0,1:0|0:0,0:1:0:0:
259,228,105429,6,0,L|221:248,1,33.75,8|0,1:0|0:0,0:0:0:0:
244,211,105525,2,0,L|221:247,1,33.75,2|0,1:3|0:0,0:0:0:0:
169,317,105622,6,0,L|131:297,1,33.75,8|0,1:2|0:0,0:0:0:0:
154,334,105718,2,0,L|131:298,1,33.75,8|0,1:3|0:0,0:0:0:0:
65,260,105814,5,6,1:2:0:0:
155,222,105910,1,8,1:3:0:0:
123,133,106006,1,2,1:3:0:0:
36,168,106102,1,4,1:3:0:0:
132,302,106199,6,2,L|166:21,1,242.999992584229,6|2,1:0|1:3,0:1:0:0:
234,0,106487,5,8,1:3:0:0:
234,0,106535,1,4,1:3:0:0:
234,0,106583,2,0,B|280:35|280:35|227:131,1,121.499996292114,8|4,1:0|1:3,0:0:0:0:
40,165,106775,1,2,1:3:0:0:
291,201,106872,2,2,L|93:121,1,182.249994438172,2|0,1:0|0:0,0:1:0:0:
119,127,107064,2,0,L|103:64,1,33.75,10|0,1:2|0:0,0:0:0:0:
50,0,107160,6,0,B|19:11|19:11|-10:142,1,121.499996292114,2|8,1:3|1:3,0:0:0:0:
40,165,107304,1,4,1:3:0:0:
40,165,107352,1,8,1:0:0:0:
7,246,107449,5,2,1:3:0:0:
100,220,107545,1,8,1:3:0:0:
193,194,107641,1,4,1:3:0:0:
253,94,107737,5,6,1:2:0:0:
292,96,107801,1,4,1:3:0:0:
316,128,107865,1,4,1:3:0:0:
316,170,107929,1,4,1:3:0:0:
289,203,107993,1,4,1:3:0:0:
279,247,108057,1,4,1:3:0:0:
303,286,108122,1,8,1:0:0:0:
351,296,108186,1,8,1:3:0:0:
393,273,108250,1,8,1:3:0:0:
399,230,108314,1,8,1:3:0:0:
417,185,108378,1,8,1:3:0:0:
459,165,108442,1,8,1:3:0:0:
512,217,108506,6,2,B|182:279|182:279|272:149|272:149|369:187,1,540,6|8,1:0|1:0,0:1:0:0:
387,110,108987,5,8,1:3:0:0:
327,297,109083,1,2,1:3:0:0:
387,110,109179,1,4,1:3:0:0:
386,348,109275,6,2,B|447:376|447:376|528:222|528:222|164:290|164:290|239:184,1,729.000002780914,6|8,1:0|1:0,0:1:0:0:
332,11,109756,6,0,L|389:386,1,337.5,2|8,1:3|1:3,0:0:0:0:
185,248,110045,6,0,L|224:192,1,67.5,8|0,1:3|0:0,0:0:0:0:
387,110,110237,6,0,L|361:55,1,33.75,4|8,1:3|3:0,0:0:0:0:
260,51,110381,5,4,3:0:0:0:
260,51,110429,1,8,1:0:0:0:
438,182,110557,5,8,1:3:0:0:
334,260,110686,5,4,1:3:0:0:
383,344,110814,5,6,1:0:0:0:
512,4,111006,5,8,1:3:0:0:
512,4,111102,1,4,1:3:0:0:
512,4,111199,2,2,L|217:224,1,337.5,14|6,1:1|3:1,0:1:0:0:
0,380,111487,6,0,L|410:71,1,506.250019311906,2|0,1:0|0:0,0:1:0:0:
220,0,111775,5,2,1:2:0:0:
195,27,111824,1,2,1:2:0:0:
214,36,111872,1,2,1:2:0:0:
206,53,111920,1,2,1:2:0:0:
218,63,111968,1,2,1:2:0:0:
212,74,112016,1,2,1:2:0:0:
219,82,112064,1,2,1:2:0:0:
218,90,112112,1,2,1:2:0:0:
220,97,112160,2,0,L|224:121,3,13.5,2|2|2|2,1:2|1:2|1:2|1:2,0:0:0:0:
71,215,112352,6,0,B|38:205|38:205|17:150,1,67.5,6|2,1:0|3:2,0:0:0:0:
140,117,112545,1,2,3:0:0:0:
26,174,112641,1,2,3:2:0:0:
6,14,112737,6,0,L|46:25,1,33.75,4|0,1:3|0:0,0:0:0:0:
44,32,112833,2,0,L|68:124,1,67.5,4|0,1:3|0:0,0:0:0:0:
164,335,113025,2,0,L|189:173,1,151.875005793572,8|0,1:0|0:0,0:0:0:0:
143,114,113218,5,2,1:3:0:0:
235,88,113314,1,8,1:0:0:0:
329,62,113410,1,2,1:3:0:0:
451,133,113506,5,8,1:3:0:0:
475,167,113570,1,8,1:3:0:0:
466,207,113634,1,8,1:3:0:0:
428,222,113699,1,0,1:3:0:0:
385,214,113763,1,4,1:3:0:0:
348,239,113827,1,4,1:3:0:0:
344,284,113891,6,0,L|422:306,1,67.5,6|2,1:2|3:2,0:0:0:0:
272,383,114083,1,8,3:0:0:0:
249,288,114179,1,4,1:3:0:0:
226,191,114275,1,8,1:0:0:0:
241,80,114372,6,0,L|289:71,1,33.75,6|0,1:0|0:0,0:0:0:0:
275,80,114564,6,0,L|227:71,1,33.75,6|0,1:2|0:0,0:0:0:0:
241,80,114756,6,0,L|289:71,1,33.75,6|0,1:2|0:0,0:0:0:0:
258,0,114949,6,2,L|251:388,1,354.375013518334,6|0,1:2|0:0,0:1:0:0:
175,384,115334,6,0,B|142:373|142:373|128:317,1,67.5,6|2,1:0|3:2,0:0:0:0:
224,242,115525,1,2,3:3:0:0:
91,133,115621,1,2,3:2:0:0:
101,272,115717,6,0,L|135:264,1,33.75,4|0,1:3|0:0,0:0:0:0:
138,255,115813,2,0,L|160:159,1,67.5,8|0,1:3|0:0,0:0:0:0:
22,50,116006,2,0,L|50:217,1,151.875005793572,8|0,1:0|0:0,0:0:0:0:
228,246,116198,5,2,3:0:0:0:
306,197,116294,1,8,1:0:0:0:
258,113,116390,1,2,3:0:0:0:
338,23,116486,5,0,1:0:0:0:
380,7,116550,1,8,1:3:0:0:
414,29,116615,1,8,1:3:0:0:
420,72,116679,1,4,1:3:0:0:
401,109,116743,1,4,1:3:0:0:
408,151,116807,1,4,1:3:0:0:
444,171,116871,6,0,B|478:166|478:166|505:114,1,67.5,6|2,1:2|3:2,0:0:0:0:
310,201,117063,1,2,1:3:0:0:
388,251,117159,1,2,3:2:0:0:
472,297,117256,1,8,1:3:0:0:
489,191,117352,6,0,L|500:127,1,50.6250019311906,14|0,1:0|0:0,0:0:0:0:
4,194,117544,6,0,L|13:245,1,50.6250019311906,6|0,1:2|0:0,0:0:0:0:
489,191,117736,6,0,L|500:127,1,50.6250019311906,6|0,1:2|0:0,0:0:0:0:
255,45,117929,6,2,L|266:235,1,151.875005793572,6|0,1:2|0:0,0:1:0:0:
271,272,118121,2,0,L|275:319,2,33.7500012874604,8|8|4,1:0|1:3|1:3,0:0:0:0:
180,162,118315,6,0,B|145:173|145:173|129:217,1,67.5,6|2,1:0|3:2,0:0:0:0:
17,248,118507,1,2,3:0:0:0:
161,307,118603,1,2,3:2:0:0:
29,384,118699,6,0,L|65:374,1,33.75,4|0,1:3|0:0,0:0:0:0:
67,363,118795,2,0,L|86:279,1,67.5,8|0,1:3|0:0,0:0:0:0:
37,12,118988,2,0,L|60:161,1,151.875005793572,8|0,1:0|0:0,0:0:0:0:
139,206,119180,5,2,3:2:0:0:
236,223,119276,1,8,1:0:0:0:
332,240,119372,1,2,1:3:0:0:
443,195,119468,5,8,1:3:0:0:
458,141,119532,1,8,1:3:0:0:
430,98,119597,1,8,1:3:0:0:
386,84,119661,1,4,1:3:0:0:
350,97,119725,1,4,1:3:0:0:
338,123,119789,1,4,1:3:0:0:
339,143,119853,6,0,L|349:189,1,33.75,6|0,1:2|0:0,0:0:0:0:
309,215,119949,2,0,L|343:184,1,33.75,0|0,1:0|0:0,0:0:0:0:
386,205,120045,2,0,L|341:191,1,33.75,4|0,1:3|0:0,0:0:0:0:
302,129,120142,6,0,L|333:164,1,33.75,6|0,1:2|0:0,0:0:0:0:
309,254,120238,2,0,L|323:210,1,33.75,0|0,1:0|0:0,0:0:0:0:
407,180,120334,2,0,L|361:190,1,33.75,4|0,1:3|0:0,0:0:0:0:
252,123,120430,6,0,L|296:138,1,33.75,6|0,1:2|0:0,0:0:0:0:
332,294,120526,2,0,L|322:249,1,33.75,0|0,1:0|0:0,0:0:0:0:
429,133,120622,2,0,L|394:165,1,33.75,8|0,1:3|0:0,0:0:0:0:
211,157,120719,6,0,L|256:148,1,33.75,6|0,1:2|0:0,0:0:0:0:
377,316,120815,2,0,L|345:283,1,33.75,0|0,1:0|0:0,0:0:0:0:
423,84,120911,2,0,L|408:130,1,33.75,8|0,1:3|0:0,0:0:0:0:
341,193,121007,5,6,1:2:0:0:
341,193,121103,1,2,3:2:0:0:
341,193,121199,1,0,1:0:0:0:
75,384,121391,5,2,1:2:0:0:
75,384,121439,1,2,1:2:0:0:
75,384,121487,2,0,L|257:338,1,151.875005793572,6|0,1:0|0:0,0:0:0:0:
246,270,121679,5,8,1:3:0:0:
225,233,121743,1,8,1:3:0:0:
178,232,121807,1,8,1:3:0:0:
138,259,121871,1,4,1:3:0:0:
89,262,121936,1,4,1:3:0:0:
55,228,122000,1,4,1:3:0:0:
61,177,122064,6,0,B|99:141|99:141|150:163,1,101.250003862381,6|0,1:2|0:0,0:0:0:0:
297,333,122256,1,8,1:0:0:0:
335,350,122320,1,8,1:3:0:0:
375,333,122384,1,4,1:3:0:0:
382,290,122448,2,0,L|320:52,1,202.500007724762,2|0,1:3|0:0,0:0:0:0:
500,117,122737,6,0,B|442:104|442:104|291:255|291:255|222:234,1,337.5,6|0,1:2|0:0,0:0:0:0:
194,161,123025,5,8,1:0:0:0:
151,163,123089,1,8,1:3:0:0:
161,129,123153,1,8,1:3:0:0:
130,131,123218,1,8,1:3:0:0:
132,107,123282,1,8,1:3:0:0:
113,106,123346,1,4,1:3:0:0:
110,89,123410,1,4,1:3:0:0:
99,83,123474,1,4,1:3:0:0:
95,74,123538,1,4,1:3:0:0:
88,71,123602,5,14,1:0:0:0:
163,19,123698,5,8,1:3:0:0:
176,12,123795,2,0,B|194:4|194:4|229:24,1,33.75,4|0,1:3|3:0,0:0:0:0:
241,0,123891,6,0,B|249:16|249:16|240:45,1,33.75,4|0,1:3|3:0,0:0:0:0:
277,63,123987,6,0,B|273:79|273:79|245:100,1,33.75,6|0,1:2|3:0,0:0:0:0:
303,153,124083,5,4,1:3:0:0:
279,172,124179,2,0,B|288:198|288:198|317:209,1,50.6250019311906,8|0,1:3|3:0,0:0:0:0:
351,275,124275,6,0,B|380:267|380:267|397:236,1,50.6250019311906,8|0,1:3|3:0,0:0:0:0:
454,196,124371,6,0,L|434:108,1,67.5,6|2,1:0|3:2,0:0:0:0:
483,40,124564,1,2,3:0:0:0:
366,88,124660,1,2,3:2:0:0:
512,268,124756,6,0,L|501:312,1,33.75,4|0,1:3|0:0,0:0:0:0:
495,305,124852,2,0,L|403:327,1,67.5,8|0,1:3|0:0,0:0:0:0:
130,140,125045,2,0,L|288:173,1,151.875005793572,8|0,1:0|0:0,0:0:0:0:
351,275,125237,5,2,1:3:0:0:
268,333,125333,1,8,1:0:0:0:
199,267,125429,1,2,3:3:0:0:
227,116,125525,5,8,1:3:0:0:
259,85,125589,1,8,1:3:0:0:
257,39,125653,1,8,1:3:0:0:
221,18,125718,1,4,1:3:0:0:
172,24,125782,1,4,1:3:0:0:
138,55,125846,1,4,1:3:0:0:
91,56,125910,6,0,B|64:35|64:35|63:-7,1,67.5,6|2,1:2|3:2,0:0:0:0:
231,121,126102,1,8,1:3:0:0:
216,213,126198,1,4,1:3:0:0:
200,304,126295,1,8,1:0:0:0:
78,199,126391,6,0,L|86:149,1,33.75,6|0,1:0|0:0,0:0:0:0:
77,167,126583,6,0,L|83:200,1,33.75,6|0,1:2|0:0,0:0:0:0:
78,199,126775,6,0,L|86:149,1,33.75,6|0,1:2|0:0,0:0:0:0:
0,178,126968,6,2,L|473:214,1,472.5,6|0,1:2|0:0,0:1:0:0:
512,137,127353,6,0,B|500:105|500:105|457:92,1,67.5,6|2,1:0|3:2,0:0:0:0:
361,167,127545,1,2,3:0:0:0:
468,95,127641,1,2,3:2:0:0:
325,11,127737,6,0,L|361:21,1,33.75,4|0,1:3|0:0,0:0:0:0:
370,24,127833,2,0,L|390:106,1,67.5,8|0,1:3|0:0,0:0:0:0:
450,367,128026,2,0,L|477:202,1,151.875005793572,8|0,1:0|0:0,0:0:0:0:
365,171,128218,5,2,1:3:0:0:
273,197,128314,1,8,1:0:0:0:
181,223,128410,1,2,3:2:0:0:
48,201,128506,5,8,1:3:0:0:
34,163,128570,1,8,1:3:0:0:
59,125,128635,1,8,1:3:0:0:
102,116,128699,1,4,1:3:0:0:
132,140,128763,1,4,1:3:0:0:
177,139,128827,1,4,1:3:0:0:
202,100,128891,6,0,B|192:65|192:65|162:53,1,67.5,6|2,1:2|3:2,0:0:0:0:
185,227,129083,1,2,1:3:0:0:
282,245,129179,1,8,1:3:0:0:
374,260,129276,1,4,1:3:0:0:
285,376,129372,6,0,L|228:386,1,50.6250019311906,14|0,1:0|0:0,0:0:0:0:
227,0,129564,6,0,L|284:10,1,50.6250019311906,6|0,1:2|0:0,0:0:0:0:
285,376,129757,6,0,L|228:386,1,50.6250019311906,6|0,1:2|0:0,0:0:0:0:
59,197,129949,6,2,L|286:179,1,202.5,6|0,1:2|0:0,0:1:0:0:
337,172,130141,2,0,L|379:167,2,33.7500012874604,0|8|4,1:3|1:3|1:3,0:0:0:0:
283,253,130334,6,0,B|316:262|316:262|330:293,1,67.5,6|2,1:0|3:2,0:0:0:0:
362,384,130526,1,2,3:0:0:0:
412,251,130622,1,2,3:2:0:0:
512,384,130719,6,0,L|496:326,1,33.75,4|0,1:3|0:0,0:0:0:0:
493,346,130815,2,0,L|408:324,1,67.5,8|0,1:3|0:0,0:0:0:0:
131,279,131008,2,0,L|300:245,1,151.875005793572,8|0,1:0|0:0,0:0:0:0:
366,166,131200,5,2,1:2:0:0:
417,91,131296,1,8,1:0:0:0:
346,29,131392,1,2,1:2:0:0:
267,109,131488,5,8,1:3:0:0:
224,124,131552,1,8,1:3:0:0:
189,100,131617,1,8,1:3:0:0:
182,54,131681,1,4,1:3:0:0:
147,28,131745,1,4,1:3:0:0:
103,38,131809,1,4,1:3:0:0:
90,88,131872,6,0,L|80:134,1,33.75,6|0,1:2|0:0,0:0:0:0:
120,160,131968,2,0,L|86:129,1,33.75,0|0,1:0|0:0,0:0:0:0:
43,150,132064,2,0,L|88:136,1,33.75,4|0,1:3|0:0,0:0:0:0:
127,74,132161,6,0,L|96:109,1,33.75,6|0,1:2|0:0,0:0:0:0:
120,199,132257,2,0,L|106:155,1,33.75,0|0,1:0|0:0,0:0:0:0:
22,125,132353,2,0,L|68:135,1,33.75,4|0,1:3|0:0,0:0:0:0:
177,68,132449,6,0,L|133:83,1,33.75,6|0,1:2|0:0,0:0:0:0:
97,239,132545,2,0,L|107:194,1,33.75,0|0,1:0|0:0,0:0:0:0:
0,78,132641,2,0,L|35:110,1,33.75,8|0,1:3|0:0,0:0:0:0:
218,102,132738,6,0,L|173:93,1,33.75,6|0,1:2|0:0,0:0:0:0:
52,261,132834,2,0,L|84:228,1,33.75,0|0,1:0|0:0,0:0:0:0:
6,29,132930,2,0,L|21:75,1,33.75,8|0,1:3|0:0,0:0:0:0:
99,135,133026,5,6,1:2:0:0:
99,135,133122,1,0,1:0:0:0:
99,135,133218,1,8,1:3:0:0:
271,384,133411,5,8,1:3:0:0:
271,384,133459,1,4,1:3:0:0:
271,384,133507,2,0,B|301:349|301:349|282:279,1,101.250003862381,6|0,1:0|0:0,0:0:0:0:
246,223,133699,5,4,1:3:0:0:
275,191,133763,1,4,1:3:0:0:
321,194,133827,1,4,1:3:0:0:
356,221,133891,1,8,1:3:0:0:
395,239,133956,1,8,1:3:0:0:
440,222,134020,1,8,1:3:0:0:
455,179,134084,6,0,B|445:151|445:151|319:114|319:114|305:57,1,202.500007724762,6|8,1:2|1:0,0:0:0:0:
378,0,134340,1,8,1:3:0:0:
395,20,134404,1,4,1:3:0:0:
411,17,134468,2,0,B|435:67|435:67|337:214|337:214|351:252,1,270,6|10,1:2|1:3,0:0:0:0:
411,320,134709,5,4,1:3:0:0:
411,320,134757,2,0,L|400:358,1,25.3125009655953,6|0,1:2|0:0,0:0:0:0:
33,37,135045,5,8,1:2:0:0:
80,100,135141,1,8,1:2:0:0:
137,156,135238,6,0,L|250:176,1,67.5000025749207,8|0,1:0|0:0,0:0:0:0:
347,252,135366,6,0,L|287:262,1,53.9999983520508,8|0,1:3|0:0,0:0:0:0:
174,331,135494,6,0,L|226:341,1,40.4999987640381,8|0,1:3|0:0,0:0:0:0:
337,384,135622,6,0,P|353:296|436:200,1,202.500007724762,6|0,1:2|0:0,0:0:0:0:
287,130,135879,6,0,L|277:204,1,49.5000015106202,4|0,1:3|0:0,0:0:0:0:
170,327,136007,6,0,P|153:239|70:143,1,202.500007724762,6|0,1:2|0:0,0:0:0:0:
271,79,136263,6,0,L|282:149,1,49.5000015106202,8|0,1:3|0:0,0:0:0:0:
351,256,136392,6,0,P|433:235|423:53,1,270,6|0,1:0|0:0,0:0:0:0:
142,37,136648,6,0,P|88:102|203:243,1,270,6|0,1:0|0:0,0:0:0:0:
483,194,136904,6,0,P|488:109|312:62,1,270,6|0,1:0|0:0,0:0:0:0:
79,167,137161,6,0,P|124:238|294:172,1,270,6|0,1:0|0:0,0:0:0:0:
171,241,137673,6,0,P|84:149|142:37,1,270,6|0,1:0|0:0,0:0:0:0:
447,73,137930,6,0,P|463:198|351:256,1,270,6|0,1:0|0:0,0:0:0:0:
279,384,138186,6,0,P|270:245|236:-5,1,346.500010574341,6|0,1:0|0:0,0:0:0:0:
251,36,138699,6,0,P|255:14|260:-2,6,24.7500007553101,6|2|2|2|2|2|2,3:2|3:2|3:2|3:2|3:2|3:2|3:2,0:0:0:0:
222,111,138956,6,0,P|234:136|239:160,1,36,8|0,1:3|0:0,0:0:0:0:
296,194,139020,6,0,P|287:215|284:242,1,36,4|0,1:3|0:0,0:0:0:0:
256,257,139084,6,2,P|261:278|263:299,1,40.4999987640381,6|0,1:2|0:0,0:0:0:0:
