osu file format v14

[General]
AudioFilename: audio.mp3
AudioLeadIn: 0
PreviewTime: 75387
Countdown: 0
SampleSet: Soft
StackLeniency: 0.7
Mode: 0
LetterboxInBreaks: 0
WidescreenStoryboard: 1

[Editor]
DistanceSpacing: 1
BeatDivisor: 4
GridSize: 8
TimelineZoom: 2

[Metadata]
Title:Mirage Garden
TitleUnicode:Mirage Garden
Artist:xi
ArtistUnicode:xi
Creator:DeviousPanda
Version:Easy
Source:THE BMS OF FIGHTERS 2009 - revolutionary battles -
Tags:bof2009 progressive fusion mpg mapper's guild Parousia instrumental jazz fa featured artist down luscent knightc0re knightcore paradogi seolv lukas [_l_u_k_a_s_]
BeatmapID:3396124
BeatmapSetID:1663184

[Difficulty]
HPDrainRate:2
CircleSize:2.6
OverallDifficulty:2
ApproachRate:4
SliderMultiplier:1.1
SliderTickRate:1

[Events]
//Background and Video events
0,0,"44413422_p0.jpg",0,0
//Break Periods
2,75629,80263
//Storyboard Layer 0 (Background)
//Storyboard Layer 1 (Fail)
//Storyboard Layer 2 (Pass)
//Storyboard Layer 3 (Foreground)
//Storyboard Layer 4 (Overlay)
//Storyboard Sound Samples

[TimingPoints]
1828,461.538461538462,4,2,1,40,1,0
1828,-133.333333333333,4,2,1,40,0,0
3520,461.538461538462,4,2,1,40,1,0
3520,-133.333333333333,4,2,1,40,0,0
5212,461.538461538462,4,2,1,40,1,0
5212,-133.333333333333,4,2,1,40,0,0
6904,461.538461538462,4,2,1,40,1,0
6904,-133.333333333333,4,2,1,40,0,0
8597,461.538461538462,4,2,1,40,1,0
8597,-133.333333333333,4,2,1,40,0,0
10289,461.538461538462,4,2,1,40,1,0
10289,-133.333333333333,4,2,1,40,0,0
11981,468.750000000001,4,2,1,40,1,0
12918,483.870967741937,4,2,1,40,1,0
13401,491.803278688524,4,2,1,40,1,0
13892,384.615384615385,4,2,1,40,1,0
16392,-117.647058823529,4,2,1,70,0,0
16968,384.615384615385,4,2,1,70,1,0
17352,-125,4,2,1,70,0,0
19949,384.615384615385,4,2,1,70,1,0
19949,-125,4,2,1,70,0,0
22930,384.615384615385,4,2,1,70,1,0
22930,-125,4,2,1,70,0,0
25911,384.615384615385,4,2,1,70,1,0
25917,-125,4,2,1,70,0,0
28988,384.615384615385,4,2,1,70,1,0
28988,-125,4,2,1,70,0,0
31968,384.615384615385,4,2,1,70,1,0
31968,-125,4,2,1,70,0,0
34949,384.615384615385,4,2,1,70,1,0
34949,-125,4,2,1,70,0,0
37930,384.615384615385,4,2,1,70,1,0
37936,-125,4,2,1,70,0,0
41007,384.615384615385,7,2,1,65,1,0
41007,-125,4,2,1,65,0,0
51968,384.615384615385,4,2,1,65,1,0
51968,-125,4,2,1,55,0,0
54661,384.615384615385,4,2,1,55,1,0
56199,-125,4,2,1,55,0,0
57738,384.615384615385,4,2,1,55,1,0
57738,-125,4,2,1,55,0,0
60430,384.615384615385,4,2,1,55,1,0
60430,-125,4,2,1,55,0,0
63507,384.615384615385,4,2,1,65,1,0
63507,-125,4,2,1,65,0,0
66199,384.615384615385,4,2,1,65,1,0
66199,-125,4,2,1,65,0,0
69276,384.615384615385,4,2,1,65,1,0
69468,-125,4,2,1,65,0,0
75429,-125,4,2,1,40,0,0
84660,-125,4,2,1,55,0,0
86199,-125,4,2,1,65,0,0
86973,-125,4,2,1,75,0,0
87737,-117.647058823529,4,2,1,90,0,1
100045,-117.647058823529,4,2,1,80,0,1
112352,-125,4,2,1,70,0,0
115334,384.615384615385,4,2,1,70,1,0
115334,-125,4,2,1,70,0,0
118315,384.615384615385,4,2,1,70,1,0
118315,-125,4,2,1,70,0,0
121295,384.615384615385,4,2,1,70,1,0
121299,-125,4,2,1,70,0,0
124372,384.615384615385,4,2,1,70,1,0
124372,-125,4,2,1,70,0,0
127353,384.615384615385,4,2,1,70,1,0
127353,-125,4,2,1,70,0,0
130334,384.615384615385,4,2,1,70,1,0
130334,-125,4,2,1,70,0,0
133315,384.615384615385,4,2,1,70,1,0
133316,-125,4,2,1,70,0,0
136392,384.615384615385,4,2,1,80,1,0
136392,-125,4,2,1,80,0,0

[Colours]
Combo1 : 17,254,176
Combo2 : 159,255,64

[HitObjects]
0,160,1828,6,0,P|34:150|117:91,1,137.500005245209,6|2,1:2|0:0,0:0:0:0:
264,17,3520,2,0,P|306:16|351:106,1,137.500005245209,6|2,1:2|0:0,0:0:0:0:
424,237,5212,2,0,P|482:222|504:149,1,137.500005245209,6|2,1:2|3:2,0:0:0:0:
355,88,6904,2,0,P|334:139|315:227,1,137.500005245209,6|2,1:2|3:2,0:0:0:0:
182,313,8597,6,0,B|131:299|118:260|125:249|126:238|100:188|36:187,1,192.500007343293,6|10,1:2|3:0,0:0:0:0:
13,83,10289,2,0,P|28:46|52:13,2,82.5000031471254,6|6|6,1:2|1:2|1:2,0:0:0:0:
129,157,11981,5,6,1:2:0:0:
280,122,12918,1,6,1:2:0:0:
445,81,13892,1,6,1:2:0:0:
248,381,16392,6,0,B|256:365|256:365|226:280|226:280|243:236,1,140.250002675057,2|6,3:2|1:0,0:0:0:0:
317,215,17352,2,0,B|339:157|339:157|277:99,1,132,4|8,3:0|1:0,0:0:0:0:
165,59,18506,1,6,1:2:0:0:
78,372,19949,6,0,L|234:332,1,154,6|8,1:0|1:0,0:0:0:0:
313,349,21006,2,0,B|344:308|344:308|321:254,1,110,2|6,3:2|1:2,0:0:0:0:
254,115,22160,1,6,1:0:0:0:
426,2,22930,6,0,L|454:157,1,154,6|8,1:0|1:0,0:0:0:0:
471,239,23987,1,2,3:2:0:0:
393,317,24468,2,0,B|342:310|342:310|272:137|272:137|200:124,1,308,6|0,1:2|1:0,0:0:0:0:
146,158,26103,1,6,1:0:0:0:
444,0,28988,6,0,L|468:171,1,154,6|8,1:0|1:0,0:0:0:0:
398,239,30141,2,0,L|300:215,1,88,8|6,1:3|1:2,0:0:0:0:
168,274,31199,1,14,1:0:0:0:
66,130,31968,6,0,B|89:55|89:55|170:28,1,154,6|8,1:0|1:0,0:0:0:0:
244,6,33025,2,0,L|363:52,1,110,4|6,3:0|1:2,0:0:0:0:
490,100,34179,1,6,1:0:0:0:
497,271,34949,6,0,B|465:279|465:279|410:348|410:348|372:359,1,154,6|8,1:0|1:0,0:0:0:0:
294,329,36006,1,2,3:2:0:0:
196,380,36487,2,0,B|157:339|157:339|257:172|257:172|212:117,1,308,6|8,1:2|1:3,0:0:0:0:
155,123,38122,1,6,1:0:0:0:
50,7,40237,5,6,1:2:0:0:
5,83,40622,1,8,1:0:0:0:
61,150,41007,2,0,L|244:98,1,176,6|8,1:0|1:3,0:0:0:0:
254,17,42160,1,8,1:0:0:0:
485,143,43314,5,8,1:3:0:0:
407,185,43699,2,0,B|379:233|379:233|414:353,1,176,6|8,1:0|1:3,0:0:0:0:
329,376,44853,2,0,L|226:355,1,88,10|8,1:2|1:3,0:0:0:0:
55,171,46391,6,0,B|68:133|68:133|156:105|156:105|175:56,1,176,6|8,1:0|1:3,0:0:0:0:
237,6,47545,1,4,1:3:0:0:
480,106,48699,5,8,1:2:0:0:
502,191,49083,2,0,B|460:217|460:217|331:181,1,176,6|8,1:0|1:3,0:0:0:0:
255,153,50237,1,8,1:0:0:0:
0,119,52160,6,0,L|17:256,1,132,6|6,1:2|1:2,0:0:0:0:
169,336,53506,2,0,B|210:323|210:323|244:234|244:234|281:222,1,176,4|8,1:3|1:0,0:0:0:0:
357,264,54661,1,6,1:2:0:0:
454,117,55430,1,8,1:0:0:0:
316,6,56199,2,0,L|136:39,1,176,6|6,1:2|1:2,0:0:0:0:
27,170,57738,6,0,B|68:203|68:203|38:331,1,176,6|2,1:2|1:2,0:0:0:0:
210,367,59276,2,0,L|395:319,1,176,6|8,1:2|1:2,0:0:0:0:
467,307,60430,1,6,1:0:0:0:
256,24,61968,5,6,1:2:0:0:
81,3,62737,1,6,1:2:0:0:
28,171,63507,2,0,B|54:214|54:214|17:356,1,176,6|6,1:0|1:2,0:0:0:0:
198,340,65045,2,0,B|238:314|238:314|377:342,1,176,6|6,1:2|1:2,0:0:0:0:
431,282,66199,2,0,L|396:104,1,176,6|6,1:2|1:2,0:0:0:0:
243,23,67737,1,6,1:0:0:0:
508,0,69468,6,0,L|477:217,1,220,6|10,1:0|1:2,0:0:0:0:
391,237,70814,2,0,B|347:249|347:249|306:324|306:324|250:344,1,176,6|6,1:2|1:2,0:0:0:0:
90,370,72352,1,6,1:2:0:0:
7,27,73891,1,6,1:0:0:0:
344,124,75429,1,6,1:0:0:0:
256,192,81583,12,6,86199,1:2:0:0:
112,254,87737,6,2,P|147:223|287:180,1,187.000003566742,6|6,1:0|1:2,0:1:0:0:
445,97,89276,2,0,P|462:56|459:-10,2,93.500001783371,6|8|6,1:2|1:0|1:2,0:0:0:0:
395,277,90814,2,2,P|311:299|242:387,2,187.000003566742,6|6|4,1:0|1:2|1:3,0:1:0:0:
446,198,92737,1,8,1:0:0:0:
315,64,93506,5,8,1:0:0:0:
240,121,93891,2,2,B|196:118|170:81|173:71|175:61|160:18|99:8,1,187.000003566742,6|6,1:0|1:2,0:1:0:0:
7,169,95429,2,2,P|27:238|43:355,1,187.000003566742,6|4,1:1|1:3,0:1:0:0:
132,379,96583,1,8,1:0:0:0:
198,312,96968,1,6,1:0:0:0:
376,0,98506,6,2,P|454:17|514:108,2,187.000003566742,6|14|6,1:0|1:0|1:0,0:1:0:0:
315,71,100429,1,8,1:0:0:0:
140,3,101199,1,10,1:2:0:0:
54,39,101583,2,0,P|15:92|21:213,1,187.000003566742,6|6,1:2|1:3,0:0:0:0:
110,229,102737,1,8,1:0:0:0:
195,191,103122,1,6,1:3:0:0:
436,206,104660,6,2,P|466:260|500:395,2,187.000003566742,6|8|6,1:0|1:0|1:0,0:1:0:0:
359,151,106583,1,8,1:0:0:0:
129,312,107737,2,0,B|84:301|63:260|71:245|66:201|2:171,1,187.000003566742,6|6,1:2|1:0,0:0:0:0:
4,82,108891,1,8,1:0:0:0:
83,32,109275,5,6,1:0:0:0:
256,101,110045,1,8,1:3:0:0:
429,170,110814,1,6,1:0:0:0:
124,346,112352,6,0,B|98:313|98:313|137:189,1,154,6|8,1:0|1:0,0:0:0:0:
195,145,113410,1,2,1:3:0:0:
148,47,113891,1,6,1:2:0:0:
476,17,115334,6,0,L|450:174,1,154,6|8,1:0|1:0,0:0:0:0:
377,217,116391,2,0,B|350:223|350:223|319:267|319:267|288:276,1,110,2|6,3:0|1:2,0:0:0:0:
162,190,117545,1,6,1:0:0:0:
71,38,118315,6,0,B|34:76|34:76|70:172,1,154,6|8,1:0|1:0,0:0:0:0:
35,251,119372,1,2,1:3:0:0:
118,322,119853,2,0,B|183:304|183:304|240:137|240:137|307:116,1,308,6|0,1:2|1:0,0:0:0:0:
348,163,121487,1,6,1:0:0:0:
493,346,124372,6,0,L|336:373,1,154,6|8,1:0|1:0,0:0:0:0:
284,304,125429,1,2,3:3:0:0:
188,358,125910,2,0,B|146:330|146:330|200:224,1,154,6|6,1:2|1:0,0:0:0:0:
320,116,127353,6,0,L|166:82,1,154,6|8,1:0|1:0,0:0:0:0:
86,112,128410,2,0,B|47:146|47:146|71:212,1,110,2|6,3:2|1:2,0:0:0:0:
185,299,129564,1,6,1:0:0:0:
348,365,130334,6,0,L|383:197,1,154,6|8,1:0|1:0,0:0:0:0:
441,152,131391,1,2,1:2:0:0:
378,61,131872,2,0,B|315:73|315:73|249:232|249:232|177:249,1,308,6|8,1:2|1:3,0:0:0:0:
122,214,133507,1,6,1:0:0:0:
7,145,135622,6,0,P|14:112|64:68,1,88,6|6,1:2|1:2,0:0:0:0:
117,16,136392,2,0,P|168:63|284:73,1,176,6|6,1:0|1:0,0:0:0:0:
375,130,137674,2,0,P|404:103|497:74,2,117.333333333333,6|6|6,1:0|1:0|1:2,0:0:0:0:
346,213,139085,5,6,1:2:0:0:
