osu file format v14

[General]
AudioFilename: audio.mp3
AudioLeadIn: 0
PreviewTime: 75387
Countdown: 0
SampleSet: Soft
StackLeniency: 0.7
Mode: 0
LetterboxInBreaks: 0
WidescreenStoryboard: 1

[Editor]
DistanceSpacing: 1.2
BeatDivisor: 8
GridSize: 8
TimelineZoom: 1.4

[Metadata]
Title:Mirage Garden
TitleUnicode:Mirage Garden
Artist:xi
ArtistUnicode:xi
Creator:DeviousPanda
Version:Advanced
Source:THE BMS OF FIGHTERS 2009 - revolutionary battles -
Tags:bof2009 progressive fusion mpg mapper's guild Parousia instrumental jazz fa featured artist down luscent knightc0re knightcore paradogi seolv lukas [_l_u_k_a_s_]
BeatmapID:3398294
BeatmapSetID:1663184

[Difficulty]
HPDrainRate:3.7
CircleSize:3.2
OverallDifficulty:6
ApproachRate:7
SliderMultiplier:1.4
SliderTickRate:1

[Events]
//Background and Video events
0,0,"44413422_p0.jpg",0,0
//Break Periods
2,75629,80683
//Storyboard Layer 0 (Background)
//Storyboard Layer 1 (Fail)
//Storyboard Layer 2 (Pass)
//Storyboard Layer 3 (Foreground)
//Storyboard Layer 4 (Overlay)
//Storyboard Sound Samples

[TimingPoints]
1828,461.538461538462,4,2,1,40,1,0
1828,-133.333333333333,4,2,1,40,0,0
3520,461.538461538462,4,2,1,40,1,0
3520,-133.333333333333,4,2,1,40,0,0
5212,461.538461538462,4,2,1,40,1,0
5212,-133.333333333333,4,2,1,40,0,0
6904,461.538461538462,4,2,1,40,1,0
6904,-133.333333333333,4,2,1,40,0,0
8597,461.538461538462,4,2,1,40,1,0
8597,-133.333333333333,4,2,1,40,0,0
10289,461.538461538462,4,2,1,40,1,0
10289,-133.333333333333,4,2,1,40,0,0
11981,468.750000000001,4,2,1,40,1,0
11981,-133.333333333333,4,2,1,40,0,0
12918,483.870967741937,4,2,1,40,1,0
12918,-133.333333333333,4,2,1,40,0,0
13401,491.803278688524,4,2,1,40,1,0
13892,384.615384615385,4,2,1,40,1,0
13892,-117.647058823529,4,2,1,40,0,0
16392,-105.263157894737,4,2,1,70,0,0
16968,384.615384615385,4,2,1,70,1,0
16968,-105.263157894737,4,2,1,70,0,0
19949,384.615384615385,4,2,1,70,1,0
19949,-105.263157894737,4,2,1,70,0,0
22930,384.615384615385,4,2,1,70,1,0
22930,-105.263157894737,4,2,1,70,0,0
25911,384.615384615385,4,2,1,70,1,0
25911,-105.263157894737,4,2,1,70,0,0
28988,384.615384615385,4,2,1,70,1,0
28988,-105.263157894737,4,2,1,70,0,0
31968,384.615384615385,4,2,1,70,1,0
31968,-105.263157894737,4,2,1,70,0,0
34949,384.615384615385,4,2,1,70,1,0
34949,-105.263157894737,4,2,1,70,0,0
37930,384.615384615385,4,2,1,70,1,0
37930,-105.263157894737,4,2,1,70,0,0
41007,384.615384615385,7,2,1,65,1,0
41007,-105.263157894737,4,2,1,65,0,0
43699,-105.263157894737,4,2,1,65,0,0
46392,-105.263157894737,4,2,1,65,0,0
49084,-105.263157894737,4,2,1,65,0,0
51968,384.615384615385,4,2,1,65,1,0
51968,-105.263157894737,4,2,1,65,0,0
52160,-105.263157894737,4,2,1,55,0,0
54661,384.615384615385,4,2,1,55,1,0
54661,-105.263157894737,4,2,1,55,0,0
57738,384.615384615385,4,2,1,55,1,0
57738,-105.263157894737,4,2,1,55,0,0
60430,384.615384615385,4,2,1,55,1,0
60430,-105.263157894737,4,2,1,55,0,0
63507,384.615384615385,4,2,1,65,1,0
63699,-105.263157894737,4,2,1,65,0,0
66199,384.615384615385,4,2,1,65,1,0
66199,-105.263157894737,4,2,1,65,0,0
69276,384.615384615385,4,2,1,65,1,0
69276,-105.263157894737,4,2,1,65,0,0
75045,-105.263157894737,4,2,1,55,0,0
75429,-105.263157894737,4,2,1,40,0,0
84660,-105.263157894737,4,2,1,55,0,0
86198,-105.263157894737,4,2,1,65,0,0
86967,-105.263157894737,4,2,1,75,0,0
87737,-95.2380952380952,4,2,1,90,0,1
100045,-95.2380952380952,4,2,1,80,0,1
112352,-105.263157894737,4,2,1,70,0,0
115334,384.615384615385,4,2,1,70,1,0
115334,-105.263157894737,4,2,1,70,0,0
118315,384.615384615385,4,2,1,70,1,0
118315,-105.263157894737,4,2,1,70,0,0
121295,384.615384615385,4,2,1,70,1,0
121295,-105.263157894737,4,2,1,70,0,0
124372,384.615384615385,4,2,1,70,1,0
124372,-105.263157894737,4,2,1,70,0,0
127353,384.615384615385,4,2,1,70,1,0
127353,-105.263157894737,4,2,1,70,0,0
130334,384.615384615385,4,2,1,70,1,0
130334,-105.263157894737,4,2,1,70,0,0
133315,384.615384615385,4,2,1,70,1,0
133315,-105.263157894737,4,2,1,70,0,0
136392,384.615384615385,4,2,1,80,1,0
136392,-105.263157894737,4,2,1,80,0,0

[Colours]
Combo1 : 17,254,176
Combo2 : 159,255,64

[HitObjects]
0,190,1828,6,0,P|23:148|54:136,1,70,6|2,1:2|0:0,0:0:0:0:
55,99,2289,2,0,P|98:100|124:129,1,70,2|2,3:0|0:0,0:0:0:0:
159,189,2904,1,2,0:0:0:0:
193,213,3058,2,0,P|230:191|305:174,1,105,2|6,0:0|1:2,0:0:0:0:
387,96,3981,1,2,3:0:0:0:
444,156,4289,2,0,P|432:211|434:250,1,70,2|2,0:0|3:2,0:0:0:0:
400,251,4750,1,2,3:0:0:0:
400,251,4904,1,4,1:3:0:0:
347,316,5212,6,0,B|320:308|304:288|310:281|291:260|257:255,1,105,6|2,1:2|3:0,0:0:0:0:
200,200,5981,2,0,P|161:225|151:261,1,70,2|8,3:2|3:0,0:0:0:0:
114,264,6442,2,0,P|133:315|135:382,1,105,2|6,3:2|1:2,0:0:0:0:
262,375,7365,1,2,3:0:0:0:
321,326,7673,2,0,P|330:288|352:246,1,70,2|6,3:2|1:2,0:0:0:0:
379,239,8134,1,2,3:0:0:0:
379,239,8288,1,8,1:3:0:0:
328,172,8597,6,0,P|319:125|302:89,1,70,6|2,1:2|0:2,0:0:0:0:
320,63,9058,2,0,P|290:38|254:27,1,70,2|2,3:0|0:0,0:0:0:0:
226,52,9520,1,2,0:0:0:0:
226,52,9673,1,10,3:0:0:0:
62,15,10289,6,0,P|31:40|39:96,1,70,6|0,1:2|0:0,0:0:0:0:
3,103,10750,2,0,P|16:151|49:165,1,70,6|0,1:2|0:0,0:0:0:0:
68,142,11212,1,6,1:2:0:0:
142,180,11519,1,2,3:2:0:0:
106,258,11827,1,8,3:0:0:0:
106,258,11981,2,0,B|131:260|148:281|143:293|157:312|193:316,1,105,6|2,1:2|3:0,0:0:0:0:
284,240,12918,2,0,P|292:198|307:159,2,70,6|8|4,1:2|3:0|3:0,0:0:0:0:
346,350,13892,1,6,1:2:0:0:
256,192,13988,12,8,15622,1:0:0:0:
5,307,16968,6,0,B|22:287|22:287|142:256,1,132.999996448517,6|4,1:0|3:0,0:0:0:0:
159,281,17448,1,8,1:3:0:0:
220,229,17641,2,0,L|242:121,1,99.7499973363877,8|8,1:0|1:0,0:0:0:0:
213,56,18121,1,8,1:3:0:0:
276,7,18314,1,4,1:1:0:0:
350,48,18506,6,0,L|463:11,1,99.7499973363877,6|4,1:2|3:0,0:0:0:0:
479,37,18891,1,8,1:0:0:0:
404,130,19179,2,0,B|395:160|395:160|425:208,1,66.4999982242585,6|6,1:2|1:2,0:0:0:0:
492,174,19564,1,6,1:2:0:0:
461,330,19949,6,0,L|311:300,1,132.999996448517,6|4,1:0|3:0,0:0:0:0:
300,329,20428,1,8,1:3:0:0:
225,300,20621,2,0,B|213:273|213:273|246:233,1,66.4999982242585,8|2,1:0|3:2,0:0:0:0:
205,171,21005,2,0,L|80:195,1,99.7499973363877,2|4,3:2|1:3,0:0:0:0:
70,118,21486,6,0,B|90:54|90:54|159:20,1,132.999996448517,6|2,1:2|1:2,0:0:0:0:
181,48,21967,1,14,1:0:0:0:
258,30,22159,1,6,1:2:0:0:
335,10,22352,2,0,L|402:29,1,66.4999982242585,6|6,1:2|1:2,0:0:0:0:
322,168,22930,6,0,L|181:205,1,132.999996448517,6|4,1:0|1:3,0:0:0:0:
169,233,23410,1,8,1:3:0:0:
214,298,23603,2,0,L|351:318,1,132.999996448517,8|2,1:0|3:2,0:0:0:0:
371,347,24083,1,8,1:3:0:0:
441,308,24276,1,4,1:3:0:0:
403,237,24468,6,0,B|388:191|388:191|439:134,3,99.7499973363877,6|6|6|6,1:2|1:2|1:2|1:2,0:0:0:0:
354,53,25622,2,0,L|283:39,1,66.4999982242585,6|0,1:2|1:0,0:0:0:0:
172,12,26103,6,0,L|205:195,1,166.249995560646,6|0,1:0|0:0,0:0:0:0:
235,197,26680,1,6,1:2:0:0:
108,293,27064,1,6,1:3:0:0:
198,371,27353,1,6,1:2:0:0:
262,17,28218,6,0,L|277:107,1,66.4999982242585,2|4,3:2|1:3,0:0:0:0:
351,98,28603,2,0,L|439:117,1,66.4999982242585,14|8,1:2|1:3,0:0:0:0:
444,186,28988,6,0,B|418:192|418:192|386:257|386:257|340:271,1,132.999996448517,6|4,1:0|3:3,0:0:0:0:
319,244,29468,1,8,1:3:0:0:
239,237,29661,2,0,B|220:352,1,99.7499973363877,8|8,1:0|1:0,0:0:0:0:
290,384,30141,1,2,3:2:0:0:
361,345,30334,1,0,0:0:0:0:
435,378,30526,6,0,L|476:227,1,132.999996448517,6|8,1:2|1:0,0:0:0:0:
499,222,31007,1,6,1:0:0:0:
434,175,31199,1,6,1:2:0:0:
365,135,31391,2,0,L|274:151,1,66.4999982242585,6|6,1:2|1:2,0:0:0:0:
181,39,31968,6,0,B|114:22|114:22|67:89,1,132.999996448517,6|4,1:0|3:0,0:0:0:0:
86,113,32448,1,8,3:0:0:0:
30,171,32641,2,0,L|54:298,1,99.7499973363877,8|8,1:0|1:0,0:0:0:0:
127,282,33121,1,8,1:3:0:0:
151,358,33314,1,4,1:3:0:0:
229,373,33506,6,0,B|281:329|281:329|359:348,1,132.999996448517,6|8,1:2|3:0,0:0:0:0:
383,335,33987,1,14,1:0:0:0:
368,257,34179,1,6,1:2:0:0:
438,218,34372,2,0,L|457:135,1,66.4999982242585,6|6,1:2|1:2,0:0:0:0:
346,33,34949,6,0,B|313:26|313:26|257:60|257:60|208:50,1,132.999996448517,6|4,1:0|3:0,0:0:0:0:
201,20,35429,1,8,1:3:0:0:
139,71,35622,1,8,1:0:0:0:
183,136,35814,2,0,L|202:272,1,132.999996448517,2|0,3:2|0:0,0:0:0:0:
178,299,36294,1,4,1:3:0:0:
97,295,36487,6,0,B|54:272|54:272|45:210,3,99.7499973363877,6|6|6|6,1:2|1:2|1:2|1:2,0:0:0:0:
63,102,37641,2,0,L|140:81,1,66.4999982242585,6|8,1:2|1:3,0:0:0:0:
222,11,38122,6,0,B|263:23|263:23|290:100|290:100|344:119,1,166.249995560646,6|0,1:0|0:0,0:0:0:0:
354,145,38699,1,6,1:2:0:0:
432,6,39083,1,6,1:3:0:0:
503,102,39372,1,6,1:2:0:0:
266,371,40237,6,0,L|192:352,1,66.4999982242585,6|4,1:2|1:3,0:0:0:0:
168,281,40622,2,0,L|92:293,1,66.4999982242585,8|4,1:0|1:3,0:0:0:0:
46,234,41007,6,0,B|32:205|32:205|68:157,1,66.4999982242585,6|4,1:0|1:3,0:0:0:0:
90,165,41295,1,6,1:2:0:0:
162,69,41583,2,0,L|232:86,1,66.4999982242585,2|8,3:2|1:3,0:0:0:0:
289,35,41968,1,4,1:3:0:0:
354,81,42160,2,0,B|388:121|388:121|361:178,1,99.7499973363877,8|4,1:0|1:3,0:0:0:0:
329,174,42545,1,8,1:3:0:0:
360,247,42737,2,0,L|472:277,1,99.7499973363877,8|4,1:3|1:3,0:0:0:0:
384,368,43314,2,0,L|305:382,1,66.4999982242585,8|4,1:3|0:3,0:0:0:0:
245,347,43699,6,0,B|223:321|223:321|236:279,1,66.4999982242585,6|4,1:0|1:3,0:0:0:0:
218,252,43987,2,0,L|97:282,1,99.7499973363877,6|2,1:2|3:2,0:0:0:0:
49,240,44468,2,0,B|29:211|29:211|50:171,1,66.4999982242585,8|4,1:3|1:3,0:0:0:0:
108,136,44853,2,0,B|130:104|130:104|109:42,1,99.7499973363877,10|4,1:2|1:3,0:0:0:0:
138,18,45237,1,8,1:3:0:0:
207,58,45430,2,0,L|355:88,1,132.999996448517,8|2,1:3|3:2,0:0:0:0:
398,32,46007,1,8,1:0:0:0:
500,154,46392,6,0,B|483:222,1,66.4999982242585,6|0,1:0|1:0,0:0:0:0:
493,257,46680,2,0,B|462:279|462:279|392:253,1,99.7499973363877,6|8,1:2|1:3,0:0:0:0:
365,187,47161,1,8,1:3:0:0:
299,232,47353,1,4,1:3:0:0:
247,171,47545,6,0,L|136:199,1,99.7499973363877,4|4,1:3|1:3,0:0:0:0:
114,176,47930,1,4,1:3:0:0:
43,213,48122,2,0,B|21:238|21:238|39:284,1,66.4999982242585,4|8,1:3|1:3,0:0:0:0:
112,281,48507,1,4,1:3:0:0:
156,347,48699,2,0,L|237:368,1,66.4999982242585,8|12,1:2|1:3,0:0:0:0:
284,315,49084,6,0,B|291:301|291:301|325:288|325:288|342:258,1,66.4999982242585,6|0,1:0|1:0,0:0:0:0:
364,252,49372,2,0,L|345:137,1,99.7499973363877,6|8,1:2|1:3,0:0:0:0:
412,106,49853,2,0,L|423:35,1,66.4999982242585,8|4,1:3|1:3,0:0:0:0:
352,1,50237,6,0,B|303:-5|303:-5|249:48,1,99.7499973363877,8|4,1:0|1:3,0:0:0:0:
227,25,50622,2,0,L|242:92,1,66.4999982242585,8|8,1:3|1:3,0:0:0:0:
197,156,51007,1,4,1:3:0:0:
0,316,51968,5,6,1:0:0:0:
72,284,52160,2,0,B|100:292|100:292|132:351|132:351|171:362,1,132.999996448517,6|2,1:2|3:2,0:0:0:0:
246,375,52737,2,0,L|320:349,1,66.4999982242585,6|0,1:2|0:0,0:0:0:0:
347,363,53025,1,2,3:2:0:0:
438,285,53314,1,2,3:2:0:0:
383,226,53506,1,4,1:3:0:0:
445,175,53699,2,0,B|470:134|470:134|442:71,2,99.7499973363877,6|6|8,1:2|1:2|1:0,0:0:0:0:
308,258,54661,6,0,L|228:239,1,66.4999982242585,6|8,1:2|1:0,0:0:0:0:
207,259,54949,2,0,B|172:233|172:233|195:154,1,99.7499973363877,6|2,1:2|3:2,0:0:0:0:
247,126,55430,1,8,1:0:0:0:
216,52,55622,1,8,3:0:0:0:
137,65,55814,2,0,L|54:45,1,66.4999982242585,8|8,1:2|1:3,0:0:0:0:
21,111,56199,6,0,L|46:212,1,99.7499973363877,6|0,1:2|0:0,0:0:0:0:
79,228,56584,2,0,L|60:306,1,66.4999982242585,6|8,1:2|1:3,0:0:0:0:
120,348,56968,1,6,1:2:0:0:
254,261,57353,5,6,1:2:0:0:
311,316,57545,1,8,1:3:0:0:
362,255,57738,2,0,B|369:219|369:219|412:193,1,66.4999982242585,6|8,1:2|1:0,0:0:0:0:
431,219,58026,2,0,L|451:338,1,99.7499973363877,6|2,1:2|3:2,0:0:0:0:
382,364,58507,6,0,L|276:336,1,99.7499973363877,2|2,1:2|3:2,0:0:0:0:
259,308,58891,2,0,L|193:325,1,66.4999982242585,8|4,3:0|3:0,0:0:0:0:
117,302,59276,2,0,B|82:267|82:267|105:209,1,99.7499973363877,6|6,1:2|3:2,0:0:0:0:
53,110,59853,1,2,3:2:0:0:
113,57,60045,2,0,L|186:79,1,66.4999982242585,8|4,1:2|1:3,0:0:0:0:
231,134,60430,6,0,B|269:126|269:126|362:11|362:11|411:0,1,232.749993784905,6|4,1:0|3:0,0:0:0:0:
439,23,61199,1,6,1:0:0:0:
481,134,61487,2,0,B|443:167|443:167|462:238,1,99.7499973363877,2|8,3:2|1:3,0:0:0:0:
424,288,61968,2,0,L|288:262,1,132.999996448517,6|8,1:2|3:0,0:0:0:0:
220,296,62545,1,2,3:2:0:0:
173,231,62737,5,6,1:2:0:0:
240,131,63026,1,4,3:0:0:0:
175,30,63314,2,0,B|141:27|141:27|108:58,1,66.4999982242585,4|6,3:0|1:0,0:0:0:0:
77,118,63699,6,0,B|91:150|91:150|60:260,1,132.999996448517,6|2,1:2|3:2,0:0:0:0:
0,293,64276,1,6,3:2:0:0:
144,359,64660,1,6,1:2:0:0:
214,320,64853,1,6,1:2:0:0:
293,328,65045,6,0,B|308:296|308:296|409:273,1,132.999996448517,6|4,1:2|1:3,0:0:0:0:
481,289,65622,1,8,1:3:0:0:
501,212,65814,5,6,1:2:0:0:
473,137,66006,1,8,1:3:0:0:
436,65,66199,2,0,B|410:52|410:52|342:70|342:70|304:42,1,132.999996448517,6|6,1:2|1:2,0:0:0:0:
250,3,66775,1,8,1:3:0:0:
205,69,66968,2,0,L|221:139,1,66.4999982242585,6|4,1:2|1:3,0:0:0:0:
163,190,67352,2,0,L|90:167,1,66.4999982242585,8|8,1:3|1:3,0:0:0:0:
26,203,67737,6,0,B|5:258|5:258|39:308,1,110.833330373764,6|4,1:0|1:3,0:0:0:0:
136,272,68314,1,8,3:0:0:0:
196,323,68506,2,0,L|312:290,1,110.833330373764,4|4,1:3|1:3,0:0:0:0:
407,314,69083,1,8,1:3:0:0:
476,275,69276,2,0,B|495:249|495:249|488:200,1,66.4999982242585,4|14,1:3|1:0,0:0:0:0:
459,188,69564,2,2,L|440:74,1,99.7499973363877,6|0,1:2|0:0,0:1:0:0:
378,41,70045,1,10,3:2:0:0:
236,113,70429,6,0,L|156:93,1,66.4999982242585,10|0,1:2|0:0,0:0:0:0:
92,106,70814,2,0,B|69:126|69:126|82:170,1,66.4999982242585,6|8,1:2|1:0,0:0:0:0:
111,183,71102,2,0,L|93:269,1,66.4999982242585,2|2,1:2|3:2,0:0:0:0:
66,274,71391,1,2,1:2:0:0:
112,338,71583,6,0,B|144:324|144:324|189:336,1,66.4999982242585,6|2,1:2|3:0,0:0:0:0:
240,377,71968,1,0,1:3:0:0:
306,333,72160,1,8,1:0:0:0:
377,367,72352,1,6,1:2:0:0:
431,308,72545,6,0,L|444:239,1,66.4999982242585,6|10,1:2|3:2,0:0:0:0:
476,220,72833,2,0,L|465:147,1,66.4999982242585,6|8,1:2|3:0,0:0:0:0:
479,116,73122,1,8,1:3:0:0:
381,47,73410,1,4,1:3:0:0:
285,119,73699,1,8,1:3:0:0:
236,55,73891,2,0,B|183:20|183:20|105:43,1,132.999996448517,6|8,1:0|1:0,0:0:0:0:
103,77,74372,1,0,1:0:0:0:
10,152,74660,6,0,B|49:166|49:166|95:295|95:295|146:314,1,221.666660747528,8|4,1:0|3:0,0:0:0:0:
181,282,75429,1,6,1:0:0:0:
256,192,81583,12,14,86968,1:2:0:0:
52,226,87737,6,2,P|68:183|125:153,1,110.249996635437,6|2,1:0|1:2,0:1:0:0:
156,124,88122,2,0,P|195:146|248:153,1,73.4999977569581,8|2,1:0|3:2,0:0:0:0:
280,218,88506,1,6,1:2:0:0:
355,172,88699,1,2,1:2:0:0:
409,241,88891,2,0,P|389:279|380:312,1,73.4999977569581,8|8,1:0|1:3,0:0:0:0:
308,358,89275,6,0,B|274:352|259:328|264:325|255:304|218:293,1,110.249996635437,6|8,1:2|1:3,0:0:0:0:
187,266,89660,2,0,P|144:282|131:309,1,73.4999977569581,8|2,1:0|1:2,0:0:0:0:
54,346,90045,2,0,P|49:300|29:240,1,110.249996635437,6|4,1:2|1:3,0:0:0:0:
41,197,90429,2,0,P|51:149|62:125,1,73.4999977569581,8|0,1:0|1:0,0:0:0:0:
20,48,90814,6,2,P|62:41|127:-4,1,110.249996635437,6|4,1:0|1:3,0:1:0:0:
162,11,91199,2,0,P|203:37|214:75,1,73.4999977569581,8|2,1:0|3:2,0:0:0:0:
295,88,91583,6,0,P|349:76|399:32,2,110.249996635437,6|8|6,1:2|1:3|1:2,0:0:0:0:
198,179,92449,2,0,P|161:241|155:289,2,110.249996635437,6|8|6,1:2|1:0|1:2,0:0:0:0:
330,171,93314,5,2,1:2:0:0:
413,197,93506,2,0,P|440:226|442:268,1,73.4999977569581,8|12,1:0|1:3,0:0:0:0:
391,329,93891,2,2,P|317:338|265:368,1,110.249996635437,6|8,1:0|1:3,0:1:0:0:
245,333,94275,1,2,1:2:0:0:
164,370,94468,1,8,1:3:0:0:
101,308,94660,2,0,P|97:257|69:191,1,110.249996635437,6|4,1:2|1:3,0:0:0:0:
92,160,95045,1,8,1:0:0:0:
52,81,95237,1,8,1:3:0:0:
121,27,95429,6,2,B|151:29|165:56|161:61|184:83|209:90,1,110.249996635437,6|8,1:1|1:3,0:1:0:0:
240,120,95814,2,0,P|272:100|321:92,1,73.4999977569581,8|2,1:0|3:0,0:0:0:0:
370,31,96199,2,0,P|403:64|466:74,1,110.249996635437,4|4,1:3|1:3,0:0:0:0:
487,111,96583,2,0,P|458:156|448:195,1,73.4999977569581,8|8,1:0|1:3,0:0:0:0:
413,196,96872,1,4,1:3:0:0:
413,196,96968,1,6,1:0:0:0:
454,273,97160,1,2,1:3:0:0:
376,314,97352,6,0,P|323:321|275:351,1,110.249996635437,8|8,1:0|1:3,0:0:0:0:
234,332,97737,1,4,1:3:0:0:
149,358,97929,1,2,1:3:0:0:
86,294,98122,2,0,P|77:254|92:218,1,73.4999977569581,14|8,1:2|1:3,0:0:0:0:
165,183,98506,2,2,P|217:169|297:102,2,146.999995513916,6|14|14,1:0|1:0|1:0,0:1:0:0:
89,136,99468,1,8,1:3:0:0:
89,47,99660,2,0,P|121:18|165:7,1,73.4999977569581,4|4,1:3|1:3,0:0:0:0:
237,0,100045,6,2,B|269:7|269:7|299:86|299:86|344:109,1,146.999995513916,6|8,1:0|1:0,0:1:0:0:
413,87,100622,1,2,1:3:0:0:
453,165,100814,2,0,L|429:248,1,73.4999977569581,4|2,1:3|3:0,0:0:0:0:
358,284,101199,2,0,B|305:266|305:266|246:315,1,110.249996635437,10|8,1:2|1:3,0:0:0:0:
252,343,101583,1,6,1:2:0:0:
165,359,101775,1,2,1:3:0:0:
116,284,101968,2,2,L|136:175,1,110.249996635437,14|4,1:0|1:3,0:1:0:0:
170,148,102352,1,6,1:3:0:0:
138,19,102641,1,8,1:3:0:0:
9,49,102929,1,2,1:3:0:0:
50,127,103122,6,2,L|425:221,1,367.49998878479,6|0,1:0|0:0,0:1:0:0:
479,166,104275,2,0,B|496:128|496:128|457:66,1,110.249996635437,8|4,1:0|1:3,0:0:0:0:
447,26,104660,2,2,L|369:47,1,73.4999977569581,6|0,1:0|0:0,0:1:0:0:
306,99,105045,2,2,L|189:64,1,110.249996635437,10|0,1:0|0:0,0:1:0:0:
165,94,105429,1,8,1:0:0:0:
242,201,105718,1,8,1:3:0:0:
140,286,106006,1,2,1:3:0:0:
208,341,106199,6,2,L|327:302,1,110.249996635437,6|8,1:0|1:3,0:1:0:0:
350,329,106583,1,8,1:0:0:0:
426,371,106775,2,0,B|452:338|452:338|424:208,1,146.999995513916,2|2,1:3|1:3,0:0:0:0:
365,174,107352,1,8,1:0:0:0:
413,99,107545,1,8,1:3:0:0:
345,42,107737,2,0,L|184:19,1,146.999995513916,6|8,1:2|1:0,0:0:0:0:
138,85,108314,1,8,1:3:0:0:
65,35,108506,1,6,1:0:0:0:
11,203,108891,1,8,1:0:0:0:
115,344,109275,6,2,B|150:335|150:335|173:296|173:296|221:280,1,110.249996635437,6|0,1:0|0:0,0:1:0:0:
230,254,109660,1,8,1:0:0:0:
295,313,109852,1,2,1:3:0:0:
362,255,110045,2,0,L|376:165,1,73.4999977569581,8|4,1:3|1:3,0:0:0:0:
441,126,110429,6,0,L|429:61,2,48.9999985046387,8|8|4,1:0|1:3|1:3,0:0:0:0:
490,158,110814,1,6,1:0:0:0:
421,320,111199,5,14,1:1:0:0:
299,370,111487,1,2,1:0:0:0:
198,284,111775,1,2,1:2:0:0:
160,47,112352,6,0,B|216:8|216:8|301:28,1,132.999996448517,6|4,1:0|1:3,0:0:0:0:
300,56,112833,1,4,1:3:0:0:
371,20,113025,1,8,1:0:0:0:
411,88,113218,2,0,L|383:193,1,99.7499973363877,2|8,1:3|1:3,0:0:0:0:
400,221,113602,1,4,3:0:0:0:
298,284,113891,6,0,L|169:317,1,132.999996448517,6|8,1:2|1:0,0:0:0:0:
142,286,114372,1,6,1:0:0:0:
175,213,114564,1,6,1:2:0:0:
124,151,114756,2,0,B|112:123|112:123|144:76,1,66.4999982242585,6|6,1:2|1:2,0:0:0:0:
275,21,115335,6,0,L|414:41,1,132.999996448517,6|4,1:0|1:3,0:0:0:0:
432,70,115814,1,8,1:3:0:0:
386,135,116007,2,0,L|275:159,1,99.7499973363877,8|8,1:0|1:0,0:0:0:0:
257,130,116391,1,2,3:0:0:0:
193,178,116584,2,0,B|160:170|160:170|140:122,1,66.4999982242585,4|4,1:3|3:0,0:0:0:0:
162,102,116872,2,0,B|181:77|181:77|176:28,1,66.4999982242585,6|2,1:2|1:3,0:0:0:0:
63,3,117353,5,14,1:0:0:0:
17,68,117545,1,6,1:2:0:0:
54,138,117737,1,6,1:2:0:0:
9,204,117930,1,6,1:2:0:0:
103,332,118315,6,0,B|150:306|150:306|234:337,1,132.999996448517,6|4,1:0|1:3,0:0:0:0:
256,309,118795,1,8,1:3:0:0:
318,358,118988,1,8,1:0:0:0:
379,307,119180,2,0,L|395:214,1,66.4999982242585,2|2,3:2|1:3,0:0:0:0:
365,210,119468,1,8,1:3:0:0:
467,87,119853,6,0,L|482:-2,1,66.4999982242585,6|4,1:2|1:3,0:0:0:0:
443,1,120141,2,0,L|373:19,1,66.4999982242585,6|4,1:2|1:3,0:0:0:0:
356,51,120430,1,6,1:2:0:0:
242,14,120718,1,6,1:2:0:0:
177,115,121007,2,0,L|85:96,1,66.4999982242585,6|0,1:2|1:0,0:0:0:0:
19,177,121487,6,0,L|47:342,1,166.249995560646,6|0,1:0|0:0,0:0:0:0:
78,365,122064,2,0,B|120:343|120:343|228:371,1,132.999996448517,6|2,1:2|1:3,0:0:0:0:
296,290,122737,1,6,1:2:0:0:
510,2,123602,6,0,L|430:15,1,66.4999982242585,14|4,1:0|1:3,0:0:0:0:
385,66,123987,2,0,L|311:41,1,66.4999982242585,6|8,1:2|1:3,0:0:0:0:
252,4,124372,6,0,B|208:31|208:31|232:120,1,132.999996448517,6|4,1:0|1:3,0:0:0:0:
264,129,124852,1,8,1:3:0:0:
212,190,125045,2,0,L|139:170,1,66.4999982242585,8|2,1:0|1:3,0:0:0:0:
80,214,125429,2,0,B|47:193|47:193|28:85,1,132.999996448517,2|0,3:3|0:0,0:0:0:0:
51,66,125910,1,6,1:2:0:0:
111,14,126102,2,0,L|200:32,1,66.4999982242585,8|8,1:3|1:0,0:0:0:0:
199,60,126391,5,6,1:0:0:0:
262,11,126583,1,6,1:2:0:0:
329,52,126775,2,0,L|397:32,1,66.4999982242585,6|6,1:2|1:2,0:0:0:0:
499,151,127353,6,0,L|468:285,1,132.999996448517,6|4,1:0|1:3,0:0:0:0:
484,317,127833,1,8,1:3:0:0:
407,340,128026,2,0,B|374:332|374:332|338:356,1,66.4999982242585,8|2,1:0|1:3,0:0:0:0:
307,354,128314,2,0,L|177:331,1,132.999996448517,8|4,1:0|1:3,0:0:0:0:
108,374,128891,6,0,B|75:342|75:342|96:255,1,132.999996448517,6|4,1:2|1:3,0:0:0:0:
126,231,129372,1,14,1:0:0:0:
205,240,129564,1,6,1:2:0:0:
252,176,129756,1,6,1:2:0:0:
331,187,129949,1,6,1:2:0:0:
469,108,130334,6,0,B|458:45|458:45|386:18,1,132.999996448517,6|4,1:0|1:3,0:0:0:0:
361,44,130814,1,8,1:3:0:0:
290,6,131007,2,0,L|184:32,1,99.7499973363877,8|8,1:0|1:0,0:0:0:0:
145,93,131487,2,0,L|74:71,1,66.4999982242585,8|4,1:3|1:3,0:0:0:0:
17,121,131872,6,0,L|36:200,1,66.4999982242585,6|4,1:2|1:3,0:0:0:0:
70,197,132160,2,0,L|54:267,1,66.4999982242585,6|4,1:2|1:3,0:0:0:0:
25,289,132449,1,6,1:2:0:0:
116,365,132737,2,0,L|181:340,1,66.4999982242585,6|8,1:2|1:3,0:0:0:0:
198,306,133026,2,0,L|281:326,1,66.4999982242585,6|8,1:2|1:3,0:0:0:0:
372,369,133507,6,0,B|396:334|396:334|363:212,1,166.249995560646,6|0,1:0|0:0,0:0:0:0:
327,196,134084,2,0,L|340:109,1,66.4999982242585,6|8,1:2|1:0,0:0:0:0:
292,63,134468,2,0,L|219:82,1,66.4999982242585,6|10,1:2|1:3,0:0:0:0:
194,56,134757,1,6,1:2:0:0:
111,142,135045,5,8,1:2:0:0:
163,202,135238,2,0,L|150:275,1,66.4999982242585,8|0,1:0|0:0,0:0:0:0:
199,331,135622,6,0,P|232:330|271:283,1,88.6666642990113,6|4,1:2|1:3,0:0:0:0:
320,278,136007,2,0,P|332:239|309:184,1,88.6666642990113,6|8,1:2|1:3,0:0:0:0:
277,159,136391,1,6,1:0:0:0:
288,53,136648,1,6,1:0:0:0:
386,14,136904,1,6,1:0:0:0:
481,60,137161,1,6,1:0:0:0:
426,265,137673,5,6,1:0:0:0:
320,278,137930,1,6,1:0:0:0:
228,330,138186,1,6,1:0:0:0:
55,205,138699,6,0,P|51:167|115:101,1,132.999996448517,6|6,1:2|1:2,0:0:0:0:
