osu file format v14

[General]
AudioFilename: audio.mp3
AudioLeadIn: 0
PreviewTime: 103503
Countdown: 1
SampleSet: None
StackLeniency: 0.7
Mode: 1
LetterboxInBreaks: 0
WidescreenStoryboard: 0

[Editor]
DistanceSpacing: 1
BeatDivisor: 3
GridSize: 32
TimelineZoom: 1.9

[Metadata]
Title:Longinus
TitleUnicode:Longinus
Artist:xi
ArtistUnicode:xi
Creator:katacheh
Version:Prac.
Source:
Tags:
BeatmapID:1728881
BeatmapSetID:825041

[Difficulty]
HPDrainRate:3
CircleSize:5
OverallDifficulty:6
ApproachRate:5
SliderMultiplier:1.4
SliderTickRate:1

[Events]
//Background and Video events
0,0,"67932252_p0.jpg",0,0
//Break Periods
2,75471,82845
//Storyboard Layer 0 (Background)
//Storyboard Layer 1 (Fail)
//Storyboard Layer 2 (Pass)
//Storyboard Layer 3 (Foreground)
//Storyboard Sound Samples

[TimingPoints]
1687,283.018867924528,4,1,0,80,1,0
103573,-100,4,1,0,80,0,1
139800,-100,4,1,0,80,0,0
209847,-100,4,1,0,60,0,0
213031,-100,4,1,0,80,0,0
213385,-100,4,1,0,80,0,1
229234,-100,4,1,0,80,0,0
271403,-25,4,1,0,80,0,0

[HitObjects]
248,243,9611,5,0,0:0:0:0:
299,187,11309,1,2,0:0:0:0:
292,189,11875,1,0,0:0:0:0:
434,152,13007,1,2,0:0:0:0:
434,152,13573,1,2,0:0:0:0:
299,179,14139,1,0,0:0:0:0:
412,154,15271,1,2,0:0:0:0:
412,154,15554,1,2,0:0:0:0:
412,154,15837,1,2,0:0:0:0:
412,154,16120,1,2,0:0:0:0:
178,166,16403,1,0,0:0:0:0:
344,131,16686,1,2,0:0:0:0:
487,201,16757,1,2,0:0:0:0:
344,131,16828,1,2,0:0:0:0:
344,131,16899,1,2,0:0:0:0:
265,163,16970,1,0,0:0:0:0:
412,133,17040,1,0,0:0:0:0:
259,166,17111,1,0,0:0:0:0:
412,133,17182,1,0,0:0:0:0:
259,166,17253,1,2,0:0:0:0:
376,102,17394,1,0,0:0:0:0:
225,208,17536,1,2,0:0:0:0:
383,104,17677,1,2,0:0:0:0:
383,104,17748,1,2,0:0:0:0:
413,82,17819,1,0,0:0:0:0:
413,82,17889,1,0,0:0:0:0:
409,89,17960,1,2,0:0:0:0:
440,68,18031,1,2,0:0:0:0:
409,89,18102,1,2,0:0:0:0:
449,84,18243,1,2,0:0:0:0:
395,124,18385,1,0,0:0:0:0:
394,124,18526,1,2,0:0:0:0:
356,198,18668,1,0,0:0:0:0:
356,198,18738,1,0,0:0:0:0:
385,59,18809,1,2,0:0:0:0:
385,59,18880,1,2,0:0:0:0:
353,102,18951,1,0,0:0:0:0:
289,79,19021,1,0,0:0:0:0:
289,79,19092,1,0,0:0:0:0:
363,79,19163,1,2,0:0:0:0:
364,79,19234,1,2,0:0:0:0:
364,79,19304,1,2,0:0:0:0:
265,75,19375,1,0,0:0:0:0:
265,75,19446,1,0,0:0:0:0:
257,72,19517,1,2,0:0:0:0:
337,47,19587,1,2,0:0:0:0:
250,95,19658,1,0,0:0:0:0:
249,95,19729,1,0,0:0:0:0:
265,90,19800,1,2,0:0:0:0:
271,18,19870,1,2,0:0:0:0:
375,58,19941,1,0,0:0:0:0:
342,81,20012,1,2,0:0:0:0:
291,126,20083,1,0,0:0:0:0:
408,57,20153,1,0,0:0:0:0:
396,60,20224,1,2,0:0:0:0:
378,67,20295,1,2,0:0:0:0:
342,81,20366,1,0,0:0:0:0:
342,81,20436,1,0,0:0:0:0:
342,81,20507,1,2,0:0:0:0:
423,96,20578,1,0,0:0:0:0:
314,92,20649,1,0,0:0:0:0:
305,96,20720,1,0,0:0:0:0:
427,104,20790,1,2,0:0:0:0:
398,122,20861,1,2,0:0:0:0:
252,206,20932,1,0,0:0:0:0:
241,129,21003,1,0,0:0:0:0:
241,129,21073,1,0,0:0:0:0:
241,129,21144,1,0,0:0:0:0:
346,63,21215,1,2,0:0:0:0:
342,65,21286,1,2,0:0:0:0:
314,92,21356,1,0,0:0:0:0:
314,92,21427,1,0,0:0:0:0:
362,43,21498,1,2,0:0:0:0:
362,43,21569,1,2,0:0:0:0:
362,43,21639,1,2,0:0:0:0:
346,63,21710,1,0,0:0:0:0:
346,63,21781,1,0,0:0:0:0:
340,65,21852,1,0,0:0:0:0:
358,24,21922,1,2,0:0:0:0:
358,24,21993,1,2,0:0:0:0:
295,68,22064,1,0,0:0:0:0:
295,68,22135,1,0,0:0:0:0:
295,68,22205,1,0,0:0:0:0:
365,25,22276,1,2,0:0:0:0:
365,25,22347,1,2,0:0:0:0:
365,25,22418,1,2,0:0:0:0:
307,75,22488,1,0,0:0:0:0:
289,96,22559,1,0,0:0:0:0:
339,90,22630,1,2,0:0:0:0:
304,117,22701,1,2,0:0:0:0:
267,142,22771,1,0,0:0:0:0:
267,142,22842,1,0,0:0:0:0:
320,33,22913,1,2,0:0:0:0:
200,149,22984,1,2,0:0:0:0:
200,149,23054,1,0,0:0:0:0:
200,149,23125,1,2,0:0:0:0:
356,198,23196,1,0,0:0:0:0:
356,198,23266,1,0,0:0:0:0:
385,59,23337,1,2,0:0:0:0:
385,59,23408,1,2,0:0:0:0:
353,102,23479,1,0,0:0:0:0:
289,79,23549,1,0,0:0:0:0:
289,79,23620,1,0,0:0:0:0:
363,79,23691,1,2,0:0:0:0:
364,79,23762,1,2,0:0:0:0:
364,79,23832,1,2,0:0:0:0:
265,75,23903,1,0,0:0:0:0:
265,75,23974,1,0,0:0:0:0:
257,72,24045,1,2,0:0:0:0:
337,47,24115,1,2,0:0:0:0:
250,95,24186,1,0,0:0:0:0:
249,95,24257,1,0,0:0:0:0:
265,90,24328,1,2,0:0:0:0:
271,18,24398,1,0,0:0:0:0:
342,81,24469,1,2,0:0:0:0:
375,58,24540,1,0,0:0:0:0:
291,126,24611,1,2,0:0:0:0:
408,57,24681,1,0,0:0:0:0:
396,60,24752,1,2,0:0:0:0:
378,67,24823,1,2,0:0:0:0:
342,81,24894,1,0,0:0:0:0:
342,81,24964,1,0,0:0:0:0:
342,81,25035,1,2,0:0:0:0:
423,96,25106,1,0,0:0:0:0:
314,92,25177,1,0,0:0:0:0:
305,96,25248,1,0,0:0:0:0:
427,104,25318,1,2,0:0:0:0:
398,122,25389,1,2,0:0:0:0:
401,176,25460,1,0,0:0:0:0:
401,176,25531,1,0,0:0:0:0:
374,107,25602,1,2,0:0:0:0:
374,107,25672,1,2,0:0:0:0:
326,227,25743,1,2,0:0:0:0:
326,227,25814,1,0,0:0:0:0:
326,227,25885,1,0,0:0:0:0:
326,227,25955,1,0,0:0:0:0:
326,227,26026,1,2,0:0:0:0:
326,227,26097,1,2,0:0:0:0:
371,82,26168,1,0,0:0:0:0:
390,69,26238,1,2,0:0:0:0:
475,75,26309,1,0,0:0:0:0:
486,51,26380,1,0,0:0:0:0:
390,69,26451,1,2,0:0:0:0:
390,69,26521,1,2,0:0:0:0:
357,86,26592,1,0,0:0:0:0:
411,59,26663,1,2,0:0:0:0:
411,59,26734,1,2,0:0:0:0:
411,59,26804,1,2,0:0:0:0:
382,83,26875,1,0,0:0:0:0:
357,122,26946,1,2,0:0:0:0:
357,122,27017,1,2,0:0:0:0:
357,122,27087,1,2,0:0:0:0:
357,122,27158,1,0,0:0:0:0:
357,122,27229,1,0,0:0:0:0:
357,122,27300,1,2,0:0:0:0:
357,122,27370,1,2,0:0:0:0:
374,25,27441,1,2,0:0:0:0:
364,138,27512,1,0,0:0:0:0:
316,41,27583,1,2,0:0:0:0:
354,26,27654,1,2,0:0:0:0:
354,26,27724,1,0,0:0:0:0:
385,59,27866,1,2,0:0:0:0:
385,59,27937,1,2,0:0:0:0:
353,102,28008,1,0,0:0:0:0:
289,79,28078,1,0,0:0:0:0:
289,79,28149,1,0,0:0:0:0:
363,79,28220,1,2,0:0:0:0:
364,79,28291,1,2,0:0:0:0:
364,79,28361,1,2,0:0:0:0:
265,75,28432,1,0,0:0:0:0:
265,75,28503,1,0,0:0:0:0:
257,72,28574,1,2,0:0:0:0:
337,47,28644,1,2,0:0:0:0:
250,95,28715,1,0,0:0:0:0:
249,95,28786,1,0,0:0:0:0:
265,90,28857,1,2,0:0:0:0:
271,18,28927,1,0,0:0:0:0:
375,58,28998,1,2,0:0:0:0:
342,81,29069,1,2,0:0:0:0:
291,126,29140,1,0,0:0:0:0:
408,57,29210,1,0,0:0:0:0:
396,60,29281,1,2,0:0:0:0:
378,67,29352,1,2,0:0:0:0:
342,81,29423,1,0,0:0:0:0:
342,81,29493,1,0,0:0:0:0:
342,81,29564,1,2,0:0:0:0:
423,96,29635,1,0,0:0:0:0:
314,92,29706,1,0,0:0:0:0:
305,96,29777,1,0,0:0:0:0:
427,104,29847,1,2,0:0:0:0:
398,122,29918,1,2,0:0:0:0:
252,206,29989,1,0,0:0:0:0:
241,129,30060,1,0,0:0:0:0:
241,129,30130,1,0,0:0:0:0:
241,129,30201,1,0,0:0:0:0:
346,63,30272,1,2,0:0:0:0:
342,65,30343,1,2,0:0:0:0:
314,92,30413,1,0,0:0:0:0:
314,92,30484,1,0,0:0:0:0:
362,43,30555,1,2,0:0:0:0:
362,43,30626,1,2,0:0:0:0:
362,43,30696,1,2,0:0:0:0:
346,63,30767,1,0,0:0:0:0:
346,63,30838,1,0,0:0:0:0:
340,65,30909,1,0,0:0:0:0:
358,24,30979,1,2,0:0:0:0:
358,24,31050,1,2,0:0:0:0:
295,68,31121,1,0,0:0:0:0:
295,68,31192,1,0,0:0:0:0:
295,68,31262,1,0,0:0:0:0:
365,25,31333,1,2,0:0:0:0:
365,25,31404,1,2,0:0:0:0:
365,25,31475,1,2,0:0:0:0:
307,75,31545,1,0,0:0:0:0:
289,96,31616,1,0,0:0:0:0:
339,90,31687,1,2,0:0:0:0:
304,117,31758,1,2,0:0:0:0:
267,142,31828,1,0,0:0:0:0:
267,142,31899,1,0,0:0:0:0:
320,33,31970,1,2,0:0:0:0:
200,149,32041,1,2,0:0:0:0:
200,149,32111,1,0,0:0:0:0:
200,149,32182,1,2,0:0:0:0:
356,198,32253,1,0,0:0:0:0:
356,198,32323,1,0,0:0:0:0:
385,59,32394,1,2,0:0:0:0:
385,59,32465,1,2,0:0:0:0:
353,102,32536,1,0,0:0:0:0:
289,79,32606,1,0,0:0:0:0:
289,79,32677,1,0,0:0:0:0:
363,79,32748,1,2,0:0:0:0:
364,79,32819,1,2,0:0:0:0:
364,79,32889,1,2,0:0:0:0:
265,75,32960,1,0,0:0:0:0:
265,75,33031,1,0,0:0:0:0:
257,72,33102,1,2,0:0:0:0:
337,47,33172,1,2,0:0:0:0:
250,95,33243,1,0,0:0:0:0:
249,95,33314,1,0,0:0:0:0:
265,90,33385,1,2,0:0:0:0:
271,18,33455,1,2,0:0:0:0:
342,81,33526,1,2,0:0:0:0:
375,58,33597,1,0,0:0:0:0:
291,126,33668,1,2,0:0:0:0:
408,57,33738,1,0,0:0:0:0:
396,60,33809,1,2,0:0:0:0:
378,67,33880,1,2,0:0:0:0:
342,81,33951,1,0,0:0:0:0:
342,81,34021,1,0,0:0:0:0:
342,81,34092,1,2,0:0:0:0:
423,96,34163,1,0,0:0:0:0:
314,92,34234,1,0,0:0:0:0:
305,96,34305,1,0,0:0:0:0:
427,104,34375,1,2,0:0:0:0:
398,122,34446,1,2,0:0:0:0:
401,176,34517,1,0,0:0:0:0:
401,176,34588,1,0,0:0:0:0:
374,107,34659,1,2,0:0:0:0:
374,107,34729,1,2,0:0:0:0:
326,227,34800,1,2,0:0:0:0:
326,227,34871,1,0,0:0:0:0:
326,227,34942,1,0,0:0:0:0:
326,227,35012,1,0,0:0:0:0:
326,227,35083,1,2,0:0:0:0:
326,227,35154,1,2,0:0:0:0:
371,82,35225,1,2,0:0:0:0:
390,69,35295,1,2,0:0:0:0:
475,75,35366,1,0,0:0:0:0:
486,51,35437,1,0,0:0:0:0:
390,69,35508,1,2,0:0:0:0:
390,69,35578,1,2,0:0:0:0:
357,86,35649,1,0,0:0:0:0:
411,59,35720,1,2,0:0:0:0:
411,59,35791,1,2,0:0:0:0:
411,59,35861,1,2,0:0:0:0:
382,83,35932,1,0,0:0:0:0:
357,122,36003,1,2,0:0:0:0:
357,122,36074,1,2,0:0:0:0:
357,122,36144,1,2,0:0:0:0:
357,122,36215,1,0,0:0:0:0:
357,122,36286,1,0,0:0:0:0:
357,122,36357,1,2,0:0:0:0:
357,122,36427,1,2,0:0:0:0:
374,25,36498,1,2,0:0:0:0:
364,138,36569,1,0,0:0:0:0:
316,41,36640,1,2,0:0:0:0:
354,26,36711,1,2,0:0:0:0:
354,26,36781,1,0,0:0:0:0:
361,89,36852,1,0,0:0:0:0:
361,89,36922,1,2,0:0:0:0:
361,89,36993,1,2,0:0:0:0:
353,92,37064,1,0,0:0:0:0:
353,92,37135,1,0,0:0:0:0:
353,92,37205,1,0,0:0:0:0:
353,92,37276,1,0,0:0:0:0:
353,92,37347,1,2,0:0:0:0:
353,92,37418,1,2,0:0:0:0:
353,92,37488,1,2,0:0:0:0:
353,92,37559,1,2,0:0:0:0:
349,96,37630,1,0,0:0:0:0:
349,96,37701,1,0,0:0:0:0:
349,96,37771,1,0,0:0:0:0:
349,96,37842,1,0,0:0:0:0:
349,96,37913,1,2,0:0:0:0:
349,96,37984,1,2,0:0:0:0:
349,96,38054,1,2,0:0:0:0:
349,96,38125,1,2,0:0:0:0:
337,106,38196,1,0,0:0:0:0:
337,106,38267,1,0,0:0:0:0:
389,50,38337,1,2,0:0:0:0:
337,106,38408,1,2,0:0:0:0:
348,57,38479,1,0,0:0:0:0:
348,57,38550,1,2,0:0:0:0:
337,106,38620,1,0,0:0:0:0:
330,174,38691,1,2,0:0:0:0:
330,174,38762,1,0,0:0:0:0:
330,174,38833,1,2,0:0:0:0:
321,179,38903,1,0,0:0:0:0:
289,212,39045,1,4,0:0:0:0:
333,96,39328,1,0,0:0:0:0:
333,96,39470,1,2,0:0:0:0:
301,92,39540,1,2,0:0:0:0:
278,95,39611,1,0,0:0:0:0:
230,114,39753,1,2,0:0:0:0:
230,114,39823,1,2,0:0:0:0:
213,124,39894,1,0,0:0:0:0:
213,124,40036,1,2,0:0:0:0:
207,129,40106,1,2,0:0:0:0:
153,165,40177,1,0,0:0:0:0:
153,165,40460,1,0,0:0:0:0:
153,165,40602,1,2,0:0:0:0:
153,165,40672,1,2,0:0:0:0:
131,171,40743,1,0,0:0:0:0:
366,96,40885,1,2,0:0:0:0:
331,193,40955,1,2,0:0:0:0:
292,150,41026,1,0,0:0:0:0:
366,115,41097,1,2,0:0:0:0:
366,115,41168,1,2,0:0:0:0:
363,115,41238,1,2,0:0:0:0:
332,124,41309,1,0,0:0:0:0:
326,83,41451,1,2,0:0:0:0:
326,83,41521,1,2,0:0:0:0:
326,83,41592,1,2,0:0:0:0:
352,116,41734,1,2,0:0:0:0:
312,133,41875,1,0,0:0:0:0:
397,53,42017,1,0,0:0:0:0:
312,134,42087,1,2,0:0:0:0:
312,134,42158,1,0,0:0:0:0:
312,134,42300,1,2,0:0:0:0:
312,133,42370,1,2,0:0:0:0:
312,133,42441,1,0,0:0:0:0:
349,85,42583,1,2,0:0:0:0:
389,153,42724,1,0,0:0:0:0:
389,153,42866,1,2,0:0:0:0:
379,153,42936,1,2,0:0:0:0:
356,160,43007,1,0,0:0:0:0:
403,54,43149,1,0,0:0:0:0:
356,160,43220,1,2,0:0:0:0:
390,85,43290,1,0,0:0:0:0:
356,160,43361,1,0,0:0:0:0:
386,90,43432,1,2,0:0:0:0:
370,99,43503,1,2,0:0:0:0:
301,199,43573,1,0,0:0:0:0:
300,79,43856,1,0,0:0:0:0:
300,79,43998,1,2,0:0:0:0:
300,79,44069,1,2,0:0:0:0:
274,91,44139,1,0,0:0:0:0:
286,145,44281,1,2,0:0:0:0:
370,99,44352,1,2,0:0:0:0:
269,160,44422,1,0,0:0:0:0:
377,155,44493,1,0,0:0:0:0:
268,171,44564,1,2,0:0:0:0:
232,196,44635,1,2,0:0:0:0:
232,196,44705,1,0,0:0:0:0:
189,197,44988,1,0,0:0:0:0:
258,94,45130,1,2,0:0:0:0:
251,94,45201,1,2,0:0:0:0:
237,104,45271,1,0,0:0:0:0:
237,104,45413,1,2,0:0:0:0:
397,87,45484,1,0,0:0:0:0:
388,85,45554,1,0,0:0:0:0:
385,85,45625,1,0,0:0:0:0:
237,104,45696,1,2,0:0:0:0:
395,107,45767,1,2,0:0:0:0:
209,136,45837,1,0,0:0:0:0:
315,201,46120,1,0,0:0:0:0:
395,107,46262,1,2,0:0:0:0:
315,201,46333,1,2,0:0:0:0:
393,98,46403,1,0,0:0:0:0:
392,99,46545,1,2,0:0:0:0:
386,99,46616,1,2,0:0:0:0:
367,105,46686,1,0,0:0:0:0:
369,111,46828,1,2,0:0:0:0:
369,111,46899,1,2,0:0:0:0:
323,175,46970,1,0,0:0:0:0:
281,67,47111,1,2,0:0:0:0:
281,67,47182,1,2,0:0:0:0:
281,67,47253,1,2,0:0:0:0:
281,67,47394,1,2,0:0:0:0:
197,134,47536,1,0,0:0:0:0:
259,180,47677,1,0,0:0:0:0:
241,189,47748,1,2,0:0:0:0:
369,92,47819,1,0,0:0:0:0:
369,92,47960,1,0,0:0:0:0:
369,92,48102,1,0,0:0:0:0:
304,94,48385,1,0,0:0:0:0:
272,184,48526,1,2,0:0:0:0:
272,184,48597,1,2,0:0:0:0:
257,189,48668,1,0,0:0:0:0:
257,190,48809,1,2,0:0:0:0:
256,190,48880,1,2,0:0:0:0:
237,203,48951,1,0,0:0:0:0:
237,203,49092,1,2,0:0:0:0:
237,203,49163,1,2,0:0:0:0:
237,203,49234,1,0,0:0:0:0:
371,125,49517,1,0,0:0:0:0:
371,125,49658,1,2,0:0:0:0:
371,125,49729,1,2,0:0:0:0:
318,174,49800,1,0,0:0:0:0:
301,78,49941,1,0,0:0:0:0:
301,78,50012,1,2,0:0:0:0:
442,164,50083,1,0,0:0:0:0:
274,95,50224,1,0,0:0:0:0:
250,110,50295,1,2,0:0:0:0:
442,164,50366,1,2,0:0:0:0:
361,49,50507,1,2,0:0:0:0:
371,44,50578,1,2,0:0:0:0:
308,148,50649,1,0,0:0:0:0:
245,149,50790,1,0,0:0:0:0:
232,144,50861,1,2,0:0:0:0:
204,148,50932,1,2,0:0:0:0:
267,149,51073,1,0,0:0:0:0:
267,149,51144,1,2,0:0:0:0:
267,149,51215,1,0,0:0:0:0:
494,162,51286,1,0,0:0:0:0:
357,107,51356,1,2,0:0:0:0:
357,107,51427,1,2,0:0:0:0:
264,149,51498,1,0,0:0:0:0:
372,239,51639,1,2,0:0:0:0:
407,110,51781,1,0,0:0:0:0:
429,177,51852,1,2,0:0:0:0:
398,115,51922,1,2,0:0:0:0:
392,115,52064,1,0,0:0:0:0:
386,116,52205,1,2,0:0:0:0:
366,124,52276,1,2,0:0:0:0:
308,158,52347,1,0,0:0:0:0:
347,185,52418,1,2,0:0:0:0:
347,185,52488,1,2,0:0:0:0:
412,38,52559,1,2,0:0:0:0:
242,141,52630,1,0,0:0:0:0:
259,163,52913,1,0,0:0:0:0:
259,163,53054,1,2,0:0:0:0:
259,163,53125,1,2,0:0:0:0:
252,166,53196,1,0,0:0:0:0:
252,167,53337,1,0,0:0:0:0:
394,44,53408,1,2,0:0:0:0:
252,167,53479,1,0,0:0:0:0:
355,37,53550,1,0,0:0:0:0:
252,167,53620,1,2,0:0:0:0:
392,62,53691,1,2,0:0:0:0:
252,167,53762,1,0,0:0:0:0:
314,52,54045,1,0,0:0:0:0:
314,52,54186,1,2,0:0:0:0:
314,52,54257,1,2,0:0:0:0:
314,52,54328,1,0,0:0:0:0:
314,52,54470,1,2,0:0:0:0:
391,150,54540,1,0,0:0:0:0:
314,52,54611,1,2,0:0:0:0:
314,52,54753,1,2,0:0:0:0:
314,52,54823,1,2,0:0:0:0:
314,52,54894,1,0,0:0:0:0:
353,111,55036,1,2,0:0:0:0:
493,120,55106,1,0,0:0:0:0:
493,120,55177,1,0,0:0:0:0:
244,101,55248,1,0,0:0:0:0:
192,112,55319,1,2,0:0:0:0:
174,123,55389,1,2,0:0:0:0:
360,116,55460,1,0,0:0:0:0:
360,116,55602,1,0,0:0:0:0:
351,116,55672,1,2,0:0:0:0:
308,115,55743,1,0,0:0:0:0:
283,142,55885,1,2,0:0:0:0:
271,146,55955,1,2,0:0:0:0:
224,168,56026,1,0,0:0:0:0:
296,177,56168,1,0,0:0:0:0:
296,177,56238,1,0,0:0:0:0:
296,177,56309,1,2,0:0:0:0:
345,109,56380,1,0,0:0:0:0:
296,177,56451,1,2,0:0:0:0:
296,177,56521,1,2,0:0:0:0:
398,69,56592,1,0,0:0:0:0:
398,69,56663,1,0,0:0:0:0:
296,177,56734,1,2,0:0:0:0:
296,177,56804,1,2,0:0:0:0:
296,177,56875,1,0,0:0:0:0:
318,54,56946,1,2,0:0:0:0:
318,54,57017,1,0,0:0:0:0:
318,54,57158,1,4,0:0:0:0:
306,21,57300,1,2,0:0:0:0:
409,90,57370,1,2,0:0:0:0:
265,48,57441,1,0,0:0:0:0:
252,136,57583,1,2,0:0:0:0:
243,140,57724,1,0,0:0:0:0:
105,189,57866,1,2,0:0:0:0:
105,189,57936,1,2,0:0:0:0:
321,166,58007,1,0,0:0:0:0:
321,166,58149,1,2,0:0:0:0:
321,166,58220,1,2,0:0:0:0:
281,190,58290,1,0,0:0:0:0:
371,67,58361,1,2,0:0:0:0:
334,136,58432,1,0,0:0:0:0:
418,52,58503,1,0,0:0:0:0:
334,136,58573,1,2,0:0:0:0:
409,75,58644,1,2,0:0:0:0:
361,143,58715,1,0,0:0:0:0:
361,143,58786,1,0,0:0:0:0:
361,143,58856,1,2,0:0:0:0:
361,143,58927,1,2,0:0:0:0:
361,143,58998,1,2,0:0:0:0:
361,143,59069,1,0,0:0:0:0:
291,14,59139,1,2,0:0:0:0:
350,144,59210,1,2,0:0:0:0:
352,141,59281,1,0,0:0:0:0:
338,116,59352,1,2,0:0:0:0:
215,107,59422,1,0,0:0:0:0:
398,93,59564,1,2,0:0:0:0:
398,93,59635,1,2,0:0:0:0:
286,194,59705,1,0,0:0:0:0:
382,80,59847,1,2,0:0:0:0:
338,142,59988,1,0,0:0:0:0:
338,142,60130,1,2,0:0:0:0:
338,142,60201,1,2,0:0:0:0:
328,153,60271,1,0,0:0:0:0:
327,156,60413,1,2,0:0:0:0:
307,185,60554,1,0,0:0:0:0:
406,36,60625,1,2,0:0:0:0:
406,36,60696,1,2,0:0:0:0:
322,198,60767,1,2,0:0:0:0:
282,116,60837,1,0,0:0:0:0:
315,225,60908,1,0,0:0:0:0:
277,118,60979,1,2,0:0:0:0:
274,113,61050,1,2,0:0:0:0:
220,153,61120,1,0,0:0:0:0:
419,203,61191,1,0,0:0:0:0:
220,153,61262,1,2,0:0:0:0:
220,153,61333,1,2,0:0:0:0:
391,115,61403,1,0,0:0:0:0:
386,119,61474,1,2,0:0:0:0:
328,150,61545,1,0,0:0:0:0:
311,154,61616,1,2,0:0:0:0:
193,168,61686,1,0,0:0:0:0:
275,112,61828,1,2,0:0:0:0:
275,112,61899,1,2,0:0:0:0:
219,146,61970,1,0,0:0:0:0:
214,151,62111,1,2,0:0:0:0:
200,163,62253,1,0,0:0:0:0:
199,163,62394,1,2,0:0:0:0:
197,163,62465,1,2,0:0:0:0:
164,192,62536,1,0,0:0:0:0:
336,31,62606,1,2,0:0:0:0:
158,195,62677,1,2,0:0:0:0:
137,208,62819,1,0,0:0:0:0:
328,37,62960,1,2,0:0:0:0:
328,37,63031,1,2,0:0:0:0:
250,90,63102,1,0,0:0:0:0:
245,95,63172,1,2,0:0:0:0:
245,95,63243,1,2,0:0:0:0:
245,95,63314,1,0,0:0:0:0:
339,113,63385,1,2,0:0:0:0:
377,121,63455,1,0,0:0:0:0:
301,123,63526,1,2,0:0:0:0:
280,136,63597,1,2,0:0:0:0:
366,23,63668,1,2,0:0:0:0:
391,119,63738,1,0,0:0:0:0:
366,23,63809,1,2,0:0:0:0:
351,41,63880,1,2,0:0:0:0:
295,91,63951,1,0,0:0:0:0:
446,113,64092,1,0,0:0:0:0:
327,24,64163,1,2,0:0:0:0:
327,24,64234,1,2,0:0:0:0:
327,24,64375,1,2,0:0:0:0:
259,91,64517,1,0,0:0:0:0:
452,108,64658,1,0,0:0:0:0:
259,91,64729,1,2,0:0:0:0:
259,91,64800,1,2,0:0:0:0:
373,46,64941,1,2,0:0:0:0:
326,117,65083,1,0,0:0:0:0:
323,123,65224,1,0,0:0:0:0:
321,123,65295,1,0,0:0:0:0:
321,123,65366,1,2,0:0:0:0:
297,118,65507,1,2,0:0:0:0:
329,88,65649,1,0,0:0:0:0:
259,131,65790,1,0,0:0:0:0:
279,123,65861,1,2,0:0:0:0:
247,132,65932,1,0,0:0:0:0:
322,148,66073,1,0,0:0:0:0:
322,148,66215,1,2,0:0:0:0:
323,46,66286,1,0,0:0:0:0:
323,46,66356,1,0,0:0:0:0:
317,37,66427,1,0,0:0:0:0:
317,37,66498,1,2,0:0:0:0:
307,40,66569,1,2,0:0:0:0:
284,47,66639,1,0,0:0:0:0:
311,81,66710,1,2,0:0:0:0:
273,129,66781,1,0,0:0:0:0:
273,129,66852,1,0,0:0:0:0:
273,129,66922,1,2,0:0:0:0:
271,129,66993,1,2,0:0:0:0:
260,128,67064,1,2,0:0:0:0:
260,128,67135,1,2,0:0:0:0:
281,161,67205,1,0,0:0:0:0:
277,167,67276,1,2,0:0:0:0:
274,171,67347,1,0,0:0:0:0:
288,70,67488,1,2,0:0:0:0:
280,81,67559,1,2,0:0:0:0:
234,122,67630,1,0,0:0:0:0:
294,72,67771,1,2,0:0:0:0:
221,124,67913,1,0,0:0:0:0:
292,42,67984,1,2,0:0:0:0:
347,170,68054,1,0,0:0:0:0:
279,201,68125,1,0,0:0:0:0:
286,90,68196,1,2,0:0:0:0:
286,90,68267,1,2,0:0:0:0:
283,88,68337,1,0,0:0:0:0:
215,134,68408,1,0,0:0:0:0:
201,153,68479,1,2,0:0:0:0:
283,117,68620,1,2,0:0:0:0:
283,117,68691,1,2,0:0:0:0:
275,149,68762,1,0,0:0:0:0:
275,149,68903,1,2,0:0:0:0:
271,157,69045,1,0,0:0:0:0:
271,157,69186,1,2,0:0:0:0:
328,47,69257,1,2,0:0:0:0:
201,151,69328,1,0,0:0:0:0:
201,153,69470,1,2,0:0:0:0:
391,104,69611,1,0,0:0:0:0:
425,49,69753,1,2,0:0:0:0:
470,109,69823,1,0,0:0:0:0:
425,49,69894,1,2,0:0:0:0:
322,199,70036,1,2,0:0:0:0:
292,80,70177,1,0,0:0:0:0:
347,21,70319,1,2,0:0:0:0:
347,21,70389,1,2,0:0:0:0:
347,21,70460,1,0,0:0:0:0:
379,9,70531,1,2,0:0:0:0:
347,21,70602,1,0,0:0:0:0:
407,144,70672,1,0,0:0:0:0:
350,260,70743,1,2,0:0:0:0:
351,107,70885,1,0,0:0:0:0:
351,107,70955,1,2,0:0:0:0:
351,107,71026,1,2,0:0:0:0:
315,106,71097,1,2,0:0:0:0:
260,155,71168,1,0,0:0:0:0:
355,128,71238,1,0,0:0:0:0:
260,155,71309,1,2,0:0:0:0:
262,43,71380,1,2,0:0:0:0:
179,161,71451,1,0,0:0:0:0:
179,161,71521,1,2,0:0:0:0:
167,165,71592,1,0,0:0:0:0:
164,165,71663,1,0,0:0:0:0:
360,73,71734,1,2,0:0:0:0:
360,73,71804,1,0,0:0:0:0:
360,73,71875,1,2,0:0:0:0:
360,73,71946,1,2,0:0:0:0:
360,73,72017,1,0,0:0:0:0:
347,83,72087,1,2,0:0:0:0:
368,33,72158,1,2,0:0:0:0:
280,53,72229,1,0,0:0:0:0:
247,83,72300,1,2,0:0:0:0:
304,38,72370,1,2,0:0:0:0:
433,89,72441,1,0,0:0:0:0:
264,94,72512,1,0,0:0:0:0:
264,94,72583,1,0,0:0:0:0:
360,73,72653,1,0,0:0:0:0:
360,73,72724,1,2,0:0:0:0:
360,73,72795,1,2,0:0:0:0:
356,78,72866,1,0,0:0:0:0:
258,44,72936,1,2,0:0:0:0:
183,129,73007,1,0,0:0:0:0:
254,79,73149,1,2,0:0:0:0:
254,79,73220,1,2,0:0:0:0:
253,80,73290,1,0,0:0:0:0:
252,82,73432,1,2,0:0:0:0:
171,137,73573,1,0,0:0:0:0:
171,137,73715,1,2,0:0:0:0:
387,115,73786,1,2,0:0:0:0:
264,212,73856,1,0,0:0:0:0:
264,212,73998,1,2,0:0:0:0:
378,128,74139,1,0,0:0:0:0:
374,134,74422,1,2,0:0:0:0:
374,134,74493,1,2,0:0:0:0:
374,134,74564,1,0,0:0:0:0:
374,134,74635,1,2,0:0:0:0:
374,134,74705,1,0,0:0:0:0:
374,134,74776,1,0,0:0:0:0:
374,134,74847,1,2,0:0:0:0:
374,134,74918,1,2,0:0:0:0:
374,134,74988,1,0,0:0:0:0:
374,134,75059,1,2,0:0:0:0:
374,134,75130,1,0,0:0:0:0:
347,142,75271,1,4,0:0:0:0:
317,154,84045,5,6,0:0:0:0:
230,263,84328,1,0,0:0:0:0:
230,263,84753,1,0,0:0:0:0:
386,191,85460,1,2,0:0:0:0:
326,148,86026,5,2,0:0:0:0:
359,238,86592,1,0,0:0:0:0:
290,90,87017,1,2,0:0:0:0:
350,92,87724,1,0,0:0:0:0:
350,92,88007,1,0,0:0:0:0:
350,92,88290,1,2,0:0:0:0:
350,92,88573,1,2,0:0:0:0:
328,180,88856,1,0,0:0:0:0:
409,81,89281,1,0,0:0:0:0:
409,81,89988,1,2,0:0:0:0:
409,81,90413,1,2,0:0:0:0:
414,160,90837,1,0,0:0:0:0:
414,160,91120,1,2,0:0:0:0:
408,181,91403,1,0,0:0:0:0:
408,181,91545,1,2,0:0:0:0:
408,181,91828,1,2,0:0:0:0:
262,249,91970,1,0,0:0:0:0:
379,137,92040,1,2,0:0:0:0:
381,40,92111,1,2,0:0:0:0:
381,40,92182,1,2,0:0:0:0:
228,257,92253,1,0,0:0:0:0:
382,77,92323,1,0,0:0:0:0:
382,77,92394,1,0,0:0:0:0:
382,77,92465,1,2,0:0:0:0:
312,120,92536,1,2,0:0:0:0:
310,40,92606,1,2,0:0:0:0:
257,102,92677,1,0,0:0:0:0:
257,102,92748,1,0,0:0:0:0:
257,102,92819,1,2,0:0:0:0:
332,30,92889,1,2,0:0:0:0:
442,70,92960,1,2,0:0:0:0:
296,81,93031,1,0,0:0:0:0:
296,81,93102,1,0,0:0:0:0:
296,81,93172,1,0,0:0:0:0:
406,153,93243,1,2,0:0:0:0:
406,153,93314,1,2,0:0:0:0:
406,153,93385,1,0,0:0:0:0:
89,186,93526,1,0,0:0:0:0:
89,186,93597,1,0,0:0:0:0:
316,100,93668,1,2,0:0:0:0:
135,229,93809,1,0,0:0:0:0:
145,254,94092,1,0,0:0:0:0:
145,260,94234,1,2,0:0:0:0:
147,264,94304,1,2,0:0:0:0:
125,278,94375,1,0,0:0:0:0:
395,131,94517,1,2,0:0:0:0:
367,161,94658,1,0,0:0:0:0:
367,161,94729,1,0,0:0:0:0:
367,161,94800,1,0,0:0:0:0:
283,149,94941,1,0,0:0:0:0:
283,149,95083,1,2,0:0:0:0:
313,105,95224,1,0,0:0:0:0:
424,79,95295,1,0,0:0:0:0:
227,190,95366,1,2,0:0:0:0:
305,109,95436,1,2,0:0:0:0:
193,229,95507,1,0,0:0:0:0:
179,229,95649,1,2,0:0:0:0:
327,143,95790,1,2,0:0:0:0:
242,206,95861,1,0,0:0:0:0:
327,143,95932,1,0,0:0:0:0:
242,206,96003,1,2,0:0:0:0:
242,206,96073,1,2,0:0:0:0:
419,49,96356,1,2,0:0:0:0:
298,168,96427,1,0,0:0:0:0:
306,213,96498,1,2,0:0:0:0:
284,208,96569,1,2,0:0:0:0:
368,97,96639,1,0,0:0:0:0:
368,97,96710,1,0,0:0:0:0:
368,97,96781,1,2,0:0:0:0:
392,89,96922,1,2,0:0:0:0:
392,89,96993,1,2,0:0:0:0:
332,106,97064,1,0,0:0:0:0:
326,112,97205,1,0,0:0:0:0:
326,112,97276,1,0,0:0:0:0:
320,112,97347,1,2,0:0:0:0:
388,27,97488,1,2,0:0:0:0:
388,27,97559,1,2,0:0:0:0:
248,159,97630,1,0,0:0:0:0:
487,46,97701,1,2,0:0:0:0:
248,159,97771,1,0,0:0:0:0:
248,159,97842,1,0,0:0:0:0:
248,159,97913,1,2,0:0:0:0:
328,120,98054,1,0,0:0:0:0:
328,120,98125,1,0,0:0:0:0:
324,120,98196,1,0,0:0:0:0:
324,119,98337,1,2,0:0:0:0:
322,122,98620,1,0,0:0:0:0:
322,122,98691,1,0,0:0:0:0:
372,29,98762,1,2,0:0:0:0:
322,122,98833,1,0,0:0:0:0:
372,29,98903,1,2,0:0:0:0:
372,29,98974,1,2,0:0:0:0:
277,74,99045,1,0,0:0:0:0:
322,153,99186,1,0,0:0:0:0:
322,153,99257,1,0,0:0:0:0:
337,49,99328,1,0,0:0:0:0:
307,81,99470,1,2,0:0:0:0:
302,19,99753,1,0,0:0:0:0:
302,19,99823,1,0,0:0:0:0:
302,19,99894,1,2,0:0:0:0:
265,70,100036,1,0,0:0:0:0:
265,70,100177,1,2,0:0:0:0:
304,140,100319,1,0,0:0:0:0:
258,147,100389,1,0,0:0:0:0:
424,143,100460,1,0,0:0:0:0:
258,147,100531,1,2,0:0:0:0:
291,138,100602,1,2,0:0:0:0:
306,202,100885,1,2,0:0:0:0:
382,115,101026,1,0,0:0:0:0:
370,116,101097,1,2,0:0:0:0:
366,115,101168,1,2,0:0:0:0:
449,102,101238,1,0,0:0:0:0:
263,140,101309,1,0,0:0:0:0:
396,83,101380,1,0,0:0:0:0:
396,83,101451,1,2,0:0:0:0:
396,83,101521,1,2,0:0:0:0:
300,124,101592,1,0,0:0:0:0:
300,124,101663,1,0,0:0:0:0:
330,95,101734,1,0,0:0:0:0:
330,95,101804,1,2,0:0:0:0:
330,95,101875,1,2,0:0:0:0:
330,95,101946,1,2,0:0:0:0:
299,116,102017,1,0,0:0:0:0:
298,116,102087,1,0,0:0:0:0:
430,46,102158,1,2,0:0:0:0:
430,46,102229,1,2,0:0:0:0:
447,121,102300,1,0,0:0:0:0:
447,121,102370,1,0,0:0:0:0:
428,134,102441,1,2,0:0:0:0:
432,134,102512,1,2,0:0:0:0:
432,134,102583,1,2,0:0:0:0:
387,178,102653,1,0,0:0:0:0:
326,116,102724,1,0,0:0:0:0:
296,181,102795,1,0,0:0:0:0:
339,90,102866,1,0,0:0:0:0:
339,90,102936,1,0,0:0:0:0:
392,46,103007,1,2,0:0:0:0:
392,46,103078,1,2,0:0:0:0:
392,46,103149,1,2,0:0:0:0:
370,72,103220,1,0,0:0:0:0:
370,72,103290,1,0,0:0:0:0:
370,72,103361,1,0,0:0:0:0:
370,72,103432,1,2,0:0:0:0:
360,230,103573,1,0,0:0:0:0:
360,230,103644,1,0,0:0:0:0:
302,71,103715,1,2,0:0:0:0:
302,71,103786,1,2,0:0:0:0:
360,230,103856,1,0,0:0:0:0:
360,230,103927,1,0,0:0:0:0:
360,230,103998,1,0,0:0:0:0:
284,39,104069,1,2,0:0:0:0:
284,39,104139,1,2,0:0:0:0:
284,39,104210,1,2,0:0:0:0:
314,132,104281,1,0,0:0:0:0:
314,132,104352,1,0,0:0:0:0:
335,80,104422,1,2,0:0:0:0:
335,80,104493,1,2,0:0:0:0:
291,104,104564,1,0,0:0:0:0:
376,73,104635,1,0,0:0:0:0:
368,75,104705,1,2,0:0:0:0:
368,75,104776,1,2,0:0:0:0:
364,75,104847,1,2,0:0:0:0:
313,60,104918,1,0,0:0:0:0:
313,60,104988,1,0,0:0:0:0:
313,60,105059,1,0,0:0:0:0:
325,14,105130,1,2,0:0:0:0:
325,14,105201,1,2,0:0:0:0:
224,75,105271,1,0,0:0:0:0:
217,78,105342,1,0,0:0:0:0:
347,23,105413,1,2,0:0:0:0:
347,23,105484,1,2,0:0:0:0:
503,77,105554,1,0,0:0:0:0:
503,77,105625,1,0,0:0:0:0:
503,77,105696,1,0,0:0:0:0:
347,23,105767,1,2,0:0:0:0:
319,42,105837,1,2,0:0:0:0:
319,42,105908,1,2,0:0:0:0:
212,91,105979,1,0,0:0:0:0:
172,115,106050,1,0,0:0:0:0:
373,69,106120,1,2,0:0:0:0:
373,69,106191,1,2,0:0:0:0:
373,69,106262,1,0,0:0:0:0:
310,107,106333,1,0,0:0:0:0:
386,74,106403,1,2,0:0:0:0:
385,74,106474,1,2,0:0:0:0:
384,74,106545,1,2,0:0:0:0:
336,90,106616,1,0,0:0:0:0:
322,104,106686,1,0,0:0:0:0:
322,104,106757,1,0,0:0:0:0:
366,14,106828,1,2,0:0:0:0:
366,14,106899,1,2,0:0:0:0:
235,87,106970,1,0,0:0:0:0:
235,87,107040,1,0,0:0:0:0:
318,54,107111,1,0,0:0:0:0:
318,54,107182,1,2,0:0:0:0:
318,54,107253,1,2,0:0:0:0:
318,54,107323,1,2,0:0:0:0:
318,54,107394,1,0,0:0:0:0:
253,65,107465,1,0,0:0:0:0:
246,67,107536,1,2,0:0:0:0:
353,112,107630,1,0,0:0:0:0:
347,112,107724,1,2,0:0:0:0:
228,152,107819,1,0,0:0:0:0:
228,152,107913,1,2,0:0:0:0:
228,152,108007,1,2,0:0:0:0:
204,95,108102,1,0,0:0:0:0:
263,203,108172,1,0,0:0:0:0:
263,203,108243,1,0,0:0:0:0:
329,72,108314,1,0,0:0:0:0:
323,73,108385,1,2,0:0:0:0:
323,73,108455,1,2,0:0:0:0:
323,73,108526,1,2,0:0:0:0:
228,144,108597,1,0,0:0:0:0:
228,144,108668,1,0,0:0:0:0:
228,144,108738,1,0,0:0:0:0:
215,141,108809,1,2,0:0:0:0:
214,140,108880,1,2,0:0:0:0:
214,140,108951,1,0,0:0:0:0:
283,91,109021,1,0,0:0:0:0:
283,91,109092,1,0,0:0:0:0:
341,37,109163,1,2,0:0:0:0:
341,37,109234,1,2,0:0:0:0:
341,37,109304,1,2,0:0:0:0:
318,75,109375,1,0,0:0:0:0:
317,75,109446,1,0,0:0:0:0:
308,73,109517,1,2,0:0:0:0:
308,73,109587,1,2,0:0:0:0:
390,66,109658,1,0,0:0:0:0:
390,66,109729,1,0,0:0:0:0:
390,66,109800,1,2,0:0:0:0:
390,66,109870,1,2,0:0:0:0:
390,66,109941,1,2,0:0:0:0:
402,79,110012,1,0,0:0:0:0:
402,79,110083,1,0,0:0:0:0:
401,79,110153,1,0,0:0:0:0:
401,79,110224,1,2,0:0:0:0:
401,79,110295,1,2,0:0:0:0:
246,83,110366,1,0,0:0:0:0:
246,83,110436,1,0,0:0:0:0:
296,32,110507,1,2,0:0:0:0:
296,32,110578,1,2,0:0:0:0:
408,88,110649,1,0,0:0:0:0:
440,108,110720,1,0,0:0:0:0:
408,88,110790,1,0,0:0:0:0:
234,109,110861,1,2,0:0:0:0:
435,97,110932,1,2,0:0:0:0:
435,97,111003,1,2,0:0:0:0:
428,96,111073,1,0,0:0:0:0:
356,82,111144,1,0,0:0:0:0:
373,65,111215,1,2,0:0:0:0:
375,67,111286,1,2,0:0:0:0:
421,63,111356,1,0,0:0:0:0:
423,70,111427,1,0,0:0:0:0:
444,32,111498,1,2,0:0:0:0:
444,32,111569,1,2,0:0:0:0:
444,32,111639,1,0,0:0:0:0:
356,94,111710,1,2,0:0:0:0:
353,98,111781,1,0,0:0:0:0:
402,110,111875,1,2,0:0:0:0:
402,110,111970,1,2,0:0:0:0:
321,159,112064,1,0,0:0:0:0:
283,163,112135,1,0,0:0:0:0:
274,137,112205,1,2,0:0:0:0:
270,133,112276,1,2,0:0:0:0:
338,97,112347,1,0,0:0:0:0:
264,44,112488,1,2,0:0:0:0:
264,44,112559,1,2,0:0:0:0:
357,180,112630,1,0,0:0:0:0:
357,180,112701,1,0,0:0:0:0:
371,106,112771,1,2,0:0:0:0:
371,105,112842,1,2,0:0:0:0:
321,159,112913,1,0,0:0:0:0:
462,113,112984,1,0,0:0:0:0:
462,113,113054,1,0,0:0:0:0:
317,30,113125,1,2,0:0:0:0:
306,27,113196,1,2,0:0:0:0:
485,43,113267,1,2,0:0:0:0:
302,32,113337,1,0,0:0:0:0:
283,58,113408,1,0,0:0:0:0:
258,31,113479,1,2,0:0:0:0:
258,31,113550,1,2,0:0:0:0:
399,76,113620,1,2,0:0:0:0:
317,150,113691,1,0,0:0:0:0:
316,150,113762,1,0,0:0:0:0:
332,94,113833,1,0,0:0:0:0:
315,150,113903,1,2,0:0:0:0:
314,55,113974,1,2,0:0:0:0:
267,106,114045,1,0,0:0:0:0:
257,110,114116,1,0,0:0:0:0:
257,110,114186,1,0,0:0:0:0:
316,86,114257,1,2,0:0:0:0:
315,85,114328,1,2,0:0:0:0:
313,85,114399,1,2,0:0:0:0:
310,19,114470,1,0,0:0:0:0:
310,19,114540,1,0,0:0:0:0:
310,19,114611,1,2,0:0:0:0:
310,19,114682,1,2,0:0:0:0:
310,19,114753,1,2,0:0:0:0:
310,19,114823,1,2,0:0:0:0:
336,65,114894,1,0,0:0:0:0:
410,42,114965,1,0,0:0:0:0:
336,65,115036,1,2,0:0:0:0:
336,65,115106,1,2,0:0:0:0:
375,84,115177,1,0,0:0:0:0:
375,84,115248,1,0,0:0:0:0:
375,84,115319,1,0,0:0:0:0:
368,81,115389,1,2,0:0:0:0:
368,81,115460,1,2,0:0:0:0:
368,81,115531,1,2,0:0:0:0:
358,80,115602,1,0,0:0:0:0:
344,80,115672,1,0,0:0:0:0:
404,92,115743,1,2,0:0:0:0:
398,92,115814,1,2,0:0:0:0:
398,92,115885,1,2,0:0:0:0:
376,76,115955,1,0,0:0:0:0:
377,77,116026,1,0,0:0:0:0:
377,78,116097,1,0,0:0:0:0:
377,78,116168,1,2,0:0:0:0:
370,76,116238,1,2,0:0:0:0:
294,187,116309,1,0,0:0:0:0:
294,187,116380,1,0,0:0:0:0:
326,42,116451,1,0,0:0:0:0:
283,101,116521,1,0,0:0:0:0:
276,104,116592,1,2,0:0:0:0:
354,115,116686,1,0,0:0:0:0:
354,115,116781,1,2,0:0:0:0:
333,149,116875,1,0,0:0:0:0:
333,149,116970,1,2,0:0:0:0:
333,149,117064,1,2,0:0:0:0:
327,154,117158,1,0,0:0:0:0:
374,120,117229,1,0,0:0:0:0:
374,120,117300,1,0,0:0:0:0:
374,120,117370,1,2,0:0:0:0:
374,120,117441,1,2,0:0:0:0:
374,120,117512,1,2,0:0:0:0:
314,96,117583,1,0,0:0:0:0:
314,96,117653,1,0,0:0:0:0:
314,96,117724,1,0,0:0:0:0:
322,22,117795,1,0,0:0:0:0:
312,34,117866,1,2,0:0:0:0:
314,35,117936,1,2,0:0:0:0:
488,110,118007,1,0,0:0:0:0:
278,57,118078,1,0,0:0:0:0:
450,54,118149,1,2,0:0:0:0:
450,54,118220,1,2,0:0:0:0:
350,34,118290,1,2,0:0:0:0:
374,158,118361,1,0,0:0:0:0:
374,158,118432,1,0,0:0:0:0:
374,158,118503,1,0,0:0:0:0:
355,54,118573,1,2,0:0:0:0:
356,54,118644,1,2,0:0:0:0:
269,97,118715,1,0,0:0:0:0:
363,84,118786,1,0,0:0:0:0:
363,84,118856,1,2,0:0:0:0:
269,97,118927,1,2,0:0:0:0:
260,44,118998,1,2,0:0:0:0:
260,45,119069,1,0,0:0:0:0:
217,73,119139,1,0,0:0:0:0:
204,88,119210,1,0,0:0:0:0:
315,92,119281,1,2,0:0:0:0:
303,93,119352,1,2,0:0:0:0:
238,128,119422,1,0,0:0:0:0:
395,108,119493,1,0,0:0:0:0:
395,108,119564,1,2,0:0:0:0:
386,108,119635,1,2,0:0:0:0:
383,108,119705,1,2,0:0:0:0:
382,107,119776,1,2,0:0:0:0:
411,148,119847,1,0,0:0:0:0:
411,148,119918,1,0,0:0:0:0:
411,148,119988,1,2,0:0:0:0:
411,148,120059,1,2,0:0:0:0:
411,148,120130,1,0,0:0:0:0:
386,170,120201,1,0,0:0:0:0:
386,170,120271,1,0,0:0:0:0:
402,60,120342,1,2,0:0:0:0:
402,60,120413,1,2,0:0:0:0:
402,60,120484,1,2,0:0:0:0:
285,113,120554,1,0,0:0:0:0:
376,58,120625,1,0,0:0:0:0:
285,113,120696,1,2,0:0:0:0:
364,65,120767,1,2,0:0:0:0:
473,136,120837,1,0,0:0:0:0:
331,62,120932,1,2,0:0:0:0:
331,62,121026,1,2,0:0:0:0:
196,153,121120,1,0,0:0:0:0:
304,76,121191,1,2,0:0:0:0:
304,76,121262,1,2,0:0:0:0:
304,76,121333,1,2,0:0:0:0:
232,100,121403,1,0,0:0:0:0:
316,53,121474,1,0,0:0:0:0:
316,53,121545,1,2,0:0:0:0:
373,66,121616,1,2,0:0:0:0:
294,57,121686,1,0,0:0:0:0:
382,211,121828,1,0,0:0:0:0:
382,211,121899,1,0,0:0:0:0:
304,76,121970,1,2,0:0:0:0:
292,83,122111,1,0,0:0:0:0:
292,83,122253,1,2,0:0:0:0:
292,83,122323,1,2,0:0:0:0:
292,83,122394,1,0,0:0:0:0:
292,83,122465,1,0,0:0:0:0:
334,116,122536,1,2,0:0:0:0:
366,41,122606,1,2,0:0:0:0:
366,41,122677,1,2,0:0:0:0:
336,54,122748,1,0,0:0:0:0:
336,54,122819,1,2,0:0:0:0:
340,78,122960,1,0,0:0:0:0:
340,78,123102,1,2,0:0:0:0:
439,91,123172,1,0,0:0:0:0:
340,78,123243,1,0,0:0:0:0:
340,78,123314,1,2,0:0:0:0:
340,78,123385,1,2,0:0:0:0:
242,222,123526,1,0,0:0:0:0:
242,222,123668,1,2,0:0:0:0:
242,222,123738,1,2,0:0:0:0:
242,222,123809,1,0,0:0:0:0:
394,122,123880,1,0,0:0:0:0:
233,223,123951,1,2,0:0:0:0:
414,80,124092,1,2,0:0:0:0:
414,80,124163,1,2,0:0:0:0:
323,82,124234,1,0,0:0:0:0:
323,82,124304,1,0,0:0:0:0:
323,82,124375,1,0,0:0:0:0:
315,80,124446,1,2,0:0:0:0:
312,79,124517,1,2,0:0:0:0:
309,78,124587,1,2,0:0:0:0:
302,86,124658,1,0,0:0:0:0:
286,94,124729,1,0,0:0:0:0:
326,52,124800,1,2,0:0:0:0:
326,52,124870,1,2,0:0:0:0:
310,67,124941,1,0,0:0:0:0:
308,69,125012,1,0,0:0:0:0:
304,69,125083,1,2,0:0:0:0:
349,85,125224,1,0,0:0:0:0:
349,85,125366,1,2,0:0:0:0:
371,68,125436,1,2,0:0:0:0:
338,113,125507,1,0,0:0:0:0:
338,113,125578,1,0,0:0:0:0:
349,44,125649,1,2,0:0:0:0:
179,192,125743,1,0,0:0:0:0:
179,192,125837,1,2,0:0:0:0:
240,206,125932,1,0,0:0:0:0:
139,224,126026,1,2,0:0:0:0:
139,224,126120,1,2,0:0:0:0:
30,265,126215,1,0,0:0:0:0:
260,119,126356,1,0,0:0:0:0:
260,119,126427,1,0,0:0:0:0:
260,119,126498,1,2,0:0:0:0:
307,56,126569,1,2,0:0:0:0:
308,56,126639,1,2,0:0:0:0:
278,67,126710,1,0,0:0:0:0:
278,67,126781,1,0,0:0:0:0:
403,83,126852,1,0,0:0:0:0:
278,67,126922,1,2,0:0:0:0:
278,67,126993,1,2,0:0:0:0:
402,106,127064,1,2,0:0:0:0:
406,110,127135,1,2,0:0:0:0:
402,106,127205,1,0,0:0:0:0:
395,108,127276,1,0,0:0:0:0:
338,70,127347,1,2,0:0:0:0:
270,76,127488,1,0,0:0:0:0:
321,29,127559,1,2,0:0:0:0:
265,78,127630,1,2,0:0:0:0:
310,99,127771,1,0,0:0:0:0:
310,99,127913,1,2,0:0:0:0:
310,99,127984,1,2,0:0:0:0:
310,99,128054,1,0,0:0:0:0:
310,99,128125,1,0,0:0:0:0:
344,42,128196,1,2,0:0:0:0:
324,80,128337,1,0,0:0:0:0:
315,91,128479,1,2,0:0:0:0:
334,39,128550,1,2,0:0:0:0:
334,39,128620,1,2,0:0:0:0:
353,67,128691,1,0,0:0:0:0:
344,69,128762,1,2,0:0:0:0:
315,92,128903,1,0,0:0:0:0:
315,92,129045,1,2,0:0:0:0:
336,152,129116,1,0,0:0:0:0:
336,152,129186,1,2,0:0:0:0:
439,175,129257,1,0,0:0:0:0:
270,93,129328,1,2,0:0:0:0:
392,110,129470,1,0,0:0:0:0:
448,154,129540,1,0,0:0:0:0:
365,102,129611,1,2,0:0:0:0:
469,25,129682,1,2,0:0:0:0:
345,110,129753,1,0,0:0:0:0:
392,221,129823,1,2,0:0:0:0:
345,111,129894,1,0,0:0:0:0:
288,81,129988,1,2,0:0:0:0:
288,81,130083,1,2,0:0:0:0:
247,132,130177,1,0,0:0:0:0:
416,130,130248,1,0,0:0:0:0:
416,130,130319,1,2,0:0:0:0:
409,128,130389,1,2,0:0:0:0:
401,124,130460,1,0,0:0:0:0:
377,40,130531,1,0,0:0:0:0:
377,40,130602,1,0,0:0:0:0:
377,40,130672,1,2,0:0:0:0:
371,40,130743,1,2,0:0:0:0:
436,169,130885,1,0,0:0:0:0:
436,169,130955,1,0,0:0:0:0:
436,169,131026,1,2,0:0:0:0:
288,72,131168,1,0,0:0:0:0:
288,72,131309,1,2,0:0:0:0:
288,72,131380,1,0,0:0:0:0:
267,94,131451,1,0,0:0:0:0:
267,94,131521,1,2,0:0:0:0:
267,94,131592,1,2,0:0:0:0:
379,191,131734,1,0,0:0:0:0:
379,191,131875,1,2,0:0:0:0:
379,191,131946,1,2,0:0:0:0:
379,191,132017,1,0,0:0:0:0:
379,191,132087,1,0,0:0:0:0:
379,191,132158,1,2,0:0:0:0:
343,140,132300,1,0,0:0:0:0:
343,140,132441,1,2,0:0:0:0:
343,140,132512,1,2,0:0:0:0:
343,140,132583,1,2,0:0:0:0:
343,140,132653,1,0,0:0:0:0:
343,140,132724,1,2,0:0:0:0:
429,118,132866,1,0,0:0:0:0:
429,118,133007,1,2,0:0:0:0:
429,118,133078,1,2,0:0:0:0:
400,188,133149,1,0,0:0:0:0:
400,188,133220,1,0,0:0:0:0:
400,188,133290,1,0,0:0:0:0:
392,69,133361,1,2,0:0:0:0:
248,68,133432,1,0,0:0:0:0:
400,188,133503,1,2,0:0:0:0:
390,136,133573,1,2,0:0:0:0:
248,68,133644,1,2,0:0:0:0:
394,131,133715,1,0,0:0:0:0:
394,131,133786,1,0,0:0:0:0:
394,131,133856,1,2,0:0:0:0:
394,131,133927,1,2,0:0:0:0:
257,157,133998,1,0,0:0:0:0:
257,157,134069,1,0,0:0:0:0:
394,131,134139,1,2,0:0:0:0:
386,85,134281,1,0,0:0:0:0:
386,85,134422,1,2,0:0:0:0:
350,116,134493,1,2,0:0:0:0:
305,148,134564,1,0,0:0:0:0:
353,24,134635,1,0,0:0:0:0:
353,24,134705,1,2,0:0:0:0:
205,163,134800,1,0,0:0:0:0:
364,193,134894,1,2,0:0:0:0:
205,163,134988,1,0,0:0:0:0:
364,193,135083,1,2,0:0:0:0:
205,163,135177,1,2,0:0:0:0:
146,231,135271,1,0,0:0:0:0:
184,154,135413,1,0,0:0:0:0:
191,149,135483,1,0,0:0:0:0:
191,149,135554,1,2,0:0:0:0:
183,154,135696,1,0,0:0:0:0:
312,90,135837,1,2,0:0:0:0:
309,91,135908,1,2,0:0:0:0:
309,91,135979,1,0,0:0:0:0:
327,49,136050,1,0,0:0:0:0:
312,90,136120,1,2,0:0:0:0:
331,84,136191,1,2,0:0:0:0:
324,87,136262,1,2,0:0:0:0:
379,70,136333,1,0,0:0:0:0:
365,76,136403,1,2,0:0:0:0:
328,161,136545,1,0,0:0:0:0:
328,161,136686,1,2,0:0:0:0:
326,165,136757,1,2,0:0:0:0:
318,174,136828,1,0,0:0:0:0:
318,174,136899,1,0,0:0:0:0:
315,174,136970,1,2,0:0:0:0:
354,123,137111,1,0,0:0:0:0:
354,123,137253,1,2,0:0:0:0:
409,83,137323,1,0,0:0:0:0:
291,159,137394,1,0,0:0:0:0:
291,159,137465,1,2,0:0:0:0:
285,159,137536,1,2,0:0:0:0:
364,105,137677,1,0,0:0:0:0:
363,106,137819,1,2,0:0:0:0:
369,72,137889,1,2,0:0:0:0:
239,126,137960,1,0,0:0:0:0:
239,126,138031,1,0,0:0:0:0:
239,126,138102,1,2,0:0:0:0:
391,101,138172,1,2,0:0:0:0:
275,67,138243,1,0,0:0:0:0:
275,67,138314,1,0,0:0:0:0:
276,28,138385,1,0,0:0:0:0:
348,77,138455,1,2,0:0:0:0:
348,77,138526,1,2,0:0:0:0:
348,77,138597,1,2,0:0:0:0:
312,106,138668,1,0,0:0:0:0:
305,91,138809,1,2,0:0:0:0:
305,91,138880,1,2,0:0:0:0:
276,114,138951,1,0,0:0:0:0:
390,19,139045,1,2,0:0:0:0:
390,19,139139,1,2,0:0:0:0:
291,105,139234,1,0,0:0:0:0:
285,90,139304,1,2,0:0:0:0:
290,106,139375,1,2,0:0:0:0:
289,92,139446,1,2,0:0:0:0:
211,173,139517,1,0,0:0:0:0:
294,78,139587,1,0,0:0:0:0:
294,78,139658,1,2,0:0:0:0:
295,144,139800,1,0,0:0:0:0:
256,78,139835,1,2,0:0:0:0:
469,203,142064,1,2,0:0:0:0:
302,182,142135,1,2,0:0:0:0:
302,182,142205,1,2,0:0:0:0:
225,291,142276,1,0,0:0:0:0:
379,179,142347,1,0,0:0:0:0:
379,179,142418,1,0,0:0:0:0:
447,183,142488,1,2,0:0:0:0:
447,183,142559,1,2,0:0:0:0:
291,102,142630,1,0,0:0:0:0:
291,102,142701,1,0,0:0:0:0:
291,102,142771,1,2,0:0:0:0:
291,102,142842,1,2,0:0:0:0:
252,158,142913,1,0,0:0:0:0:
250,164,142984,1,0,0:0:0:0:
325,40,143054,1,2,0:0:0:0:
325,40,143125,1,2,0:0:0:0:
325,40,143196,1,2,0:0:0:0:
293,35,143267,1,0,0:0:0:0:
293,35,143337,1,0,0:0:0:0:
293,35,143408,1,0,0:0:0:0:
293,35,143479,1,2,0:0:0:0:
419,121,143550,1,2,0:0:0:0:
375,163,143620,1,2,0:0:0:0:
375,163,143691,1,0,0:0:0:0:
375,163,143762,1,2,0:0:0:0:
375,163,143833,1,2,0:0:0:0:
366,159,143903,1,0,0:0:0:0:
366,159,144045,1,4,0:0:0:0:
313,149,144328,1,2,0:0:0:0:
367,148,144470,1,0,0:0:0:0:
367,148,144540,1,0,0:0:0:0:
372,104,144611,1,2,0:0:0:0:
349,91,144753,1,4,0:0:0:0:
318,97,144894,1,2,0:0:0:0:
349,91,145036,1,4,0:0:0:0:
313,117,145177,1,2,0:0:0:0:
313,117,145248,1,2,0:0:0:0:
329,123,145319,1,2,0:0:0:0:
331,113,145460,1,4,0:0:0:0:
329,99,145602,1,2,0:0:0:0:
376,49,145672,1,2,0:0:0:0:
329,99,145743,1,0,0:0:0:0:
372,53,145814,1,0,0:0:0:0:
372,53,145885,1,2,0:0:0:0:
372,53,145955,1,2,0:0:0:0:
372,53,146026,1,2,0:0:0:0:
370,90,146097,1,0,0:0:0:0:
370,90,146168,1,0,0:0:0:0:
370,90,146238,1,0,0:0:0:0:
370,90,146309,1,2,0:0:0:0:
370,90,146380,1,2,0:0:0:0:
395,114,146451,1,0,0:0:0:0:
369,113,146592,1,6,0:0:0:0:
344,104,146734,1,0,0:0:0:0:
365,131,146875,1,6,0:0:0:0:
365,131,147017,1,6,0:0:0:0:
351,91,147158,1,0,0:0:0:0:
365,131,147300,1,6,0:0:0:0:
351,92,147441,1,0,0:0:0:0:
405,63,147512,1,2,0:0:0:0:
405,63,147583,1,2,0:0:0:0:
365,131,147724,1,6,0:0:0:0:
349,213,147866,1,0,0:0:0:0:
349,213,147936,1,0,0:0:0:0:
375,80,148007,1,2,0:0:0:0:
357,115,148078,1,0,0:0:0:0:
357,115,148149,1,2,0:0:0:0:
357,115,148220,1,2,0:0:0:0:
376,67,148290,1,0,0:0:0:0:
353,99,148361,1,2,0:0:0:0:
343,120,148432,1,0,0:0:0:0:
343,120,148503,1,0,0:0:0:0:
333,119,148573,1,2,0:0:0:0:
328,126,148644,1,0,0:0:0:0:
328,126,148715,1,2,0:0:0:0:
328,126,148786,1,2,0:0:0:0:
336,92,148856,1,0,0:0:0:0:
277,130,148998,1,0,0:0:0:0:
277,130,149069,1,2,0:0:0:0:
371,36,149139,1,2,0:0:0:0:
331,100,149281,1,0,0:0:0:0:
277,130,149422,1,0,0:0:0:0:
307,189,149564,1,0,0:0:0:0:
307,189,149635,1,2,0:0:0:0:
307,189,149705,1,2,0:0:0:0:
365,134,149847,1,0,0:0:0:0:
365,134,149988,1,0,0:0:0:0:
393,104,150130,1,0,0:0:0:0:
418,37,150201,1,2,0:0:0:0:
393,104,150271,1,2,0:0:0:0:
384,136,150413,1,0,0:0:0:0:
383,136,150554,1,0,0:0:0:0:
383,136,150696,1,0,0:0:0:0:
383,136,150767,1,0,0:0:0:0:
383,136,150837,1,2,0:0:0:0:
332,80,150979,1,0,0:0:0:0:
332,80,151120,1,2,0:0:0:0:
259,140,151191,1,2,0:0:0:0:
241,156,151262,1,0,0:0:0:0:
241,156,151333,1,0,0:0:0:0:
377,22,151403,1,2,0:0:0:0:
377,22,151474,1,2,0:0:0:0:
287,81,151545,1,0,0:0:0:0:
287,81,151616,1,0,0:0:0:0:
287,81,151686,1,2,0:0:0:0:
337,117,151757,1,0,0:0:0:0:
343,122,151828,1,0,0:0:0:0:
343,122,151899,1,2,0:0:0:0:
337,117,151970,1,2,0:0:0:0:
337,117,152040,1,2,0:0:0:0:
328,135,152111,1,0,0:0:0:0:
412,78,152182,1,0,0:0:0:0:
323,143,152253,1,2,0:0:0:0:
407,88,152323,1,2,0:0:0:0:
344,161,152394,1,0,0:0:0:0:
313,89,152465,1,0,0:0:0:0:
313,89,152536,1,2,0:0:0:0:
313,89,152606,1,2,0:0:0:0:
290,105,152677,1,0,0:0:0:0:
290,105,152748,1,0,0:0:0:0:
290,105,152819,1,2,0:0:0:0:
290,105,152889,1,2,0:0:0:0:
340,66,152960,1,0,0:0:0:0:
340,66,153031,1,0,0:0:0:0:
332,65,153102,1,2,0:0:0:0:
332,65,153172,1,2,0:0:0:0:
328,69,153243,1,0,0:0:0:0:
328,70,153314,1,0,0:0:0:0:
324,70,153385,1,2,0:0:0:0:
382,89,153526,1,0,0:0:0:0:
382,89,153597,1,0,0:0:0:0:
382,89,153668,1,2,0:0:0:0:
386,136,153809,1,4,0:0:0:0:
352,101,153951,1,2,0:0:0:0:
386,136,154092,1,4,0:0:0:0:
370,86,154234,1,2,0:0:0:0:
370,86,154304,1,2,0:0:0:0:
370,86,154375,1,2,0:0:0:0:
386,136,154517,1,4,0:0:0:0:
285,105,154658,1,0,0:0:0:0:
285,105,154729,1,0,0:0:0:0:
285,105,154800,1,2,0:0:0:0:
285,105,154870,1,2,0:0:0:0:
285,105,154941,1,0,0:0:0:0:
281,112,155012,1,0,0:0:0:0:
281,112,155083,1,2,0:0:0:0:
315,64,155153,1,0,0:0:0:0:
280,112,155224,1,2,0:0:0:0:
315,64,155295,1,2,0:0:0:0:
315,64,155366,1,2,0:0:0:0:
294,79,155436,1,0,0:0:0:0:
285,90,155507,1,0,0:0:0:0:
443,99,155649,1,6,0:0:0:0:
424,206,155790,1,0,0:0:0:0:
443,99,155932,1,6,0:0:0:0:
443,99,156073,1,6,0:0:0:0:
424,206,156215,1,0,0:0:0:0:
443,99,156356,1,6,0:0:0:0:
424,206,156498,1,0,0:0:0:0:
367,57,156569,1,2,0:0:0:0:
367,57,156639,1,2,0:0:0:0:
443,99,156781,1,6,0:0:0:0:
392,67,156922,1,0,0:0:0:0:
464,43,156993,1,2,0:0:0:0:
392,67,157064,1,2,0:0:0:0:
392,67,157135,1,2,0:0:0:0:
392,67,157205,1,0,0:0:0:0:
392,67,157276,1,0,0:0:0:0:
256,60,157347,1,0,0:0:0:0:
300,28,157418,1,2,0:0:0:0:
195,111,157488,1,0,0:0:0:0:
290,90,157559,1,2,0:0:0:0:
256,60,157630,1,2,0:0:0:0:
334,30,157701,1,2,0:0:0:0:
287,68,157771,1,0,0:0:0:0:
289,69,157842,1,0,0:0:0:0:
371,51,157913,1,2,0:0:0:0:
364,142,158054,1,0,0:0:0:0:
364,142,158125,1,2,0:0:0:0:
364,142,158196,1,2,0:0:0:0:
372,168,158337,1,0,0:0:0:0:
372,168,158479,1,0,0:0:0:0:
372,168,158620,1,0,0:0:0:0:
372,168,158691,1,2,0:0:0:0:
372,168,158762,1,2,0:0:0:0:
350,183,158903,1,0,0:0:0:0:
342,188,159045,1,2,0:0:0:0:
276,229,159186,1,0,0:0:0:0:
276,229,159257,1,2,0:0:0:0:
270,228,159328,1,2,0:0:0:0:
323,63,159470,1,0,0:0:0:0:
323,63,159611,1,0,0:0:0:0:
323,63,159753,1,0,0:0:0:0:
323,63,159823,1,0,0:0:0:0:
323,63,159894,1,2,0:0:0:0:
281,216,160036,1,0,0:0:0:0:
281,216,160177,1,2,0:0:0:0:
310,33,160248,1,2,0:0:0:0:
291,46,160319,1,0,0:0:0:0:
290,48,160389,1,0,0:0:0:0:
290,48,160460,1,2,0:0:0:0:
290,48,160531,1,2,0:0:0:0:
280,53,160602,1,0,0:0:0:0:
274,60,160672,1,0,0:0:0:0:
349,27,160743,1,2,0:0:0:0:
349,27,160814,1,2,0:0:0:0:
325,49,160885,1,0,0:0:0:0:
322,52,160955,1,0,0:0:0:0:
325,66,161026,1,0,0:0:0:0:
322,52,161097,1,2,0:0:0:0:
325,66,161168,1,0,0:0:0:0:
325,66,161238,1,2,0:0:0:0:
364,104,161309,1,2,0:0:0:0:
364,104,161380,1,2,0:0:0:0:
313,123,161451,1,0,0:0:0:0:
286,145,161521,1,0,0:0:0:0:
364,49,161592,1,2,0:0:0:0:
364,49,161663,1,0,0:0:0:0:
364,49,161734,1,2,0:0:0:0:
320,73,161804,1,2,0:0:0:0:
293,88,161875,1,0,0:0:0:0:
339,25,161946,1,2,0:0:0:0:
293,88,162017,1,0,0:0:0:0:
293,88,162087,1,0,0:0:0:0:
339,25,162158,1,2,0:0:0:0:
371,101,162229,1,2,0:0:0:0:
371,101,162300,1,0,0:0:0:0:
302,65,162370,1,0,0:0:0:0:
302,65,162441,1,0,0:0:0:0:
302,65,162512,1,2,0:0:0:0:
263,59,162583,1,0,0:0:0:0:
384,41,162653,1,0,0:0:0:0:
263,59,162724,1,2,0:0:0:0:
256,65,162795,1,0,0:0:0:0:
289,34,162866,1,2,0:0:0:0:
289,34,162936,1,2,0:0:0:0:
256,76,163007,1,0,0:0:0:0:
411,30,163078,1,2,0:0:0:0:
235,106,163149,1,2,0:0:0:0:
235,106,163220,1,2,0:0:0:0:
473,75,163290,1,0,0:0:0:0:
407,76,163361,1,0,0:0:0:0:
296,86,163432,1,2,0:0:0:0:
296,86,163503,1,2,0:0:0:0:
217,150,163573,1,0,0:0:0:0:
356,198,164705,5,0,0:0:0:0:
356,198,164775,1,0,0:0:0:0:
385,59,164846,1,2,0:0:0:0:
385,59,164917,1,2,0:0:0:0:
353,102,164988,1,0,0:0:0:0:
289,79,165058,1,0,0:0:0:0:
289,79,165129,1,0,0:0:0:0:
363,79,165200,1,2,0:0:0:0:
364,79,165271,1,2,0:0:0:0:
364,79,165341,1,2,0:0:0:0:
265,75,165412,1,0,0:0:0:0:
265,75,165483,1,0,0:0:0:0:
257,72,165554,1,2,0:0:0:0:
337,47,165624,1,2,0:0:0:0:
250,95,165695,1,0,0:0:0:0:
249,95,165766,1,0,0:0:0:0:
265,90,165837,1,2,0:0:0:0:
271,18,165907,1,2,0:0:0:0:
375,58,165978,1,0,0:0:0:0:
342,81,166049,1,2,0:0:0:0:
291,126,166120,1,0,0:0:0:0:
408,57,166190,1,0,0:0:0:0:
396,60,166261,1,2,0:0:0:0:
378,67,166332,1,2,0:0:0:0:
342,81,166403,1,0,0:0:0:0:
342,81,166473,1,0,0:0:0:0:
342,81,166544,1,2,0:0:0:0:
423,96,166615,1,0,0:0:0:0:
314,92,166686,1,0,0:0:0:0:
305,96,166757,1,0,0:0:0:0:
427,104,166827,1,2,0:0:0:0:
398,122,166898,1,2,0:0:0:0:
252,206,166969,1,0,0:0:0:0:
241,129,167040,1,0,0:0:0:0:
241,129,167110,1,0,0:0:0:0:
241,129,167181,1,0,0:0:0:0:
346,63,167252,1,2,0:0:0:0:
342,65,167323,1,2,0:0:0:0:
314,92,167393,1,0,0:0:0:0:
314,92,167464,1,0,0:0:0:0:
362,43,167535,1,2,0:0:0:0:
362,43,167606,1,2,0:0:0:0:
362,43,167676,1,2,0:0:0:0:
346,63,167747,1,0,0:0:0:0:
346,63,167818,1,0,0:0:0:0:
340,65,167889,1,0,0:0:0:0:
358,24,167959,1,2,0:0:0:0:
358,24,168030,1,2,0:0:0:0:
295,68,168101,1,0,0:0:0:0:
295,68,168172,1,0,0:0:0:0:
295,68,168242,1,0,0:0:0:0:
365,25,168313,1,2,0:0:0:0:
365,25,168384,1,2,0:0:0:0:
365,25,168455,1,2,0:0:0:0:
307,75,168525,1,0,0:0:0:0:
289,96,168596,1,0,0:0:0:0:
339,90,168667,1,2,0:0:0:0:
304,117,168738,1,2,0:0:0:0:
267,142,168808,1,0,0:0:0:0:
267,142,168879,1,0,0:0:0:0:
320,33,168950,1,2,0:0:0:0:
200,149,169021,1,2,0:0:0:0:
200,149,169091,1,0,0:0:0:0:
200,149,169162,1,2,0:0:0:0:
356,198,169233,1,0,0:0:0:0:
356,198,169303,1,0,0:0:0:0:
385,59,169374,1,2,0:0:0:0:
385,59,169445,1,2,0:0:0:0:
353,102,169516,1,0,0:0:0:0:
289,79,169586,1,0,0:0:0:0:
289,79,169657,1,0,0:0:0:0:
363,79,169728,1,2,0:0:0:0:
364,79,169799,1,2,0:0:0:0:
364,79,169869,1,2,0:0:0:0:
265,75,169940,1,0,0:0:0:0:
265,75,170011,1,0,0:0:0:0:
257,72,170082,1,2,0:0:0:0:
337,47,170152,1,2,0:0:0:0:
250,95,170223,1,0,0:0:0:0:
249,95,170294,1,0,0:0:0:0:
265,90,170365,1,2,0:0:0:0:
271,18,170435,1,0,0:0:0:0:
342,81,170506,1,2,0:0:0:0:
375,58,170577,1,0,0:0:0:0:
291,126,170648,1,2,0:0:0:0:
408,57,170720,1,0,0:0:0:0:
396,60,170789,1,2,0:0:0:0:
378,67,170860,1,2,0:0:0:0:
342,81,170931,1,0,0:0:0:0:
342,81,171003,1,0,0:0:0:0:
342,81,171072,1,2,0:0:0:0:
423,96,171143,1,0,0:0:0:0:
314,92,171214,1,0,0:0:0:0:
305,96,171285,1,0,0:0:0:0:
427,104,171355,1,2,0:0:0:0:
398,122,171426,1,2,0:0:0:0:
401,176,171497,1,0,0:0:0:0:
401,176,171568,1,0,0:0:0:0:
374,107,171639,1,2,0:0:0:0:
374,107,171709,1,2,0:0:0:0:
326,227,171780,1,2,0:0:0:0:
326,227,171851,1,0,0:0:0:0:
326,227,171922,1,0,0:0:0:0:
326,227,171992,1,0,0:0:0:0:
326,227,172063,1,2,0:0:0:0:
326,227,172134,1,2,0:0:0:0:
371,82,172205,1,0,0:0:0:0:
390,69,172275,1,2,0:0:0:0:
475,75,172346,1,0,0:0:0:0:
486,51,172417,1,0,0:0:0:0:
390,69,172488,1,2,0:0:0:0:
390,69,172558,1,2,0:0:0:0:
357,86,172629,1,0,0:0:0:0:
411,59,172700,1,2,0:0:0:0:
411,59,172771,1,2,0:0:0:0:
411,59,172841,1,2,0:0:0:0:
382,83,172912,1,0,0:0:0:0:
357,122,172983,1,2,0:0:0:0:
357,122,173054,1,2,0:0:0:0:
357,122,173124,1,2,0:0:0:0:
357,122,173195,1,0,0:0:0:0:
357,122,173266,1,0,0:0:0:0:
357,122,173337,1,2,0:0:0:0:
357,122,173407,1,2,0:0:0:0:
374,25,173478,1,2,0:0:0:0:
364,138,173549,1,0,0:0:0:0:
316,41,173620,1,2,0:0:0:0:
354,26,173691,1,2,0:0:0:0:
354,26,173761,1,0,0:0:0:0:
385,59,173903,1,2,0:0:0:0:
385,59,173974,1,2,0:0:0:0:
353,102,174045,1,0,0:0:0:0:
289,79,174115,1,0,0:0:0:0:
289,79,174186,1,0,0:0:0:0:
363,79,174257,1,2,0:0:0:0:
364,79,174328,1,2,0:0:0:0:
364,79,174398,1,2,0:0:0:0:
265,75,174469,1,0,0:0:0:0:
265,75,174540,1,0,0:0:0:0:
257,72,174611,1,2,0:0:0:0:
337,47,174681,1,2,0:0:0:0:
250,95,174752,1,0,0:0:0:0:
249,95,174823,1,0,0:0:0:0:
265,90,174894,1,2,0:0:0:0:
271,18,174964,1,0,0:0:0:0:
375,58,175035,1,2,0:0:0:0:
342,81,175106,1,2,0:0:0:0:
291,126,175177,1,0,0:0:0:0:
408,57,175247,1,0,0:0:0:0:
396,60,175318,1,2,0:0:0:0:
378,67,175389,1,2,0:0:0:0:
342,81,175460,1,0,0:0:0:0:
342,81,175530,1,0,0:0:0:0:
342,81,175601,1,2,0:0:0:0:
423,96,175672,1,0,0:0:0:0:
314,92,175743,1,0,0:0:0:0:
305,96,175814,1,0,0:0:0:0:
427,104,175884,1,2,0:0:0:0:
398,122,175955,1,2,0:0:0:0:
252,206,176026,1,0,0:0:0:0:
241,129,176097,1,0,0:0:0:0:
241,129,176167,1,0,0:0:0:0:
241,129,176238,1,0,0:0:0:0:
346,63,176309,1,2,0:0:0:0:
342,65,176380,1,2,0:0:0:0:
314,92,176450,1,0,0:0:0:0:
314,92,176521,1,0,0:0:0:0:
362,43,176592,1,2,0:0:0:0:
362,43,176663,1,2,0:0:0:0:
362,43,176733,1,2,0:0:0:0:
346,63,176804,1,0,0:0:0:0:
346,63,176875,1,0,0:0:0:0:
340,65,176946,1,0,0:0:0:0:
358,24,177016,1,2,0:0:0:0:
358,24,177087,1,2,0:0:0:0:
295,68,177158,1,0,0:0:0:0:
295,68,177229,1,0,0:0:0:0:
295,68,177299,1,0,0:0:0:0:
365,25,177370,1,2,0:0:0:0:
365,25,177441,1,2,0:0:0:0:
365,25,177512,1,2,0:0:0:0:
307,75,177582,1,0,0:0:0:0:
289,96,177653,1,0,0:0:0:0:
339,90,177724,1,2,0:0:0:0:
304,117,177795,1,2,0:0:0:0:
267,142,177865,1,0,0:0:0:0:
267,142,177936,1,0,0:0:0:0:
320,33,178007,1,2,0:0:0:0:
200,149,178078,1,2,0:0:0:0:
200,149,178148,1,0,0:0:0:0:
200,149,178219,1,2,0:0:0:0:
356,198,178290,1,0,0:0:0:0:
356,198,178360,1,0,0:0:0:0:
385,59,178431,1,2,0:0:0:0:
385,59,178502,1,2,0:0:0:0:
353,102,178573,1,0,0:0:0:0:
289,79,178643,1,0,0:0:0:0:
289,79,178714,1,0,0:0:0:0:
363,79,178785,1,2,0:0:0:0:
364,79,178856,1,2,0:0:0:0:
364,79,178926,1,2,0:0:0:0:
265,75,178997,1,0,0:0:0:0:
265,75,179068,1,0,0:0:0:0:
257,72,179139,1,2,0:0:0:0:
337,47,179209,1,2,0:0:0:0:
250,95,179280,1,0,0:0:0:0:
249,95,179351,1,0,0:0:0:0:
265,90,179422,1,2,0:0:0:0:
271,18,179492,1,2,0:0:0:0:
342,81,179563,1,2,0:0:0:0:
375,58,179634,1,0,0:0:0:0:
291,126,179705,1,2,0:0:0:0:
408,57,179775,1,0,0:0:0:0:
396,60,179846,1,2,0:0:0:0:
378,67,179917,1,2,0:0:0:0:
342,81,179988,1,0,0:0:0:0:
342,81,180058,1,0,0:0:0:0:
342,81,180129,1,2,0:0:0:0:
423,96,180200,1,0,0:0:0:0:
314,92,180271,1,0,0:0:0:0:
305,96,180342,1,0,0:0:0:0:
427,104,180412,1,2,0:0:0:0:
398,122,180483,1,2,0:0:0:0:
401,176,180554,1,0,0:0:0:0:
401,176,180625,1,0,0:0:0:0:
374,107,180696,1,2,0:0:0:0:
374,107,180766,1,2,0:0:0:0:
326,227,180837,1,2,0:0:0:0:
326,227,180908,1,0,0:0:0:0:
326,227,180979,1,0,0:0:0:0:
326,227,181049,1,0,0:0:0:0:
326,227,181120,1,2,0:0:0:0:
326,227,181191,1,2,0:0:0:0:
371,82,181262,1,2,0:0:0:0:
390,69,181332,1,2,0:0:0:0:
475,75,181403,1,0,0:0:0:0:
486,51,181474,1,0,0:0:0:0:
390,69,181545,1,2,0:0:0:0:
390,69,181615,1,2,0:0:0:0:
357,86,181686,1,0,0:0:0:0:
411,59,181757,1,2,0:0:0:0:
411,59,181828,1,2,0:0:0:0:
411,59,181898,1,2,0:0:0:0:
382,83,181969,1,0,0:0:0:0:
357,122,182040,1,2,0:0:0:0:
357,122,182111,1,2,0:0:0:0:
357,122,182181,1,2,0:0:0:0:
357,122,182252,1,0,0:0:0:0:
357,122,182323,1,0,0:0:0:0:
357,122,182394,1,2,0:0:0:0:
357,122,182464,1,2,0:0:0:0:
374,25,182535,1,2,0:0:0:0:
364,138,182606,1,0,0:0:0:0:
316,41,182677,1,2,0:0:0:0:
354,26,182748,1,2,0:0:0:0:
354,26,182818,1,0,0:0:0:0:
361,89,182889,1,0,0:0:0:0:
361,89,182959,1,2,0:0:0:0:
361,89,183030,1,2,0:0:0:0:
353,92,183101,1,0,0:0:0:0:
353,92,183172,1,0,0:0:0:0:
353,92,183242,1,0,0:0:0:0:
353,92,183313,1,0,0:0:0:0:
353,92,183384,1,2,0:0:0:0:
353,92,183455,1,2,0:0:0:0:
353,92,183525,1,2,0:0:0:0:
353,92,183596,1,2,0:0:0:0:
349,96,183667,1,0,0:0:0:0:
349,96,183738,1,0,0:0:0:0:
349,96,183808,1,0,0:0:0:0:
349,96,183879,1,0,0:0:0:0:
349,96,183950,1,2,0:0:0:0:
349,96,184021,1,2,0:0:0:0:
349,96,184091,1,2,0:0:0:0:
349,96,184162,1,2,0:0:0:0:
337,106,184233,1,0,0:0:0:0:
337,106,184304,1,0,0:0:0:0:
389,50,184374,1,2,0:0:0:0:
337,106,184445,1,2,0:0:0:0:
348,57,184516,1,0,0:0:0:0:
348,57,184587,1,2,0:0:0:0:
337,106,184657,1,0,0:0:0:0:
330,174,184728,1,2,0:0:0:0:
330,174,184799,1,0,0:0:0:0:
376,62,184870,1,0,0:0:0:0:
321,179,184940,1,0,0:0:0:0:
372,70,185012,1,2,0:0:0:0:
289,212,185083,1,0,0:0:0:0:
363,172,187064,5,6,0:0:0:0:
225,164,187347,1,0,0:0:0:0:
225,164,187418,1,0,0:0:0:0:
225,164,187488,1,0,0:0:0:0:
370,77,187559,1,0,0:0:0:0:
225,164,187630,1,2,0:0:0:0:
225,164,187701,1,2,0:0:0:0:
225,164,187771,1,2,0:0:0:0:
371,91,187842,1,0,0:0:0:0:
371,92,187913,1,0,0:0:0:0:
371,92,187984,1,0,0:0:0:0:
318,53,188054,1,2,0:0:0:0:
318,53,188125,1,2,0:0:0:0:
302,86,188196,1,0,0:0:0:0:
302,86,188267,1,0,0:0:0:0:
302,86,188337,1,0,0:0:0:0:
302,86,188408,1,0,0:0:0:0:
340,29,188479,1,2,0:0:0:0:
340,29,188550,1,2,0:0:0:0:
340,29,188620,1,2,0:0:0:0:
337,51,188691,1,2,0:0:0:0:
336,54,188762,1,0,0:0:0:0:
336,54,188833,1,0,0:0:0:0:
354,46,188903,1,0,0:0:0:0:
342,41,188974,1,2,0:0:0:0:
316,73,189045,1,2,0:0:0:0:
342,41,189116,1,2,0:0:0:0:
354,46,189186,1,0,0:0:0:0:
323,54,189257,1,0,0:0:0:0:
306,43,189328,1,2,0:0:0:0:
306,43,189399,1,2,0:0:0:0:
433,131,189470,1,0,0:0:0:0:
306,43,189540,1,0,0:0:0:0:
306,43,189611,1,2,0:0:0:0:
188,146,189682,1,2,0:0:0:0:
188,146,189753,1,2,0:0:0:0:
369,154,189823,1,0,0:0:0:0:
369,154,189894,1,0,0:0:0:0:
369,154,189965,1,0,0:0:0:0:
358,60,190036,1,2,0:0:0:0:
358,60,190106,1,2,0:0:0:0:
295,62,190177,1,2,0:0:0:0:
295,62,190248,1,2,0:0:0:0:
281,74,190319,1,0,0:0:0:0:
276,77,190389,1,0,0:0:0:0:
302,27,190460,1,2,0:0:0:0:
302,27,190531,1,2,0:0:0:0:
302,27,190602,1,2,0:0:0:0:
291,46,190672,1,0,0:0:0:0:
332,144,190743,1,2,0:0:0:0:
332,144,190814,1,2,0:0:0:0:
364,117,190885,1,0,0:0:0:0:
364,117,190955,1,0,0:0:0:0:
373,67,191026,1,2,0:0:0:0:
373,67,191097,1,2,0:0:0:0:
373,67,191168,1,0,0:0:0:0:
373,67,191238,1,0,0:0:0:0:
373,67,191309,1,2,0:0:0:0:
331,79,191380,1,2,0:0:0:0:
328,83,191451,1,2,0:0:0:0:
328,83,191521,1,2,0:0:0:0:
333,70,191592,1,0,0:0:0:0:
418,63,191663,1,0,0:0:0:0:
406,131,191734,1,2,0:0:0:0:
406,131,191804,1,2,0:0:0:0:
389,99,191875,1,0,0:0:0:0:
409,76,191946,1,2,0:0:0:0:
409,76,192017,1,2,0:0:0:0:
409,76,192087,1,2,0:0:0:0:
270,92,192158,1,0,0:0:0:0:
270,92,192229,1,0,0:0:0:0:
285,79,192300,1,2,0:0:0:0:
285,79,192370,1,2,0:0:0:0:
309,60,192441,1,0,0:0:0:0:
309,60,192512,1,0,0:0:0:0:
309,60,192583,1,2,0:0:0:0:
309,60,192653,1,2,0:0:0:0:
309,60,192724,1,2,0:0:0:0:
333,63,192795,1,0,0:0:0:0:
344,40,192866,1,2,0:0:0:0:
289,54,192936,1,0,0:0:0:0:
290,54,193007,1,2,0:0:0:0:
286,55,193078,1,2,0:0:0:0:
356,105,193149,1,0,0:0:0:0:
356,105,193220,1,0,0:0:0:0:
356,105,193290,1,2,0:0:0:0:
356,105,193361,1,2,0:0:0:0:
368,128,193432,1,0,0:0:0:0:
368,128,193503,1,0,0:0:0:0:
368,128,193573,1,0,0:0:0:0:
358,112,193644,1,2,0:0:0:0:
358,112,193715,1,2,0:0:0:0:
358,112,193786,1,2,0:0:0:0:
352,88,193856,1,0,0:0:0:0:
409,63,193927,1,2,0:0:0:0:
352,88,193998,1,0,0:0:0:0:
430,109,194069,1,0,0:0:0:0:
350,88,194139,1,2,0:0:0:0:
375,96,194210,1,2,0:0:0:0:
317,129,194281,1,0,0:0:0:0:
317,129,194352,1,0,0:0:0:0:
275,44,194422,1,0,0:0:0:0:
335,60,194493,1,2,0:0:0:0:
249,87,194564,1,2,0:0:0:0:
249,87,194635,1,2,0:0:0:0:
360,100,194705,1,0,0:0:0:0:
331,101,194776,1,0,0:0:0:0:
331,101,194847,1,2,0:0:0:0:
318,68,194918,1,2,0:0:0:0:
284,83,194988,1,0,0:0:0:0:
284,83,195059,1,0,0:0:0:0:
302,51,195130,1,2,0:0:0:0:
302,51,195201,1,2,0:0:0:0:
302,51,195271,1,2,0:0:0:0:
302,136,195342,1,0,0:0:0:0:
302,136,195413,1,0,0:0:0:0:
302,136,195484,1,0,0:0:0:0:
408,97,195554,1,2,0:0:0:0:
304,74,195625,1,2,0:0:0:0:
408,97,195696,1,2,0:0:0:0:
408,97,195767,1,2,0:0:0:0:
396,112,195837,1,2,0:0:0:0:
435,133,195908,1,0,0:0:0:0:
328,82,195979,1,0,0:0:0:0:
328,82,196050,1,0,0:0:0:0:
257,53,196120,1,2,0:0:0:0:
257,53,196191,1,2,0:0:0:0:
257,53,196262,1,0,0:0:0:0:
359,91,196333,1,0,0:0:0:0:
218,91,196403,1,2,0:0:0:0:
247,175,196545,1,0,0:0:0:0:
247,175,196616,1,0,0:0:0:0:
247,175,196686,1,2,0:0:0:0:
247,175,196757,1,2,0:0:0:0:
247,175,196828,1,2,0:0:0:0:
311,79,196899,1,0,0:0:0:0:
311,79,196970,1,0,0:0:0:0:
310,79,197040,1,0,0:0:0:0:
311,79,197111,1,2,0:0:0:0:
311,79,197182,1,2,0:0:0:0:
265,135,197253,1,0,0:0:0:0:
265,135,197323,1,0,0:0:0:0:
327,25,197394,1,2,0:0:0:0:
327,25,197465,1,2,0:0:0:0:
294,47,197536,1,0,0:0:0:0:
332,13,197606,1,2,0:0:0:0:
332,13,197677,1,2,0:0:0:0:
332,13,197748,1,2,0:0:0:0:
331,14,197819,1,0,0:0:0:0:
325,20,197889,1,0,0:0:0:0:
337,79,197960,1,2,0:0:0:0:
337,79,198031,1,2,0:0:0:0:
337,79,198102,1,2,0:0:0:0:
239,92,198172,1,0,0:0:0:0:
239,92,198243,1,0,0:0:0:0:
239,92,198314,1,0,0:0:0:0:
279,74,198385,1,2,0:0:0:0:
279,74,198455,1,2,0:0:0:0:
258,86,198526,1,0,0:0:0:0:
256,87,198597,1,0,0:0:0:0:
259,51,198668,1,2,0:0:0:0:
319,80,198738,1,0,0:0:0:0:
319,80,198809,1,0,0:0:0:0:
319,80,198880,1,2,0:0:0:0:
348,27,198951,1,0,0:0:0:0:
348,27,199021,1,2,0:0:0:0:
340,32,199092,1,0,0:0:0:0:
333,35,199163,1,0,0:0:0:0:
333,35,199234,1,2,0:0:0:0:
333,35,199304,1,2,0:0:0:0:
333,35,199375,1,0,0:0:0:0:
356,22,199446,1,0,0:0:0:0:
431,58,199517,1,2,0:0:0:0:
356,22,199587,1,2,0:0:0:0:
356,22,199658,1,2,0:0:0:0:
238,160,199729,1,0,0:0:0:0:
238,160,199800,1,2,0:0:0:0:
238,160,199870,1,2,0:0:0:0:
238,160,199941,1,0,0:0:0:0:
260,171,200012,1,0,0:0:0:0:
260,171,200083,1,2,0:0:0:0:
314,80,200153,1,0,0:0:0:0:
314,80,200224,1,2,0:0:0:0:
311,84,200295,1,2,0:0:0:0:
220,117,200366,1,0,0:0:0:0:
220,117,200436,1,0,0:0:0:0:
220,117,200507,1,2,0:0:0:0:
220,117,200578,1,2,0:0:0:0:
220,117,200649,1,2,0:0:0:0:
290,100,200720,1,0,0:0:0:0:
290,100,200790,1,0,0:0:0:0:
290,100,200861,1,0,0:0:0:0:
294,23,200932,1,2,0:0:0:0:
413,99,201003,1,0,0:0:0:0:
329,23,201073,1,2,0:0:0:0:
329,23,201144,1,2,0:0:0:0:
355,108,201215,1,2,0:0:0:0:
212,63,201286,1,0,0:0:0:0:
384,66,201356,1,2,0:0:0:0:
384,66,201427,1,2,0:0:0:0:
273,109,201498,1,0,0:0:0:0:
273,109,201569,1,0,0:0:0:0:
355,108,201639,1,0,0:0:0:0:
297,42,201710,1,0,0:0:0:0:
297,42,201781,1,2,0:0:0:0:
309,129,201852,1,0,0:0:0:0:
331,113,201922,1,2,0:0:0:0:
304,33,201993,1,2,0:0:0:0:
304,33,202064,1,2,0:0:0:0:
267,115,202135,1,0,0:0:0:0:
267,115,202205,1,0,0:0:0:0:
267,115,202276,1,0,0:0:0:0:
310,53,202347,1,2,0:0:0:0:
310,53,202418,1,2,0:0:0:0:
276,84,202488,1,0,0:0:0:0:
276,84,202559,1,0,0:0:0:0:
440,132,202630,1,0,0:0:0:0:
276,84,202701,1,2,0:0:0:0:
276,84,202771,1,2,0:0:0:0:
345,123,202842,1,2,0:0:0:0:
330,137,202913,1,0,0:0:0:0:
345,93,202984,1,2,0:0:0:0:
313,147,203054,1,0,0:0:0:0:
291,51,203125,1,0,0:0:0:0:
291,51,203196,1,2,0:0:0:0:
291,51,203267,1,2,0:0:0:0:
290,51,203337,1,0,0:0:0:0:
317,68,203408,1,0,0:0:0:0:
279,175,203479,1,0,0:0:0:0:
279,175,203550,1,0,0:0:0:0:
279,175,203620,1,2,0:0:0:0:
279,175,203691,1,2,0:0:0:0:
273,187,203762,1,0,0:0:0:0:
273,187,203833,1,2,0:0:0:0:
273,187,203903,1,2,0:0:0:0:
273,187,203974,1,2,0:0:0:0:
258,196,204045,1,0,0:0:0:0:
250,203,204116,1,2,0:0:0:0:
234,222,204186,1,0,0:0:0:0:
234,222,204257,1,0,0:0:0:0:
234,222,204328,1,2,0:0:0:0:
404,91,204399,1,2,0:0:0:0:
221,235,204470,1,2,0:0:0:0:
379,147,204540,1,0,0:0:0:0:
379,147,204611,1,0,0:0:0:0:
379,147,204682,1,0,0:0:0:0:
379,147,204753,1,2,0:0:0:0:
379,147,204823,1,2,0:0:0:0:
379,147,204894,1,2,0:0:0:0:
357,161,204965,1,0,0:0:0:0:
357,161,205036,1,0,0:0:0:0:
357,161,205106,1,0,0:0:0:0:
385,16,205177,1,2,0:0:0:0:
385,16,205248,1,2,0:0:0:0:
357,161,205319,1,2,0:0:0:0:
357,161,205389,1,2,0:0:0:0:
323,161,205460,1,0,0:0:0:0:
374,123,207441,5,4,0:0:0:0:
374,123,207724,1,6,0:0:0:0:
340,148,209705,1,6,0:0:0:0:
367,135,209988,1,2,0:0:0:0:
435,107,210271,1,2,0:0:0:0:
387,160,210413,1,4,0:0:0:0:
335,131,210554,1,2,0:0:0:0:
387,160,210696,1,4,0:0:0:0:
335,131,210837,1,2,0:0:0:0:
335,131,210908,1,2,0:0:0:0:
335,131,210979,1,2,0:0:0:0:
387,160,211120,1,4,0:0:0:0:
331,116,211262,1,0,0:0:0:0:
331,116,211333,1,0,0:0:0:0:
328,113,211403,1,2,0:0:0:0:
460,58,211474,1,2,0:0:0:0:
264,136,211545,1,0,0:0:0:0:
460,58,211616,1,2,0:0:0:0:
264,136,211686,1,0,0:0:0:0:
264,136,211757,1,2,0:0:0:0:
264,136,211828,1,2,0:0:0:0:
253,134,211899,1,0,0:0:0:0:
253,134,211970,1,2,0:0:0:0:
253,134,212040,1,2,0:0:0:0:
314,79,212111,1,0,0:0:0:0:
369,165,212253,1,6,0:0:0:0:
476,90,212394,1,0,0:0:0:0:
369,165,212536,1,6,0:0:0:0:
369,165,212677,1,6,0:0:0:0:
476,90,212819,1,0,0:0:0:0:
369,165,212960,1,6,0:0:0:0:
476,90,213102,1,0,0:0:0:0:
476,90,213172,1,2,0:0:0:0:
476,90,213243,1,2,0:0:0:0:
354,174,213385,1,6,0:0:0:0:
351,131,213526,1,0,0:0:0:0:
351,131,213597,1,0,0:0:0:0:
351,131,213668,1,0,0:0:0:0:
425,54,213738,1,2,0:0:0:0:
351,131,213809,1,0,0:0:0:0:
353,47,213880,1,0,0:0:0:0:
353,47,213951,1,2,0:0:0:0:
353,47,214021,1,2,0:0:0:0:
369,91,214092,1,0,0:0:0:0:
369,91,214163,1,0,0:0:0:0:
464,94,214234,1,0,0:0:0:0:
362,91,214304,1,2,0:0:0:0:
460,99,214375,1,2,0:0:0:0:
428,118,214446,1,2,0:0:0:0:
376,132,214517,1,0,0:0:0:0:
397,120,214658,1,0,0:0:0:0:
397,120,214729,1,2,0:0:0:0:
397,120,214800,1,2,0:0:0:0:
363,145,214941,1,0,0:0:0:0:
362,145,215083,1,0,0:0:0:0:
290,248,215153,1,0,0:0:0:0:
362,145,215224,1,0,0:0:0:0:
362,145,215295,1,2,0:0:0:0:
362,145,215366,1,2,0:0:0:0:
302,150,215507,1,0,0:0:0:0:
302,150,215649,1,0,0:0:0:0:
423,44,215720,1,2,0:0:0:0:
302,150,215790,1,0,0:0:0:0:
302,150,215861,1,2,0:0:0:0:
302,150,215932,1,2,0:0:0:0:
292,105,216073,1,0,0:0:0:0:
284,123,216215,1,0,0:0:0:0:
276,125,216286,1,2,0:0:0:0:
354,84,216356,1,0,0:0:0:0:
231,142,216427,1,0,0:0:0:0:
354,84,216498,1,2,0:0:0:0:
358,121,216639,1,0,0:0:0:0:
368,47,216781,1,2,0:0:0:0:
368,47,216852,1,2,0:0:0:0:
368,47,216922,1,0,0:0:0:0:
352,54,216993,1,0,0:0:0:0:
352,54,217064,1,2,0:0:0:0:
352,54,217135,1,2,0:0:0:0:
364,34,217205,1,2,0:0:0:0:
228,133,217276,1,0,0:0:0:0:
228,133,217347,1,2,0:0:0:0:
227,133,217418,1,2,0:0:0:0:
225,134,217488,1,0,0:0:0:0:
220,134,217559,1,0,0:0:0:0:
338,17,217630,1,2,0:0:0:0:
318,38,217701,1,0,0:0:0:0:
318,38,217771,1,2,0:0:0:0:
318,38,217842,1,2,0:0:0:0:
318,38,217913,1,0,0:0:0:0:
358,11,217984,1,2,0:0:0:0:
358,11,218054,1,2,0:0:0:0:
358,11,218125,1,2,0:0:0:0:
333,22,218196,1,0,0:0:0:0:
324,31,218267,1,0,0:0:0:0:
324,31,218337,1,0,0:0:0:0:
359,45,218408,1,2,0:0:0:0:
359,45,218479,1,2,0:0:0:0:
359,45,218550,1,2,0:0:0:0:
322,76,218620,1,0,0:0:0:0:
367,56,218691,1,0,0:0:0:0:
367,56,218762,1,2,0:0:0:0:
367,56,218833,1,2,0:0:0:0:
367,56,218903,1,2,0:0:0:0:
367,56,218974,1,2,0:0:0:0:
232,96,219045,1,0,0:0:0:0:
364,49,219328,1,2,0:0:0:0:
381,136,219470,1,4,0:0:0:0:
398,153,219611,1,2,0:0:0:0:
381,136,219753,1,4,0:0:0:0:
398,153,219894,1,2,0:0:0:0:
398,153,219965,1,2,0:0:0:0:
398,153,220036,1,2,0:0:0:0:
381,136,220177,1,4,0:0:0:0:
417,90,220319,1,0,0:0:0:0:
417,90,220389,1,0,0:0:0:0:
417,90,220460,1,2,0:0:0:0:
417,90,220531,1,2,0:0:0:0:
381,116,220602,1,0,0:0:0:0:
377,120,220672,1,0,0:0:0:0:
377,120,220743,1,2,0:0:0:0:
374,120,220814,1,2,0:0:0:0:
374,120,220885,1,0,0:0:0:0:
374,120,220955,1,0,0:0:0:0:
374,120,221026,1,0,0:0:0:0:
374,120,221097,1,2,0:0:0:0:
349,137,221168,1,0,0:0:0:0:
411,52,221309,1,6,0:0:0:0:
182,89,221451,1,0,0:0:0:0:
411,52,221592,1,6,0:0:0:0:
411,52,221734,1,6,0:0:0:0:
206,101,221875,1,0,0:0:0:0:
411,52,222017,1,6,0:0:0:0:
235,115,222158,1,0,0:0:0:0:
235,115,222229,1,2,0:0:0:0:
235,115,222300,1,2,0:0:0:0:
402,73,222441,1,6,0:0:0:0:
349,46,222583,1,0,0:0:0:0:
349,46,222653,1,0,0:0:0:0:
349,46,222724,1,0,0:0:0:0:
349,46,222795,1,2,0:0:0:0:
423,108,222866,1,2,0:0:0:0:
288,65,222936,1,2,0:0:0:0:
288,65,223007,1,0,0:0:0:0:
297,78,223078,1,0,0:0:0:0:
297,78,223149,1,0,0:0:0:0:
297,78,223220,1,2,0:0:0:0:
297,78,223290,1,2,0:0:0:0:
297,78,223361,1,2,0:0:0:0:
297,78,223432,1,2,0:0:0:0:
284,89,223503,1,0,0:0:0:0:
283,89,223573,1,0,0:0:0:0:
428,60,223715,1,0,0:0:0:0:
338,55,223786,1,2,0:0:0:0:
428,60,223856,1,2,0:0:0:0:
322,77,223998,1,0,0:0:0:0:
248,161,224139,1,0,0:0:0:0:
248,161,224210,1,0,0:0:0:0:
272,124,224281,1,0,0:0:0:0:
322,46,224352,1,2,0:0:0:0:
272,124,224422,1,2,0:0:0:0:
248,161,224564,1,0,0:0:0:0:
248,161,224705,1,0,0:0:0:0:
248,161,224776,1,2,0:0:0:0:
239,172,224847,1,0,0:0:0:0:
238,172,224918,1,2,0:0:0:0:
238,172,224988,1,2,0:0:0:0:
328,84,225130,1,0,0:0:0:0:
323,86,225271,1,0,0:0:0:0:
276,143,225342,1,2,0:0:0:0:
275,147,225413,1,0,0:0:0:0:
276,143,225484,1,0,0:0:0:0:
276,143,225554,1,2,0:0:0:0:
391,105,225696,1,0,0:0:0:0:
391,105,225837,1,2,0:0:0:0:
381,108,225908,1,2,0:0:0:0:
366,122,225979,1,0,0:0:0:0:
364,123,226050,1,0,0:0:0:0:
364,33,226120,1,2,0:0:0:0:
240,93,226191,1,2,0:0:0:0:
317,77,226262,1,0,0:0:0:0:
364,123,226333,1,2,0:0:0:0:
264,79,226403,1,0,0:0:0:0:
264,79,226474,1,0,0:0:0:0:
264,79,226545,1,2,0:0:0:0:
264,79,226616,1,2,0:0:0:0:
264,79,226686,1,0,0:0:0:0:
264,79,226757,1,2,0:0:0:0:
256,77,226828,1,2,0:0:0:0:
333,71,226899,1,2,0:0:0:0:
305,129,226970,1,0,0:0:0:0:
342,23,227040,1,2,0:0:0:0:
342,23,227111,1,2,0:0:0:0:
306,65,227182,1,0,0:0:0:0:
305,66,227253,1,2,0:0:0:0:
306,65,227323,1,2,0:0:0:0:
277,84,227394,1,0,0:0:0:0:
274,87,227465,1,2,0:0:0:0:
380,24,227536,1,0,0:0:0:0:
170,153,227606,1,0,0:0:0:0:
347,58,227677,1,2,0:0:0:0:
347,58,227748,1,2,0:0:0:0:
146,196,227819,1,0,0:0:0:0:
146,196,227889,1,0,0:0:0:0:
316,114,227960,1,2,0:0:0:0:
316,114,228031,1,2,0:0:0:0:
260,119,228102,1,0,0:0:0:0:
292,53,228172,1,2,0:0:0:0:
292,53,228243,1,2,0:0:0:0:
327,37,228314,1,2,0:0:0:0:
257,68,228385,1,0,0:0:0:0:
305,74,228455,1,0,0:0:0:0:
297,79,228526,1,2,0:0:0:0:
286,81,228597,1,2,0:0:0:0:
343,51,228668,1,0,0:0:0:0:
343,51,228738,1,2,0:0:0:0:
334,51,228809,1,2,0:0:0:0:
331,51,228880,1,0,0:0:0:0:
330,85,228951,1,2,0:0:0:0:
330,85,229021,1,0,0:0:0:0:
330,85,229092,1,2,0:0:0:0:
330,85,229163,1,2,0:0:0:0:
180,158,229234,1,0,0:0:0:0:
266,113,231215,1,6,0:0:0:0:
273,166,231498,1,4,0:0:0:0:
324,41,231639,1,2,0:0:0:0:
324,41,231710,1,2,0:0:0:0:
324,41,231781,1,0,0:0:0:0:
361,34,231922,1,2,0:0:0:0:
328,61,232064,1,0,0:0:0:0:
328,61,232205,1,2,0:0:0:0:
328,61,232276,1,2,0:0:0:0:
327,62,232347,1,0,0:0:0:0:
324,41,232418,1,0,0:0:0:0:
356,22,232488,1,2,0:0:0:0:
326,57,232559,1,0,0:0:0:0:
327,57,232630,1,2,0:0:0:0:
339,10,232771,1,2,0:0:0:0:
304,82,232913,1,0,0:0:0:0:
304,82,233054,1,2,0:0:0:0:
304,82,233125,1,2,0:0:0:0:
289,88,233196,1,0,0:0:0:0:
288,88,233337,1,2,0:0:0:0:
286,100,233479,1,0,0:0:0:0:
360,79,233620,1,0,0:0:0:0:
338,95,233691,1,2,0:0:0:0:
322,112,233762,1,0,0:0:0:0:
336,27,233903,1,2,0:0:0:0:
299,57,234045,1,0,0:0:0:0:
354,14,234116,1,0,0:0:0:0:
354,14,234186,1,2,0:0:0:0:
352,14,234257,1,2,0:0:0:0:
342,17,234328,1,0,0:0:0:0:
280,98,234470,1,2,0:0:0:0:
270,108,234611,1,0,0:0:0:0:
270,108,234682,1,0,0:0:0:0:
270,108,234753,1,2,0:0:0:0:
280,40,234823,1,0,0:0:0:0:
280,40,234894,1,2,0:0:0:0:
315,169,234965,1,0,0:0:0:0:
475,124,235036,1,2,0:0:0:0:
451,67,235106,1,2,0:0:0:0:
356,59,235177,1,0,0:0:0:0:
356,59,235319,1,0,0:0:0:0:
356,59,235389,1,2,0:0:0:0:
325,88,235460,1,0,0:0:0:0:
406,29,235602,1,2,0:0:0:0:
341,125,235743,1,0,0:0:0:0:
226,204,235814,1,0,0:0:0:0:
396,51,235885,1,2,0:0:0:0:
396,51,235955,1,2,0:0:0:0:
367,83,236026,1,0,0:0:0:0:
232,144,236168,1,0,0:0:0:0:
232,144,236238,1,0,0:0:0:0:
232,144,236309,1,2,0:0:0:0:
226,155,236380,1,0,0:0:0:0:
225,158,236451,1,2,0:0:0:0:
225,158,236521,1,2,0:0:0:0:
224,158,236592,1,0,0:0:0:0:
220,160,236663,1,0,0:0:0:0:
368,49,236734,1,2,0:0:0:0:
425,57,236804,1,2,0:0:0:0:
348,67,236875,1,0,0:0:0:0:
348,67,236946,1,2,0:0:0:0:
489,180,237017,1,0,0:0:0:0:
431,72,237087,1,0,0:0:0:0:
432,72,237158,1,2,0:0:0:0:
355,211,237229,1,0,0:0:0:0:
290,153,237300,1,2,0:0:0:0:
294,70,237441,1,0,0:0:0:0:
294,70,237583,1,2,0:0:0:0:
294,70,237653,1,2,0:0:0:0:
280,79,237724,1,0,0:0:0:0:
352,287,237795,1,0,0:0:0:0:
492,168,237866,1,2,0:0:0:0:
331,136,237936,1,2,0:0:0:0:
236,130,238007,1,2,0:0:0:0:
292,86,238149,1,0,0:0:0:0:
287,90,238220,1,2,0:0:0:0:
260,98,238290,1,0,0:0:0:0:
365,41,238432,1,0,0:0:0:0:
365,41,238503,1,0,0:0:0:0:
365,41,238573,1,2,0:0:0:0:
400,73,238644,1,2,0:0:0:0:
365,41,238715,1,0,0:0:0:0:
360,43,238786,1,2,0:0:0:0:
321,117,238856,1,0,0:0:0:0:
398,48,238927,1,0,0:0:0:0:
398,48,238998,1,2,0:0:0:0:
369,65,239069,1,0,0:0:0:0:
423,20,239139,1,2,0:0:0:0:
423,20,239210,1,2,0:0:0:0:
423,20,239281,1,2,0:0:0:0:
423,20,239352,1,2,0:0:0:0:
395,27,239422,1,0,0:0:0:0:
279,154,239564,1,2,0:0:0:0:
279,154,239635,1,2,0:0:0:0:
279,154,239705,1,0,0:0:0:0:
279,154,239776,1,0,0:0:0:0:
279,154,239847,1,0,0:0:0:0:
341,50,239918,1,2,0:0:0:0:
341,50,239988,1,2,0:0:0:0:
341,50,240059,1,2,0:0:0:0:
341,50,240130,1,0,0:0:0:0:
341,50,240201,1,0,0:0:0:0:
360,46,240271,1,2,0:0:0:0:
360,46,240342,1,2,0:0:0:0:
354,49,240413,1,0,0:0:0:0:
341,50,240484,1,0,0:0:0:0:
341,50,240554,1,2,0:0:0:0:
401,64,240696,1,2,0:0:0:0:
359,69,240767,1,2,0:0:0:0:
334,100,240837,1,0,0:0:0:0:
307,87,240979,1,2,0:0:0:0:
307,113,241120,1,0,0:0:0:0:
307,113,241262,1,2,0:0:0:0:
285,144,241333,1,0,0:0:0:0:
285,144,241403,1,0,0:0:0:0:
249,166,241474,1,2,0:0:0:0:
249,166,241545,1,2,0:0:0:0:
249,166,241616,1,2,0:0:0:0:
249,166,241686,1,0,0:0:0:0:
363,88,241828,1,2,0:0:0:0:
318,136,241970,1,0,0:0:0:0:
317,136,242040,1,0,0:0:0:0:
311,137,242111,1,2,0:0:0:0:
310,137,242182,1,2,0:0:0:0:
278,108,242253,1,0,0:0:0:0:
278,108,242394,1,2,0:0:0:0:
252,117,242536,1,0,0:0:0:0:
269,126,242677,1,0,0:0:0:0:
268,126,242748,1,2,0:0:0:0:
338,52,242819,1,0,0:0:0:0:
338,52,242960,1,2,0:0:0:0:
246,160,243102,1,0,0:0:0:0:
302,103,243243,1,2,0:0:0:0:
302,103,243314,1,2,0:0:0:0:
299,107,243385,1,0,0:0:0:0:
348,25,243526,1,2,0:0:0:0:
301,112,243668,1,0,0:0:0:0:
345,49,243738,1,0,0:0:0:0:
303,112,243809,1,2,0:0:0:0:
292,117,243880,1,2,0:0:0:0:
265,265,243951,1,0,0:0:0:0:
265,265,244092,1,2,0:0:0:0:
297,178,244234,1,0,0:0:0:0:
243,136,244375,1,2,0:0:0:0:
243,136,244446,1,2,0:0:0:0:
236,145,244517,1,0,0:0:0:0:
234,148,244658,1,2,0:0:0:0:
234,148,244729,1,2,0:0:0:0:
234,148,244800,1,0,0:0:0:0:
325,27,244870,1,0,0:0:0:0:
325,27,244941,1,2,0:0:0:0:
461,74,245012,1,0,0:0:0:0:
325,27,245083,1,2,0:0:0:0:
445,48,245224,1,2,0:0:0:0:
394,102,245366,1,0,0:0:0:0:
394,102,245507,1,2,0:0:0:0:
372,116,245578,1,2,0:0:0:0:
321,135,245649,1,0,0:0:0:0:
360,56,245790,1,2,0:0:0:0:
297,124,245932,1,0,0:0:0:0:
297,124,246073,1,0,0:0:0:0:
297,124,246144,1,2,0:0:0:0:
293,128,246215,1,0,0:0:0:0:
417,16,246286,1,0,0:0:0:0:
384,53,246356,1,2,0:0:0:0:
384,53,246427,1,2,0:0:0:0:
220,206,246498,1,0,0:0:0:0:
352,143,246569,1,2,0:0:0:0:
312,159,246639,1,2,0:0:0:0:
352,143,246710,1,2,0:0:0:0:
256,218,246781,1,0,0:0:0:0:
352,143,246852,1,2,0:0:0:0:
256,218,246922,1,2,0:0:0:0:
256,218,246993,1,2,0:0:0:0:
256,218,247064,1,0,0:0:0:0:
443,112,247135,1,0,0:0:0:0:
256,218,247205,1,2,0:0:0:0:
382,25,247276,1,2,0:0:0:0:
235,224,247347,1,0,0:0:0:0:
277,143,247488,1,0,0:0:0:0:
277,143,247559,1,0,0:0:0:0:
277,143,247630,1,2,0:0:0:0:
277,143,247701,1,0,0:0:0:0:
329,52,247771,1,2,0:0:0:0:
259,150,247842,1,2,0:0:0:0:
330,66,247913,1,0,0:0:0:0:
422,50,247984,1,0,0:0:0:0:
325,68,248054,1,2,0:0:0:0:
422,50,248125,1,2,0:0:0:0:
370,53,248196,1,2,0:0:0:0:
422,50,248267,1,2,0:0:0:0:
370,53,248337,1,0,0:0:0:0:
370,53,248408,1,0,0:0:0:0:
370,53,248479,1,2,0:0:0:0:
354,142,248550,1,2,0:0:0:0:
327,162,248620,1,0,0:0:0:0:
389,72,248691,1,2,0:0:0:0:
313,161,248762,1,2,0:0:0:0:
248,47,248833,1,0,0:0:0:0:
364,29,248903,1,2,0:0:0:0:
248,47,248974,1,0,0:0:0:0:
364,29,249045,1,2,0:0:0:0:
339,69,249116,1,2,0:0:0:0:
275,129,249186,1,0,0:0:0:0:
268,133,249257,1,0,0:0:0:0:
333,27,249328,1,2,0:0:0:0:
333,27,249399,1,2,0:0:0:0:
333,27,249470,1,2,0:0:0:0:
333,27,249540,1,2,0:0:0:0:
327,35,249611,1,0,0:0:0:0:
430,82,249753,1,2,0:0:0:0:
268,229,249823,1,2,0:0:0:0:
417,148,249894,1,0,0:0:0:0:
417,148,250036,1,2,0:0:0:0:
345,197,250177,1,0,0:0:0:0:
345,197,250248,1,2,0:0:0:0:
345,197,250319,1,2,0:0:0:0:
387,128,250460,1,0,0:0:0:0:
387,128,250602,1,0,0:0:0:0:
343,18,250672,1,0,0:0:0:0:
441,131,250743,1,2,0:0:0:0:
343,18,250814,1,2,0:0:0:0:
336,129,250885,1,0,0:0:0:0:
321,40,251026,1,2,0:0:0:0:
221,110,251168,1,0,0:0:0:0:
370,125,251309,1,2,0:0:0:0:
369,125,251380,1,2,0:0:0:0:
366,125,251451,1,0,0:0:0:0:
362,126,251521,1,0,0:0:0:0:
361,126,251592,1,2,0:0:0:0:
361,126,251663,1,2,0:0:0:0:
209,36,251734,1,0,0:0:0:0:
199,56,251804,1,2,0:0:0:0:
170,85,251875,1,0,0:0:0:0:
305,110,252017,1,0,0:0:0:0:
207,110,252087,1,0,0:0:0:0:
207,110,252158,1,2,0:0:0:0:
297,92,252300,1,2,0:0:0:0:
361,41,252441,1,0,0:0:0:0:
361,41,252583,1,2,0:0:0:0:
403,36,252653,1,2,0:0:0:0:
290,92,252724,1,0,0:0:0:0:
313,6,252866,1,0,0:0:0:0:
313,6,252936,1,2,0:0:0:0:
313,6,253007,1,2,0:0:0:0:
313,6,253149,1,2,0:0:0:0:
202,113,253220,1,0,0:0:0:0:
202,113,253290,1,2,0:0:0:0:
339,90,253432,1,2,0:0:0:0:
283,154,253573,1,0,0:0:0:0:
283,154,253715,1,2,0:0:0:0:
361,193,253786,1,0,0:0:0:0:
283,154,253856,1,2,0:0:0:0:
384,107,253927,1,0,0:0:0:0:
371,116,253998,1,0,0:0:0:0:
376,63,254139,1,2,0:0:0:0:
352,73,254281,1,0,0:0:0:0:
352,73,254352,1,0,0:0:0:0:
222,69,254422,1,2,0:0:0:0:
260,52,254493,1,2,0:0:0:0:
243,65,254564,1,0,0:0:0:0:
243,66,254635,1,0,0:0:0:0:
243,66,254705,1,2,0:0:0:0:
243,66,254776,1,2,0:0:0:0:
326,53,254847,1,0,0:0:0:0:
326,53,254918,1,0,0:0:0:0:
326,53,254988,1,2,0:0:0:0:
326,53,255059,1,2,0:0:0:0:
326,53,255130,1,0,0:0:0:0:
475,86,255201,1,2,0:0:0:0:
326,53,255271,1,0,0:0:0:0:
273,187,255413,1,2,0:0:0:0:
273,187,255484,1,2,0:0:0:0:
263,198,255554,1,0,0:0:0:0:
260,201,255696,1,2,0:0:0:0:
226,217,255837,1,0,0:0:0:0:
226,217,255908,1,0,0:0:0:0:
226,217,255979,1,2,0:0:0:0:
226,217,256050,1,2,0:0:0:0:
338,161,256120,1,0,0:0:0:0:
338,161,256262,1,2,0:0:0:0:
364,58,256403,1,0,0:0:0:0:
305,92,256474,1,2,0:0:0:0:
305,92,256545,1,2,0:0:0:0:
355,126,256686,1,0,0:0:0:0:
355,126,256828,1,2,0:0:0:0:
340,148,256970,1,0,0:0:0:0:
340,148,257040,1,0,0:0:0:0:
340,148,257111,1,2,0:0:0:0:
315,166,257253,1,0,0:0:0:0:
306,59,257394,1,2,0:0:0:0:
249,159,257536,1,0,0:0:0:0:
249,159,257606,1,2,0:0:0:0:
249,159,257677,1,2,0:0:0:0:
249,159,257748,1,2,0:0:0:0:
155,191,257819,1,0,0:0:0:0:
318,44,257889,1,2,0:0:0:0:
318,44,257960,1,2,0:0:0:0:
285,57,258031,1,0,0:0:0:0:
274,60,258102,1,0,0:0:0:0:
315,166,258172,1,0,0:0:0:0:
295,169,258243,1,2,0:0:0:0:
271,165,258314,1,2,0:0:0:0:
331,115,258385,1,0,0:0:0:0:
331,115,258455,1,2,0:0:0:0:
331,115,258526,1,2,0:0:0:0:
331,115,258597,1,2,0:0:0:0:
342,133,258668,1,0,0:0:0:0:
353,37,258809,1,2,0:0:0:0:
327,83,258951,1,0,0:0:0:0:
327,83,259092,1,0,0:0:0:0:
327,83,259163,1,2,0:0:0:0:
327,83,259234,1,2,0:0:0:0:
316,90,259375,1,0,0:0:0:0:
316,90,259517,1,2,0:0:0:0:
316,90,259658,1,2,0:0:0:0:
316,90,259729,1,2,0:0:0:0:
316,90,259800,1,2,0:0:0:0:
279,95,259941,1,0,0:0:0:0:
279,95,260083,1,2,0:0:0:0:
279,95,260224,1,0,0:0:0:0:
279,95,260295,1,2,0:0:0:0:
279,95,260366,1,2,0:0:0:0:
196,118,260507,1,0,0:0:0:0:
196,118,260649,1,2,0:0:0:0:
196,118,260790,1,2,0:0:0:0:
196,118,260861,1,2,0:0:0:0:
196,118,260932,1,0,0:0:0:0:
360,124,261073,1,0,0:0:0:0:
384,109,261215,1,2,0:0:0:0:
384,109,261356,1,2,0:0:0:0:
384,109,261427,1,2,0:0:0:0:
384,109,261498,1,2,0:0:0:0:
384,109,261639,1,0,0:0:0:0:
384,109,261781,1,2,0:0:0:0:
384,109,261922,1,0,0:0:0:0:
384,109,261993,1,2,0:0:0:0:
384,109,262064,1,2,0:0:0:0:
384,109,262205,1,0,0:0:0:0:
384,109,262347,1,2,0:0:0:0:
438,49,262418,1,0,0:0:0:0:
384,109,262488,1,2,0:0:0:0:
384,109,262559,1,2,0:0:0:0:
384,109,262630,1,2,0:0:0:0:
403,33,262701,1,2,0:0:0:0:
344,128,262771,1,0,0:0:0:0:
406,9,262842,1,0,0:0:0:0:
398,17,262913,1,2,0:0:0:0:
457,186,262984,1,0,0:0:0:0:
328,83,263054,1,0,0:0:0:0:
289,110,263125,1,2,0:0:0:0:
262,123,263196,1,0,0:0:0:0:
282,228,263337,1,2,0:0:0:0:
282,228,263408,1,2,0:0:0:0:
232,244,263479,1,0,0:0:0:0:
232,244,263620,1,2,0:0:0:0:
226,247,263762,1,0,0:0:0:0:
226,247,263833,1,0,0:0:0:0:
226,247,263903,1,2,0:0:0:0:
226,247,263974,1,2,0:0:0:0:
212,250,264045,1,0,0:0:0:0:
317,4,264116,1,0,0:0:0:0:
317,4,264186,1,2,0:0:0:0:
317,4,264257,1,2,0:0:0:0:
286,169,264399,1,0,0:0:0:0:
462,79,264470,1,2,0:0:0:0:
382,181,264540,1,2,0:0:0:0:
375,68,264682,1,0,0:0:0:0:
375,68,264753,1,2,0:0:0:0:
375,68,264823,1,2,0:0:0:0:
352,83,264965,1,0,0:0:0:0:
343,86,265036,1,2,0:0:0:0:
452,86,265106,1,2,0:0:0:0:
273,123,265248,1,0,0:0:0:0:
268,126,265319,1,2,0:0:0:0:
452,86,265389,1,2,0:0:0:0:
203,156,265460,1,0,0:0:0:0:
421,142,265602,1,0,0:0:0:0:
249,122,265672,1,0,0:0:0:0:
329,220,265743,1,2,0:0:0:0:
249,122,265814,1,0,0:0:0:0:
390,69,265885,1,2,0:0:0:0:
390,69,265955,1,2,0:0:0:0:
360,101,266026,1,0,0:0:0:0:
353,107,266168,1,0,0:0:0:0:
375,190,266238,1,0,0:0:0:0:
353,107,266309,1,2,0:0:0:0:
353,107,266451,1,2,0:0:0:0:
353,107,266521,1,2,0:0:0:0:
328,123,266592,1,0,0:0:0:0:
481,62,266734,1,2,0:0:0:0:
218,72,266804,1,0,0:0:0:0:
218,72,266875,1,2,0:0:0:0:
387,30,266946,1,0,0:0:0:0:
387,30,267017,1,2,0:0:0:0:
387,30,267087,1,2,0:0:0:0:
146,196,267158,1,0,0:0:0:0:
347,42,267229,1,2,0:0:0:0:
347,42,267300,1,2,0:0:0:0:
347,42,267370,1,2,0:0:0:0:
260,133,267441,1,0,0:0:0:0:
260,133,267512,1,0,0:0:0:0:
380,65,267583,1,2,0:0:0:0:
380,65,267653,1,2,0:0:0:0:
259,133,267724,1,0,0:0:0:0:
322,33,267795,1,2,0:0:0:0:
322,33,267866,1,2,0:0:0:0:
322,33,267936,1,2,0:0:0:0:
289,64,268007,1,0,0:0:0:0:
283,69,268078,1,0,0:0:0:0:
283,69,268149,1,0,0:0:0:0:
283,69,268220,1,0,0:0:0:0:
283,69,268290,1,2,0:0:0:0:
283,69,268361,1,2,0:0:0:0:
283,69,268432,1,2,0:0:0:0:
283,69,268503,1,2,0:0:0:0:
222,92,268573,1,0,0:0:0:0:
222,92,268644,1,0,0:0:0:0:
381,49,268715,1,2,0:0:0:0:
381,49,268786,1,2,0:0:0:0:
326,102,268856,1,0,0:0:0:0:
326,102,268927,1,0,0:0:0:0:
326,102,268998,1,0,0:0:0:0:
326,102,269069,1,0,0:0:0:0:
326,102,269139,1,2,0:0:0:0:
326,102,269210,1,2,0:0:0:0:
407,77,269281,1,0,0:0:0:0:
407,77,269352,1,0,0:0:0:0:
407,77,269422,1,2,0:0:0:0:
407,77,269493,1,2,0:0:0:0:
407,77,269564,1,2,0:0:0:0:
246,24,269635,1,0,0:0:0:0:
246,24,269705,1,2,0:0:0:0:
407,77,269776,1,2,0:0:0:0:
407,77,269847,1,2,0:0:0:0:
407,77,269918,1,2,0:0:0:0:
271,127,269988,1,0,0:0:0:0:
363,179,270837,1,6,0:0:0:0:
256,192,271403,12,0,280177,0:0:0:0:
