osu file format v14

[General]
AudioFilename: audio.mp3
AudioLeadIn: 0
PreviewTime: 83490
Countdown: 0
SampleSet: Normal
StackLeniency: 0.7
Mode: 0
LetterboxInBreaks: 0
WidescreenStoryboard: 0

[Editor]
DistanceSpacing: 1.6
BeatDivisor: 4
GridSize: 32
TimelineZoom: 5.399997

[Metadata]
Title:Longinus
TitleUnicode:Longinus
Artist:xi
ArtistUnicode:xi
Creator:Creamy Candy
Version:Insane
Source:Deemo
Tags:xi Instrumental rsi deathstream
BeatmapID:1969386
BeatmapSetID:943058

[Difficulty]
HPDrainRate:5
CircleSize:4
OverallDifficulty:8
ApproachRate:9.2
SliderMultiplier:1.4
SliderTickRate:1

[Events]
//Background and Video events
0,0,"fjJCpgi.jpg",0,0
//Break Periods
//Storyboard Layer 0 (Background)
//Storyboard Layer 1 (Fail)
//Storyboard Layer 2 (Pass)
//Storyboard Layer 3 (Foreground)
//Storyboard Sound Samples

[TimingPoints]
0,283.018867924528,4,1,1,100,1,0
3394,-100,4,2,2,7,0,0
5659,-100,4,2,3,12,0,0
7925,-100,4,2,4,19,0,0
9054,-100,4,2,5,22,0,0
9622,-100,4,2,1,22,0,0
10188,-100,4,2,6,85,0,0
10259,-100,4,2,1,85,0,0
10331,-100,4,2,5,85,0,0
10402,-100,4,2,7,85,0,0
10472,-100,4,2,8,85,0,0
10543,-100,4,2,9,85,0,0
10613,-100,4,2,10,85,0,0
10683,-100,4,2,11,85,0,0
10753,-100,4,2,12,85,0,0
10824,-100,4,2,11,85,0,0
10894,-100,4,2,9,85,0,0
10969,-100,4,2,10,85,0,0
11039,-100,4,2,8,85,0,0
11109,-100,4,2,13,85,0,0
11179,-100,4,2,9,85,0,0
11250,-100,4,2,7,85,0,0
11320,-100,4,2,13,85,0,0
11391,-100,4,2,5,85,0,0
11460,-100,4,2,7,85,0,0
11531,-100,4,2,6,85,0,0
11605,-100,4,2,4,85,0,0
11675,-100,4,2,14,85,0,0
11746,-100,4,2,6,85,0,0
11816,-100,4,2,15,85,0,0
11886,-100,4,2,14,85,0,0
11956,-100,4,2,16,85,0,0
12027,-100,4,2,17,85,0,0
12097,-100,4,2,16,85,0,0
12168,-100,4,2,18,85,0,0
12242,-100,4,2,19,85,0,0
12313,-100,4,2,20,85,0,0
12382,-100,4,2,19,85,0,0
12453,-100,4,2,6,85,0,0
12523,-100,4,2,1,85,0,0
12594,-100,4,2,5,85,0,0
12664,-100,4,2,7,85,0,0
12734,-100,4,2,8,85,0,0
12804,-100,4,2,9,85,0,0
12878,-100,4,2,10,85,0,0
12949,-100,4,2,11,85,0,0
13019,-100,4,2,12,85,0,0
13090,-100,4,2,11,85,0,0
13159,-100,4,2,9,85,0,0
13230,-100,4,2,10,85,0,0
13300,-100,4,2,8,85,0,0
13371,-100,4,2,13,85,0,0
13445,-100,4,2,9,85,0,0
13516,-100,4,2,7,85,0,0
13585,-100,4,2,13,85,0,0
13656,-100,4,2,8,85,0,0
13726,-100,4,2,9,85,0,0
13797,-100,4,2,11,85,0,0
13867,-100,4,2,21,85,0,0
13938,-100,4,2,12,85,0,0
14007,-100,4,2,11,85,0,0
14081,-100,4,2,9,85,0,0
14152,-100,4,2,8,85,0,0
14222,-100,4,2,13,85,0,0
14293,-100,4,2,5,85,0,0
14363,-100,4,2,6,85,0,0
14433,-100,4,2,16,85,0,0
14503,-100,4,2,18,85,0,0
14574,-100,4,2,19,85,0,0
14644,-100,4,2,20,85,0,0
14719,-100,4,2,6,85,0,0
14787,-100,4,2,1,85,0,0
14859,-100,4,2,5,85,0,0
14929,-100,4,2,7,85,0,0
15000,-100,4,2,8,85,0,0
15070,-100,4,2,9,85,0,0
15141,-100,4,2,10,85,0,0
15210,-100,4,2,11,85,0,0
15281,-100,4,2,12,85,0,0
15355,-100,4,2,11,85,0,0
15425,-100,4,2,9,85,0,0
15496,-100,4,2,10,85,0,0
15566,-100,4,2,8,85,0,0
15636,-100,4,2,13,85,0,0
15706,-100,4,2,9,85,0,0
15777,-100,4,2,7,85,0,0
15847,-100,4,2,13,85,0,0
15918,-100,4,2,7,85,0,0
15992,-100,4,2,13,85,0,0
16063,-100,4,2,7,85,0,0
16132,-100,4,2,16,85,0,0
16203,-100,4,2,13,85,0,0
16273,-100,4,2,14,85,0,0
16344,-100,4,2,8,85,0,0
16414,-100,4,2,6,85,0,0
16484,-100,4,2,9,85,0,0
16554,-100,4,2,4,85,0,0
16628,-100,4,2,10,85,0,0
16699,-100,4,2,5,85,0,0
16769,-100,4,2,7,85,0,0
16840,-100,4,2,13,85,0,0
16909,-100,4,2,22,85,0,0
16980,-100,4,2,4,85,0,0
17051,-100,4,2,1,85,0,0
17121,-100,4,2,21,85,0,0
17195,-100,4,2,12,85,0,0
17266,-100,4,2,11,85,0,0
17335,-100,4,2,9,85,0,0
17406,-100,4,2,10,85,0,0
17476,-100,4,2,8,85,0,0
17547,-100,4,2,9,85,0,0
17617,-100,4,2,22,85,0,0
17688,-100,4,2,8,85,0,0
17757,-100,4,2,13,85,0,0
17831,-100,4,2,7,85,0,0
17902,-100,4,2,13,85,0,0
17972,-100,4,2,22,85,0,0
18043,-100,4,2,10,85,0,0
18113,-100,4,2,11,85,0,0
18183,-100,4,2,12,74,0,0
18253,-100,4,2,21,74,0,0
18324,-100,4,2,23,74,0,0
18394,-100,4,2,11,85,0,0
18469,-100,4,2,12,64,0,0
18539,-100,4,2,21,64,0,0
18609,-100,4,2,23,64,0,0
18679,-76.9230769230769,4,2,11,85,0,0
18750,-76.9230769230769,4,2,12,62,0,0
18820,-76.9230769230769,4,2,21,62,0,0
18891,-76.9230769230769,4,2,23,62,0,0
18960,-76.9230769230769,4,2,24,85,0,0
19031,-76.9230769230769,4,2,21,85,0,0
19105,-76.9230769230769,4,2,11,85,0,0
19175,-76.9230769230769,4,2,25,85,0,0
19246,-76.9230769230769,4,2,24,85,0,0
19316,-76.9230769230769,4,2,21,85,0,0
19386,-76.9230769230769,4,2,11,85,0,0
19456,-76.9230769230769,4,2,25,85,0,0
19527,-76.9230769230769,4,2,8,85,0,0
19597,-76.9230769230769,4,2,13,85,0,0
19668,-76.9230769230769,4,2,5,85,0,0
19742,-76.9230769230769,4,2,26,85,0,0
19813,-76.9230769230769,4,2,21,85,0,0
19882,-76.9230769230769,4,2,11,85,0,0
19953,-76.9230769230769,4,2,25,85,0,0
20023,-76.9230769230769,4,2,8,85,0,0
20094,-76.9230769230769,4,2,13,85,0,0
20164,-76.9230769230769,4,2,5,85,0,0
20234,-76.9230769230769,4,2,26,85,0,0
20308,-76.9230769230769,4,2,14,85,0,0
20378,-76.9230769230769,4,2,22,85,0,0
20449,-76.9230769230769,4,2,8,85,0,0
20519,-76.9230769230769,4,2,13,85,0,0
20590,-76.9230769230769,4,2,7,85,0,0
20659,-76.9230769230769,4,2,5,85,0,0
20730,-76.9230769230769,4,2,4,85,0,0
20800,-76.9230769230769,4,2,26,85,0,0
20871,-76.9230769230769,4,2,15,85,0,0
20945,-76.9230769230769,4,2,14,85,0,0
21016,-76.9230769230769,4,2,15,85,0,0
21085,-76.9230769230769,4,2,14,85,0,0
21156,-76.9230769230769,4,2,16,85,0,0
21226,-125,4,2,17,85,0,0
21297,-125,4,2,16,85,0,0
21367,-125,4,2,17,85,0,0
21438,-125,4,2,18,85,0,0
21507,-125,4,2,14,66,0,0
21580,-125,4,2,1,66,0,0
21652,-125,4,2,27,66,0,0
21722,-125,4,2,17,63,0,0
21793,-125,4,2,16,63,0,0
21863,-125,4,2,14,63,0,0
21933,-125,4,2,15,66,0,0
22004,-125,4,2,1,66,0,0
22219,-125,4,2,14,66,0,0
22289,-125,4,2,16,66,0,0
22359,-125,4,2,18,66,0,0
22429,-125,4,2,1,66,0,0
22500,-125,4,2,16,66,0,0
22570,-125,4,2,1,66,0,0
22641,-125,4,2,17,66,0,0
22712,-125,4,2,1,66,0,0
22781,-125,4,2,20,66,0,0
22855,-125,4,2,27,66,0,0
22925,-125,4,2,17,66,0,0
22996,-125,4,2,14,66,0,0
23066,-125,4,2,6,66,0,0
23136,-125,4,2,4,66,0,0
23206,-125,4,2,5,66,0,0
23278,-125,4,2,1,66,0,0
23347,-125,4,2,7,66,0,0
23418,-125,4,2,6,66,0,0
23492,-125,4,2,14,66,0,0
23563,-125,4,2,17,66,0,0
23632,-125,4,2,6,66,0,0
23702,-125,4,2,6,66,0,0
23703,-125,4,2,5,66,0,0
23773,-125,4,2,4,66,0,0
23844,-125,4,2,1,66,0,0
23914,-125,4,2,8,66,0,0
23984,-125,4,2,7,66,0,0
24058,-125,4,2,4,66,0,0
24128,-125,4,2,8,70,0,0
24199,-125,4,2,22,66,0,0
24268,-125,4,2,1,66,0,0
24480,-125,4,2,8,66,0,0
24550,-125,4,2,13,66,0,0
24621,-125,4,2,9,66,0,0
24695,-125,4,2,22,66,0,0
24766,-125,4,2,5,66,0,0
24835,-125,4,2,13,66,0,0
24906,-125,4,2,7,66,0,0
24976,-125,4,2,1,66,0,0
25047,-125,4,2,14,66,0,0
25117,-125,4,2,7,66,0,0
25188,-125,4,2,5,66,0,0
25259,-125,4,2,1,66,0,0
25331,-125,4,2,14,66,0,0
25402,-125,4,2,5,66,0,0
25472,-125,4,2,28,66,0,0
25542,-125,4,2,1,66,0,0
25613,-125,4,2,16,66,0,0
25683,-125,4,2,28,66,0,0
25753,-125,4,2,8,66,0,0
25825,-125,4,2,1,66,0,0
25894,-125,4,2,6,66,0,0
25969,-125,4,2,8,66,0,0
26039,-125,4,2,7,68,0,0
26108,-125,4,2,1,68,0,0
26179,-125,4,2,17,70,0,0
26250,-125,4,2,14,65,0,0
26320,-125,4,2,6,65,0,0
26391,-125,4,2,5,66,0,0
26460,-125,4,2,29,66,0,0
26462,-125,4,2,29,66,0,0
26533,-125,4,2,1,66,0,0
26746,-125,4,2,14,72,0,0
26816,-125,4,2,26,63,0,0
26886,-125,4,2,5,63,0,0
26956,-125,4,2,13,70,0,0
27027,-125,4,2,26,66,0,0
27097,-125,4,2,13,74,0,0
27168,-125,4,2,7,66,0,0
27240,-125,4,2,1,66,0,0
27313,-125,4,2,14,72,0,0
27382,-125,4,2,6,70,0,0
27453,-125,4,2,4,66,0,0
27523,-125,4,2,7,66,0,0
27594,-125,4,2,13,66,0,0
27665,-125,4,2,1,66,0,0
27734,-125,4,2,15,73,0,0
27808,-125,4,2,6,66,0,0
27878,-125,4,2,28,66,0,0
27949,-125,4,2,13,66,0,0
28019,-125,4,2,8,66,0,0
28089,-125,4,2,1,66,0,0
28159,-125,4,2,7,70,0,0
28230,-125,4,2,8,66,0,0
28300,-125,4,2,22,66,0,0
28372,-125,4,2,1,66,0,0
28445,-125,4,2,4,67,0,0
28516,-125,4,2,13,66,0,0
28585,-125,4,2,22,66,0,0
28656,-125,4,2,9,66,0,0
28726,-125,4,2,10,66,0,0
28797,-125,4,2,1,66,0,0
29007,-125,4,2,12,66,0,0
29080,-125,4,2,1,66,0,0
29152,-125,4,2,11,66,0,0
29222,-125,4,2,12,66,0,0
29293,-125,4,2,11,66,0,0
29363,-125,4,2,10,66,0,0
29433,-125,4,2,30,72,0,0
29503,-125,4,2,23,63,0,0
29574,-125,4,2,24,63,0,0
29644,-125,4,2,21,66,0,0
29719,-125,4,2,12,66,0,0
29789,-125,4,2,11,62,0,0
29859,-125,4,2,10,62,0,0
29929,-125,4,2,25,66,0,0
30000,-125,4,2,8,71,0,0
30070,-125,4,2,13,60,0,0
30141,-125,4,2,5,60,0,0
30210,-125,4,2,26,60,0,0
30281,-125,4,2,14,64,0,0
30355,-125,4,2,16,60,0,0
30425,-125,4,2,18,62,0,0
30496,-125,4,2,20,62,0,0
30566,-125,4,2,14,66,0,0
30636,-125,4,2,1,66,0,0
30706,-125,4,2,27,66,0,0
30777,-125,4,2,17,63,0,0
30847,-125,4,2,16,63,0,0
30918,-125,4,2,14,63,0,0
30992,-125,4,2,15,66,0,0
31061,-125,4,2,1,66,0,0
31273,-125,4,2,14,66,0,0
31344,-125,4,2,16,66,0,0
31414,-125,4,2,18,66,0,0
31485,-125,4,2,1,66,0,0
31558,-125,4,2,16,66,0,0
31627,-125,4,2,1,66,0,0
31699,-125,4,2,17,66,0,0
31768,-125,4,2,1,66,0,0
31840,-125,4,2,20,66,0,0
31909,-125,4,2,27,66,0,0
31980,-125,4,2,17,66,0,0
32050,-125,4,2,14,66,0,0
32121,-125,4,2,6,66,0,0
32195,-125,4,2,4,66,0,0
32266,-125,4,2,5,66,0,0
32334,-125,4,2,1,66,0,0
32406,-125,4,2,7,66,0,0
32476,-125,4,2,6,66,0,0
32547,-125,4,2,14,66,0,0
32617,-125,4,2,17,66,0,0
32688,-125,4,2,6,66,0,0
32757,-125,4,2,5,66,0,0
32831,-125,4,2,4,66,0,0
32900,-125,4,2,1,66,0,0
32972,-125,4,2,8,66,0,0
33043,-125,4,2,7,66,0,0
33112,-125,4,2,4,66,0,0
33183,-125,4,2,8,70,0,0
33253,-125,4,2,22,66,0,0
33325,-125,4,2,1,66,0,0
33539,-125,4,2,8,66,0,0
33609,-125,4,2,13,66,0,0
33679,-125,4,2,9,66,0,0
33750,-125,4,2,22,66,0,0
33820,-125,4,2,5,66,0,0
33891,-125,4,2,13,66,0,0
33960,-125,4,2,7,66,0,0
33962,-83.3333333333333,4,2,7,66,0,0
34033,-83.3333333333333,4,2,1,66,0,0
34105,-83.3333333333333,4,2,14,66,0,0
34175,-83.3333333333333,4,2,7,66,0,0
34246,-83.3333333333333,4,2,5,66,0,0
34316,-83.3333333333333,4,2,1,66,0,0
34386,-83.3333333333333,4,2,14,66,0,0
34456,-83.3333333333333,4,2,5,66,0,0
34527,-83.3333333333333,4,2,28,66,0,0
34599,-83.3333333333333,4,2,1,66,0,0
34668,-83.3333333333333,4,2,16,66,0,0
34742,-83.3333333333333,4,2,28,66,0,0
34813,-83.3333333333333,4,2,8,66,0,0
34882,-83.3333333333333,4,2,1,66,0,0
34953,-83.3333333333333,4,2,6,66,0,0
35023,-83.3333333333333,4,2,8,66,0,0
35094,-83.3333333333333,4,2,7,68,0,0
35165,-83.3333333333333,4,2,1,68,0,0
35234,-83.3333333333333,4,2,17,70,0,0
35308,-83.3333333333333,4,2,14,66,0,0
35378,-83.3333333333333,4,2,6,66,0,0
35449,-83.3333333333333,4,2,4,66,0,0
35519,-83.3333333333333,4,2,5,66,0,0
35589,-83.3333333333333,4,2,1,66,0,0
35800,-83.3333333333333,4,2,14,72,0,0
35871,-83.3333333333333,4,2,26,63,0,0
35945,-83.3333333333333,4,2,5,63,0,0
36016,-83.3333333333333,4,2,13,70,0,0
36085,-83.3333333333333,4,2,26,66,0,0
36156,-83.3333333333333,4,2,13,74,0,0
36226,-83.3333333333333,4,2,7,66,0,0
36297,-83.3333333333333,4,2,1,66,0,0
36367,-83.3333333333333,4,2,14,72,0,0
36438,-83.3333333333333,4,2,6,70,0,0
36507,-83.3333333333333,4,2,4,66,0,0
36581,-83.3333333333333,4,2,7,66,0,0
36650,-71.4285714285714,4,2,7,66,0,0
36652,-71.4285714285714,4,2,13,66,0,0
36721,-71.4285714285714,4,2,1,66,0,0
36793,-71.4285714285714,4,2,15,73,0,0
36863,-71.4285714285714,4,2,6,66,0,0
36933,-71.4285714285714,4,2,28,66,0,0
37003,-71.4285714285714,4,2,13,66,0,0
37074,-71.4285714285714,4,2,8,66,0,0
37075,-62.5,4,2,8,66,0,0
37146,-62.5,4,2,1,66,0,0
37219,-62.5,4,2,7,70,0,0
37289,-62.5,4,2,8,66,0,0
37359,-62.5,4,2,22,66,0,0
37429,-62.5,4,2,1,66,0,0
37500,-62.5,4,2,4,67,0,0
37570,-62.5,4,2,13,66,0,0
37641,-62.5,4,2,22,66,0,0
37710,-62.5,4,2,9,66,0,0
37781,-62.5,4,2,10,66,0,0
37783,-83.3333333333333,4,2,10,66,0,0
37853,-83.3333333333333,4,2,1,66,0,0
38066,-83.3333333333333,4,2,12,66,0,0
38136,-83.3333333333333,4,2,1,66,0,0
38206,-83.3333333333333,4,2,11,66,0,0
38277,-83.3333333333333,4,2,12,66,0,0
38347,-83.3333333333333,4,2,11,66,0,0
38422,-83.3333333333333,4,2,10,66,0,0
38492,-83.3333333333333,4,2,25,72,0,0
38563,-83.3333333333333,4,2,22,63,0,0
38632,-83.3333333333333,4,2,8,63,0,0
38703,-83.3333333333333,4,2,13,66,0,0
38773,-83.3333333333333,4,2,7,66,0,0
38844,-83.3333333333333,4,2,5,62,0,0
38914,-83.3333333333333,4,2,4,62,0,0
38984,-83.3333333333333,4,2,26,66,0,0
38985,-83.3333333333333,4,2,26,66,0,0
39056,-83.3333333333333,4,2,26,66,0,0
39058,-83.3333333333333,4,2,14,71,0,0
39128,-83.3333333333333,4,2,16,60,0,0
39199,-83.3333333333333,4,2,18,60,0,0
39269,-83.3333333333333,4,2,31,60,0,0
39340,-83.3333333333333,4,2,20,64,0,0
39409,-83.3333333333333,4,2,32,60,0,0
39480,-83.3333333333333,4,2,33,62,0,0
39550,-83.3333333333333,4,2,29,62,0,0
39551,-83.3333333333333,4,2,29,62,0,0
39621,-83.3333333333333,4,2,21,69,0,0
39622,-83.3333333333333,4,2,21,69,0,0
39695,-83.3333333333333,4,2,11,69,0,0
39766,-83.3333333333333,4,2,25,69,0,0
39835,-83.3333333333333,4,2,8,69,0,0
39906,-83.3333333333333,4,2,13,66,0,0
39976,-83.3333333333333,4,2,5,66,0,0
40047,-83.3333333333333,4,2,26,66,0,0
40117,-83.3333333333333,4,2,14,66,0,0
40188,-83.3333333333333,4,2,24,66,0,0
40257,-83.3333333333333,4,2,11,66,0,0
40331,-83.3333333333333,4,2,25,66,0,0
40402,-83.3333333333333,4,2,8,66,0,0
40471,-100,4,2,8,66,0,0
40472,-100,4,2,33,69,0,0
40543,-100,4,2,18,83,0,0
40613,-100,4,2,5,83,0,0
40683,-100,4,2,11,83,0,0
40753,-100,4,2,12,84,0,0
40754,-58.8235294117647,4,2,12,84,0,0
40825,-58.8235294117647,4,2,1,5,0,0
40894,-58.8235294117647,4,2,17,84,0,0
40966,-58.8235294117647,4,2,17,84,0,0
40969,-58.8235294117647,4,2,15,84,0,0
41037,-58.8235294117647,4,2,15,84,0,0
41039,-58.8235294117647,4,2,4,84,0,0
41109,-58.8235294117647,4,2,7,84,0,0
41179,-100,4,2,12,84,0,0
41249,-100,4,2,1,84,0,0
41460,-100,4,2,11,84,0,0
41533,-100,4,2,1,84,0,0
41605,-100,4,2,17,84,0,0
41675,-100,4,2,15,84,0,0
41746,-100,4,2,4,84,0,0
41816,-100,4,2,7,84,0,0
41886,-100,4,2,9,84,0,0
41957,-100,4,2,1,84,0,0
42027,-100,4,2,18,84,0,0
42097,-100,4,2,16,84,0,0
42172,-100,4,2,6,84,0,0
42242,-100,4,2,5,84,0,0
42313,-100,4,2,13,84,0,0
42382,-100,4,2,9,84,0,0
42453,-100,4,2,13,84,0,0
42523,-100,4,2,1,84,0,0
42594,-100,4,2,13,84,0,0
42664,-100,4,2,5,84,0,0
42734,-100,4,2,6,84,0,0
42808,-100,4,2,16,84,0,0
42878,-100,4,2,18,84,0,0
42949,-100,4,2,19,84,0,0
43019,-100,4,2,21,84,0,0
43089,-100,4,2,1,84,0,0
43159,-100,4,2,25,84,0,0
43230,-100,4,2,11,84,0,0
43300,-100,4,2,23,84,0,0
43372,-100,4,2,1,84,0,0
43445,-100,4,2,24,84,0,0
43514,-100,4,2,1,84,0,0
43726,-100,4,2,11,84,0,0
43797,-100,4,2,1,84,0,0
43867,-100,4,2,8,84,0,0
43938,-100,4,2,25,84,0,0
44007,-100,4,2,11,84,0,0
44081,-100,4,2,21,84,0,0
44152,-100,4,2,12,84,0,0
44221,-100,4,2,1,84,0,0
44293,-100,4,2,8,84,0,0
44363,-100,4,2,10,84,0,0
44433,-100,4,2,12,84,0,0
44503,-100,4,2,24,84,0,0
44574,-100,4,2,12,84,0,0
44644,-100,4,2,10,84,0,0
44716,-76.9230769230769,4,2,10,84,0,0
44719,-76.9230769230769,4,2,11,84,0,0
44787,-76.9230769230769,4,2,1,84,0,0
44859,-76.9230769230769,4,2,8,84,0,0
44929,-76.9230769230769,4,2,9,84,0,0
44999,-100,4,2,9,84,0,0
45000,-100,4,2,11,84,0,0
45070,-100,4,2,24,84,0,0
45141,-100,4,2,11,84,0,0
45210,-100,4,2,9,84,0,0
45281,-100,4,2,10,84,0,0
45283,-76.9230769230769,4,2,10,84,0,0
45353,-76.9230769230769,4,2,1,84,0,0
45496,-76.9230769230769,4,2,21,84,0,0
45566,-100,4,2,21,84,0,0
45636,-100,4,2,1,84,0,0
45706,-100,4,2,10,84,0,0
45777,-100,4,2,22,84,0,0
45847,-100,4,2,9,84,0,0
45919,-100,4,2,1,84,0,0
46063,-100,4,2,12,84,0,0
46202,-100,4,2,1,84,0,0
46273,-100,4,2,9,84,0,0
46344,-100,4,2,8,84,0,0
46414,-100,4,2,9,84,0,0
46485,-100,4,2,1,84,0,0
46628,-100,4,2,12,84,0,0
46768,-100,4,2,1,84,0,0
46840,-100,4,2,9,84,0,0
46909,-100,4,2,34,84,0,0
46980,-100,4,2,22,84,0,0
47051,-100,4,2,1,84,0,0
47195,-100,4,2,35,84,0,0
47334,-100,4,2,1,84,0,0
47406,-100,4,2,22,84,0,0
47476,-100,4,2,13,84,0,0
47547,-100,4,2,36,84,0,0
47617,-100,4,2,37,84,0,0
47688,-100,4,2,22,84,0,0
47757,-100,4,2,25,84,0,0
47831,-100,4,2,7,84,0,0
47902,-100,4,2,12,84,0,0
47972,-100,4,2,22,84,0,0
48043,-100,4,2,25,84,0,0
48113,-100,4,2,5,84,0,0
48183,-100,4,2,11,84,0,0
48253,-100,4,2,13,84,0,0
48324,-100,4,2,25,84,0,0
48394,-100,4,2,22,84,0,0
48469,-100,4,2,23,84,0,0
48539,-100,4,2,25,84,0,0
48609,-100,4,2,11,84,0,0
48679,-100,4,2,23,84,0,0
48749,-100,4,2,1,84,0,0
48820,-100,4,2,23,84,0,0
48891,-100,4,2,12,84,0,0
48960,-100,4,2,9,84,0,0
49031,-100,4,2,8,84,0,0
49105,-100,4,2,12,84,0,0
49175,-100,4,2,9,84,0,0
49246,-100,4,2,24,84,0,0
49316,-100,4,2,1,84,0,0
49386,-100,4,2,24,84,0,0
49456,-100,4,2,12,84,0,0
49527,-100,4,2,9,84,0,0
49597,-100,4,2,8,84,0,0
49672,-100,4,2,7,84,0,0
49742,-100,4,2,6,84,0,0
49813,-100,4,2,7,84,0,0
49882,-100,4,2,1,84,0,0
49953,-100,4,2,17,84,0,0
50023,-100,4,2,15,84,0,0
50094,-100,4,2,4,84,0,0
50164,-100,4,2,7,84,0,0
50234,-100,4,2,12,84,0,0
50306,-100,4,2,1,84,0,0
50519,-100,4,2,11,84,0,0
50589,-100,4,2,1,84,0,0
50659,-100,4,2,17,84,0,0
50730,-100,4,2,15,84,0,0
50800,-100,4,2,4,84,0,0
50871,-100,4,2,7,84,0,0
50945,-100,4,2,9,84,0,0
51014,-100,4,2,1,84,0,0
51085,-100,4,2,18,84,0,0
51156,-100,4,2,16,84,0,0
51226,-100,4,2,6,84,0,0
51297,-100,4,2,5,84,0,0
51367,-100,4,2,13,84,0,0
51438,-100,4,2,9,84,0,0
51507,-100,4,2,13,84,0,0
51580,-100,4,2,1,84,0,0
51652,-100,4,2,13,84,0,0
51722,-100,4,2,5,84,0,0
51793,-100,4,2,6,84,0,0
51863,-100,4,2,16,84,0,0
51933,-100,4,2,18,84,0,0
52003,-100,4,2,19,84,0,0
52074,-100,4,2,21,84,0,0
52146,-100,4,2,1,84,0,0
52219,-100,4,2,25,84,0,0
52289,-100,4,2,11,84,0,0
52359,-100,4,2,23,84,0,0
52429,-100,4,2,1,84,0,0
52500,-100,4,2,24,84,0,0
52570,-100,4,2,1,84,0,0
52781,-100,4,2,11,84,0,0
52853,-100,4,2,1,84,0,0
52925,-100,4,2,8,84,0,0
52996,-100,4,2,25,84,0,0
53066,-100,4,2,11,84,0,0
53136,-100,4,2,21,84,0,0
53206,-100,4,2,12,84,0,0
53278,-100,4,2,1,84,0,0
53347,-100,4,2,8,84,0,0
53422,-100,4,2,10,84,0,0
53492,-100,4,2,12,84,0,0
53563,-100,4,2,24,84,0,0
53632,-100,4,2,12,84,0,0
53703,-100,4,2,10,84,0,0
53773,-76.9230769230769,4,2,11,84,0,0
53844,-76.9230769230769,4,2,1,84,0,0
53914,-76.9230769230769,4,2,8,84,0,0
53984,-76.9230769230769,4,2,9,84,0,0
54056,-100,4,2,9,84,0,0
54058,-100,4,2,11,84,0,0
54128,-100,4,2,24,84,0,0
54199,-100,4,2,11,84,0,0
54269,-100,4,2,9,84,0,0
54339,-76.9230769230769,4,2,9,84,0,0
54340,-76.9230769230769,4,2,10,84,0,0
54410,-76.9230769230769,4,2,1,84,0,0
54550,-76.9230769230769,4,2,21,84,0,0
54622,-100,4,2,21,84,0,0
54693,-100,4,2,1,84,0,0
54766,-100,4,2,10,84,0,0
54835,-100,4,2,22,84,0,0
54906,-100,4,2,9,84,0,0
54976,-100,4,2,1,84,0,0
55117,-100,4,2,12,84,0,0
55259,-100,4,2,1,84,0,0
55331,-100,4,2,9,84,0,0
55402,-100,4,2,8,84,0,0
55472,-100,4,2,9,84,0,0
55542,-100,4,2,1,84,0,0
55683,-100,4,2,12,84,0,0
55825,-100,4,2,1,84,0,0
55894,-100,4,2,9,84,0,0
55969,-100,4,2,34,84,0,0
56039,-100,4,2,22,84,0,0
56108,-100,4,2,1,84,0,0
56250,-100,4,2,35,84,0,0
56391,-100,4,2,1,84,0,0
56460,-100,4,2,22,84,0,0
56534,-100,4,2,13,84,0,0
56605,-100,4,2,36,84,0,0
56675,-100,4,2,37,84,0,0
56746,-100,4,2,22,84,0,0
56816,-100,4,2,25,84,0,0
56886,-100,4,2,7,84,0,0
56956,-100,4,2,12,84,0,0
57027,-100,4,2,22,84,0,0
57097,-100,4,2,25,84,0,0
57172,-100,4,2,5,84,0,0
57242,-100,4,2,11,84,0,0
57313,-100,4,2,13,84,0,0
57382,-100,4,2,25,84,0,0
57453,-100,4,2,22,84,0,0
57523,-100,4,2,23,84,0,0
57594,-100,4,2,25,84,0,0
57664,-100,4,2,11,84,0,0
57734,-100,4,2,23,84,0,0
57806,-100,4,2,1,84,0,0
57878,-100,4,2,23,84,0,0
57949,-100,4,2,12,84,0,0
58019,-100,4,2,9,84,0,0
58090,-100,4,2,8,84,0,0
58159,-100,4,2,12,84,0,0
58230,-100,4,2,9,84,0,0
58300,-100,4,2,24,84,0,0
58372,-100,4,2,1,84,0,0
58445,-100,4,2,24,84,0,0
58516,-100,4,2,12,84,0,0
58585,-100,4,2,9,84,0,0
58656,-100,4,2,8,84,0,0
58726,-100,4,2,7,84,0,0
58797,-100,4,2,6,84,0,0
58867,-100,4,2,23,84,0,0
58938,-100,4,2,1,84,0,0
59007,-100,4,2,23,84,0,0
59074,-100,4,2,12,84,0,0
59152,-100,4,2,9,84,0,0
59186,-100,4,2,1,84,0,0
59222,-100,4,2,8,84,0,0
59257,-100,4,2,1,84,0,0
59297,-100,4,2,12,84,0,0
59327,-100,4,2,1,84,0,0
59363,-100,4,2,9,84,0,0
59433,-100,4,2,38,84,0,0
59504,-100,4,2,1,84,0,0
59574,-100,4,2,24,84,0,0
59644,-100,4,2,12,84,0,0
59719,-100,4,2,9,84,0,0
59752,-100,4,2,1,84,0,0
59789,-100,4,2,8,84,0,0
59823,-100,4,2,1,84,0,0
59859,-100,4,2,7,84,0,0
59893,-100,4,2,1,84,0,0
59929,-100,4,2,6,84,0,0
60000,-100,4,2,24,84,0,0
60070,-100,4,2,12,84,0,0
60141,-100,4,2,9,84,0,0
60210,-100,4,2,8,84,0,0
60284,-100,4,2,12,84,0,0
60355,-100,4,2,9,84,0,0
60425,-100,4,2,8,84,0,0
60496,-100,4,2,7,84,0,0
60566,-100,4,2,9,84,0,0
60636,-100,4,2,8,84,0,0
60706,-100,4,2,7,84,0,0
60777,-100,4,2,6,84,0,0
60847,-100,4,2,8,84,0,0
60922,-100,4,2,7,84,0,0
60992,-100,4,2,6,84,0,0
61063,-100,4,2,14,84,0,0
61132,-100,4,2,5,84,0,0
61202,-100,4,2,1,84,0,0
61273,-100,4,2,5,85,0,0
61344,-100,4,2,7,85,0,0
61414,-100,4,2,8,85,0,0
61484,-100,4,2,9,85,0,0
61558,-100,4,2,10,85,0,0
61628,-100,4,2,11,85,0,0
61699,-100,4,2,12,85,0,0
61769,-100,4,2,11,85,0,0
61840,-100,4,2,9,85,0,0
61909,-100,4,2,10,85,0,0
61980,-100,4,2,8,85,0,0
62050,-100,4,2,13,85,0,0
62121,-100,4,2,9,85,0,0
62195,-100,4,2,7,85,0,0
62266,-100,4,2,13,85,0,0
62335,-100,4,2,5,85,0,0
62406,-100,4,2,7,85,0,0
62476,-100,4,2,6,85,0,0
62547,-100,4,2,4,85,0,0
62617,-100,4,2,14,85,0,0
62688,-100,4,2,6,85,0,0
62757,-100,4,2,15,85,0,0
62831,-100,4,2,14,85,0,0
62902,-100,4,2,16,85,0,0
62972,-100,4,2,17,85,0,0
63043,-100,4,2,16,85,0,0
63113,-100,4,2,18,85,0,0
63183,-100,4,2,19,85,0,0
63253,-100,4,2,20,85,0,0
63324,-100,4,2,19,85,0,0
63394,-100,4,2,6,85,0,0
63466,-100,4,2,1,85,0,0
63539,-100,4,2,5,85,0,0
63609,-100,4,2,7,85,0,0
63679,-100,4,2,8,85,0,0
63750,-100,4,2,9,85,0,0
63820,-100,4,2,10,85,0,0
63891,-100,4,2,11,85,0,0
63960,-100,4,2,12,85,0,0
64034,-100,4,2,11,85,0,0
64105,-100,4,2,9,85,0,0
64175,-100,4,2,10,85,0,0
64246,-100,4,2,8,85,0,0
64316,-100,4,2,13,85,0,0
64386,-100,4,2,9,85,0,0
64456,-100,4,2,7,85,0,0
64527,-100,4,2,13,85,0,0
64597,-100,4,2,8,85,0,0
64672,-100,4,2,9,85,0,0
64742,-100,4,2,11,85,0,0
64813,-100,4,2,21,85,0,0
64882,-100,4,2,12,85,0,0
64953,-100,4,2,11,85,0,0
65023,-100,4,2,9,85,0,0
65094,-100,4,2,8,85,0,0
65164,-100,4,2,13,85,0,0
65234,-100,4,2,5,85,0,0
65308,-100,4,2,6,85,0,0
65378,-100,4,2,16,85,0,0
65449,-100,4,2,18,85,0,0
65519,-100,4,2,19,85,0,0
65590,-100,4,2,20,85,0,0
65659,-100,4,2,6,85,0,0
65731,-100,4,2,1,85,0,0
65800,-100,4,2,5,85,0,0
65871,-100,4,2,7,85,0,0
65945,-100,4,2,8,85,0,0
66016,-100,4,2,9,85,0,0
66085,-100,4,2,10,85,0,0
66156,-100,4,2,11,85,0,0
66226,-100,4,2,12,85,0,0
66297,-100,4,2,11,85,0,0
66367,-100,4,2,9,85,0,0
66438,-100,4,2,10,85,0,0
66507,-100,4,2,8,85,0,0
66581,-100,4,2,13,85,0,0
66652,-100,4,2,9,85,0,0
66722,-100,4,2,7,85,0,0
66793,-100,4,2,13,85,0,0
66863,-100,4,2,7,85,0,0
66933,-100,4,2,13,85,0,0
67003,-100,4,2,7,85,0,0
67074,-100,4,2,16,85,0,0
67144,-100,4,2,13,85,0,0
67219,-100,4,2,14,85,0,0
67289,-100,4,2,8,85,0,0
67359,-100,4,2,6,85,0,0
67429,-100,4,2,9,85,0,0
67500,-100,4,2,4,85,0,0
67570,-100,4,2,10,85,0,0
67641,-100,4,2,5,85,0,0
67710,-100,4,2,7,85,0,0
67784,-100,4,2,13,85,0,0
67855,-100,4,2,22,85,0,0
67925,-100,4,2,4,85,0,0
67995,-100,4,2,1,85,0,0
68066,-100,4,2,21,85,0,0
68136,-100,4,2,12,85,0,0
68206,-100,4,2,11,85,0,0
68277,-100,4,2,9,85,0,0
68347,-100,4,2,10,85,0,0
68422,-100,4,2,8,85,0,0
68492,-100,4,2,9,85,0,0
68563,-100,4,2,22,85,0,0
68632,-100,4,2,8,85,0,0
68703,-100,4,2,13,85,0,0
68773,-100,4,2,7,85,0,0
68844,-100,4,2,13,85,0,0
68914,-100,4,2,22,85,0,0
68984,-100,4,2,10,85,0,0
69058,-100,4,2,11,85,0,0
69128,-100,4,2,12,85,0,0
69199,-100,4,2,21,85,0,0
69269,-100,4,2,23,85,0,0
69340,-100,4,2,11,85,0,0
69409,-100,4,2,12,85,0,0
69480,-100,4,2,21,85,0,0
69550,-100,4,2,23,85,0,0
69621,-100,4,2,11,85,0,0
69695,-100,4,2,12,85,0,0
69766,-100,4,2,21,85,0,0
69835,-100,4,2,23,85,0,0
69906,-100,4,2,24,85,0,0
69976,-100,4,2,21,85,0,0
70047,-100,4,2,11,85,0,0
70117,-100,4,2,25,85,0,0
70188,-83.3333333333333,4,2,6,85,0,0
70259,-83.3333333333333,4,2,1,85,0,0
70331,-83.3333333333333,4,2,5,85,0,0
70402,-83.3333333333333,4,2,7,85,0,0
70472,-83.3333333333333,4,2,8,85,0,0
70543,-83.3333333333333,4,2,9,85,0,0
70613,-83.3333333333333,4,2,10,85,0,0
70683,-83.3333333333333,4,2,11,85,0,0
70753,-83.3333333333333,4,2,12,85,0,0
70824,-83.3333333333333,4,2,11,85,0,0
70894,-83.3333333333333,4,2,9,85,0,0
70969,-83.3333333333333,4,2,10,85,0,0
71039,-83.3333333333333,4,2,8,85,0,0
71109,-83.3333333333333,4,2,13,85,0,0
71179,-83.3333333333333,4,2,9,85,0,0
71250,-83.3333333333333,4,2,7,85,0,0
71320,-83.3333333333333,4,2,13,85,0,0
71391,-83.3333333333333,4,2,5,85,0,0
71460,-83.3333333333333,4,2,7,85,0,0
71534,-83.3333333333333,4,2,6,85,0,0
71605,-83.3333333333333,4,2,4,85,0,0
71675,-83.3333333333333,4,2,14,85,0,0
71746,-83.3333333333333,4,2,6,85,0,0
71816,-83.3333333333333,4,2,15,85,0,0
71886,-83.3333333333333,4,2,14,85,0,0
71956,-83.3333333333333,4,2,16,85,0,0
72027,-83.3333333333333,4,2,17,85,0,0
72097,-83.3333333333333,4,2,16,85,0,0
72172,-83.3333333333333,4,2,18,85,0,0
72242,-83.3333333333333,4,2,19,85,0,0
72313,-83.3333333333333,4,2,20,85,0,0
72382,-83.3333333333333,4,2,19,85,0,0
72453,-83.3333333333333,4,2,6,85,0,0
72523,-83.3333333333333,4,2,1,85,0,0
72594,-83.3333333333333,4,2,5,85,0,0
72664,-83.3333333333333,4,2,7,85,0,0
72734,-83.3333333333333,4,2,8,85,0,0
72808,-83.3333333333333,4,2,9,85,0,0
72878,-83.3333333333333,4,2,10,85,0,0
72949,-83.3333333333333,4,2,11,85,0,0
73019,-83.3333333333333,4,2,12,85,0,0
73090,-83.3333333333333,4,2,11,85,0,0
73159,-83.3333333333333,4,2,9,85,0,0
73230,-83.3333333333333,4,2,10,85,0,0
73300,-83.3333333333333,4,2,8,85,0,0
73371,-83.3333333333333,4,2,13,85,0,0
73445,-83.3333333333333,4,2,9,85,0,0
73516,-83.3333333333333,4,2,7,85,0,0
73585,-83.3333333333333,4,2,13,85,0,0
73656,-83.3333333333333,4,2,8,85,0,0
73726,-83.3333333333333,4,2,9,85,0,0
73797,-83.3333333333333,4,2,11,85,0,0
73867,-83.3333333333333,4,2,21,85,0,0
73938,-83.3333333333333,4,2,12,85,0,0
74007,-83.3333333333333,4,2,11,85,0,0
74081,-83.3333333333333,4,2,9,85,0,0
74152,-83.3333333333333,4,2,8,85,0,0
74222,-83.3333333333333,4,2,13,85,0,0
74293,-83.3333333333333,4,2,5,85,0,0
74363,-83.3333333333333,4,2,6,85,0,0
74433,-83.3333333333333,4,2,16,85,0,0
74503,-83.3333333333333,4,2,18,85,0,0
74574,-83.3333333333333,4,2,19,85,0,0
74648,-83.3333333333333,4,2,20,85,0,0
74719,-83.3333333333333,4,2,6,85,0,0
74787,-83.3333333333333,4,2,1,85,0,0
74859,-83.3333333333333,4,2,5,85,0,0
74929,-83.3333333333333,4,2,7,85,0,0
75000,-83.3333333333333,4,2,8,85,0,0
75070,-83.3333333333333,4,2,9,85,0,0
75141,-83.3333333333333,4,2,10,85,0,0
75210,-83.3333333333333,4,2,11,85,0,0
75284,-83.3333333333333,4,2,12,85,0,0
75355,-83.3333333333333,4,2,11,85,0,0
75425,-83.3333333333333,4,2,9,85,0,0
75496,-83.3333333333333,4,2,10,85,0,0
75566,-83.3333333333333,4,2,8,85,0,0
75636,-83.3333333333333,4,2,13,85,0,0
75706,-83.3333333333333,4,2,9,85,0,0
75777,-83.3333333333333,4,2,7,85,0,0
75847,-83.3333333333333,4,2,13,85,0,0
75922,-83.3333333333333,4,2,7,85,0,0
75992,-83.3333333333333,4,2,13,85,0,0
76063,-83.3333333333333,4,2,7,85,0,0
76132,-83.3333333333333,4,2,16,85,0,0
76203,-83.3333333333333,4,2,13,85,0,0
76273,-83.3333333333333,4,2,14,85,0,0
76344,-83.3333333333333,4,2,8,85,0,0
76414,-83.3333333333333,4,2,6,85,0,0
76484,-83.3333333333333,4,2,9,85,0,0
76558,-83.3333333333333,4,2,4,85,0,0
76628,-83.3333333333333,4,2,10,85,0,0
76699,-83.3333333333333,4,2,5,85,0,0
76769,-83.3333333333333,4,2,7,85,0,0
76840,-83.3333333333333,4,2,13,85,0,0
76909,-83.3333333333333,4,2,22,85,0,0
76980,-83.3333333333333,4,2,4,85,0,0
77051,-83.3333333333333,4,2,1,85,0,0
77121,-83.3333333333333,4,2,21,85,0,0
77195,-83.3333333333333,4,2,12,85,0,0
77266,-83.3333333333333,4,2,11,85,0,0
77335,-83.3333333333333,4,2,9,85,0,0
77406,-83.3333333333333,4,2,10,85,0,0
77476,-83.3333333333333,4,2,8,85,0,0
77547,-83.3333333333333,4,2,9,85,0,0
77617,-83.3333333333333,4,2,22,85,0,0
77688,-83.3333333333333,4,2,8,85,0,0
77757,-83.3333333333333,4,2,13,85,0,0
77831,-83.3333333333333,4,2,7,85,0,0
77902,-83.3333333333333,4,2,13,85,0,0
77972,-83.3333333333333,4,2,22,85,0,0
78043,-83.3333333333333,4,2,10,85,0,0
78113,-83.3333333333333,4,2,11,85,0,0
78183,-83.3333333333333,4,2,12,84,0,0
78253,-83.3333333333333,4,2,21,84,0,0
78324,-83.3333333333333,4,2,23,84,0,0
78398,-83.3333333333333,4,2,11,85,0,0
78469,-83.3333333333333,4,2,12,84,0,0
78539,-83.3333333333333,4,2,21,84,0,0
78609,-83.3333333333333,4,2,23,84,0,0
78679,-83.3333333333333,4,2,11,85,0,0
78750,-83.3333333333333,4,2,12,82,0,0
78820,-83.3333333333333,4,2,21,82,0,0
78891,-83.3333333333333,4,2,23,82,0,0
78960,-83.3333333333333,4,2,24,70,0,0
79034,-83.3333333333333,4,2,21,70,0,0
79105,-83.3333333333333,4,2,11,70,0,0
79175,-83.3333333333333,4,2,25,70,0,0
79246,-83.3333333333333,4,2,24,70,0,0
79316,-83.3333333333333,4,2,21,70,0,0
79386,-83.3333333333333,4,2,11,70,0,0
79456,-83.3333333333333,4,2,25,70,0,0
79527,-83.3333333333333,4,2,8,70,0,0
79597,-83.3333333333333,4,2,13,70,0,0
79672,-83.3333333333333,4,2,5,70,0,0
79742,-83.3333333333333,4,2,26,70,0,0
79813,-83.3333333333333,4,2,21,70,0,0
79882,-83.3333333333333,4,2,11,70,0,0
79953,-83.3333333333333,4,2,25,70,0,0
80023,-83.3333333333333,4,2,8,70,0,0
80094,-83.3333333333333,4,2,13,70,0,0
80164,-83.3333333333333,4,2,5,70,0,0
80234,-83.3333333333333,4,2,26,70,0,0
80308,-83.3333333333333,4,2,14,70,0,0
80378,-83.3333333333333,4,2,22,70,0,0
80449,-83.3333333333333,4,2,8,70,0,0
80519,-83.3333333333333,4,2,13,70,0,0
80590,-83.3333333333333,4,2,7,70,0,0
80659,-83.3333333333333,4,2,5,70,0,0
80730,-83.3333333333333,4,2,4,70,0,0
80800,-83.3333333333333,4,2,26,70,0,0
80871,-83.3333333333333,4,2,15,70,0,0
80945,-83.3333333333333,4,2,14,70,0,0
81016,-83.3333333333333,4,2,15,70,0,0
81085,-83.3333333333333,4,2,14,70,0,0
81156,-83.3333333333333,4,2,16,70,0,0
81226,-83.3333333333333,4,2,17,70,0,0
81297,-83.3333333333333,4,2,16,70,0,0
81367,-83.3333333333333,4,2,17,70,0,0
81438,-83.3333333333333,4,2,18,70,0,0
81507,-83.3333333333333,4,2,29,70,0,0
81580,-83.3333333333333,4,2,1,70,0,0
83773,-76.9230769230769,4,2,7,90,0,1
83844,-76.9230769230769,4,2,39,90,0,1
83914,-76.9230769230769,4,2,4,90,0,1
83984,-76.9230769230769,4,2,7,90,0,1
84058,-76.9230769230769,4,2,8,90,0,1
84128,-76.9230769230769,4,2,10,90,0,1
84199,-76.9230769230769,4,2,12,90,0,1
84269,-76.9230769230769,4,2,39,90,0,1
84340,-76.9230769230769,4,2,11,90,0,1
84409,-76.9230769230769,4,2,12,90,0,1
84480,-76.9230769230769,4,2,11,90,0,1
84550,-76.9230769230769,4,2,9,90,0,1
84621,-76.9230769230769,4,2,13,90,0,1
84695,-76.9230769230769,4,2,7,90,0,1
84766,-76.9230769230769,4,2,5,90,0,1
84835,-76.9230769230769,4,2,6,90,0,1
84906,-76.9230769230769,4,2,11,90,0,1
84976,-76.9230769230769,4,2,9,90,0,1
85047,-76.9230769230769,4,2,22,90,0,1
85117,-76.9230769230769,4,2,13,90,0,1
85188,-76.9230769230769,4,2,7,90,0,1
85257,-76.9230769230769,4,2,5,90,0,1
85331,-76.9230769230769,4,2,6,90,0,1
85402,-76.9230769230769,4,2,16,90,0,1
85472,-76.9230769230769,4,2,13,90,0,1
85543,-76.9230769230769,4,2,7,90,0,1
85613,-76.9230769230769,4,2,5,90,0,1
85683,-76.9230769230769,4,2,6,90,0,1
85753,-76.9230769230769,4,2,16,90,0,1
85824,-76.9230769230769,4,2,17,90,0,1
85898,-76.9230769230769,4,2,18,90,0,1
85969,-76.9230769230769,4,2,20,90,0,1
86037,-83.3333333333333,4,2,20,90,0,1
86039,-83.3333333333333,4,2,17,90,0,1
86109,-83.3333333333333,4,2,40,90,0,1
86179,-83.3333333333333,4,2,18,90,0,1
86250,-83.3333333333333,4,2,17,90,0,1
86320,-83.3333333333333,4,2,16,90,0,1
86391,-83.3333333333333,4,2,14,90,0,1
86460,-83.3333333333333,4,2,6,90,0,1
86534,-83.3333333333333,4,2,4,90,0,1
86605,-83.3333333333333,4,2,5,90,0,1
86675,-83.3333333333333,4,2,7,90,0,1
86746,-83.3333333333333,4,2,13,90,0,1
86816,-83.3333333333333,4,2,8,90,0,1
86886,-83.3333333333333,4,2,9,90,0,1
86956,-83.3333333333333,4,2,11,90,0,1
87027,-83.3333333333333,4,2,21,90,0,1
87097,-83.3333333333333,4,2,40,90,0,1
87172,-83.3333333333333,4,2,12,90,0,1
87242,-83.3333333333333,4,2,11,90,0,1
87313,-83.3333333333333,4,2,9,90,0,1
87382,-83.3333333333333,4,2,8,90,0,1
87453,-83.3333333333333,4,2,13,90,0,1
87523,-83.3333333333333,4,2,7,90,0,1
87594,-83.3333333333333,4,2,5,90,0,1
87664,-83.3333333333333,4,2,6,90,0,1
87734,-83.3333333333333,4,2,21,90,0,1
87808,-83.3333333333333,4,2,12,90,0,1
87878,-83.3333333333333,4,2,11,90,0,1
87949,-83.3333333333333,4,2,9,90,0,1
88019,-83.3333333333333,4,2,8,90,0,1
88090,-83.3333333333333,4,2,13,90,0,1
88159,-83.3333333333333,4,2,7,90,0,1
88230,-83.3333333333333,4,2,6,90,0,1
88300,-83.3333333333333,4,2,4,90,0,1
88371,-83.3333333333333,4,2,7,90,0,1
88445,-83.3333333333333,4,2,22,90,0,1
88516,-83.3333333333333,4,2,10,90,0,1
88585,-83.3333333333333,4,2,12,90,0,1
88656,-83.3333333333333,4,2,10,90,0,1
88726,-83.3333333333333,4,2,38,90,0,1
88797,-83.3333333333333,4,2,23,90,0,1
88867,-83.3333333333333,4,2,24,90,0,1
88938,-83.3333333333333,4,2,21,90,0,1
89007,-83.3333333333333,4,2,12,90,0,1
89081,-83.3333333333333,4,2,10,90,0,1
89152,-83.3333333333333,4,2,12,90,0,1
89222,-83.3333333333333,4,2,41,90,0,1
89293,-83.3333333333333,4,2,23,90,0,1
89363,-83.3333333333333,4,2,41,90,0,1
89433,-83.3333333333333,4,2,24,90,0,1
89503,-83.3333333333333,4,2,12,90,0,1
89574,-83.3333333333333,4,2,10,90,0,1
89648,-83.3333333333333,4,2,8,90,0,1
89719,-83.3333333333333,4,2,12,90,0,1
89789,-83.3333333333333,4,2,10,90,0,1
89859,-83.3333333333333,4,2,8,90,0,1
89929,-83.3333333333333,4,2,7,90,0,1
90000,-83.3333333333333,4,2,8,90,0,1
90070,-83.3333333333333,4,2,10,90,0,1
90141,-83.3333333333333,4,2,11,90,0,1
90210,-83.3333333333333,4,2,12,90,0,1
90284,-83.3333333333333,4,2,21,90,0,1
90355,-83.3333333333333,4,2,24,90,0,1
90425,-83.3333333333333,4,2,21,90,0,1
90496,-83.3333333333333,4,2,11,90,0,1
90566,-83.3333333333333,4,2,12,90,0,1
90636,-83.3333333333333,4,2,10,90,0,1
90706,-83.3333333333333,4,2,8,90,0,1
90777,-83.3333333333333,4,2,4,90,0,1
90847,-83.3333333333333,4,2,27,90,0,1
90922,-83.3333333333333,4,2,14,90,0,1
90992,-83.3333333333333,4,2,4,90,0,1
91063,-83.3333333333333,4,2,8,90,0,1
91132,-83.3333333333333,4,2,14,90,0,1
91203,-83.3333333333333,4,2,4,90,0,1
91273,-83.3333333333333,4,2,8,90,0,1
91344,-83.3333333333333,4,2,10,90,0,1
91414,-83.3333333333333,4,2,4,90,0,1
91484,-83.3333333333333,4,2,8,90,0,1
91558,-83.3333333333333,4,2,10,90,0,1
91628,-83.3333333333333,4,2,12,90,0,1
91699,-83.3333333333333,4,2,21,90,0,1
91769,-83.3333333333333,4,2,11,90,0,1
91840,-83.3333333333333,4,2,9,90,0,1
91909,-83.3333333333333,4,2,13,90,0,1
91980,-83.3333333333333,4,2,5,90,0,1
92050,-83.3333333333333,4,2,13,90,0,1
92121,-83.3333333333333,4,2,9,90,0,1
92195,-83.3333333333333,4,2,11,90,0,1
92266,-83.3333333333333,4,2,24,90,0,1
92335,-83.3333333333333,4,2,11,90,0,1
92406,-83.3333333333333,4,2,9,90,0,1
92476,-83.3333333333333,4,2,8,90,0,1
92547,-83.3333333333333,4,2,11,90,0,1
92582,-83.3333333333333,4,2,1,90,0,1
92617,-83.3333333333333,4,2,9,90,0,1
92653,-83.3333333333333,4,2,1,90,0,1
92688,-83.3333333333333,4,2,8,90,0,1
92724,-83.3333333333333,4,2,1,90,0,1
92757,-83.3333333333333,4,2,5,90,0,1
92794,-83.3333333333333,4,2,1,90,0,1
92830,-71.4285714285714,4,2,1,90,0,1
92831,-71.4285714285714,4,2,7,95,0,1
92902,-71.4285714285714,4,2,39,95,0,1
92972,-71.4285714285714,4,2,4,95,0,1
93043,-71.4285714285714,4,2,7,95,0,1
93113,-71.4285714285714,4,2,8,95,0,1
93183,-71.4285714285714,4,2,10,95,0,1
93253,-71.4285714285714,4,2,12,95,0,1
93324,-71.4285714285714,4,2,39,95,0,1
93398,-71.4285714285714,4,2,11,95,0,1
93469,-71.4285714285714,4,2,12,95,0,1
93539,-71.4285714285714,4,2,11,95,0,1
93609,-71.4285714285714,4,2,9,95,0,1
93679,-71.4285714285714,4,2,13,95,0,1
93750,-71.4285714285714,4,2,7,95,0,1
93820,-71.4285714285714,4,2,5,95,0,1
93891,-71.4285714285714,4,2,6,95,0,1
93960,-71.4285714285714,4,2,11,95,0,1
94034,-71.4285714285714,4,2,9,95,0,1
94105,-71.4285714285714,4,2,22,95,0,1
94175,-71.4285714285714,4,2,13,95,0,1
94246,-71.4285714285714,4,2,7,95,0,1
94316,-71.4285714285714,4,2,5,95,0,1
94386,-71.4285714285714,4,2,6,95,0,1
94456,-71.4285714285714,4,2,16,95,0,1
94527,-71.4285714285714,4,2,13,95,0,1
94597,-71.4285714285714,4,2,7,95,0,1
94672,-71.4285714285714,4,2,5,95,0,1
94742,-71.4285714285714,4,2,6,95,0,1
94813,-71.4285714285714,4,2,16,95,0,1
94882,-71.4285714285714,4,2,17,95,0,1
94953,-71.4285714285714,4,2,18,95,0,1
95023,-71.4285714285714,4,2,20,95,0,1
95094,-71.4285714285714,4,2,17,95,0,1
95164,-71.4285714285714,4,2,40,95,0,1
95234,-71.4285714285714,4,2,18,95,0,1
95308,-71.4285714285714,4,2,17,95,0,1
95378,-71.4285714285714,4,2,16,95,0,1
95449,-71.4285714285714,4,2,14,95,0,1
95519,-71.4285714285714,4,2,6,95,0,1
95590,-71.4285714285714,4,2,4,95,0,1
95659,-71.4285714285714,4,2,5,95,0,1
95730,-71.4285714285714,4,2,7,95,0,1
95800,-71.4285714285714,4,2,13,95,0,1
95871,-71.4285714285714,4,2,8,95,0,1
95945,-71.4285714285714,4,2,9,95,0,1
96016,-71.4285714285714,4,2,11,95,0,1
96085,-71.4285714285714,4,2,21,95,0,1
96156,-71.4285714285714,4,2,40,95,0,1
96226,-71.4285714285714,4,2,12,95,0,1
96297,-71.4285714285714,4,2,11,95,0,1
96367,-71.4285714285714,4,2,9,95,0,1
96438,-71.4285714285714,4,2,8,95,0,1
96511,-71.4285714285714,4,2,13,95,0,1
96581,-71.4285714285714,4,2,7,95,0,1
96652,-71.4285714285714,4,2,5,95,0,1
96722,-71.4285714285714,4,2,6,95,0,1
96793,-71.4285714285714,4,2,21,95,0,1
96863,-71.4285714285714,4,2,12,95,0,1
96933,-71.4285714285714,4,2,11,95,0,1
97003,-71.4285714285714,4,2,9,95,0,1
97074,-71.4285714285714,4,2,8,95,0,1
97148,-71.4285714285714,4,2,13,95,0,1
97219,-71.4285714285714,4,2,7,95,0,1
97289,-71.4285714285714,4,2,6,95,0,1
97359,-71.4285714285714,4,2,4,95,0,1
97429,-71.4285714285714,4,2,7,95,0,1
97500,-71.4285714285714,4,2,22,95,0,1
97570,-71.4285714285714,4,2,10,95,0,1
97641,-71.4285714285714,4,2,12,95,0,1
97710,-71.4285714285714,4,2,10,95,0,1
97784,-71.4285714285714,4,2,38,95,0,1
97855,-71.4285714285714,4,2,23,95,0,1
97925,-71.4285714285714,4,2,24,95,0,1
97996,-71.4285714285714,4,2,21,95,0,1
98066,-71.4285714285714,4,2,12,95,0,1
98136,-71.4285714285714,4,2,10,95,0,1
98206,-71.4285714285714,4,2,12,95,0,1
98277,-71.4285714285714,4,2,41,95,0,1
98347,-71.4285714285714,4,2,23,95,0,1
98422,-71.4285714285714,4,2,41,95,0,1
98492,-71.4285714285714,4,2,24,95,0,1
98563,-71.4285714285714,4,2,12,95,0,1
98632,-71.4285714285714,4,2,10,95,0,1
98703,-71.4285714285714,4,2,8,95,0,1
98773,-71.4285714285714,4,2,12,95,0,1
98844,-71.4285714285714,4,2,10,95,0,1
98914,-71.4285714285714,4,2,8,95,0,1
98984,-71.4285714285714,4,2,7,95,0,1
99058,-71.4285714285714,4,2,8,95,0,1
99128,-71.4285714285714,4,2,10,95,0,1
99199,-71.4285714285714,4,2,11,95,0,1
99269,-71.4285714285714,4,2,12,95,0,1
99340,-71.4285714285714,4,2,21,95,0,1
99409,-71.4285714285714,4,2,24,95,0,1
99480,-71.4285714285714,4,2,21,95,0,1
99550,-71.4285714285714,4,2,11,95,0,1
99621,-71.4285714285714,4,2,12,95,0,1
99695,-71.4285714285714,4,2,10,95,0,1
99766,-71.4285714285714,4,2,8,95,0,1
99835,-71.4285714285714,4,2,4,95,0,1
99906,-71.4285714285714,4,2,27,95,0,1
99976,-71.4285714285714,4,2,14,95,0,1
100047,-71.4285714285714,4,2,4,95,0,1
100117,-71.4285714285714,4,2,8,95,0,1
100188,-71.4285714285714,4,2,14,95,0,1
100261,-71.4285714285714,4,2,4,95,0,1
100331,-71.4285714285714,4,2,8,95,0,1
100402,-71.4285714285714,4,2,10,95,0,1
100472,-71.4285714285714,4,2,4,95,0,1
100543,-71.4285714285714,4,2,8,95,0,1
100613,-71.4285714285714,4,2,10,95,0,1
100683,-71.4285714285714,4,2,12,95,0,1
100753,-71.4285714285714,4,2,21,95,0,1
100824,-71.4285714285714,4,2,11,95,0,1
100898,-71.4285714285714,4,2,9,95,0,1
100969,-71.4285714285714,4,2,13,95,0,1
101039,-71.4285714285714,4,2,5,95,0,1
101109,-71.4285714285714,4,2,13,95,0,1
101179,-71.4285714285714,4,2,9,95,0,1
101250,-71.4285714285714,4,2,11,95,0,1
101320,-71.4285714285714,4,2,24,95,0,1
101391,-71.4285714285714,4,2,11,95,0,1
101460,-71.4285714285714,4,2,9,95,0,1
101534,-71.4285714285714,4,2,8,95,0,1
101605,-71.4285714285714,4,2,11,95,0,1
101639,-71.4285714285714,4,2,1,95,0,1
101675,-71.4285714285714,4,2,9,95,0,1
101709,-71.4285714285714,4,2,1,95,0,1
101746,-71.4285714285714,4,2,8,95,0,1
101780,-71.4285714285714,4,2,1,95,0,1
101816,-71.4285714285714,4,2,5,95,0,1
101851,-71.4285714285714,4,2,1,95,0,1
101886,-76.9230769230769,4,2,21,71,0,0
101956,-76.9230769230769,4,2,11,71,0,0
102027,-76.9230769230769,4,2,25,71,0,0
102097,-76.9230769230769,4,2,8,71,0,0
102172,-76.9230769230769,4,2,13,71,0,0
102242,-76.9230769230769,4,2,5,71,0,0
102313,-76.9230769230769,4,2,26,71,0,0
102382,-76.9230769230769,4,2,14,71,0,0
102453,-76.9230769230769,4,2,18,71,0,0
102523,-76.9230769230769,4,2,17,71,0,0
102594,-76.9230769230769,4,2,16,71,0,0
102664,-76.9230769230769,4,2,14,71,0,0
102734,-76.9230769230769,4,2,26,71,0,0
102808,-76.9230769230769,4,2,5,71,0,0
102878,-76.9230769230769,4,2,13,71,0,0
102949,-76.9230769230769,4,2,22,71,0,0
103019,-76.9230769230769,4,2,8,71,0,0
103090,-76.9230769230769,4,2,25,71,0,0
103159,-76.9230769230769,4,2,11,71,0,0
103230,-76.9230769230769,4,2,23,71,0,0
103300,-76.9230769230769,4,2,24,71,0,0
103371,-76.9230769230769,4,2,21,71,0,0
103445,-76.9230769230769,4,2,11,71,0,0
103516,-76.9230769230769,4,2,25,71,0,0
103585,-76.9230769230769,4,2,8,71,0,0
103656,-76.9230769230769,4,2,13,73,0,0
103726,-76.9230769230769,4,2,5,74,0,0
103797,-76.9230769230769,4,2,26,74,0,0
103867,-76.9230769230769,4,2,33,69,0,0
103938,-76.9230769230769,4,2,18,73,0,0
104011,-76.9230769230769,4,2,5,73,0,0
104081,-76.9230769230769,4,2,11,73,0,0
104152,-76.9230769230769,4,2,42,71,0,0
104222,-76.9230769230769,4,2,12,71,0,0
104293,-76.9230769230769,4,2,10,71,0,0
104363,-76.9230769230769,4,2,22,71,0,0
104433,-76.9230769230769,4,2,34,71,0,0
104503,-76.9230769230769,4,2,7,71,0,0
104574,-76.9230769230769,4,2,4,71,0,0
104648,-76.9230769230769,4,2,15,71,0,0
104719,-76.9230769230769,4,2,17,71,0,0
104789,-76.9230769230769,4,2,43,71,0,0
104859,-76.9230769230769,4,2,44,71,0,0
104929,-76.9230769230769,4,2,15,71,0,0
105000,-76.9230769230769,4,2,4,71,0,0
105070,-76.9230769230769,4,2,7,71,0,0
105141,-76.9230769230769,4,2,34,71,0,0
105210,-76.9230769230769,4,2,45,71,0,0
105284,-76.9230769230769,4,2,22,71,0,0
105355,-76.9230769230769,4,2,10,71,0,0
105425,-76.9230769230769,4,2,12,71,0,0
105496,-76.9230769230769,4,2,46,71,0,0
105566,-76.9230769230769,4,2,23,71,0,0
105636,-76.9230769230769,4,2,42,71,0,0
105706,-76.9230769230769,4,2,12,71,0,0
105777,-76.9230769230769,4,2,10,71,0,0
105847,-76.9230769230769,4,2,22,71,0,0
105922,-76.9230769230769,4,2,34,73,0,0
105992,-76.9230769230769,4,2,7,74,0,0
106063,-76.9230769230769,4,2,4,74,0,0
106132,-76.9230769230769,4,2,47,69,0,0
106203,-76.9230769230769,4,2,17,73,0,0
106273,-76.9230769230769,4,2,7,73,0,0
106344,-76.9230769230769,4,2,12,73,0,0
106414,-76.9230769230769,4,2,37,74,0,0
106558,-76.9230769230769,4,2,43,74,0,0
106628,-76.9230769230769,4,2,48,74,0,0
106699,-76.9230769230769,4,2,28,74,0,0
106769,-76.9230769230769,4,2,36,74,0,0
106840,-76.9230769230769,4,2,37,74,0,0
106910,-76.9230769230769,4,2,1,5,0,0
107121,-76.9230769230769,4,2,12,74,0,0
107193,-76.9230769230769,4,2,1,5,0,0
107266,-76.9230769230769,4,2,43,74,0,0
107335,-76.9230769230769,4,2,48,74,0,0
107406,-76.9230769230769,4,2,28,74,0,0
107476,-76.9230769230769,4,2,36,74,0,0
107547,-76.9230769230769,4,2,25,74,0,0
107617,-76.9230769230769,4,2,1,5,0,0
107688,-76.9230769230769,4,2,17,74,0,0
107761,-76.9230769230769,4,2,44,74,0,0
107831,-76.9230769230769,4,2,26,74,0,0
107902,-76.9230769230769,4,2,7,74,0,0
107972,-76.9230769230769,4,2,34,74,0,0
108043,-76.9230769230769,4,2,25,74,0,0
108113,-76.9230769230769,4,2,34,74,0,0
108183,-76.9230769230769,4,2,1,74,0,0
108253,-76.9230769230769,4,2,34,74,0,0
108324,-76.9230769230769,4,2,7,74,0,0
108398,-76.9230769230769,4,2,26,74,0,0
108469,-76.9230769230769,4,2,44,74,0,0
108539,-76.9230769230769,4,2,17,74,0,0
108609,-76.9230769230769,4,2,31,74,0,0
108679,-76.9230769230769,4,2,42,74,0,0
108749,-76.9230769230769,4,2,1,5,0,0
108820,-76.9230769230769,4,2,10,74,0,0
108891,-76.9230769230769,4,2,12,74,0,0
108960,-76.9230769230769,4,2,46,74,0,0
109033,-76.9230769230769,4,2,1,74,0,0
109103,-100,4,2,1,74,0,0
109105,-100,4,2,23,74,0,0
109174,-100,4,2,1,74,0,0
109386,-100,4,2,12,74,0,0
109457,-100,4,2,1,74,0,0
109527,-100,4,2,22,74,0,0
109597,-100,4,2,10,74,0,0
109672,-100,4,2,12,74,0,0
109742,-100,4,2,42,74,0,0
109813,-100,4,2,37,74,0,0
109882,-100,4,2,1,74,0,0
109953,-100,4,2,22,74,0,0
110023,-100,4,2,35,74,0,0
110094,-100,4,2,37,74,0,0
110164,-100,4,2,23,74,0,0
110234,-100,4,2,37,74,0,0
110235,-76.9230769230769,4,2,37,74,0,0
110308,-76.9230769230769,4,2,35,74,0,0
110378,-76.9230769230769,4,2,12,74,0,0
110448,-76.9230769230769,4,2,1,74,0,0
110519,-76.9230769230769,4,2,22,74,0,0
110590,-76.9230769230769,4,2,25,74,0,0
110659,-76.9230769230769,4,2,12,74,0,0
110730,-76.9230769230769,4,2,23,74,0,0
110800,-76.9230769230769,4,2,12,74,0,0
110871,-76.9230769230769,4,2,25,74,0,0
110945,-76.9230769230769,4,2,35,74,0,0
111014,-76.9230769230769,4,2,1,74,0,0
111156,-76.9230769230769,4,2,42,74,0,0
111297,-76.9230769230769,4,2,1,74,0,0
111367,-76.9230769230769,4,2,35,74,0,0
111438,-76.9230769230769,4,2,45,74,0,0
111511,-76.9230769230769,4,2,25,74,0,0
111580,-76.9230769230769,4,2,1,74,0,0
111722,-76.9230769230769,4,2,37,74,0,0
111863,-76.9230769230769,4,2,1,74,0,0
111933,-76.9230769230769,4,2,25,74,0,0
112003,-76.9230769230769,4,2,22,74,0,0
112074,-76.9230769230769,4,2,25,74,0,0
112146,-76.9230769230769,4,2,1,74,0,0
112289,-76.9230769230769,4,2,37,74,0,0
112429,-76.9230769230769,4,2,1,74,0,0
112500,-76.9230769230769,4,2,25,74,0,0
112570,-76.9230769230769,4,2,8,74,0,0
112641,-76.9230769230769,4,2,45,74,0,0
112712,-76.9230769230769,4,2,1,74,0,0
112855,-76.9230769230769,4,2,11,74,0,0
112995,-76.9230769230769,4,2,1,74,0,0
113066,-76.9230769230769,4,2,45,74,0,0
113136,-76.9230769230769,4,2,34,74,0,0
113206,-76.9230769230769,4,2,13,74,0,0
113277,-76.9230769230769,4,2,21,74,0,0
113347,-76.9230769230769,4,2,45,74,0,0
113422,-76.9230769230769,4,2,10,74,0,0
113492,-76.9230769230769,4,2,36,74,0,0
113563,-76.9230769230769,4,2,37,74,0,0
113632,-76.9230769230769,4,2,45,74,0,0
113703,-76.9230769230769,4,2,10,74,0,0
113773,-76.9230769230769,4,2,7,74,0,0
113844,-76.9230769230769,4,2,12,74,0,0
113914,-76.9230769230769,4,2,34,74,0,0
113984,-76.9230769230769,4,2,10,74,0,0
114058,-76.9230769230769,4,2,45,74,0,0
114128,-76.9230769230769,4,2,46,74,0,0
114199,-76.9230769230769,4,2,10,74,0,0
114269,-76.9230769230769,4,2,12,74,0,0
114340,-76.9230769230769,4,2,46,74,0,0
114410,-76.9230769230769,4,2,1,74,0,0
114480,-76.9230769230769,4,2,46,74,0,0
114550,-76.9230769230769,4,2,37,74,0,0
114625,-76.9230769230769,4,2,25,74,0,0
114695,-76.9230769230769,4,2,22,74,0,0
114766,-76.9230769230769,4,2,37,74,0,0
114835,-76.9230769230769,4,2,25,74,0,0
114906,-76.9230769230769,4,2,23,74,0,0
114976,-76.9230769230769,4,2,1,74,0,0
115047,-76.9230769230769,4,2,23,74,0,0
115117,-76.9230769230769,4,2,37,74,0,0
115188,-76.9230769230769,4,2,25,74,0,0
115261,-76.9230769230769,4,2,22,74,0,0
115331,-76.9230769230769,4,2,36,74,0,0
115402,-76.9230769230769,4,2,26,74,0,0
115472,-76.9230769230769,4,2,36,74,0,0
115542,-76.9230769230769,4,2,1,74,0,0
115613,-76.9230769230769,4,2,43,74,0,0
115683,-76.9230769230769,4,2,48,74,0,0
115753,-76.9230769230769,4,2,28,74,0,0
115824,-76.9230769230769,4,2,36,74,0,0
115898,-76.9230769230769,4,2,37,74,0,0
115966,-76.9230769230769,4,2,1,74,0,0
116179,-76.9230769230769,4,2,12,74,0,0
116249,-76.9230769230769,4,2,1,74,0,0
116320,-76.9230769230769,4,2,43,74,0,0
116391,-76.9230769230769,4,2,48,74,0,0
116460,-76.9230769230769,4,2,28,74,0,0
116534,-76.9230769230769,4,2,36,74,0,0
116605,-76.9230769230769,4,2,25,74,0,0
116674,-76.9230769230769,4,2,1,74,0,0
116746,-76.9230769230769,4,2,17,74,0,0
116816,-76.9230769230769,4,2,44,74,0,0
116886,-76.9230769230769,4,2,26,74,0,0
116956,-76.9230769230769,4,2,7,74,0,0
117027,-76.9230769230769,4,2,34,74,0,0
117097,-76.9230769230769,4,2,25,74,0,0
117172,-76.9230769230769,4,2,34,74,0,0
117240,-76.9230769230769,4,2,1,74,0,0
117313,-76.9230769230769,4,2,34,74,0,0
117382,-76.9230769230769,4,2,7,74,0,0
117453,-76.9230769230769,4,2,26,74,0,0
117523,-76.9230769230769,4,2,44,74,0,0
117594,-76.9230769230769,4,2,17,74,0,0
117664,-76.9230769230769,4,2,31,74,0,0
117734,-76.9230769230769,4,2,42,74,0,0
117806,-76.9230769230769,4,2,1,74,0,0
117878,-76.9230769230769,4,2,10,74,0,0
117949,-76.9230769230769,4,2,12,74,0,0
118019,-76.9230769230769,4,2,46,74,0,0
118089,-76.9230769230769,4,2,1,74,0,0
118159,-76.9230769230769,4,2,23,74,0,0
118231,-76.9230769230769,4,2,1,74,0,0
118445,-76.9230769230769,4,2,12,74,0,0
118514,-76.9230769230769,4,2,1,74,0,0
118585,-76.9230769230769,4,2,22,74,0,0
118656,-76.9230769230769,4,2,10,74,0,0
118726,-76.9230769230769,4,2,12,74,0,0
118797,-76.9230769230769,4,2,42,74,0,0
118867,-76.9230769230769,4,2,37,74,0,0
118938,-76.9230769230769,4,2,1,74,0,0
119011,-76.9230769230769,4,2,22,74,0,0
119081,-76.9230769230769,4,2,35,74,0,0
119152,-76.9230769230769,4,2,37,74,0,0
119222,-76.9230769230769,4,2,23,74,0,0
119293,-76.9230769230769,4,2,37,74,0,0
119363,-76.9230769230769,4,2,35,74,0,0
119433,-76.9230769230769,4,2,12,74,0,0
119504,-76.9230769230769,4,2,1,74,0,0
119574,-76.9230769230769,4,2,22,74,0,0
119648,-76.9230769230769,4,2,25,74,0,0
119719,-76.9230769230769,4,2,12,74,0,0
119789,-76.9230769230769,4,2,23,74,0,0
119859,-76.9230769230769,4,2,12,74,0,0
119929,-76.9230769230769,4,2,25,74,0,0
120000,-76.9230769230769,4,2,35,74,0,0
120070,-76.9230769230769,4,2,1,74,0,0
120210,-76.9230769230769,4,2,42,74,0,0
120353,-76.9230769230769,4,2,1,74,0,0
120425,-76.9230769230769,4,2,35,74,0,0
120496,-76.9230769230769,4,2,45,74,0,0
120566,-76.9230769230769,4,2,25,74,0,0
120636,-76.9230769230769,4,2,1,74,0,0
120777,-76.9230769230769,4,2,37,74,0,0
120919,-76.9230769230769,4,2,1,74,0,0
120992,-76.9230769230769,4,2,25,74,0,0
121063,-76.9230769230769,4,2,22,74,0,0
121132,-76.9230769230769,4,2,25,74,0,0
121202,-76.9230769230769,4,2,1,74,0,0
121344,-76.9230769230769,4,2,37,74,0,0
121485,-76.9230769230769,4,2,1,74,0,0
121558,-76.9230769230769,4,2,25,74,0,0
121628,-76.9230769230769,4,2,8,74,0,0
121699,-76.9230769230769,4,2,45,74,0,0
121768,-76.9230769230769,4,2,1,74,0,0
121909,-76.9230769230769,4,2,11,74,0,0
122051,-76.9230769230769,4,2,1,74,0,0
122125,-76.9230769230769,4,2,45,74,0,0
122195,-76.9230769230769,4,2,34,74,0,0
122266,-76.9230769230769,4,2,13,74,0,0
122335,-76.9230769230769,4,2,21,74,0,0
122406,-76.9230769230769,4,2,45,74,0,0
122476,-76.9230769230769,4,2,10,74,0,0
122547,-76.9230769230769,4,2,36,74,0,0
122617,-76.9230769230769,4,2,37,74,0,0
122688,-76.9230769230769,4,2,45,74,0,0
122761,-76.9230769230769,4,2,10,74,0,0
122831,-76.9230769230769,4,2,7,74,0,0
122902,-76.9230769230769,4,2,12,74,0,0
122972,-76.9230769230769,4,2,34,74,0,0
123043,-76.9230769230769,4,2,10,74,0,0
123113,-76.9230769230769,4,2,45,74,0,0
123183,-76.9230769230769,4,2,46,74,0,0
123253,-76.9230769230769,4,2,10,74,0,0
123324,-76.9230769230769,4,2,12,74,0,0
123398,-76.9230769230769,4,2,46,74,0,0
123466,-76.9230769230769,4,2,1,74,0,0
123539,-76.9230769230769,4,2,46,74,0,0
123609,-76.9230769230769,4,2,37,74,0,0
123679,-76.9230769230769,4,2,25,74,0,0
123750,-76.9230769230769,4,2,22,74,0,0
123820,-76.9230769230769,4,2,37,74,0,0
123891,-76.9230769230769,4,2,25,74,0,0
123960,-76.9230769230769,4,2,23,74,0,0
124033,-76.9230769230769,4,2,1,74,0,0
124105,-76.9230769230769,4,2,23,74,0,0
124175,-76.9230769230769,4,2,37,74,0,0
124246,-76.9230769230769,4,2,25,74,0,0
124316,-76.9230769230769,4,2,22,74,0,0
124386,-76.9230769230769,4,2,36,74,0,0
124456,-76.9230769230769,4,2,26,74,0,0
124527,-76.9230769230769,4,2,46,74,0,0
124599,-76.9230769230769,4,2,1,74,0,0
124672,-76.9230769230769,4,2,46,74,0,0
124734,-76.9230769230769,4,2,37,74,0,0
124813,-76.9230769230769,4,2,25,74,0,0
124882,-76.9230769230769,4,2,22,74,0,0
124956,-76.9230769230769,4,2,37,74,0,0
125023,-76.9230769230769,4,2,25,74,0,0
125094,-76.9230769230769,4,2,30,74,0,0
125165,-76.9230769230769,4,2,1,74,0,0
125234,-76.9230769230769,4,2,23,74,0,0
125308,-76.9230769230769,4,2,37,74,0,0
125378,-76.9230769230769,4,2,25,74,0,0
125412,-76.9230769230769,4,2,1,74,0,0
125449,-76.9230769230769,4,2,22,74,0,0
125483,-76.9230769230769,4,2,1,74,0,0
125519,-76.9230769230769,4,2,36,74,0,0
125554,-76.9230769230769,4,2,1,74,0,0
125590,-76.9230769230769,4,2,26,74,0,0
125659,-76.9230769230769,4,2,23,74,0,0
125730,-76.9230769230769,4,2,37,74,0,0
125800,-76.9230769230769,4,2,25,74,0,0
125875,-76.9230769230769,4,2,22,74,0,0
125945,-76.9230769230769,4,2,37,74,0,0
126016,-76.9230769230769,4,2,25,74,0,0
126085,-76.9230769230769,4,2,22,74,0,0
126156,-76.9230769230769,4,2,36,74,0,0
126226,-76.9230769230769,4,2,25,74,0,0
126297,-76.9230769230769,4,2,22,74,0,0
126367,-76.9230769230769,4,2,36,74,0,0
126438,-76.9230769230769,4,2,26,74,0,0
126511,-76.9230769230769,4,2,22,74,0,0
126581,-76.9230769230769,4,2,36,74,0,0
126652,-76.9230769230769,4,2,26,74,0,0
126722,-76.9230769230769,4,2,15,74,0,0
126793,-76.9230769230769,4,2,37,74,0,0
126863,-76.9230769230769,4,2,25,74,0,0
126933,-76.9230769230769,4,2,22,74,0,0
127003,-76.9230769230769,4,2,36,74,0,0
127074,-76.9230769230769,4,2,25,74,0,0
127148,-76.9230769230769,4,2,22,74,0,0
127219,-76.9230769230769,4,2,36,74,0,0
127289,-76.9230769230769,4,2,26,74,0,0
127359,-76.9230769230769,4,2,22,74,0,0
127429,-76.9230769230769,4,2,36,74,0,0
127500,-76.9230769230769,4,2,26,74,0,0
127570,-76.9230769230769,4,2,15,74,0,0
127641,-76.9230769230769,4,2,36,74,0,0
127710,-76.9230769230769,4,2,26,74,0,0
127784,-76.9230769230769,4,2,15,74,0,0
127855,-76.9230769230769,4,2,43,74,0,0
127924,-100,4,2,43,74,0,0
127925,-100,4,2,26,54,0,0
127995,-100,4,2,1,54,0,0
128206,-100,4,2,49,55,0,0
128300,-100,4,2,50,55,0,0
128398,-100,4,2,51,55,0,0
128492,-100,4,2,52,55,0,0
128585,-100,4,2,43,55,0,0
128679,-100,4,2,44,55,0,0
128773,-100,4,2,15,55,0,0
128867,-100,4,2,26,55,0,0
128960,-100,4,2,28,55,0,0
129058,-100,4,2,36,61,0,0
129152,-100,4,2,28,55,0,0
129246,-100,4,2,26,55,0,0
129340,-100,4,2,15,55,0,0
129433,-100,4,2,44,55,0,0
129527,-100,4,2,52,55,0,0
129625,-100,4,2,48,72,0,0
129719,-100,4,2,44,56,0,0
129813,-100,4,2,52,55,0,0
129906,-100,4,2,51,55,0,0
130000,-100,4,2,50,58,0,0
130094,-100,4,2,49,58,0,0
130188,-100,4,2,26,50,0,0
130259,-100,4,2,1,50,0,0
130472,-100,4,2,41,63,0,0
130566,-100,4,2,53,61,0,0
130659,-100,4,2,54,61,0,0
130753,-100,4,2,31,61,0,0
130851,-100,4,2,43,61,0,0
130945,-100,4,2,15,59,0,0
131039,-100,4,2,26,59,0,0
131132,-100,4,2,36,59,0,0
131226,-100,4,2,22,59,0,0
131320,-100,4,2,25,69,0,0
131391,-100,4,2,22,63,0,0
131465,-100,4,2,36,63,0,0
131534,-100,4,2,26,63,0,0
131605,-100,4,2,15,63,0,0
131675,-100,4,2,43,63,0,0
131746,-100,4,2,31,63,0,0
131816,-100,4,2,54,63,0,0
131886,-100,4,2,36,71,0,0
131956,-100,4,2,26,63,0,0
132027,-100,4,2,15,63,0,0
132101,-100,4,2,43,63,0,0
132172,-100,4,2,31,63,0,0
132242,-100,4,2,54,63,0,0
132313,-100,4,2,53,62,0,0
132382,-100,4,2,41,62,0,0
132453,-100,4,2,28,73,0,0
132523,-100,4,2,1,73,0,0
132738,-100,4,2,55,73,0,0
132831,-100,4,2,53,67,0,0
132925,-100,4,2,56,67,0,0
133019,-100,4,2,52,67,0,0
133113,-100,4,2,43,67,0,0
133206,-100,4,2,15,67,0,0
133300,-100,4,2,48,67,0,0
133398,-100,4,2,28,67,0,0
133492,-100,4,2,7,67,0,0
133585,-100,4,2,36,70,0,0
133679,-100,4,2,28,70,0,0
133773,-100,4,2,48,70,0,0
133867,-100,4,2,34,70,0,0
133965,-100,4,2,28,70,0,0
134058,-100,4,2,48,70,0,0
134152,-100,4,2,45,70,0,0
134246,-100,4,2,28,70,0,0
134340,-100,4,2,48,70,0,0
134433,-100,4,2,35,70,0,0
134527,-100,4,2,45,70,0,0
134625,-100,4,2,34,70,0,0
134719,-100,4,2,28,54,0,0
134787,-100,4,2,1,54,0,0
135000,-100,4,2,42,70,0,0
135070,-100,4,2,35,70,0,0
135141,-100,4,2,45,70,0,0
135215,-100,4,2,34,70,0,0
135284,-100,4,2,28,70,0,0
135355,-100,4,2,48,70,0,0
135425,-100,4,2,44,70,0,0
135496,-100,4,2,52,70,0,0
135566,-100,4,2,56,70,0,0
135659,-100,4,2,51,70,0,0
135753,-100,4,2,50,70,0,0
135851,-100,4,2,34,74,0,0
135919,-100,4,2,1,5,0,0
135992,-100,4,2,35,44,0,0
136039,-100,4,2,12,70,0,0
136085,-100,4,2,35,70,0,0
136132,-100,4,2,12,70,0,0
136203,-100,4,2,35,70,0,0
136273,-100,4,2,12,74,0,0
136344,-100,4,2,35,74,0,0
136414,-100,4,2,10,52,0,0
136488,-100,4,2,22,70,0,0
136558,-100,4,2,34,70,0,0
136628,-100,4,2,7,70,0,0
136699,-100,4,2,4,70,0,0
136769,-100,4,2,15,70,0,0
136840,-100,4,2,17,70,0,0
136909,-100,4,2,27,70,0,0
136980,-100,4,2,4,52,0,0
137051,-100,4,2,1,52,0,0
137266,-100,4,2,29,74,0,0
137334,-100,4,2,1,74,0,0
137406,-100,4,2,33,67,0,0
137476,-100,4,2,1,67,0,0
137547,-100,4,2,20,67,0,0
137617,-100,4,2,1,67,0,0
137688,-100,4,2,18,67,0,0
137759,-100,4,2,1,67,0,0
137831,-100,4,2,14,74,0,0
137900,-100,4,2,1,100,0,0
137972,-100,4,2,5,55,0,0
138042,-100,4,2,1,55,0,0
138253,-100,4,2,18,55,0,0
138325,-100,4,2,1,55,0,0
138398,-100,4,2,14,55,0,0
138469,-100,4,2,6,55,0,0
138539,-100,4,2,5,55,0,0
138609,-100,4,2,13,55,0,0
138679,-100,4,2,36,61,0,0
138750,-100,4,2,6,55,0,0
138820,-100,4,2,14,55,0,0
138891,-100,4,2,18,55,0,0
138965,-100,4,2,6,61,0,0
139034,-100,4,2,14,55,0,0
139105,-100,4,2,18,55,0,0
139175,-100,4,2,19,55,0,0
139246,-100,4,2,4,59,0,0
139316,-100,4,2,1,59,0,0
139527,-100,4,2,55,55,0,0
139599,-100,4,2,1,55,0,0
139672,-100,4,2,53,55,0,0
139742,-100,4,2,56,55,0,0
139813,-100,4,2,27,55,0,0
139882,-100,4,2,43,55,0,0
139953,-100,4,2,45,54,0,0
140023,-100,4,2,1,54,0,0
140238,-100,4,2,10,60,0,0
140306,-100,4,2,1,60,0,0
140519,-100,4,2,57,60,0,0
140589,-100,4,2,1,60,0,0
140659,-100,4,2,38,60,0,0
140731,-100,4,2,1,60,0,0
140800,-100,4,2,46,60,0,0
140872,-100,4,2,1,60,0,0
140945,-100,4,2,24,60,0,0
141014,-100,4,2,1,60,0,0
141085,-100,4,2,21,60,0,0
141155,-100,4,2,1,60,0,0
141226,-100,4,2,37,60,0,0
141297,-100,4,2,1,60,0,0
141367,-100,4,2,10,60,0,0
141438,-100,4,2,1,60,0,0
141511,-100,4,2,5,60,0,0
141580,-100,4,2,1,60,0,0
141793,-100,4,2,11,60,0,0
141863,-100,4,2,45,60,0,0
141933,-100,4,2,13,60,0,0
142003,-100,4,2,5,60,0,0
142148,-100,4,2,48,60,0,0
142219,-100,4,2,16,60,0,0
142289,-100,4,2,18,60,0,0
142359,-100,4,2,56,60,0,0
142429,-100,4,2,1,60,0,0
142500,-100,4,2,18,60,0,0
142570,-100,4,2,1,60,0,0
142784,-100,4,2,33,50,0,0
142855,-100,4,2,32,50,0,0
142925,-100,4,2,56,50,0,0
142995,-100,4,2,1,50,0,0
143066,-100,4,2,18,50,0,0
143136,-100,4,2,1,50,0,0
143206,-100,4,2,48,59,0,0
143278,-100,4,2,1,59,0,0
143422,-100,4,2,5,52,0,0
143490,-100,4,2,1,52,0,0
143632,-100,4,2,13,54,0,0
143702,-100,4,2,1,54,0,0
143773,-100,4,2,5,55,0,0
143844,-100,4,2,1,55,0,0
144058,-100,4,2,9,57,0,0
144128,-100,4,2,8,42,0,0
144199,-100,4,2,36,42,0,0
144269,-100,4,2,6,45,0,0
144340,-100,4,2,14,53,0,0
144433,-100,4,2,43,42,0,0
144527,-100,4,2,19,42,0,0
144625,-100,4,2,53,58,0,0
144719,-100,4,2,19,55,0,0
144813,-100,4,2,43,55,0,0
144906,-100,4,2,36,58,0,0
144976,-100,4,2,1,58,0,0
145191,-100,4,2,45,62,0,0
145261,-100,4,2,9,62,0,0
145331,-100,4,2,45,62,0,0
145402,-100,4,2,8,62,0,0
145472,-100,4,2,13,62,0,0
145543,-100,4,2,36,62,0,0
145613,-100,4,2,28,62,0,0
145683,-100,4,2,48,62,0,0
145753,-100,4,2,14,62,0,0
145828,-100,4,2,16,60,0,0
145898,-100,4,2,43,58,0,0
145969,-100,4,2,27,57,0,0
146039,-100,4,2,4,59,0,0
146108,-100,4,2,1,59,0,0
146465,-100,4,2,21,84,0,0
146674,-100,4,2,1,84,0,0
146746,-100,4,2,29,84,0,0
146816,-100,4,2,1,84,0,0
146886,-100,4,2,33,84,0,0
146957,-100,4,2,1,84,0,0
147027,-100,4,2,37,84,0,0
147240,-100,4,2,1,85,0,0
147313,-100,4,2,18,85,0,0
147382,-100,4,2,1,85,0,0
147453,-100,4,2,16,85,0,0
147523,-100,4,2,1,85,0,0
147594,-100,4,2,10,85,0,0
147806,-100,4,2,1,85,0,0
147878,-100,4,2,6,85,0,0
147948,-100,4,2,1,85,0,0
148019,-100,4,2,48,85,0,0
148089,-100,4,2,1,85,0,0
148159,-100,4,2,43,85,0,0
148231,-100,4,2,1,85,0,0
148300,-100,4,2,4,85,0,0
148372,-100,4,2,1,85,0,0
148726,-100,4,2,21,85,0,0
148938,-100,4,2,1,85,0,0
149011,-100,4,2,55,85,0,0
149080,-100,4,2,1,85,0,0
149152,-100,4,2,53,85,0,0
149221,-100,4,2,1,85,0,0
149293,-100,4,2,37,85,0,0
149504,-100,4,2,1,85,0,0
149719,-100,4,2,10,85,0,0
149789,-100,4,2,9,85,0,0
149859,-100,4,2,45,85,0,0
149929,-100,4,2,36,84,0,0
150000,-100,4,2,8,84,0,0
150070,-100,4,2,13,84,0,0
150141,-100,4,2,36,84,0,0
150215,-100,4,2,4,84,0,0
150284,-100,4,2,48,84,0,0
150355,-100,4,2,44,84,0,0
150425,-100,4,2,18,84,0,0
150496,-100,4,2,56,84,0,0
150566,-100,4,2,5,84,0,0
150636,-100,4,2,1,84,0,0
150851,-100,4,2,40,84,0,0
150943,-62.5,4,2,40,84,0,0
150945,-62.5,4,2,16,44,0,0
150992,-62.5,4,2,58,74,0,0
151039,-62.5,4,2,16,48,0,0
151132,-62.5,4,2,40,74,0,0
151226,-62.5,4,2,48,48,0,0
151273,-62.5,4,2,58,74,0,0
151320,-62.5,4,2,48,48,0,0
151414,-62.5,4,2,40,74,0,0
151509,-50,4,2,40,74,0,0
151511,-50,4,2,5,48,0,0
151558,-50,4,2,58,74,0,0
151605,-50,4,2,5,48,0,0
151699,-50,4,2,40,74,0,0
151793,-50,4,2,13,44,0,0
151840,-50,4,2,58,74,0,0
151886,-50,4,2,13,48,0,0
151980,-50,4,2,40,74,0,0
152075,-41.6666666666667,4,2,40,74,0,0
152078,-41.6666666666667,4,2,45,48,0,0
152125,-41.6666666666667,4,2,58,74,0,0
152172,-41.6666666666667,4,2,45,48,0,0
152266,-41.6666666666667,4,2,40,74,0,0
152359,-41.6666666666667,4,2,11,48,0,0
152406,-41.6666666666667,4,2,58,74,0,0
152453,-41.6666666666667,4,2,11,48,0,0
152547,-41.6666666666667,4,2,40,74,0,0
152641,-100,4,2,21,44,0,0
152691,-100,4,2,58,74,0,0
152738,-100,4,2,21,44,0,0
152831,-100,4,2,5,54,0,0
152900,-100,4,2,1,54,0,0
153113,-100,4,2,24,92,0,0
153183,-100,4,2,11,87,0,0
153253,-100,4,2,9,87,0,0
153328,-100,4,2,8,80,0,0
153398,-100,4,2,5,80,0,0
153469,-100,4,2,6,80,0,0
153539,-100,4,2,14,80,0,0
153609,-100,4,2,18,80,0,0
153679,-100,4,2,19,80,0,0
153773,-100,4,2,20,80,0,0
153867,-100,4,2,33,80,0,0
153965,-100,4,2,8,74,0,0
154033,-100,4,2,1,74,0,0
154105,-100,4,2,11,44,0,0
154152,-100,4,2,37,80,0,0
154199,-100,4,2,11,80,0,0
154246,-100,4,2,37,80,0,0
154316,-100,4,2,11,80,0,0
154386,-100,4,2,37,84,0,0
154456,-100,4,2,11,84,0,0
154527,-100,4,2,35,52,0,0
154601,-100,4,2,45,80,0,0
154672,-100,4,2,8,80,0,0
154742,-100,4,2,36,80,0,0
154813,-100,4,2,28,80,0,0
154882,-100,4,2,48,80,0,0
154953,-100,4,2,43,80,0,0
155023,-100,4,2,52,80,0,0
155094,-100,4,2,46,74,0,0
155164,-100,4,2,24,65,0,0
155238,-100,4,2,37,66,0,0
155308,-100,4,2,35,66,0,0
155378,-100,4,2,45,66,0,0
155449,-100,4,2,8,66,0,0
155519,-100,4,2,36,64,0,0
155590,-100,4,2,28,64,0,0
155659,-100,4,2,45,64,0,0
155730,-100,4,2,8,72,0,0
155800,-100,4,2,36,71,0,0
155875,-100,4,2,28,70,0,0
155945,-100,4,2,48,69,0,0
156016,-100,4,2,14,69,0,0
156085,-100,4,2,43,69,0,0
156156,-100,4,2,52,66,0,0
156226,-100,4,2,55,74,0,0
156297,-100,4,2,53,74,0,0
156367,-100,4,2,56,74,0,0
156441,-100,4,2,52,74,0,0
156511,-100,4,2,43,74,0,0
156581,-100,4,2,48,74,0,0
156652,-100,4,2,28,74,0,0
156722,-100,4,2,5,74,0,0
156793,-100,4,2,36,74,0,0
156863,-100,4,2,13,74,0,0
156933,-100,4,2,8,74,0,0
157003,-100,4,2,45,74,0,0
157078,-100,4,2,11,74,0,0
157148,-100,4,2,35,74,0,0
157219,-100,4,2,45,74,0,0
157289,-100,4,2,13,74,0,0
157358,-100,4,2,1,56,0,0
158773,-166.666666666667,4,2,59,56,0,0
158844,-166.666666666667,4,2,1,56,0,0
163301,-166.666666666667,4,2,1,35,0,0
164716,-166.666666666667,4,2,1,25,0,0
165566,-166.666666666667,4,2,1,15,0,0
166132,-166.666666666667,4,2,1,10,0,0
166698,-166.666666666667,4,2,1,5,0,0

[Colours]
Combo1 : 255,255,0
Combo2 : 0,78,206
Combo3 : 91,165,255
Combo4 : 136,196,255
Combo5 : 255,191,0

[HitObjects]
256,192,9056,12,2,10047,0:0:0:0:
5,86,10188,6,0,L|109:87,1,105,14|0,0:0|0:0,0:0:0:0:
137,83,10471,2,0,L|128:43,3,35,10|0|10|0,0:0|0:0|0:0|0:0,0:0:0:0:
227,118,10754,2,0,L|264:104,3,35,10|0|10|0,0:0|0:0|0:0|0:0,0:0:0:0:
155,177,11037,2,0,L|138:219,3,35,10|0|10|0,0:0|0:0|0:0|0:0,0:0:0:0:
44,145,11320,6,0,L|30:180,3,35,10|0|10|0,0:0|0:0|0:0|0:0,0:0:0:0:
105,95,11603,2,0,L|143:80,3,35,10|0|10|0,0:0|0:0|0:0|0:0,0:0:0:0:
28,66,11886,2,0,L|21:32,3,35,10|0|10|0,0:0|0:0|0:0|0:0,0:0:0:0:
31,177,12169,2,0,L|160:178,1,105,10|0,0:0|0:0,0:0:0:0:
154,177,12452,5,14,0:0:0:0:
238,260,12594,1,10,0:0:0:0:
238,260,12665,1,0,0:0:0:0:
238,260,12735,2,0,L|209:305,3,35,10|0|10|0,0:0|0:0|0:0|0:0,0:0:0:0:
243,150,13018,2,0,L|222:107,3,35,10|0|10|0,0:0|0:0|0:0|0:0,0:0:0:0:
343,205,13301,2,0,L|377:204,3,35,10|0|10|0,0:0|0:0|0:0|0:0,0:0:0:0:
354,287,13584,6,0,L|431:284,1,70,10|10,0:0|0:0,0:0:0:0:
451,288,13797,1,0,0:0:0:0:
451,288,13867,2,0,L|451:337,3,35,10|0|10|0,0:0|0:0|0:0|0:0,0:0:0:0:
377,203,14150,2,0,L|454:200,1,70,10|10,0:0|0:0,0:0:0:0:
493,100,14433,1,10,0:0:0:0:
493,100,14504,1,0,0:0:0:0:
493,100,14575,1,10,0:0:0:0:
289,232,14716,6,0,L|180:226,1,105,12|2,0:0|0:0,0:0:0:0:
159,224,14999,2,0,P|153:186|153:177,3,35,2|2|10|2,0:0|0:0|0:0|0:0,0:0:0:0:
253,112,15283,2,0,P|251:129|248:147,3,35,2|2|10|2,0:0|0:0|0:0|0:0,0:0:0:0:
198,50,15566,2,0,P|242:27|288:27,1,70,2|10,0:0|0:0,0:0:0:0:
255,238,15849,6,0,P|220:230|191:212,1,70,12|10,0:0|0:0,0:0:0:0:
331,190,16132,1,2,0:0:0:0:
180,299,16273,1,10,0:0:0:0:
248,146,16415,1,2,0:0:0:0:
261,330,16556,1,10,0:0:0:0:
250,125,16698,2,0,P|291:83|331:66,1,70,2|10,0:0|0:0,0:0:0:0:
423,231,16981,5,12,0:0:0:0:
331,190,17122,2,0,L|343:252,3,35,2|2|2|2,0:0|0:0|0:0|0:0,0:0:0:0:
327,172,17405,1,2,0:0:0:0:
381,64,17547,2,0,L|465:56,1,70,12|2,0:0|0:0,0:0:0:0:
512,158,17830,2,0,L|428:150,1,70,2|2,0:0|0:0,0:0:0:0:
426,245,18113,6,0,L|432:312,3,35,12|2|2|2,0:0|0:0|0:0|0:0,0:0:0:0:
334,259,18396,2,0,L|337:224,3,35,12|2|2|2,0:0|0:0|0:0|0:0,0:0:0:0:
261,339,18679,6,0,L|307:345,1,45.4999979171754,12|2,0:0|0:0,0:0:0:0:
209,253,18820,2,0,L|164:259,1,45.4999979171754,12|2,0:0|0:0,0:0:0:0:
261,356,18962,2,0,L|307:362,1,45.4999979171754,12|2,0:0|0:0,0:0:0:0:
203,238,19103,2,0,L|158:244,1,45.4999979171754,12|2,0:0|0:0,0:0:0:0:
256,192,19245,12,0,20235,0:0:0:0:
151,153,20377,6,0,L|137:92,3,45.4999979171754,2|2|2|2,0:0|0:0|0:0|0:0,0:0:0:0:
240,189,20660,2,0,L|254:128,3,45.4999979171754,2|2|2|2,0:0|0:0|0:0|0:0,0:0:0:0:
169,243,20943,1,2,0:0:0:0:
146,240,21014,1,2,0:0:0:0:
123,237,21084,1,2,0:0:0:0:
100,233,21155,1,2,0:0:0:0:
77,231,21226,6,0,L|97:337,1,84,12|0,1:0|0:0,0:0:0:0:
99,338,21509,1,14,0:0:0:0:
298,272,21933,6,0,B|333:268|365:279|365:279|333:227|313:158|348:134|348:134|387:153,1,252,2|2,0:0|0:0,0:0:0:0:
371,145,22641,6,0,B|351:143|351:143|311:149|311:149|263:143|263:143|201:143,1,168,2|2,0:0|0:0,0:0:0:0:
186,143,23136,1,0,0:0:0:0:
186,143,23207,1,2,0:0:0:0:
34,194,23349,2,0,B|68:182|96:193|96:193|128:239|177:228,1,140,2|0,0:0|0:0,0:0:0:0:
180,230,23773,5,2,0:0:0:0:
234,332,23915,1,2,0:0:0:0:
234,332,23985,1,2,0:0:0:0:
234,332,24056,1,2,0:0:0:0:
397,288,24198,2,0,P|391:237|339:232,1,112,2|2,0:0|0:0,0:0:0:0:
329,240,24551,1,2,0:0:0:0:
329,240,24622,2,0,P|346:213|345:170,1,56,2|2,0:0|0:0,0:0:0:0:
185,49,24905,6,0,B|195:95|206:124,1,56,2|0,0:0|0:0,0:0:0:0:
116,150,25188,2,0,P|148:178|168:190,1,56,2|0,0:0|0:0,0:0:0:0:
132,276,25471,2,0,P|172:277|198:267,1,56,2|0,0:0|0:0,0:0:0:0:
255,195,25754,1,2,0:0:0:0:
191,363,25896,1,0,0:0:0:0:
191,363,25966,1,0,0:0:0:0:
191,363,26037,6,0,P|261:325|338:315,1,140,2|2,0:0|0:0,0:0:0:0:
336,317,26462,1,2,0:0:0:0:
488,372,26745,1,2,0:0:0:0:
478,355,26816,1,2,0:0:0:0:
473,333,26886,2,0,P|474:304|482:273,1,56,2|2,0:0|0:0,0:0:0:0:
370,149,27169,6,0,P|388:189|400:259,1,112,2|2,0:0|0:0,0:0:0:0:
280,111,27594,2,0,P|317:71|394:56,1,112,2|2,0:0|0:0,0:0:0:0:
393,57,27948,1,2,0:0:0:0:
393,57,28018,2,0,L|384:118,1,56,2|2,0:0|0:0,0:0:0:0:
194,66,28301,6,0,L|185:10,1,56,2|2,0:0|0:0,0:0:0:0:
288,119,28584,1,2,0:0:0:0:
288,119,28655,1,2,0:0:0:0:
288,119,28726,2,0,L|279:180,1,56,2|0,0:0|0:0,0:0:0:0:
117,274,29009,1,2,0:0:0:0:
184,206,29150,1,2,0:0:0:0:
184,206,29221,1,2,0:0:0:0:
184,206,29292,1,2,0:0:0:0:
307,334,29433,6,0,L|303:361,3,28,2|2|2|2,0:0|0:0|0:0|0:0,0:0:0:0:
206,308,29716,2,0,L|209:335,3,28,2|2|2|2,0:0|0:0|0:0|0:0,0:0:0:0:
279,229,29999,2,0,L|282:201,3,28,2|2|2|2,0:0|0:0|0:0|0:0,0:0:0:0:
380,255,30282,2,0,L|376:227,3,28,2|2|2|2,0:0|0:0|0:0|0:0,0:0:0:0:
385,275,30566,6,0,L|518:254,1,112,12|2,0:0|0:0,0:0:0:0:
441,150,30990,2,0,L|308:129,1,112,8|2,0:0|0:0,0:0:0:0:
312,129,31344,1,2,0:0:0:0:
312,129,31415,1,8,0:0:0:0:
225,166,31556,1,2,0:0:0:0:
138,207,31698,6,0,P|132:152|150:100,1,112,8|2,0:0|0:0,0:0:0:0:
20,14,32122,1,2,0:0:0:0:
20,14,32193,1,0,0:0:0:0:
20,14,32264,2,0,P|38:52|43:69,1,56,8|2,0:0|0:0,0:0:0:0:
105,148,32547,2,0,P|120:124|131:99,1,56,8|2,0:0|0:0,0:0:0:0:
22,189,32830,6,0,P|56:232|110:243,1,112,12|2,0:0|0:0,0:0:0:0:
176,196,33254,2,0,P|191:261|154:313,1,112,8|2,0:0|0:0,0:0:0:0:
40,346,33679,2,0,P|76:334|98:333,1,56,8|2,0:0|0:0,0:0:0:0:
242,246,33962,6,0,P|277:268|321:280,1,83.9999974365235,12|2,0:0|0:0,0:0:0:0:
472,239,34245,2,0,P|437:263|398:276,1,83.9999974365235,14|2,0:0|0:0,0:0:0:0:
275,167,34528,2,0,P|311:190|351:199,1,83.9999974365235,12|2,0:0|0:0,0:0:0:0:
425,164,34811,2,0,P|392:190|351:198,1,83.9999974365235,10|2,0:0|0:0,0:0:0:0:
349,57,35094,5,12,0:0:0:0:
180,217,35377,1,2,0:0:0:0:
180,217,35448,1,2,0:0:0:0:
180,217,35518,2,0,B|182:163|229:148|229:148|276:158|283:211|283:211|322:181|377:207,1,251.999992309571,8|8,0:0|0:0,0:0:0:0:
372,205,36014,1,2,0:0:0:0:
372,205,36084,1,2,0:0:0:0:
272,333,36226,6,0,B|190:325|190:325|130:357|130:357|34:349,1,209.999993591309,12|2,0:0|0:0,0:0:0:0:
53,349,36650,6,0,P|58:288|188:329,1,244.999992523194,8|2,0:0|0:0,0:0:0:0:
188,322,37075,6,0,B|188:290|161:265|161:265|175:234|193:207|193:207|190:121,1,168,8|2,0:0|0:0,0:0:0:0:
190,153,37358,5,12,0:0:0:0:
354,42,37641,1,2,0:0:0:0:
354,42,37712,1,2,0:0:0:0:
354,42,37783,2,0,P|397:35|471:33,1,83.9999974365235,12|2,0:0|0:0,0:0:0:0:
466,114,38066,1,10,0:0:0:0:
416,185,38207,1,2,0:0:0:0:
416,185,38278,1,2,0:0:0:0:
416,185,38349,1,2,0:0:0:0:
238,58,38490,6,0,B|266:181|257:256|257:256|306:233|381:234,1,293.999991027832,12|0,0:0|0:0,0:0:0:0:
347,234,39056,6,0,B|315:196|265:220|265:220|178:317|69:241,1,293.999991027832,12|0,0:0|0:0,0:0:0:0:
83,250,39622,6,0,P|134:244|180:271,1,83.9999974365235,12|2,0:0|0:0,0:0:0:0:
165,352,39905,2,0,P|125:365|84:358,1,83.9999974365235,12|2,0:0|0:0,0:0:0:0:
199,173,40188,1,12,0:0:0:0:
223,189,40258,1,2,0:0:0:0:
241,212,40329,1,2,0:0:0:0:
250,239,40400,1,2,0:0:0:0:
250,269,40471,6,0,P|309:292|340:237,1,105,12|2,0:0|0:0,0:0:0:0:
330,258,40754,6,0,P|246:232|162:256,1,178.500003404617,8|0,0:0|0:0,0:0:0:0:
148,267,41037,1,12,0:0:0:0:
30,157,41179,2,0,P|77:169|108:173,1,70,2|8,0:0|0:0,0:0:0:0:
175,115,41462,1,2,0:0:0:0:
46,24,41603,2,0,P|70:66|89:90,1,70,8|2,0:0|0:0,0:0:0:0:
225,34,41886,6,0,P|194:20|159:18,1,70,12|2,0:0|0:0,0:0:0:0:
187,208,42169,2,0,P|220:196|245:172,1,70,8|2,0:0|0:0,0:0:0:0:
264,158,42382,1,2,0:0:0:0:
264,158,42452,1,8,0:0:0:0:
58,229,42594,1,2,0:0:0:0:
58,229,42665,1,2,0:0:0:0:
58,229,42735,2,0,P|69:289|84:316,1,70,8|2,0:0|0:0,0:0:0:0:
291,257,43018,6,0,L|132:244,1,140,12|8,0:0|0:0,0:0:0:0:
162,347,43443,2,0,L|257:339,1,70,4|8,0:0|0:0,0:0:0:0:
244,172,43726,2,0,L|148:164,1,70,4|8,0:0|0:0,0:0:0:0:
8,24,44009,1,4,0:0:0:0:
8,24,44080,1,0,0:0:0:0:
8,24,44150,6,0,L|103:16,1,70,12|2,0:0|0:0,0:0:0:0:
74,158,44433,2,0,L|39:155,3,35,8|2|2|0,0:0|0:0|0:0|0:0,0:0:0:0:
89,146,44716,2,0,P|122:97|209:82,1,136.499993751526,12|2,0:0|0:0,0:0:0:0:
303,159,44999,2,0,P|331:165|364:168,3,35,8|2|2|0,0:0|0:0|0:0|0:0,0:0:0:0:
280,147,45283,1,12,0:0:0:0:
190,313,45495,5,2,0:0:0:0:
180,235,45566,2,0,L|174:165,1,70,8|2,0:0|0:0,0:0:0:0:
192,330,45849,5,12,0:0:0:0:
322,313,46061,5,2,0:0:0:0:
332,235,46132,2,0,L|338:165,1,70,8|2,0:0|0:0,0:0:0:0:
320,330,46415,5,12,0:0:0:0:
180,235,46627,5,2,0:0:0:0:
173,158,46698,2,0,L|167:88,1,70,8|2,0:0|0:0,0:0:0:0:
182,250,46981,5,12,0:0:0:0:
332,235,47193,5,2,0:0:0:0:
339,158,47264,2,0,L|345:88,1,70,8|2,0:0|0:0,0:0:0:0:
330,250,47547,6,0,L|324:320,1,70,12|8,0:0|0:0,0:0:0:0:
188,320,47830,2,0,L|182:250,1,70,8|8,0:0|0:0,0:0:0:0:
409,217,48113,2,0,L|403:287,1,70,8|8,0:0|0:0,0:0:0:0:
109,287,48396,2,0,L|103:217,1,70,8|8,0:0|0:0,0:0:0:0:
256,157,48679,6,0,L|256:192,7,35,12|8|8|8|8|8|8|8,0:0|0:0|0:0|0:0|0:0|0:0|0:0|0:0,0:0:0:0:
256,50,49245,2,0,L|256:85,7,35,12|8|8|8|8|8|8|8,0:0|0:0|0:0|0:0|0:0|0:0|0:0|0:0,0:0:0:0:
256,23,49811,5,12,0:0:0:0:
66,193,50094,6,0,P|102:176|156:165,1,70,12|2,0:0|0:0,0:0:0:0:
218,290,50377,2,0,P|184:280|152:265,1,70,8|2,0:0|0:0,0:0:0:0:
287,152,50660,2,0,L|285:93,3,35,8|0|2|2,0:0|0:0|0:0|0:0,0:0:0:0:
287,171,50943,6,0,P|251:188|197:199,1,70,12|2,0:0|0:0,0:0:0:0:
282,29,51226,2,0,P|315:38|347:53,1,70,8|2,0:0|0:0,0:0:0:0:
362,63,51438,1,2,0:0:0:0:
362,63,51509,1,8,0:0:0:0:
464,208,51650,1,2,0:0:0:0:
464,208,51721,1,2,0:0:0:0:
464,208,51792,2,0,P|451:148|457:113,1,70,8|2,0:0|0:0,0:0:0:0:
475,32,52075,5,12,0:0:0:0:
353,145,52216,1,2,0:0:0:0:
490,23,52358,1,8,0:0:0:0:
336,155,52499,2,0,P|271:138|256:136,1,70,4|8,0:0|0:0,0:0:0:0:
208,67,52783,1,4,0:0:0:0:
373,247,52924,1,8,0:0:0:0:
215,254,53066,1,4,0:0:0:0:
215,254,53136,1,0,0:0:0:0:
215,254,53207,6,0,P|280:237|295:235,1,70,12|2,0:0|0:0,0:0:0:0:
272,361,53490,2,0,L|270:299,3,35,8|2|2|0,0:0|0:0|0:0|0:0,0:0:0:0:
271,378,53773,2,0,P|216:353|137:338,1,136.499993751526,12|2,0:0|0:0,0:0:0:0:
79,272,54056,2,0,P|51:288|34:297,3,35,8|2|2|0,0:0|0:0|0:0|0:0,0:0:0:0:
98,262,54339,5,12,0:0:0:0:
198,58,54551,5,2,0:0:0:0:
188,136,54622,2,0,L|182:206,1,70,8|2,0:0|0:0,0:0:0:0:
200,41,54905,5,12,0:0:0:0:
344,338,55117,5,2,0:0:0:0:
334,260,55188,2,0,L|328:190,1,70,8|2,0:0|0:0,0:0:0:0:
346,355,55471,5,12,0:0:0:0:
182,205,55683,5,2,0:0:0:0:
172,283,55754,2,0,L|166:353,1,70,8|2,0:0|0:0,0:0:0:0:
184,188,56037,5,12,0:0:0:0:
328,191,56249,5,2,0:0:0:0:
318,113,56320,2,0,L|312:43,1,70,8|2,0:0|0:0,0:0:0:0:
330,208,56603,6,0,L|336:278,1,70,8|8,0:0|0:0,0:0:0:0:
176,278,56886,2,0,L|182:208,1,70,8|8,0:0|0:0,0:0:0:0:
404,161,57169,2,0,L|410:231,1,70,8|8,0:0|0:0,0:0:0:0:
102,231,57452,2,0,L|108:161,1,70,8|8,0:0|0:0,0:0:0:0:
256,204,57735,6,0,L|256:239,7,35,12|8|8|8|8|8|8|8,0:0|0:0|0:0|0:0|0:0|0:0|0:0|0:0,0:0:0:0:
256,346,58301,2,0,L|256:311,7,35,12|8|8|8|8|8|8|8,0:0|0:0|0:0|0:0|0:0|0:0|0:0|0:0,0:0:0:0:
184,278,58867,6,0,L|149:278,7,35,12|8|8|8|8|8|8|8,0:0|0:0|0:0|0:0|0:0|0:0|0:0|0:0,0:0:0:0:
328,278,59433,2,0,L|363:278,7,35,12|8|8|8|8|8|8|8,0:0|0:0|0:0|0:0|0:0|0:0|0:0|0:0,0:0:0:0:
256,192,59999,12,2,60990,0:0:0:0:
166,209,61132,6,0,P|219:209|268:193,1,105,12|0,0:0|0:0,0:0:0:0:
292,191,61415,2,0,L|290:248,3,35,0|0|2|0,0:0|0:0|0:0|0:0,0:0:0:0:
367,143,61698,2,0,L|411:146,3,35,0|0|2|0,0:0|0:0|0:0|0:0,0:0:0:0:
281,102,61981,2,0,L|262:65,3,35,0|0|2|0,0:0|0:0|0:0|0:0,0:0:0:0:
283,176,62264,6,0,L|264:221,3,35,0|0|2|0,0:0|0:0|0:0|0:0,0:0:0:0:
358,159,62547,2,0,L|392:174,3,35,0|0|2|0,0:0|0:0|0:0|0:0,0:0:0:0:
305,100,62830,2,0,L|300:64,3,35,0|0|2|0,0:0|0:0|0:0|0:0,0:0:0:0:
283,176,63113,2,0,L|152:175,1,105,0|0,0:0|0:0,0:0:0:0:
159,176,63396,5,12,0:0:0:0:
42,301,63538,2,0,L|41:340,3,35,2|0|0|0,0:0|0:0|0:0|0:0,0:0:0:0:
127,298,63820,2,0,L|127:333,3,35,2|0|0|0,0:0|0:0|0:0|0:0,0:0:0:0:
215,301,64103,2,0,L|214:340,3,35,2|0|0|0,0:0|0:0|0:0|0:0,0:0:0:0:
216,282,64386,1,2,0:0:0:0:
390,235,64528,6,0,L|308:226,1,70,0|2,0:0|0:0,0:0:0:0:
301,229,64741,1,0,0:0:0:0:
301,229,64811,2,0,L|307:277,3,35,0|0|2|0,0:0|0:0|0:0|0:0,0:0:0:0:
382,153,65094,2,0,L|300:144,1,70,0|2,0:0|0:0,0:0:0:0:
192,192,65377,1,0,0:0:0:0:
192,192,65448,1,0,0:0:0:0:
192,192,65519,1,2,0:0:0:0:
146,78,65660,6,0,L|266:64,1,105,12|0,0:0|0:0,0:0:0:0:
275,58,65943,2,0,L|270:23,3,35,0|0|2|0,0:0|0:0|0:0|0:0,0:0:0:0:
353,62,66226,2,0,L|357:27,3,35,0|0|2|0,0:0|0:0|0:0|0:0,0:0:0:0:
320,142,66509,2,0,L|389:146,1,70,0|2,0:0|0:0,0:0:0:0:
447,238,66792,6,0,L|377:242,1,70,0|2,0:0|0:0,0:0:0:0:
307,132,67076,1,0,0:0:0:0:
460,252,67216,1,2,0:0:0:0:
296,274,67359,1,0,0:0:0:0:
475,162,67499,1,2,0:0:0:0:
277,280,67641,2,0,P|242:267|181:258,1,70,0|2,0:0|0:0,0:0:0:0:
121,183,67925,5,12,0:0:0:0:
99,311,68066,2,0,L|98:350,3,35,2|0|0|0,0:0|0:0|0:0|0:0,0:0:0:0:
100,286,68349,1,2,0:0:0:0:
188,167,68490,2,0,P|153:179|112:182,1,70,0|2,0:0|0:0,0:0:0:0:
1,95,68773,2,0,P|36:107|77:110,1,70,0|2,0:0|0:0,0:0:0:0:
219,45,69056,6,0,L|213:10,3,35,12|0|2|0,0:0|0:0|0:0|0:0,0:0:0:0:
310,45,69339,2,0,L|295:77,3,35,0|0|2|0,0:0|0:0|0:0|0:0,0:0:0:0:
347,144,69622,2,0,L|370:117,3,35,0|0|2|0,0:0|0:0|0:0|0:0,0:0:0:0:
411,202,69905,2,0,L|382:222,3,35,0|0|2|0,0:0|0:0|0:0|0:0,0:0:0:0:
387,305,70188,6,0,P|345:338|269:312,1,125.999996154785,14|0,0:0|0:0,0:0:0:0:
259,309,70471,2,0,L|254:254,3,41.9999987182618,10|0|10|0,0:0|0:0|0:0|0:0,0:0:0:0:
176,315,70754,2,0,L|97:318,3,41.9999987182618,10|0|10|0,0:0|0:0|0:0|0:0,0:0:0:0:
134,223,71037,2,0,L|213:226,3,41.9999987182618,10|0|10|0,0:0|0:0|0:0|0:0,0:0:0:0:
251,170,71320,6,0,P|269:108|267:69,1,83.9999974365235,10|10,0:0|0:0,0:0:0:0:
119,24,71603,2,0,P|125:64|148:111,1,83.9999974365235,10|10,0:0|0:0,0:0:0:0:
340,47,71886,2,0,P|270:7|198:44,1,167.999994873047,10|10,0:0|0:0,0:0:0:0:
354,144,72311,1,10,0:0:0:0:
354,144,72382,1,0,0:0:0:0:
354,144,72452,6,0,P|406:147|464:76,1,125.999996154785,14|0,0:0|0:0,0:0:0:0:
461,78,72735,2,0,L|461:27,3,41.9999987182618,10|0|10|0,0:0|0:0|0:0|0:0,0:0:0:0:
380,61,73018,2,0,L|380:10,3,41.9999987182618,10|0|10|0,0:0|0:0|0:0|0:0,0:0:0:0:
301,50,73301,2,0,L|301:-1,3,41.9999987182618,10|0|10|0,0:0|0:0|0:0|0:0,0:0:0:0:
207,78,73584,6,0,P|177:66|97:56,1,83.9999974365235,10|10,0:0|0:0,0:0:0:0:
104,57,73797,1,0,0:0:0:0:
104,57,73867,2,0,L|112:134,3,41.9999987182618,10|0|10|0,0:0|0:0|0:0|0:0,0:0:0:0:
24,116,74150,2,0,L|16:193,3,41.9999987182618,10|0|10|0,0:0|0:0|0:0|0:0,0:0:0:0:
109,200,74433,2,0,L|117:277,3,41.9999987182618,10|0|10|0,0:0|0:0|0:0|0:0,0:0:0:0:
43,287,74716,6,0,L|198:264,1,125.999996154785,12|2,0:0|0:0,0:0:0:0:
187,267,74999,2,0,L|182:333,3,41.9999987182618,2|2|10|2,0:0|0:0|0:0|0:0,0:0:0:0:
270,234,75283,2,0,L|266:192,3,41.9999987182618,2|2|10|2,0:0|0:0|0:0|0:0,0:0:0:0:
268,330,75566,2,0,L|264:371,3,41.9999987182618,2|2|10|2,0:0|0:0|0:0|0:0,0:0:0:0:
351,285,75849,6,0,P|432:275|468:272,1,83.9999974365235,12|10,0:0|0:0,0:0:0:0:
501,364,76132,1,2,0:0:0:0:
336,285,76273,1,10,0:0:0:0:
456,190,76415,1,2,0:0:0:0:
407,363,76556,1,10,0:0:0:0:
284,206,76698,2,0,P|365:196|401:193,1,83.9999974365235,2|10,0:0|0:0,0:0:0:0:
434,274,76981,1,12,0:0:0:0:
407,100,77122,6,0,L|405:35,3,41.9999987182618,2|2|2|2,0:0|0:0|0:0|0:0,0:0:0:0:
408,124,77405,1,2,0:0:0:0:
273,116,77547,2,0,P|192:106|156:103,1,83.9999974365235,12|2,0:0|0:0,0:0:0:0:
200,216,77830,2,0,P|281:206|317:203,1,83.9999974365235,2|2,0:0|0:0,0:0:0:0:
101,173,78113,6,0,L|105:214,3,41.9999987182618,12|2|2|2,0:0|0:0|0:0|0:0,0:0:0:0:
189,105,78396,2,0,L|193:63,3,41.9999987182618,12|2|2|2,0:0|0:0|0:0|0:0,0:0:0:0:
200,216,78679,6,0,L|241:217,1,41.9999987182618,12|2,0:0|0:0,0:0:0:0:
104,157,78820,2,0,L|54:155,1,41.9999987182618,12|2,0:0|0:0,0:0:0:0:
199,199,78962,2,0,L|240:200,1,41.9999987182618,12|2,0:0|0:0,0:0:0:0:
105,140,79103,2,0,L|55:138,1,41.9999987182618,12|2,0:0|0:0,0:0:0:0:
256,192,79245,12,0,80235,0:0:0:0:
302,152,80377,6,0,L|316:91,3,41.9999987182618,2|2|2|2,0:0|0:0|0:0|0:0,0:0:0:0:
210,152,80660,2,0,L|196:91,3,41.9999987182618,2|2|2|2,0:0|0:0|0:0|0:0,0:0:0:0:
256,231,80943,1,2,0:0:0:0:
256,252,81014,1,2,0:0:0:0:
255,272,81084,1,2,0:0:0:0:
256,293,81155,1,2,0:0:0:0:
256,313,81226,2,0,L|256:372,3,41.9999987182618,2|2|2|2,0:0|0:0|0:0|0:0,0:0:0:0:
256,192,81509,12,12,83490,1:0:0:0:
176,202,83773,5,12,0:0:0:0:
196,199,83843,1,8,0:0:0:0:
217,197,83914,1,8,0:0:0:0:
238,195,83985,1,8,0:0:0:0:
256,192,84056,2,0,L|256:114,3,45.4999979171754,10|8|8|8,0:0|0:0|0:0|0:0,0:0:0:0:
333,194,84339,2,0,L|333:116,3,45.4999979171754,10|8|8|8,0:0|0:0|0:0|0:0,0:0:0:0:
411,195,84622,2,0,L|411:117,3,45.4999979171754,10|8|8|8,0:0|0:0|0:0|0:0,0:0:0:0:
490,135,84905,5,10,0:0:0:0:
486,112,84975,1,8,0:0:0:0:
474,92,85046,1,8,0:0:0:0:
458,74,85117,1,8,0:0:0:0:
437,63,85188,2,0,L|377:57,3,45.4999979171754,10|8|8|8,0:0|0:0|0:0|0:0,0:0:0:0:
378,152,85471,2,0,L|330:148,3,45.4999979171754,10|8|8|8,0:0|0:0|0:0|0:0,0:0:0:0:
462,176,85754,2,0,L|510:172,3,45.4999979171754,10|8|8|8,0:0|0:0|0:0|0:0,0:0:0:0:
396,247,86037,6,0,L|348:243,3,41.9999987182618,10|8|8|8,0:0|0:0|0:0|0:0,0:0:0:0:
384,326,86320,2,0,L|342:322,3,41.9999987182618,10|8|8|8,0:0|0:0|0:0|0:0,0:0:0:0:
282,266,86603,2,0,L|240:262,3,41.9999987182618,10|8|8|8,0:0|0:0|0:0|0:0,0:0:0:0:
268,345,86886,1,10,0:0:0:0:
246,343,86957,1,8,0:0:0:0:
224,343,87028,1,8,0:0:0:0:
202,341,87099,1,8,0:0:0:0:
181,338,87169,6,0,L|107:331,3,41.9999987182618,10|8|8|8,0:0|0:0|0:0|0:0,0:0:0:0:
143,252,87452,2,0,L|69:264,3,41.9999987182618,10|8|8|8,0:0|0:0|0:0|0:0,0:0:0:0:
96,182,87735,1,10,0:0:0:0:
75,179,87806,1,8,0:0:0:0:
54,176,87877,1,8,0:0:0:0:
33,172,87948,1,8,0:0:0:0:
12,169,88018,2,0,L|12:117,3,41.9999987182618,10|8|8|8,0:0|0:0|0:0|0:0,0:0:0:0:
63,252,88301,6,0,L|63:294,3,41.9999987182618,14|8|8|8,0:0|0:0|0:0|0:0,0:0:0:0:
149,301,88584,2,0,L|149:259,1,41.9999987182618,10|8,0:0|0:0,0:0:0:0:
113,178,88726,1,8,0:0:0:0:
113,178,88797,1,8,0:0:0:0:
113,178,88867,2,0,L|113:136,3,41.9999987182618,10|8|8|8,0:0|0:0|0:0|0:0,0:0:0:0:
160,265,89150,2,0,L|160:307,1,41.9999987182618,10|8,0:0|0:0,0:0:0:0:
204,178,89292,2,0,L|204:136,1,41.9999987182618,8|8,0:0|0:0,0:0:0:0:
244,271,89433,6,0,P|268:256|278:245,3,41.9999987182618,10|8|8|8,0:0|0:0|0:0|0:0,0:0:0:0:
346,275,89716,2,0,P|352:247|351:232,3,41.9999987182618,10|8|8|8,0:0|0:0|0:0|0:0,0:0:0:0:
420,201,89999,2,0,P|405:176|394:167,3,41.9999987182618,10|8|8|8,0:0|0:0|0:0|0:0,0:0:0:0:
413,93,90283,1,10,0:0:0:0:
384,89,90353,1,8,0:0:0:0:
355,95,90424,1,8,0:0:0:0:
332,113,90495,1,8,0:0:0:0:
316,137,90566,6,0,P|290:145|260:144,3,41.9999987182618,10|8|8|8,0:0|0:0|0:0|0:0,0:0:0:0:
241,213,90849,2,0,P|222:203|206:190,3,41.9999987182618,10|8|8|8,0:0|0:0|0:0|0:0,0:0:0:0:
139,226,91132,2,0,P|130:200|131:170,3,41.9999987182618,10|8|8|8,0:0|0:0|0:0|0:0,0:0:0:0:
74,132,91415,2,0,P|61:148|53:168,3,41.9999987182618,10|8|8|8,0:0|0:0|0:0|0:0,0:0:0:0:
35,55,91698,5,10,0:0:0:0:
53,45,91768,1,8,0:0:0:0:
74,44,91839,1,8,0:0:0:0:
94,45,91910,1,8,0:0:0:0:
114,52,91981,2,0,P|147:79|158:101,3,41.9999987182618,10|8|8|8,0:0|0:0|0:0|0:0,0:0:0:0:
217,42,92264,2,0,P|259:46|283:39,3,41.9999987182618,10|8|8|8,0:0|0:0|0:0|0:0,0:0:0:0:
273,125,92547,2,0,P|306:152|317:174,3,41.9999987182618,10|8|8|8,0:0|0:0|0:0|0:0,0:0:0:0:
393,142,92830,6,0,P|385:118|371:98,3,48.9999985046387,12|8|8|8,0:0|0:0|0:0|0:0,0:0:0:0:
453,199,93113,1,10,0:0:0:0:
439,223,93183,1,8,0:0:0:0:
416,233,93254,1,8,0:0:0:0:
391,236,93325,1,8,0:0:0:0:
367,229,93396,2,0,L|286:229,3,48.9999985046387,10|8|8|8,0:0|0:0|0:0|0:0,0:0:0:0:
375,316,93679,2,0,L|294:316,3,48.9999985046387,10|8|8|8,0:0|0:0|0:0|0:0,0:0:0:0:
251,280,93962,6,0,P|241:340|248:367,3,48.9999985046387,14|8|8|8,0:0|0:0|0:0|0:0,0:0:0:0:
235,205,94245,2,0,P|185:240|171:264,3,48.9999985046387,10|8|8|8,0:0|0:0|0:0|0:0,0:0:0:0:
272,136,94528,2,0,P|212:125|185:132,3,48.9999985046387,10|8|8|8,0:0|0:0|0:0|0:0,0:0:0:0:
347,114,94811,2,0,P|311:64|287:50,3,48.9999985046387,10|8|8|8,0:0|0:0|0:0|0:0,0:0:0:0:
327,246,95094,6,0,L|327:197,3,48.9999985046387,14|8|8|8,0:0|0:0|0:0|0:0,0:0:0:0:
245,179,95377,2,0,L|245:228,3,48.9999985046387,10|8|8|8,0:0|0:0|0:0|0:0,0:0:0:0:
162,215,95660,2,0,L|162:166,3,48.9999985046387,10|8|8|8,0:0|0:0|0:0|0:0,0:0:0:0:
80,148,95943,2,0,L|80:197,3,48.9999985046387,10|8|8|8,0:0|0:0|0:0|0:0,0:0:0:0:
8,228,96226,6,0,P|60:268|72:269,3,48.9999985046387,10|8|8|8,0:0|0:0|0:0|0:0,0:0:0:0:
95,326,96509,2,0,P|125:303|164:295,3,48.9999985046387,10|8|8|8,0:0|0:0|0:0|0:0,0:0:0:0:
195,241,96792,1,10,0:0:0:0:
218,249,96863,1,8,0:0:0:0:
240,256,96933,1,8,0:0:0:0:
264,254,97004,1,8,0:0:0:0:
288,248,97075,2,0,P|328:253|371:241,3,48.9999985046387,10|8|8|8,0:0|0:0|0:0|0:0,0:0:0:0:
370,328,97358,6,0,P|401:303|423:264,3,48.9999985046387,14|8|8|8,0:0|0:0|0:0|0:0,0:0:0:0:
492,300,97641,2,0,P|486:253|476:238,1,48.9999985046387,10|8,0:0|0:0,0:0:0:0:
404,198,97783,1,8,0:0:0:0:
404,198,97853,1,8,0:0:0:0:
404,198,97924,2,0,P|387:181|371:154,3,48.9999985046387,10|8|8|8,0:0|0:0|0:0|0:0,0:0:0:0:
496,107,98207,2,0,P|489:130|477:152,1,48.9999985046387,10|8,0:0|0:0,0:0:0:0:
424,43,98349,2,0,P|400:49|379:61,1,48.9999985046387,8|8,0:0|0:0,0:0:0:0:
286,158,98490,6,0,P|262:151|240:139,3,48.9999985046387,14|8|8|8,0:0|0:0|0:0|0:0,0:0:0:0:
173,188,98773,2,0,P|161:166|154:143,3,48.9999985046387,10|8|8|8,0:0|0:0|0:0|0:0,0:0:0:0:
73,118,99056,2,0,P|79:95|91:73,3,48.9999985046387,10|8|8|8,0:0|0:0|0:0|0:0,0:0:0:0:
177,59,99339,1,10,0:0:0:0:
205,51,99410,1,8,0:0:0:0:
234,49,99481,1,8,0:0:0:0:
260,60,99551,1,8,0:0:0:0:
287,71,99622,6,0,L|335:74,3,48.9999985046387,10|8|8|8,0:0|0:0|0:0|0:0,0:0:0:0:
334,154,99905,2,0,L|286:157,3,48.9999985046387,10|8|8|8,0:0|0:0|0:0|0:0,0:0:0:0:
278,235,100188,2,0,L|326:238,3,48.9999985046387,10|8|8|8,0:0|0:0|0:0|0:0,0:0:0:0:
338,315,100471,2,0,L|290:318,3,48.9999985046387,10|8|8|8,0:0|0:0|0:0|0:0,0:0:0:0:
413,265,100754,5,10,0:0:0:0:
419,236,100825,1,8,0:0:0:0:
416,206,100896,1,8,0:0:0:0:
403,179,100966,1,8,0:0:0:0:
382,155,101037,2,0,L|313:153,3,48.9999985046387,10|8|8|8,0:0|0:0|0:0|0:0,0:0:0:0:
302,80,101320,2,0,L|371:78,3,48.9999985046387,10|8|8|8,0:0|0:0|0:0|0:0,0:0:0:0:
368,4,101603,2,0,L|320:3,3,48.9999985046387,10|8|8|8,0:0|0:0|0:0|0:0,0:0:0:0:
256,192,101886,12,0,103797,0:0:0:0:
256,192,103867,5,12,0:0:0:0:
256,192,104150,1,12,0:0:0:0:
256,192,104221,12,0,105990,0:0:0:0:
256,192,106132,5,8,0:0:0:0:
256,192,106415,1,8,0:0:0:0:
256,192,106485,12,2,108537,0:0:0:0:
256,192,108679,5,4,0:0:0:0:
256,192,108962,1,8,0:0:0:0:
336,103,109103,2,0,L|245:92,1,70,4|0,0:0|0:0,0:0:0:0:
256,192,109386,1,4,0:0:0:0:
340,19,109528,2,0,L|431:8,1,70,8|4,0:0|0:0,0:0:0:0:
430,12,109740,1,0,0:0:0:0:
430,12,109811,1,12,0:0:0:0:
375,261,110094,5,8,0:0:0:0:
375,261,110165,1,2,0:0:0:0:
375,261,110235,2,0,L|372:195,1,45.4999979171754,2|2,0:0|0:0,0:0:0:0:
503,102,110377,2,0,P|449:128|396:126,1,90.9999958343508,12|2,0:0|0:0,0:0:0:0:
313,89,110660,1,8,0:0:0:0:
313,89,110731,1,2,0:0:0:0:
313,89,110801,2,0,L|316:155,1,45.4999979171754,2|2,0:0|0:0,0:0:0:0:
185,247,110943,6,0,P|239:221|306:286,1,136.499993751526,12|2,0:0|0:0,0:0:0:0:
305,288,111226,2,0,P|262:319|237:289,1,90.9999958343508,8|2,0:0|0:0,0:0:0:0:
61,173,111509,2,0,P|59:241|54:310,1,136.499993751526,12|2,0:0|0:0,0:0:0:0:
51,333,111792,2,0,P|101:344|112:300,1,90.9999958343508,8|2,0:0|0:0,0:0:0:0:
224,154,112075,6,0,P|117:171|69:170,1,136.499993751526,12|2,0:0|0:0,0:0:0:0:
61,173,112358,2,0,P|78:115|74:57,1,90.9999958343508,8|2,0:0|0:0,0:0:0:0:
250,63,112641,2,0,P|299:110|301:210,1,136.499993751526,12|2,0:0|0:0,0:0:0:0:
309,193,112924,2,0,P|278:211|246:174,1,90.9999958343508,8|2,0:0|0:0,0:0:0:0:
394,81,113207,6,0,L|411:189,1,90.9999958343508,12|2,0:0|0:0,0:0:0:0:
294,282,113490,2,0,L|308:192,1,90.9999958343508,12|2,0:0|0:0,0:0:0:0:
483,132,113773,2,0,L|500:240,1,90.9999958343508,12|2,0:0|0:0,0:0:0:0:
231,180,114056,2,0,L|245:90,1,90.9999958343508,12|2,0:0|0:0,0:0:0:0:
397,294,114339,6,0,L|397:349,7,45.4999979171754,12|8|8|8|12|8|8|8,0:0|0:0|0:0|0:0|0:0|0:0|0:0|0:0,0:0:0:0:
399,167,114905,2,0,L|399:212,7,45.4999979171754,12|8|8|8|12|8|8|8,0:0|0:0|0:0|0:0|0:0|0:0|0:0|0:0,0:0:0:0:
398,138,115471,5,8,0:0:0:0:
114,246,115754,1,12,0:0:0:0:
231,353,115896,2,0,P|266:350|344:336,1,90.9999958343508,2|8,0:0|0:0,0:0:0:0:
212,235,116179,2,0,P|167:227|121:223,1,90.9999958343508,2|8,0:0|0:0,0:0:0:0:
11,364,116462,1,2,0:0:0:0:
11,364,116533,1,2,0:0:0:0:
11,364,116603,6,0,L|15:266,1,90.9999958343508,12|2,0:0|0:0,0:0:0:0:
123,207,116886,2,0,L|116:97,1,90.9999958343508,8|2,0:0|0:0,0:0:0:0:
120,329,117169,2,0,L|211:316,1,90.9999958343508,8|2,0:0|0:0,0:0:0:0:
213,219,117452,2,0,L|122:206,1,90.9999958343508,8|2,0:0|0:0,0:0:0:0:
11,364,117735,5,12,0:0:0:0:
14,273,117877,1,2,0:0:0:0:
210,316,118018,1,8,0:0:0:0:
207,129,118160,2,0,L|116:116,1,90.9999958343508,4|8,0:0|0:0,0:0:0:0:
263,13,118443,2,0,L|377:13,1,90.9999958343508,4|8,0:0|0:0,0:0:0:0:
487,164,118726,1,4,0:0:0:0:
487,164,118797,1,0,0:0:0:0:
487,164,118867,6,0,P|459:120|463:73,1,90.9999958343508,12|2,0:0|0:0,0:0:0:0:
360,224,119150,1,8,0:0:0:0:
333,232,119221,1,2,0:0:0:0:
305,236,119292,1,2,0:0:0:0:
277,236,119363,1,0,0:0:0:0:
250,232,119433,2,0,L|226:132,1,90.9999958343508,12|2,0:0|0:0,0:0:0:0:
403,336,119716,1,8,0:0:0:0:
377,327,119787,1,2,0:0:0:0:
345,321,119858,1,2,0:0:0:0:
313,323,119929,1,0,0:0:0:0:
281,326,119999,6,0,P|233:333|148:362,1,136.499993751526,12|2,0:0|0:0,0:0:0:0:
133,372,120283,2,0,P|162:313|160:268,1,90.9999958343508,8|2,0:0|0:0,0:0:0:0:
19,167,120566,2,0,P|23:212|83:296,1,136.499993751526,12|2,0:0|0:0,0:0:0:0:
85,298,120849,2,0,P|33:289|-9:316,1,90.9999958343508,8|2,0:0|0:0,0:0:0:0:
171,193,121132,6,0,P|234:171|346:154,1,136.499993751526,12|2,0:0|0:0,0:0:0:0:
324,158,121415,2,0,P|356:208|356:244,1,90.9999958343508,8|2,0:0|0:0,0:0:0:0:
143,344,121698,2,0,P|206:322|318:305,1,136.499993751526,12|2,0:0|0:0,0:0:0:0:
294,310,121981,2,0,P|270:275|277:219,1,90.9999958343508,8|2,0:0|0:0,0:0:0:0:
435,273,122264,6,0,L|423:370,1,90.9999958343508,14|8,0:0|0:0,0:0:0:0:
324,158,122547,2,0,L|335:67,1,90.9999958343508,8|8,0:0|0:0,0:0:0:0:
355,258,122830,2,0,L|343:355,1,90.9999958343508,8|8,0:0|0:0,0:0:0:0:
240,151,123113,2,0,L|251:60,1,90.9999958343508,8|8,0:0|0:0,0:0:0:0:
454,167,123396,6,0,L|412:182,7,45.4999979171754,12|8|8|8|8|8|8|8,0:0|0:0|0:0|0:0|0:0|0:0|0:0|0:0,0:0:0:0:
286,227,123962,2,0,L|328:212,7,45.4999979171754,12|8|8|8|8|8|8|8,0:0|0:0|0:0|0:0|0:0|0:0|0:0|0:0,0:0:0:0:
345,123,124528,6,0,L|330:79,7,45.4999979171754,12|8|8|8|8|8|8|8,0:0|0:0|0:0|0:0|0:0|0:0|0:0|0:0,0:0:0:0:
402,272,125094,2,0,L|416:315,7,45.4999979171754,12|8|8|8|8|8|8|8,0:0|0:0|0:0|0:0|0:0|0:0|0:0|0:0,0:0:0:0:
256,192,125660,12,2,127570,0:0:0:0:
256,192,127641,5,10,0:0:0:0:
350,41,127924,2,0,L|444:43,1,70,12|2,0:0|0:0,0:0:0:0:
494,132,128207,2,0,L|400:134,1,70,8|2,0:0|0:0,0:0:0:0:
343,30,128490,2,0,L|437:32,1,70,8|2,0:0|0:0,0:0:0:0:
494,149,128773,2,0,L|400:151,1,70,8|2,0:0|0:0,0:0:0:0:
256,192,129056,6,0,P|243:165|238:106,1,70,8|2,0:0|0:0,0:0:0:0:
243,103,129268,1,2,0:0:0:0:
243,103,129339,1,8,0:0:0:0:
230,298,129481,1,2,0:0:0:0:
230,298,129551,1,2,0:0:0:0:
230,298,129622,2,0,L|127:291,1,70,8|2,0:0|0:0,0:0:0:0:
42,208,129905,2,0,L|145:201,1,70,8|2,0:0|0:0,0:0:0:0:
133,206,130117,1,2,0:0:0:0:
134,204,130188,6,0,P|153:156|155:117,1,70,12|2,0:0|0:0,0:0:0:0:
39,26,130471,2,0,P|45:60|60:91,1,70,8|2,0:0|0:0,0:0:0:0:
217,53,130754,2,0,P|170:31|142:31,1,70,8|2,0:0|0:0,0:0:0:0:
234,181,131037,2,0,L|333:168,1,70,8|2,0:0|0:0,0:0:0:0:
397,76,131320,6,0,L|298:63,1,70,8|2,0:0|0:0,0:0:0:0:
318,188,131603,2,0,L|417:175,1,70,8|2,0:0|0:0,0:0:0:0:
484,68,131886,2,0,L|385:55,1,70,8|2,0:0|0:0,0:0:0:0:
325,195,132169,1,8,0:0:0:0:
325,195,132240,1,2,0:0:0:0:
325,195,132311,1,2,0:0:0:0:
488,253,132452,6,0,P|507:327|507:350,1,70,12|2,0:0|0:0,0:0:0:0:
323,361,132735,2,0,P|329:326|341:293,1,70,8|2,0:0|0:0,0:0:0:0:
509,242,133018,2,0,P|454:232|427:217,1,70,8|2,0:0|0:0,0:0:0:0:
339,106,133301,2,0,P|371:93|406:90,1,70,8|2,0:0|0:0,0:0:0:0:
244,233,133584,6,0,P|258:201|264:166,1,70,8|2,0:0|0:0,0:0:0:0:
231,9,133867,2,0,P|247:39|254:73,1,70,8|2,0:0|0:0,0:0:0:0:
116,191,134150,2,0,P|165:181|205:152,1,70,12|2,0:0|0:0,0:0:0:0:
166,69,134433,2,0,P|134:54|100:50,1,70,8|2,0:0|0:0,0:0:0:0:
0,188,134716,6,0,L|13:337,1,140,12|8,0:0|0:0,0:0:0:0:
123,198,135141,1,2,0:0:0:0:
123,198,135212,1,2,0:0:0:0:
123,198,135283,1,8,0:0:0:0:
101,339,135424,1,2,0:0:0:0:
101,339,135495,1,2,0:0:0:0:
101,339,135566,1,8,0:0:0:0:
224,283,135707,1,2,0:0:0:0:
224,283,135778,1,2,0:0:0:0:
224,283,135849,6,0,L|366:272,1,140,12|8,0:0|0:0,0:0:0:0:
441,178,136273,1,2,0:0:0:0:
441,178,136344,1,2,0:0:0:0:
441,178,136415,1,8,0:0:0:0:
363,272,136556,1,2,0:0:0:0:
478,294,136698,2,0,L|528:282,3,35,8|0|2|2,0:0|0:0|0:0|0:0,0:0:0:0:
451,302,136981,6,0,P|421:348|381:360,1,70,12|2,0:0|0:0,0:0:0:0:
293,277,137264,2,0,L|378:270,1,70,8|2,0:0|0:0,0:0:0:0:
285,365,137547,2,0,L|199:358,1,70,8|2,0:0|0:0,0:0:0:0:
87,285,137830,2,0,P|118:319|130:349,1,70,8|2,0:0|0:0,0:0:0:0:
148,198,138113,6,0,P|163:145|181:108,1,70,8|2,0:0|0:0,0:0:0:0:
331,50,138396,2,0,L|367:50,3,35,8|0|2|2,0:0|0:0|0:0|0:0,0:0:0:0:
305,50,138679,2,0,L|235:50,1,70,8|2,0:0|0:0,0:0:0:0:
246,186,138962,2,0,L|316:186,1,70,8|2,0:0|0:0,0:0:0:0:
168,131,139245,6,0,P|156:205|196:273,1,140,12|8,0:0|0:0,0:0:0:0:
402,192,139669,1,2,0:0:0:0:
402,192,139740,1,2,0:0:0:0:
402,192,139811,1,8,0:0:0:0:
289,344,139952,2,0,L|277:248,1,70,2|8,0:0|0:0,0:0:0:0:
402,192,140235,2,0,L|399:261,1,70,2|8,0:0|0:0,0:0:0:0:
203,231,140518,5,2,0:0:0:0:
316,186,140660,1,8,0:0:0:0:
197,329,140801,1,2,0:0:0:0:
376,362,140943,1,8,0:0:0:0:
181,330,141084,1,2,0:0:0:0:
320,282,141226,1,8,0:0:0:0:
166,333,141367,1,2,0:0:0:0:
315,185,141509,6,0,P|356:200|379:214,1,70,12|2,0:0|0:0,0:0:0:0:
450,362,141792,2,0,P|440:315|421:276,1,70,8|2,0:0|0:0,0:0:0:0:
500,144,142075,2,0,P|487:176|466:213,1,70,8|2,0:0|0:0,0:0:0:0:
460,221,142287,1,2,0:0:0:0:
460,221,142358,1,8,0:0:0:0:
326,289,142499,1,2,0:0:0:0:
326,289,142570,1,2,0:0:0:0:
326,289,142641,6,0,L|229:261,1,70,8|2,0:0|0:0,0:0:0:0:
188,376,142924,2,0,L|285:348,1,70,8|2,0:0|0:0,0:0:0:0:
126,193,143207,2,0,L|138:283,1,70,12|2,0:0|0:0,0:0:0:0:
253,100,143490,2,0,L|240:191,1,70,8|2,0:0|0:0,0:0:0:0:
284,98,143773,6,0,L|423:108,1,140,12|8,0:0|0:0,0:0:0:0:
449,22,144197,1,2,0:0:0:0:
449,22,144268,1,2,0:0:0:0:
449,22,144339,2,0,P|396:23|363:42,1,70,8|2,0:0|0:0,0:0:0:0:
495,156,144622,2,0,P|506:123|504:88,1,70,8|2,0:0|0:0,0:0:0:0:
340,108,144905,6,0,P|348:141|370:169,1,70,12|2,0:0|0:0,0:0:0:0:
507,293,145188,1,8,0:0:0:0:
479,271,145259,1,2,0:0:0:0:
444,264,145330,1,2,0:0:0:0:
409,269,145400,1,2,0:0:0:0:
376,282,145471,2,0,L|356:333,3,35,8|2|2|2,0:0|0:0|0:0|0:0,0:0:0:0:
350,194,145754,2,0,L|337:161,3,35,8|2|2|2,0:0|0:0|0:0|0:0,0:0:0:0:
287,260,146037,6,0,L|130:242,1,140,12|8,0:0|0:0,0:0:0:0:
37,90,146462,1,2,0:0:0:0:
37,90,146533,1,2,0:0:0:0:
37,90,146603,2,0,P|72:136|52:215,1,140,8|8,0:0|0:0,0:0:0:0:
158,71,147028,1,2,0:0:0:0:
158,71,147099,1,2,0:0:0:0:
158,71,147169,6,0,P|207:53|317:37,1,140,8|8,0:0|0:0,0:0:0:0:
398,180,147594,1,2,0:0:0:0:
398,180,147665,1,2,0:0:0:0:
398,180,147735,2,0,P|328:169|262:146,1,140,8|8,0:0|0:0,0:0:0:0:
501,26,148301,6,0,L|479:174,1,140,12|8,0:0|0:0,0:0:0:0:
345,303,148726,1,2,0:0:0:0:
345,303,148797,1,2,0:0:0:0:
345,303,148867,2,0,B|388:286|414:317|414:317|441:348|500:330,1,140,8|8,0:0|0:0,0:0:0:0:
325,198,149292,1,2,0:0:0:0:
325,198,149363,1,2,0:0:0:0:
325,198,149433,6,0,P|262:219|232:237,1,70,8|2,0:0|0:0,0:0:0:0:
138,356,149716,2,0,L|142:305,3,35,8|0|2|2,0:0|0:0|0:0|0:0,0:0:0:0:
53,299,149999,2,0,L|49:248,3,35,8|0|2|2,0:0|0:0|0:0|0:0,0:0:0:0:
131,223,150283,2,0,L|135:172,3,35,8|2|2|2,0:0|0:0|0:0|0:0,0:0:0:0:
43,157,150566,6,0,P|75:113|170:101,1,140,12|8,0:0|0:0,0:0:0:0:
224,36,150943,6,0,B|242:72|242:72|242:138,1,74.6666666666667,2|2,0:0|0:0,0:0:0:0:
512,36,151226,6,0,B|494:72|494:72|494:138,1,74.6666666666667,2|2,0:0|0:0,0:0:0:0:
271,192,151509,6,0,B|307:164|307:164|327:120,1,93.3333333333333,2|2,0:0|0:0,0:0:0:0:
464,192,151792,6,0,B|429:164|429:164|409:120,1,93.3333333333333,2|2,0:0|0:0,0:0:0:0:
219,281,152075,6,0,B|277:287|277:287|335:265,1,111.999996582031,2|2,0:0|0:0,0:0:0:0:
511,280,152358,6,0,B|452:286|452:286|394:264,1,111.999996582031,2|2,0:0|0:0,0:0:0:0:
295,45,152641,5,2,0:0:0:0:
296,129,152735,1,2,0:0:0:0:
360,183,152830,6,0,L|436:176,1,70,12|2,0:0|0:0,0:0:0:0:
275,127,153113,2,0,L|211:121,3,35,8|2|2|2,0:0|0:0|0:0|0:0,0:0:0:0:
362,200,153396,2,0,L|425:194,3,35,8|2|2|2,0:0|0:0|0:0|0:0,0:0:0:0:
262,243,153679,2,0,L|169:236,1,70,8|2,0:0|0:0,0:0:0:0:
62,137,153962,5,12,0:0:0:0:
143,340,154103,2,0,L|143:390,7,35,2|2|8|2|2|2|8|2,0:0|0:0|0:0|0:0|0:0|0:0|0:0|0:0,0:0:0:0:
144,317,154669,1,2,0:0:0:0:
170,340,154739,1,2,0:0:0:0:
205,348,154810,1,8,0:0:0:0:
239,338,154881,1,2,0:0:0:0:
268,318,154952,1,2,0:0:0:0:
300,305,155022,1,2,0:0:0:0:
336,308,155094,1,12,0:0:0:0:
256,192,155165,12,2,157287,0:0:0:0:
256,192,157358,12,12,158207,1:0:0:0:
48,344,158773,6,0,B|6:343|-7:264|42:261|117:245|154:357|154:357|166:263|235:383|334:343|334:343|402:293|395:208|361:148|286:143|250:169|238:209|249:252|263:279|310:289|431:278|431:278|455:319|411:374|411:374|486:366|486:366|520:341|531:285|481:213|481:213|442:204|442:204|513:92|513:92|461:44|461:44|400:138|400:138|366:106|321:101|321:101|375:4|266:-37|166:25|161:96|161:96|56:-12|-42:91|-7:213|72:205|111:194|137:173|137:173|155:178|180:183|201:165|209:156|226:138|226:138|176:193|196:259,1,2603.99992053223,12|0,0:0|0:0,0:0:0:0:
