osu file format v14

[General]
AudioFilename: audio.mp3
AudioLeadIn: 0
PreviewTime: 144103
Countdown: 0
SampleSet: Soft
StackLeniency: 0.7
Mode: 3
LetterboxInBreaks: 0
SpecialStyle: 0
WidescreenStoryboard: 1

[Editor]
DistanceSpacing: 0.8
BeatDivisor: 4
GridSize: 8
TimelineZoom: 2.899999

[Metadata]
Title:Longinus
TitleUnicode:Longinus
Artist:xi
ArtistUnicode:xi
Creator:ByDarking
Version:Little Steps
Source:Deemo
Tags:[DVSP-0190]AD:PIANO V Noir disc2 Crossfade
BeatmapID:2538807
BeatmapSetID:959629

[Difficulty]
HPDrainRate:8.2
CircleSize:4
OverallDifficulty:8.2
ApproachRate:5
SliderMultiplier:1.4
SliderTickRate:1

[Events]
//Background and Video events
0,0,"fjJCpgi.jpg",0,0
//Break Periods
2,75529,82054
//Storyboard Layer 0 (Background)
//Storyboard Layer 1 (Fail)
//Storyboard Layer 2 (Pass)
//Storyboard Layer 3 (Foreground)
//Storyboard Layer 4 (Overlay)
//Storyboard Sound Samples

[TimingPoints]
613,283.018867924528,4,2,0,40,1,0
144669,-100,4,2,0,40,0,1
148914,-100,4,2,0,40,0,0
153726,-100,4,2,0,40,0,1
157971,-100,4,2,0,40,0,0
187405,-97.0873786407767,4,2,0,45,0,1
205518,-100,4,2,0,40,0,0

[HitObjects]
192,192,613,5,0,0:0:0:0:
64,192,613,1,0,0:0:0:0:
448,192,754,1,0,0:0:0:0:
320,192,896,1,0,0:0:0:0:
192,192,1037,1,0,0:0:0:0:
448,192,1320,1,0,0:0:0:0:
64,192,1462,1,0,0:0:0:0:
192,192,1532,1,0,0:0:0:0:
320,192,1603,1,0,0:0:0:0:
448,192,1745,1,0,0:0:0:0:
64,192,1886,1,0,0:0:0:0:
448,192,2169,1,0,0:0:0:0:
192,192,2311,1,0,0:0:0:0:
448,192,2452,1,0,0:0:0:0:
64,192,2594,1,0,0:0:0:0:
192,192,2735,1,0,0:0:0:0:
320,192,2877,1,0,0:0:0:0:
448,192,2877,1,0,0:0:0:0:
64,192,3018,1,0,0:0:0:0:
192,192,3160,1,0,0:0:0:0:
320,192,3301,1,0,0:0:0:0:
64,192,3584,1,0,0:0:0:0:
448,192,3726,1,0,0:0:0:0:
320,192,3796,1,0,0:0:0:0:
192,192,3867,1,0,0:0:0:0:
64,192,4009,1,0,0:0:0:0:
448,192,4150,1,0,0:0:0:0:
64,192,4433,1,0,0:0:0:0:
320,192,4575,1,0,0:0:0:0:
64,192,4716,1,0,0:0:0:0:
448,192,4858,1,0,0:0:0:0:
320,192,4999,1,0,0:0:0:0:
192,192,5141,1,0,0:0:0:0:
64,192,5141,1,0,0:0:0:0:
448,192,5282,1,0,0:0:0:0:
320,192,5424,1,0,0:0:0:0:
192,192,5565,1,0,0:0:0:0:
64,192,5848,1,0,0:0:0:0:
448,192,5990,1,0,0:0:0:0:
320,192,6061,1,0,0:0:0:0:
192,192,6131,1,0,0:0:0:0:
448,192,6273,1,0,0:0:0:0:
64,192,6414,1,0,0:0:0:0:
320,192,6697,1,0,0:0:0:0:
64,192,6839,1,0,0:0:0:0:
448,192,6910,1,0,0:0:0:0:
64,192,6980,1,0,0:0:0:0:
320,192,7122,1,0,0:0:0:0:
192,192,7263,1,0,0:0:0:0:
64,192,7405,1,0,0:0:0:0:
320,192,7405,1,0,0:0:0:0:
448,192,7546,1,0,0:0:0:0:
192,192,7688,1,0,0:0:0:0:
320,192,7829,1,0,0:0:0:0:
64,192,8112,1,0,0:0:0:0:
448,192,8254,1,0,0:0:0:0:
320,192,8325,1,0,0:0:0:0:
192,192,8396,1,0,0:0:0:0:
448,192,8537,1,0,0:0:0:0:
64,192,8679,1,0,0:0:0:0:
192,192,8820,1,0,0:0:0:0:
320,192,8891,1,0,0:0:0:0:
448,192,8962,1,0,0:0:0:0:
64,192,9103,1,0,0:0:0:0:
448,192,9245,1,0,0:0:0:0:
320,192,9386,1,0,0:0:0:0:
192,192,9528,1,0,0:0:0:0:
64,192,9669,1,0,0:0:0:0:
448,192,9669,1,0,0:0:0:0:
320,192,9811,1,0,0:0:0:0:
192,192,9952,1,0,0:0:0:0:
64,192,10094,1,0,0:0:0:0:
448,192,10377,1,0,0:0:0:0:
192,192,10518,1,0,0:0:0:0:
320,192,10589,1,0,0:0:0:0:
448,192,10660,1,0,0:0:0:0:
64,192,10801,1,0,0:0:0:0:
320,192,10943,1,0,0:0:0:0:
448,192,11226,1,0,0:0:0:0:
192,192,11367,1,0,0:0:0:0:
64,192,11367,1,0,0:0:0:0:
320,192,11509,1,0,0:0:0:0:
448,192,11650,1,0,0:0:0:0:
64,192,11792,1,0,0:0:0:0:
192,192,11933,1,0,0:0:0:0:
448,192,11933,1,0,0:0:0:0:
320,192,12075,1,0,0:0:0:0:
192,192,12216,1,0,0:0:0:0:
448,192,12358,1,0,0:0:0:0:
64,192,12641,1,0,0:0:0:0:
448,192,12782,1,0,0:0:0:0:
320,192,12853,1,0,0:0:0:0:
192,192,12924,1,0,0:0:0:0:
64,192,12995,1,0,0:0:0:0:
448,192,13065,1,0,0:0:0:0:
320,192,13065,1,0,0:0:0:0:
192,192,13136,1,0,0:0:0:0:
64,192,13207,1,0,0:0:0:0:
320,192,13278,1,0,0:0:0:0:
192,192,13348,1,0,0:0:0:0:
448,192,13419,1,0,0:0:0:0:
320,192,13490,1,0,0:0:0:0:
192,192,13561,1,0,0:0:0:0:
64,192,13631,1,0,0:0:0:0:
448,192,13702,1,0,0:0:0:0:
320,192,13773,1,0,0:0:0:0:
64,192,13844,1,0,0:0:0:0:
192,192,13914,1,0,0:0:0:0:
320,192,13985,1,0,0:0:0:0:
448,192,14056,1,0,0:0:0:0:
64,192,14127,1,0,0:0:0:0:
192,192,14197,1,0,0:0:0:0:
320,192,14197,1,0,0:0:0:0:
448,192,14339,1,0,0:0:0:0:
64,192,14480,1,0,0:0:0:0:
320,192,14622,1,0,0:0:0:0:
192,192,14905,1,0,0:0:0:0:
448,192,15046,1,0,0:0:0:0:
320,192,15117,1,0,0:0:0:0:
192,192,15188,1,0,0:0:0:0:
64,192,15329,1,0,0:0:0:0:
448,192,15329,1,0,0:0:0:0:
320,192,15612,1,0,0:0:0:0:
448,192,15612,1,0,0:0:0:0:
320,192,15896,1,0,0:0:0:0:
192,192,15896,1,0,0:0:0:0:
192,192,16179,1,0,0:0:0:0:
64,192,16179,1,0,0:0:0:0:
64,192,16462,1,0,0:0:0:0:
448,192,16462,1,0,0:0:0:0:
320,192,16462,1,0,0:0:0:0:
64,192,16745,1,0,0:0:0:0:
192,192,16815,1,0,0:0:0:0:
320,192,16886,1,0,0:0:0:0:
448,192,16957,1,0,0:0:0:0:
192,192,17028,1,0,0:0:0:0:
64,192,17098,1,0,0:0:0:0:
448,192,17169,1,0,0:0:0:0:
320,192,17240,1,0,0:0:0:0:
64,192,17311,1,0,0:0:0:0:
192,192,17381,1,0,0:0:0:0:
320,192,17452,1,0,0:0:0:0:
448,192,17523,1,0,0:0:0:0:
192,192,17594,1,0,0:0:0:0:
64,192,17594,1,0,0:0:0:0:
320,192,17735,1,0,0:0:0:0:
192,192,17806,1,0,0:0:0:0:
64,192,17877,1,0,0:0:0:0:
448,192,17947,1,0,0:0:0:0:
320,192,18018,1,0,0:0:0:0:
192,192,18089,1,0,0:0:0:0:
64,192,18160,1,0,0:0:0:0:
320,192,18230,1,0,0:0:0:0:
448,192,18301,1,0,0:0:0:0:
64,192,18372,1,0,0:0:0:0:
192,192,18443,1,0,0:0:0:0:
320,192,18513,1,0,0:0:0:0:
448,192,18584,1,0,0:0:0:0:
192,192,18655,1,0,0:0:0:0:
320,192,18726,1,0,0:0:0:0:
448,192,18726,1,0,0:0:0:0:
64,192,18726,1,0,0:0:0:0:
192,192,18867,1,0,0:0:0:0:
320,192,18938,1,0,0:0:0:0:
448,192,19009,1,0,0:0:0:0:
64,192,19079,1,0,0:0:0:0:
192,192,19150,1,0,0:0:0:0:
320,192,19221,1,0,0:0:0:0:
448,192,19292,1,0,0:0:0:0:
64,192,19362,1,0,0:0:0:0:
320,192,19433,1,0,0:0:0:0:
192,192,19504,1,0,0:0:0:0:
64,192,19575,1,0,0:0:0:0:
448,192,19646,1,0,0:0:0:0:
320,192,19716,1,0,0:0:0:0:
192,192,19787,1,0,0:0:0:0:
64,192,19858,1,0,0:0:0:0:
448,192,19929,1,0,0:0:0:0:
192,192,19999,1,0,0:0:0:0:
320,192,20070,1,0,0:0:0:0:
64,192,20141,1,0,0:0:0:0:
192,192,20212,1,0,0:0:0:0:
448,192,20282,1,0,0:0:0:0:
320,192,20353,1,0,0:0:0:0:
192,192,20424,1,0,0:0:0:0:
64,192,20495,1,0,0:0:0:0:
320,192,20565,1,0,0:0:0:0:
448,192,20636,1,0,0:0:0:0:
64,192,20707,1,0,0:0:0:0:
192,192,20778,1,0,0:0:0:0:
320,192,20848,1,0,0:0:0:0:
448,192,20919,1,0,0:0:0:0:
320,192,20990,1,0,0:0:0:0:
192,192,20990,1,0,0:0:0:0:
64,192,20990,1,0,0:0:0:0:
64,192,21131,1,0,0:0:0:0:
192,192,21202,1,0,0:0:0:0:
320,192,21273,1,0,0:0:0:0:
448,192,21344,1,0,0:0:0:0:
192,192,21414,1,0,0:0:0:0:
320,192,21485,1,0,0:0:0:0:
64,192,21556,1,0,0:0:0:0:
448,192,21627,1,0,0:0:0:0:
320,192,21697,1,0,0:0:0:0:
192,192,21768,1,0,0:0:0:0:
64,192,21839,1,0,0:0:0:0:
448,192,21910,1,0,0:0:0:0:
320,192,21980,1,0,0:0:0:0:
192,192,22051,1,0,0:0:0:0:
64,192,22122,1,0,0:0:0:0:
448,192,22193,1,0,0:0:0:0:
192,192,22263,1,0,0:0:0:0:
320,192,22334,1,0,0:0:0:0:
448,192,22405,1,0,0:0:0:0:
64,192,22476,1,0,0:0:0:0:
192,192,22546,1,0,0:0:0:0:
320,192,22617,1,0,0:0:0:0:
448,192,22688,1,0,0:0:0:0:
64,192,22759,1,0,0:0:0:0:
320,192,22829,1,0,0:0:0:0:
192,192,22900,1,0,0:0:0:0:
64,192,22971,1,0,0:0:0:0:
448,192,23042,1,0,0:0:0:0:
320,192,23112,1,0,0:0:0:0:
192,192,23183,1,0,0:0:0:0:
64,192,23254,1,0,0:0:0:0:
320,192,23254,1,0,0:0:0:0:
448,192,23254,1,0,0:0:0:0:
192,192,23396,1,0,0:0:0:0:
320,192,23466,1,0,0:0:0:0:
448,192,23537,1,0,0:0:0:0:
64,192,23608,1,0,0:0:0:0:
192,192,23679,1,0,0:0:0:0:
320,192,23749,1,0,0:0:0:0:
64,192,23820,1,0,0:0:0:0:
448,192,23891,1,0,0:0:0:0:
320,192,23962,1,0,0:0:0:0:
64,192,24032,1,0,0:0:0:0:
192,192,24103,1,0,0:0:0:0:
448,192,24174,1,0,0:0:0:0:
320,192,24245,1,0,0:0:0:0:
192,192,24315,1,0,0:0:0:0:
64,192,24386,1,0,0:0:0:0:
448,192,24457,1,0,0:0:0:0:
320,192,24528,1,0,0:0:0:0:
192,192,24598,1,0,0:0:0:0:
448,192,24669,1,0,0:0:0:0:
64,192,24740,1,0,0:0:0:0:
192,192,24811,1,0,0:0:0:0:
448,192,24881,1,0,0:0:0:0:
320,192,24952,1,0,0:0:0:0:
192,192,25023,1,0,0:0:0:0:
448,192,25094,1,0,0:0:0:0:
64,192,25164,1,0,0:0:0:0:
320,192,25235,1,0,0:0:0:0:
192,192,25306,1,0,0:0:0:0:
64,192,25377,1,0,0:0:0:0:
448,192,25447,1,0,0:0:0:0:
320,192,25518,1,0,0:0:0:0:
192,192,25518,1,0,0:0:0:0:
64,192,25518,1,0,0:0:0:0:
192,192,25660,1,0,0:0:0:0:
64,192,25730,1,0,0:0:0:0:
448,192,25801,1,0,0:0:0:0:
320,192,25872,1,0,0:0:0:0:
192,192,25943,1,0,0:0:0:0:
64,192,26013,1,0,0:0:0:0:
448,192,26084,1,0,0:0:0:0:
320,192,26155,1,0,0:0:0:0:
64,192,26226,1,0,0:0:0:0:
192,192,26296,1,0,0:0:0:0:
320,192,26367,1,0,0:0:0:0:
448,192,26438,1,0,0:0:0:0:
64,192,26509,1,0,0:0:0:0:
192,192,26579,1,0,0:0:0:0:
320,192,26650,1,0,0:0:0:0:
448,192,26650,1,0,0:0:0:0:
64,192,26721,1,0,0:0:0:0:
192,192,26792,1,0,0:0:0:0:
320,192,26862,1,0,0:0:0:0:
448,192,26933,1,0,0:0:0:0:
64,192,27004,1,0,0:0:0:0:
192,192,27075,1,0,0:0:0:0:
320,192,27146,1,0,0:0:0:0:
448,192,27216,1,0,0:0:0:0:
64,192,27287,1,0,0:0:0:0:
192,192,27358,1,0,0:0:0:0:
320,192,27429,1,0,0:0:0:0:
448,192,27499,1,0,0:0:0:0:
192,192,27570,1,0,0:0:0:0:
64,192,27641,1,0,0:0:0:0:
448,192,27712,1,0,0:0:0:0:
192,192,27782,1,0,0:0:0:0:
64,192,27782,1,0,0:0:0:0:
320,192,27924,1,0,0:0:0:0:
192,192,27995,1,0,0:0:0:0:
64,192,28065,1,0,0:0:0:0:
448,192,28065,1,0,0:0:0:0:
320,192,28136,1,0,0:0:0:0:
192,192,28207,1,0,0:0:0:0:
64,192,28278,1,0,0:0:0:0:
320,192,28348,1,0,0:0:0:0:
448,192,28348,1,0,0:0:0:0:
192,192,28419,1,0,0:0:0:0:
64,192,28490,1,0,0:0:0:0:
320,192,28561,1,0,0:0:0:0:
448,192,28631,1,0,0:0:0:0:
64,192,28631,1,0,0:0:0:0:
192,192,28702,1,0,0:0:0:0:
320,192,28773,1,0,0:0:0:0:
448,192,28844,1,0,0:0:0:0:
192,192,28914,1,0,0:0:0:0:
64,192,28914,1,0,0:0:0:0:
320,192,28985,1,0,0:0:0:0:
448,192,29056,1,0,0:0:0:0:
64,192,29127,1,0,0:0:0:0:
192,192,29197,1,0,0:0:0:0:
320,192,29197,1,0,0:0:0:0:
448,192,29268,1,0,0:0:0:0:
64,192,29339,1,0,0:0:0:0:
192,192,29410,1,0,0:0:0:0:
320,192,29480,1,0,0:0:0:0:
448,192,29480,1,0,0:0:0:0:
192,192,29551,1,0,0:0:0:0:
64,192,29622,1,0,0:0:0:0:
448,192,29693,1,0,0:0:0:0:
320,192,29763,1,0,0:0:0:0:
192,192,29763,1,0,0:0:0:0:
64,192,29834,1,0,0:0:0:0:
448,192,29905,1,0,0:0:0:0:
320,192,29976,1,0,0:0:0:0:
192,192,30046,1,0,0:0:0:0:
64,192,30046,1,0,0:0:0:0:
448,192,30046,1,0,0:0:0:0:
320,192,30117,1,0,0:0:0:0:
192,192,30188,1,0,0:0:0:0:
64,192,30259,1,0,0:0:0:0:
320,192,30329,1,0,0:0:0:0:
448,192,30329,1,0,0:0:0:0:
192,192,30400,1,0,0:0:0:0:
64,192,30471,1,0,0:0:0:0:
448,192,30542,1,0,0:0:0:0:
320,192,30612,1,0,0:0:0:0:
192,192,30612,1,0,0:0:0:0:
64,192,30683,1,0,0:0:0:0:
448,192,30754,1,0,0:0:0:0:
320,192,30825,1,0,0:0:0:0:
192,192,30896,1,0,0:0:0:0:
448,192,30896,1,0,0:0:0:0:
64,192,30966,1,0,0:0:0:0:
320,192,31037,1,0,0:0:0:0:
448,192,31108,1,0,0:0:0:0:
192,192,31179,1,0,0:0:0:0:
64,192,31179,1,0,0:0:0:0:
320,192,31249,1,0,0:0:0:0:
448,192,31320,1,0,0:0:0:0:
64,192,31391,1,0,0:0:0:0:
192,192,31462,1,0,0:0:0:0:
448,192,31462,1,0,0:0:0:0:
320,192,31532,1,0,0:0:0:0:
192,192,31603,1,0,0:0:0:0:
64,192,31674,1,0,0:0:0:0:
448,192,31745,1,0,0:0:0:0:
320,192,31745,1,0,0:0:0:0:
192,192,31815,1,0,0:0:0:0:
64,192,31886,1,0,0:0:0:0:
320,192,31957,1,0,0:0:0:0:
448,192,32028,1,0,0:0:0:0:
192,192,32028,1,0,0:0:0:0:
64,192,32098,1,0,0:0:0:0:
448,192,32169,1,0,0:0:0:0:
320,192,32240,1,0,0:0:0:0:
192,192,32311,1,0,0:0:0:0:
64,192,32311,1,0,0:0:0:0:
448,192,32311,1,0,0:0:0:0:
320,192,32381,1,0,0:0:0:0:
192,192,32452,1,0,0:0:0:0:
64,192,32452,1,0,0:0:0:0:
448,192,32523,1,0,0:0:0:0:
320,192,32594,1,0,0:0:0:0:
64,192,32594,1,0,0:0:0:0:
192,192,32664,1,0,0:0:0:0:
320,192,32735,1,0,0:0:0:0:
448,192,32735,1,0,0:0:0:0:
192,192,32806,1,0,0:0:0:0:
64,192,32877,1,0,0:0:0:0:
448,192,32877,1,0,0:0:0:0:
320,192,32947,1,0,0:0:0:0:
192,192,33018,1,0,0:0:0:0:
64,192,33018,1,0,0:0:0:0:
448,192,33089,1,0,0:0:0:0:
320,192,33160,1,0,0:0:0:0:
192,192,33160,1,0,0:0:0:0:
64,192,33230,1,0,0:0:0:0:
320,192,33301,1,0,0:0:0:0:
448,192,33301,1,0,0:0:0:0:
64,192,33372,1,0,0:0:0:0:
192,192,33443,1,0,0:0:0:0:
448,192,33443,1,0,0:0:0:0:
320,192,33513,1,0,0:0:0:0:
192,192,33584,1,0,0:0:0:0:
64,192,33584,1,0,0:0:0:0:
448,192,33655,1,0,0:0:0:0:
320,192,33726,1,0,0:0:0:0:
192,192,33726,1,0,0:0:0:0:
64,192,33796,1,0,0:0:0:0:
448,192,33867,1,0,0:0:0:0:
320,192,33867,1,0,0:0:0:0:
192,192,33938,1,0,0:0:0:0:
320,192,34009,1,0,0:0:0:0:
448,192,34009,1,0,0:0:0:0:
64,192,34079,1,0,0:0:0:0:
192,192,34150,1,0,0:0:0:0:
320,192,34150,1,0,0:0:0:0:
448,192,34221,1,0,0:0:0:0:
192,192,34292,1,0,0:0:0:0:
64,192,34292,1,0,0:0:0:0:
320,192,34362,1,0,0:0:0:0:
64,192,34433,1,0,0:0:0:0:
448,192,34433,1,0,0:0:0:0:
192,192,34504,1,0,0:0:0:0:
320,192,34575,1,0,0:0:0:0:
448,192,34575,1,0,0:0:0:0:
192,192,34646,1,0,0:0:0:0:
64,192,34716,1,0,0:0:0:0:
448,192,34716,1,0,0:0:0:0:
320,192,34787,1,0,0:0:0:0:
192,192,34858,1,0,0:0:0:0:
64,192,34858,1,0,0:0:0:0:
448,192,34929,1,0,0:0:0:0:
192,192,34999,1,0,0:0:0:0:
64,192,34999,1,0,0:0:0:0:
448,192,35070,1,0,0:0:0:0:
192,192,35141,1,0,0:0:0:0:
320,192,35141,1,0,0:0:0:0:
64,192,35212,1,0,0:0:0:0:
448,192,35282,1,0,0:0:0:0:
320,192,35282,1,0,0:0:0:0:
192,192,35353,1,0,0:0:0:0:
64,192,35424,1,0,0:0:0:0:
448,192,35424,1,0,0:0:0:0:
320,192,35495,1,0,0:0:0:0:
192,192,35565,1,0,0:0:0:0:
64,192,35565,1,0,0:0:0:0:
320,192,35636,1,0,0:0:0:0:
448,192,35707,1,0,0:0:0:0:
64,192,35707,1,0,0:0:0:0:
192,192,35778,1,0,0:0:0:0:
320,192,35848,1,0,0:0:0:0:
448,192,35919,1,0,0:0:0:0:
192,192,35990,1,0,0:0:0:0:
64,192,35990,1,0,0:0:0:0:
448,192,36061,1,0,0:0:0:0:
320,192,36131,1,0,0:0:0:0:
192,192,36202,1,0,0:0:0:0:
64,192,36273,1,0,0:0:0:0:
448,192,36273,1,0,0:0:0:0:
320,192,36344,1,0,0:0:0:0:
192,192,36414,1,0,0:0:0:0:
64,192,36414,1,0,0:0:0:0:
448,192,36485,1,0,0:0:0:0:
320,192,36556,1,0,0:0:0:0:
192,192,36556,1,0,0:0:0:0:
64,192,36627,1,0,0:0:0:0:
320,192,36697,1,0,0:0:0:0:
448,192,36697,1,0,0:0:0:0:
192,192,36768,1,0,0:0:0:0:
64,192,36839,1,0,0:0:0:0:
448,192,36910,1,0,0:0:0:0:
320,192,36980,1,0,0:0:0:0:
192,192,37051,1,0,0:0:0:0:
64,192,37122,1,0,0:0:0:0:
320,192,37193,1,0,0:0:0:0:
448,192,37263,1,0,0:0:0:0:
64,192,37334,1,0,0:0:0:0:
320,192,37405,1,0,0:0:0:0:
192,192,37476,1,0,0:0:0:0:
64,192,37546,1,0,0:0:0:0:
448,192,37617,1,0,0:0:0:0:
320,192,37688,1,0,0:0:0:0:
192,192,37759,1,0,0:0:0:0:
64,192,37829,1,0,0:0:0:0:
448,192,37900,1,0,0:0:0:0:
192,192,37971,1,0,0:0:0:0:
64,192,37971,1,0,0:0:0:0:
320,192,38042,1,0,0:0:0:0:
448,192,38042,1,0,0:0:0:0:
192,192,38112,1,0,0:0:0:0:
64,192,38112,1,0,0:0:0:0:
320,192,38183,1,0,0:0:0:0:
448,192,38183,1,0,0:0:0:0:
64,192,38254,1,0,0:0:0:0:
192,192,38325,1,0,0:0:0:0:
320,192,38325,1,0,0:0:0:0:
448,192,38396,1,0,0:0:0:0:
64,192,38396,1,0,0:0:0:0:
192,192,38466,1,0,0:0:0:0:
320,192,38466,1,0,0:0:0:0:
448,192,38537,1,0,0:0:0:0:
64,192,38608,1,0,0:0:0:0:
448,192,38679,1,0,0:0:0:0:
64,192,38749,1,0,0:0:0:0:
448,192,38820,1,0,0:0:0:0:
64,192,38891,1,0,0:0:0:0:
192,192,38962,1,0,0:0:0:0:
320,192,39032,1,0,0:0:0:0:
448,192,39103,1,0,0:0:0:0:
192,192,39103,1,0,0:0:0:0:
64,192,39103,1,0,0:0:0:0:
320,192,39245,1,0,0:0:0:0:
192,192,39315,1,0,0:0:0:0:
64,192,39386,1,0,0:0:0:0:
448,192,39386,1,0,0:0:0:0:
192,192,39528,1,0,0:0:0:0:
320,192,39598,1,0,0:0:0:0:
448,192,39669,1,0,0:0:0:0:
64,192,39669,1,0,0:0:0:0:
320,192,39811,1,0,0:0:0:0:
192,192,39881,1,0,0:0:0:0:
320,192,39952,1,0,0:0:0:0:
448,192,39952,1,0,0:0:0:0:
64,192,40094,1,0,0:0:0:0:
448,192,40164,1,0,0:0:0:0:
192,192,40235,1,0,0:0:0:0:
64,192,40235,1,0,0:0:0:0:
320,192,40377,1,0,0:0:0:0:
192,192,40447,1,0,0:0:0:0:
448,192,40518,1,0,0:0:0:0:
64,192,40518,1,0,0:0:0:0:
320,192,40660,1,0,0:0:0:0:
192,192,40730,1,0,0:0:0:0:
320,192,40801,1,0,0:0:0:0:
448,192,40801,1,0,0:0:0:0:
64,192,40943,1,0,0:0:0:0:
448,192,41013,1,0,0:0:0:0:
192,192,41084,1,0,0:0:0:0:
64,192,41084,1,0,0:0:0:0:
320,192,41226,1,0,0:0:0:0:
192,192,41296,1,0,0:0:0:0:
64,192,41367,1,0,0:0:0:0:
448,192,41367,1,0,0:0:0:0:
192,192,41509,1,0,0:0:0:0:
320,192,41579,1,0,0:0:0:0:
448,192,41650,1,0,0:0:0:0:
192,192,41650,1,0,0:0:0:0:
64,192,41792,1,0,0:0:0:0:
448,192,41862,1,0,0:0:0:0:
320,192,41933,1,0,0:0:0:0:
192,192,41933,1,0,0:0:0:0:
64,192,42075,1,0,0:0:0:0:
192,192,42146,1,0,0:0:0:0:
320,192,42216,1,0,0:0:0:0:
448,192,42216,1,0,0:0:0:0:
64,192,42358,1,0,0:0:0:0:
448,192,42429,1,0,0:0:0:0:
320,192,42499,1,0,0:0:0:0:
64,192,42499,1,0,0:0:0:0:
192,192,42641,1,0,0:0:0:0:
320,192,42712,1,0,0:0:0:0:
448,192,42782,1,0,0:0:0:0:
64,192,42782,1,0,0:0:0:0:
192,192,42924,1,0,0:0:0:0:
448,192,42995,1,0,0:0:0:0:
320,192,43065,1,0,0:0:0:0:
64,192,43065,1,0,0:0:0:0:
448,192,43207,1,0,0:0:0:0:
320,192,43278,1,0,0:0:0:0:
192,192,43348,1,0,0:0:0:0:
64,192,43348,1,0,0:0:0:0:
448,192,43419,1,0,0:0:0:0:
320,192,43490,1,0,0:0:0:0:
192,192,43561,1,0,0:0:0:0:
64,192,43631,1,0,0:0:0:0:
448,192,43631,1,0,0:0:0:0:
320,192,43773,1,0,0:0:0:0:
64,192,43844,1,0,0:0:0:0:
192,192,43914,1,0,0:0:0:0:
448,192,43914,1,0,0:0:0:0:
192,192,44056,1,0,0:0:0:0:
320,192,44127,1,0,0:0:0:0:
64,192,44197,1,0,0:0:0:0:
448,192,44197,1,0,0:0:0:0:
192,192,44339,1,0,0:0:0:0:
320,192,44410,1,0,0:0:0:0:
192,192,44480,1,0,0:0:0:0:
64,192,44480,1,0,0:0:0:0:
448,192,44622,1,0,0:0:0:0:
64,192,44693,1,0,0:0:0:0:
320,192,44763,1,0,0:0:0:0:
448,192,44763,1,0,0:0:0:0:
64,192,44905,1,0,0:0:0:0:
192,192,44976,1,0,0:0:0:0:
320,192,45046,1,0,0:0:0:0:
448,192,45046,1,0,0:0:0:0:
192,192,45188,1,0,0:0:0:0:
320,192,45259,1,0,0:0:0:0:
448,192,45329,1,0,0:0:0:0:
64,192,45329,1,0,0:0:0:0:
320,192,45471,1,0,0:0:0:0:
192,192,45542,1,0,0:0:0:0:
64,192,45612,1,0,0:0:0:0:
448,192,45612,1,0,0:0:0:0:
320,192,45754,1,0,0:0:0:0:
192,192,45825,1,0,0:0:0:0:
320,192,45896,1,0,0:0:0:0:
448,192,45896,1,0,0:0:0:0:
64,192,46037,1,0,0:0:0:0:
192,192,46108,1,0,0:0:0:0:
320,192,46179,1,0,0:0:0:0:
64,192,46179,1,0,0:0:0:0:
448,192,46320,1,0,0:0:0:0:
64,192,46391,1,0,0:0:0:0:
192,192,46462,1,0,0:0:0:0:
320,192,46462,1,0,0:0:0:0:
448,192,46603,1,0,0:0:0:0:
64,192,46674,1,0,0:0:0:0:
320,192,46745,1,0,0:0:0:0:
448,192,46745,1,0,0:0:0:0:
192,192,46886,1,0,0:0:0:0:
320,192,46957,1,0,0:0:0:0:
448,192,47028,1,0,0:0:0:0:
64,192,47028,1,0,0:0:0:0:
320,192,47169,1,0,0:0:0:0:
192,192,47240,1,0,0:0:0:0:
448,192,47311,1,0,0:0:0:0:
320,192,47311,1,0,0:0:0:0:
192,192,47452,1,0,0:0:0:0:
320,192,47523,1,0,0:0:0:0:
64,192,47594,1,0,0:0:0:0:
192,192,47594,1,0,0:0:0:0:
448,192,47735,1,0,0:0:0:0:
320,192,47806,1,0,0:0:0:0:
448,192,47877,1,0,0:0:0:0:
64,192,47877,1,0,0:0:0:0:
192,192,48018,1,0,0:0:0:0:
64,192,48018,1,0,0:0:0:0:
320,192,48089,1,0,0:0:0:0:
448,192,48160,1,0,0:0:0:0:
192,192,48160,1,0,0:0:0:0:
320,192,48301,1,0,0:0:0:0:
192,192,48372,1,0,0:0:0:0:
448,192,48443,1,0,0:0:0:0:
64,192,48443,1,0,0:0:0:0:
320,192,48584,1,0,0:0:0:0:
192,192,48655,1,0,0:0:0:0:
320,192,48726,1,0,0:0:0:0:
448,192,48726,1,0,0:0:0:0:
64,192,48867,1,0,0:0:0:0:
448,192,48938,1,0,0:0:0:0:
192,192,49009,1,0,0:0:0:0:
64,192,49009,1,0,0:0:0:0:
320,192,49150,1,0,0:0:0:0:
192,192,49221,1,0,0:0:0:0:
64,192,49292,1,0,0:0:0:0:
448,192,49292,1,0,0:0:0:0:
192,192,49433,1,0,0:0:0:0:
320,192,49504,1,0,0:0:0:0:
448,192,49575,1,0,0:0:0:0:
192,192,49575,1,0,0:0:0:0:
64,192,49716,1,0,0:0:0:0:
448,192,49787,1,0,0:0:0:0:
320,192,49858,1,0,0:0:0:0:
192,192,49858,1,0,0:0:0:0:
64,192,49999,1,0,0:0:0:0:
192,192,50070,1,0,0:0:0:0:
320,192,50141,1,0,0:0:0:0:
448,192,50141,1,0,0:0:0:0:
64,192,50282,1,0,0:0:0:0:
448,192,50353,1,0,0:0:0:0:
320,192,50424,1,0,0:0:0:0:
64,192,50424,1,0,0:0:0:0:
192,192,50565,1,0,0:0:0:0:
320,192,50636,1,0,0:0:0:0:
448,192,50707,1,0,0:0:0:0:
64,192,50707,1,0,0:0:0:0:
192,192,50848,1,0,0:0:0:0:
448,192,50919,1,0,0:0:0:0:
320,192,50990,1,0,0:0:0:0:
64,192,50990,1,0,0:0:0:0:
448,192,51131,1,0,0:0:0:0:
320,192,51202,1,0,0:0:0:0:
192,192,51273,1,0,0:0:0:0:
64,192,51273,1,0,0:0:0:0:
320,192,51414,1,0,0:0:0:0:
192,192,51485,1,0,0:0:0:0:
64,192,51556,1,0,0:0:0:0:
448,192,51556,1,0,0:0:0:0:
320,192,51697,1,0,0:0:0:0:
192,192,51768,1,0,0:0:0:0:
64,192,51839,1,0,0:0:0:0:
320,192,51839,1,0,0:0:0:0:
192,192,51980,1,0,0:0:0:0:
448,192,52051,1,0,0:0:0:0:
64,192,52122,1,0,0:0:0:0:
192,192,52122,1,0,0:0:0:0:
448,192,52263,1,0,0:0:0:0:
320,192,52334,1,0,0:0:0:0:
192,192,52405,1,0,0:0:0:0:
64,192,52405,1,0,0:0:0:0:
448,192,52476,1,0,0:0:0:0:
320,192,52546,1,0,0:0:0:0:
192,192,52617,1,0,0:0:0:0:
448,192,52688,1,0,0:0:0:0:
64,192,52688,1,0,0:0:0:0:
320,192,52829,1,0,0:0:0:0:
192,192,52900,1,0,0:0:0:0:
320,192,52971,1,0,0:0:0:0:
448,192,52971,1,0,0:0:0:0:
64,192,53112,1,0,0:0:0:0:
192,192,53183,1,0,0:0:0:0:
64,192,53254,1,0,0:0:0:0:
320,192,53254,1,0,0:0:0:0:
192,192,53396,1,0,0:0:0:0:
320,192,53466,1,0,0:0:0:0:
64,192,53537,1,0,0:0:0:0:
448,192,53537,1,0,0:0:0:0:
320,192,53679,1,0,0:0:0:0:
192,192,53749,1,0,0:0:0:0:
320,192,53820,1,0,0:0:0:0:
448,192,53820,1,0,0:0:0:0:
64,192,53962,1,0,0:0:0:0:
192,192,54032,1,0,0:0:0:0:
320,192,54103,1,0,0:0:0:0:
64,192,54103,1,0,0:0:0:0:
448,192,54245,1,0,0:0:0:0:
64,192,54315,1,0,0:0:0:0:
192,192,54386,1,0,0:0:0:0:
320,192,54386,1,0,0:0:0:0:
448,192,54528,1,0,0:0:0:0:
64,192,54598,1,0,0:0:0:0:
320,192,54669,1,0,0:0:0:0:
448,192,54669,1,0,0:0:0:0:
192,192,54811,1,0,0:0:0:0:
320,192,54881,1,0,0:0:0:0:
448,192,54952,1,0,0:0:0:0:
64,192,54952,1,0,0:0:0:0:
192,192,55094,1,0,0:0:0:0:
320,192,55164,1,0,0:0:0:0:
192,192,55235,1,0,0:0:0:0:
64,192,55235,1,0,0:0:0:0:
448,192,55377,1,0,0:0:0:0:
64,192,55447,1,0,0:0:0:0:
320,192,55518,1,0,0:0:0:0:
448,192,55518,1,0,0:0:0:0:
192,192,55660,1,0,0:0:0:0:
320,192,55730,1,0,0:0:0:0:
448,192,55801,1,0,0:0:0:0:
64,192,55801,1,0,0:0:0:0:
192,192,55943,1,0,0:0:0:0:
320,192,56013,1,0,0:0:0:0:
448,192,56084,1,0,0:0:0:0:
192,192,56084,1,0,0:0:0:0:
64,192,56226,1,0,0:0:0:0:
192,192,56296,1,0,0:0:0:0:
320,192,56367,1,0,0:0:0:0:
448,192,56367,1,0,0:0:0:0:
64,192,56438,1,0,0:0:0:0:
192,192,56509,1,0,0:0:0:0:
448,192,56579,1,0,0:0:0:0:
320,192,56650,1,0,0:0:0:0:
64,192,56650,1,0,0:0:0:0:
192,192,56721,1,0,0:0:0:0:
64,192,56792,1,0,0:0:0:0:
448,192,56862,1,0,0:0:0:0:
320,192,56933,1,0,0:0:0:0:
192,192,56933,1,0,0:0:0:0:
64,192,57004,1,0,0:0:0:0:
448,192,57075,1,0,0:0:0:0:
320,192,57146,1,0,0:0:0:0:
192,192,57216,1,0,0:0:0:0:
64,192,57216,1,0,0:0:0:0:
448,192,57216,1,0,0:0:0:0:
192,192,57358,1,0,0:0:0:0:
320,192,57429,1,0,0:0:0:0:
448,192,57499,1,0,0:0:0:0:
64,192,57499,1,0,0:0:0:0:
192,192,57641,1,0,0:0:0:0:
320,192,57712,1,0,0:0:0:0:
448,192,57782,1,0,0:0:0:0:
192,192,57782,1,0,0:0:0:0:
320,192,57924,1,0,0:0:0:0:
64,192,57995,1,0,0:0:0:0:
320,192,58065,1,0,0:0:0:0:
448,192,58065,1,0,0:0:0:0:
192,192,58207,1,0,0:0:0:0:
320,192,58278,1,0,0:0:0:0:
448,192,58348,1,0,0:0:0:0:
64,192,58348,1,0,0:0:0:0:
192,192,58490,1,0,0:0:0:0:
320,192,58631,1,0,0:0:0:0:
448,192,58631,1,0,0:0:0:0:
64,192,58773,1,0,0:0:0:0:
448,192,58914,1,0,0:0:0:0:
320,192,58914,1,0,0:0:0:0:
192,192,59056,1,0,0:0:0:0:
64,192,59197,1,0,0:0:0:0:
448,192,59197,1,0,0:0:0:0:
320,192,59339,1,0,0:0:0:0:
192,192,59480,1,0,0:0:0:0:
64,192,59480,1,0,0:0:0:0:
448,192,59480,1,0,0:0:0:0:
320,192,59551,1,0,0:0:0:0:
192,192,59622,1,0,0:0:0:0:
64,192,59693,1,0,0:0:0:0:
448,192,59763,1,0,0:0:0:0:
320,192,59834,1,0,0:0:0:0:
64,192,59905,1,0,0:0:0:0:
192,192,59976,1,0,0:0:0:0:
320,192,60046,1,0,0:0:0:0:
448,192,60046,1,0,0:0:0:0:
64,192,60188,1,0,0:0:0:0:
448,192,60259,1,0,0:0:0:0:
320,192,60329,1,0,0:0:0:0:
192,192,60329,1,0,0:0:0:0:
64,192,60471,1,0,0:0:0:0:
192,192,60542,1,0,0:0:0:0:
320,192,60612,1,0,0:0:0:0:
448,192,60612,1,0,0:0:0:0:
64,192,60612,1,0,0:0:0:0:
192,192,60754,1,0,0:0:0:0:
320,192,60896,1,0,0:0:0:0:
448,192,60896,1,0,0:0:0:0:
64,192,61037,1,0,0:0:0:0:
192,192,61179,1,0,0:0:0:0:
320,192,61179,1,0,0:0:0:0:
448,192,61320,1,0,0:0:0:0:
192,192,61462,1,0,0:0:0:0:
64,192,61462,1,0,0:0:0:0:
320,192,61532,1,0,0:0:0:0:
448,192,61603,1,0,0:0:0:0:
192,192,61603,1,0,0:0:0:0:
64,192,61674,1,0,0:0:0:0:
320,192,61745,1,0,0:0:0:0:
448,192,61745,1,0,0:0:0:0:
64,192,61886,1,0,0:0:0:0:
192,192,61957,1,0,0:0:0:0:
320,192,62028,1,0,0:0:0:0:
64,192,62028,1,0,0:0:0:0:
448,192,62169,1,0,0:0:0:0:
320,192,62240,1,0,0:0:0:0:
192,192,62311,1,0,0:0:0:0:
64,192,62311,1,0,0:0:0:0:
64,192,62452,1,0,0:0:0:0:
192,192,62523,1,0,0:0:0:0:
320,192,62594,1,0,0:0:0:0:
448,192,62594,1,0,0:0:0:0:
64,192,62735,1,0,0:0:0:0:
448,192,62806,1,0,0:0:0:0:
320,192,62877,1,0,0:0:0:0:
64,192,62877,1,0,0:0:0:0:
192,192,63018,1,0,0:0:0:0:
320,192,63089,1,0,0:0:0:0:
64,192,63160,1,0,0:0:0:0:
448,192,63160,1,0,0:0:0:0:
192,192,63301,1,0,0:0:0:0:
320,192,63372,1,0,0:0:0:0:
192,192,63443,1,0,0:0:0:0:
64,192,63443,1,0,0:0:0:0:
448,192,63584,1,0,0:0:0:0:
192,192,63726,1,0,0:0:0:0:
64,192,63726,1,0,0:0:0:0:
320,192,63867,1,0,0:0:0:0:
448,192,64009,1,0,0:0:0:0:
64,192,64009,1,0,0:0:0:0:
64,192,64150,1,0,0:0:0:0:
192,192,64221,1,0,0:0:0:0:
320,192,64292,1,0,0:0:0:0:
448,192,64292,1,0,0:0:0:0:
192,192,64433,1,0,0:0:0:0:
320,192,64504,1,0,0:0:0:0:
448,192,64575,1,0,0:0:0:0:
64,192,64575,1,0,0:0:0:0:
192,192,64716,1,0,0:0:0:0:
320,192,64787,1,0,0:0:0:0:
192,192,64858,1,0,0:0:0:0:
64,192,64858,1,0,0:0:0:0:
448,192,64999,1,0,0:0:0:0:
192,192,65070,1,0,0:0:0:0:
448,192,65141,1,0,0:0:0:0:
320,192,65141,1,0,0:0:0:0:
64,192,65282,1,0,0:0:0:0:
448,192,65353,1,0,0:0:0:0:
64,192,65424,1,0,0:0:0:0:
192,192,65424,1,0,0:0:0:0:
320,192,65565,1,0,0:0:0:0:
192,192,65636,1,0,0:0:0:0:
64,192,65707,1,0,0:0:0:0:
448,192,65707,1,0,0:0:0:0:
192,192,65848,1,0,0:0:0:0:
320,192,65919,1,0,0:0:0:0:
448,192,65990,1,0,0:0:0:0:
64,192,65990,1,0,0:0:0:0:
192,192,66131,1,0,0:0:0:0:
320,192,66202,1,0,0:0:0:0:
448,192,66273,1,0,0:0:0:0:
192,192,66273,1,0,0:0:0:0:
64,192,66273,1,0,0:0:0:0:
320,192,66414,1,0,0:0:0:0:
192,192,66485,1,0,0:0:0:0:
64,192,66556,1,0,0:0:0:0:
448,192,66627,1,0,0:0:0:0:
192,192,66697,1,0,0:0:0:0:
320,192,66768,1,0,0:0:0:0:
64,192,66839,1,0,0:0:0:0:
192,192,66910,1,0,0:0:0:0:
320,192,66980,1,0,0:0:0:0:
448,192,67051,1,0,0:0:0:0:
64,192,67122,1,0,0:0:0:0:
192,192,67193,1,0,0:0:0:0:
448,192,67263,1,0,0:0:0:0:
320,192,67334,1,0,0:0:0:0:
192,192,67405,1,0,0:0:0:0:
64,192,67476,1,0,0:0:0:0:
448,192,67546,1,0,0:0:0:0:
320,192,67617,1,0,0:0:0:0:
64,192,67688,1,0,0:0:0:0:
192,192,67759,1,0,0:0:0:0:
320,192,67829,1,0,0:0:0:0:
448,192,67900,1,0,0:0:0:0:
192,192,67971,1,0,0:0:0:0:
64,192,67971,1,0,0:0:0:0:
192,192,68254,1,0,0:0:0:0:
448,192,68254,1,0,0:0:0:0:
64,192,68537,1,0,0:0:0:0:
320,192,68537,1,0,0:0:0:0:
448,192,68537,1,0,0:0:0:0:
192,192,68679,1,0,0:0:0:0:
320,192,68749,1,0,0:0:0:0:
448,192,68820,1,0,0:0:0:0:
64,192,68891,1,0,0:0:0:0:
192,192,68962,1,0,0:0:0:0:
448,192,69032,1,0,0:0:0:0:
320,192,69103,1,0,0:0:0:0:
192,192,69174,1,0,0:0:0:0:
64,192,69245,1,0,0:0:0:0:
448,192,69315,1,0,0:0:0:0:
320,192,69386,1,0,0:0:0:0:
64,192,69457,1,0,0:0:0:0:
192,192,69528,1,0,0:0:0:0:
320,192,69598,1,0,0:0:0:0:
448,192,69669,1,0,0:0:0:0:
64,192,69669,1,0,0:0:0:0:
192,192,69740,1,0,0:0:0:0:
320,192,69811,1,0,0:0:0:0:
448,192,69881,1,0,0:0:0:0:
64,192,69952,1,0,0:0:0:0:
192,192,70023,1,0,0:0:0:0:
448,192,70094,1,0,0:0:0:0:
320,192,70164,1,0,0:0:0:0:
192,192,70235,1,0,0:0:0:0:
64,192,70235,1,0,0:0:0:0:
448,192,70306,1,0,0:0:0:0:
320,192,70377,1,0,0:0:0:0:
192,192,70447,1,0,0:0:0:0:
64,192,70518,1,0,0:0:0:0:
448,192,70518,1,0,0:0:0:0:
320,192,70589,1,0,0:0:0:0:
192,192,70660,1,0,0:0:0:0:
64,192,70660,1,0,0:0:0:0:
448,192,70730,1,0,0:0:0:0:
320,192,70801,1,0,0:0:0:0:
192,192,70801,1,0,0:0:0:0:
64,192,70801,1,0,0:0:0:0:
192,192,70943,1,0,0:0:0:0:
320,192,71013,1,0,0:0:0:0:
448,192,71084,1,0,0:0:0:0:
64,192,71155,1,0,0:0:0:0:
192,192,71226,1,0,0:0:0:0:
320,192,71296,1,0,0:0:0:0:
448,192,71367,1,0,0:0:0:0:
192,192,71438,1,0,0:0:0:0:
64,192,71509,1,0,0:0:0:0:
448,192,71579,1,0,0:0:0:0:
320,192,71650,1,0,0:0:0:0:
192,192,71650,1,0,0:0:0:0:
64,192,71721,1,0,0:0:0:0:
448,192,71792,1,0,0:0:0:0:
320,192,71862,1,0,0:0:0:0:
192,192,71933,1,0,0:0:0:0:
64,192,71933,1,0,0:0:0:0:
448,192,71933,1,0,0:0:0:0:
64,192,72075,1,0,0:0:0:0:
192,192,72146,1,0,0:0:0:0:
320,192,72216,1,0,0:0:0:0:
448,192,72216,1,0,0:0:0:0:
192,192,72358,1,0,0:0:0:0:
320,192,72429,1,0,0:0:0:0:
448,192,72499,1,0,0:0:0:0:
64,192,72499,1,0,0:0:0:0:
192,192,72570,1,0,0:0:0:0:
320,192,72641,1,0,0:0:0:0:
448,192,72712,1,0,0:0:0:0:
192,192,72782,1,0,0:0:0:0:
64,192,72782,1,0,0:0:0:0:
320,192,72853,1,0,0:0:0:0:
448,192,72924,1,0,0:0:0:0:
64,192,72995,1,0,0:0:0:0:
192,192,73065,1,0,0:0:0:0:
320,192,73065,1,0,0:0:0:0:
448,192,73136,1,0,0:0:0:0:
64,192,73207,1,0,0:0:0:0:
192,192,73278,1,0,0:0:0:0:
448,192,73348,1,0,0:0:0:0:
320,192,73419,1,0,0:0:0:0:
192,192,73490,1,0,0:0:0:0:
64,192,73561,1,0,0:0:0:0:
320,192,73631,1,0,0:0:0:0:
448,192,73631,1,0,0:0:0:0:
192,192,73702,1,0,0:0:0:0:
64,192,73773,1,0,0:0:0:0:
320,192,73844,1,0,0:0:0:0:
448,192,73914,1,0,0:0:0:0:
64,192,73985,1,0,0:0:0:0:
192,192,74056,1,0,0:0:0:0:
320,192,74127,1,0,0:0:0:0:
448,192,74197,1,0,0:0:0:0:
64,192,74197,1,0,0:0:0:0:
192,192,74268,1,0,0:0:0:0:
320,192,74339,1,0,0:0:0:0:
448,192,74339,1,0,0:0:0:0:
64,192,74410,1,0,0:0:0:0:
192,192,74480,1,0,0:0:0:0:
320,192,74480,1,0,0:0:0:0:
448,192,74551,1,0,0:0:0:0:
192,192,74622,1,0,0:0:0:0:
64,192,74622,1,0,0:0:0:0:
448,192,74693,1,0,0:0:0:0:
320,192,74763,1,0,0:0:0:0:
64,192,74763,1,0,0:0:0:0:
192,192,74834,1,0,0:0:0:0:
320,192,74905,1,0,0:0:0:0:
448,192,74905,1,0,0:0:0:0:
64,192,74976,1,0,0:0:0:0:
192,192,75046,1,0,0:0:0:0:
320,192,75046,1,0,0:0:0:0:
448,192,75117,1,0,0:0:0:0:
192,192,75188,1,0,0:0:0:0:
64,192,75188,1,0,0:0:0:0:
320,192,75259,1,0,0:0:0:0:
192,192,75329,1,0,0:0:0:0:
64,192,75329,1,0,0:0:0:0:
448,192,75329,1,0,0:0:0:0:
64,192,83254,132,0,84103:0:0:0:0:
192,192,84103,1,0,0:0:0:0:
320,192,84103,1,0,0:0:0:0:
448,192,84103,1,0,0:0:0:0:
64,192,84386,1,0,0:0:0:0:
448,192,84386,1,0,0:0:0:0:
320,192,84528,1,0,0:0:0:0:
192,192,84598,1,0,0:0:0:0:
64,192,84669,1,0,0:0:0:0:
448,192,84740,1,0,0:0:0:0:
320,192,84811,1,0,0:0:0:0:
192,192,84811,1,0,0:0:0:0:
64,192,85094,1,0,0:0:0:0:
192,192,85164,1,0,0:0:0:0:
320,192,85235,1,0,0:0:0:0:
448,192,85377,1,0,0:0:0:0:
192,192,85518,1,0,0:0:0:0:
64,192,85518,1,0,0:0:0:0:
64,192,85801,1,0,0:0:0:0:
192,192,85872,1,0,0:0:0:0:
320,192,85943,1,0,0:0:0:0:
448,192,86013,1,0,0:0:0:0:
192,192,86084,1,0,0:0:0:0:
64,192,86084,1,0,0:0:0:0:
320,192,86226,1,0,0:0:0:0:
448,192,86296,1,0,0:0:0:0:
64,192,86367,1,0,0:0:0:0:
320,192,86438,1,0,0:0:0:0:
64,192,86509,1,0,0:0:0:0:
192,192,86579,1,0,0:0:0:0:
320,192,86650,1,0,0:0:0:0:
448,192,86650,1,0,0:0:0:0:
64,192,86792,1,0,0:0:0:0:
192,192,86862,1,0,0:0:0:0:
320,192,86933,1,0,0:0:0:0:
448,192,87004,1,0,0:0:0:0:
192,192,87075,1,0,0:0:0:0:
64,192,87075,1,0,0:0:0:0:
448,192,87358,1,0,0:0:0:0:
320,192,87429,1,0,0:0:0:0:
64,192,87499,1,0,0:0:0:0:
192,192,87570,1,0,0:0:0:0:
320,192,87641,1,0,0:0:0:0:
448,192,87712,1,0,0:0:0:0:
192,192,87782,1,0,0:0:0:0:
64,192,87782,1,0,0:0:0:0:
320,192,87924,1,0,0:0:0:0:
192,192,87995,1,0,0:0:0:0:
64,192,88065,1,0,0:0:0:0:
448,192,88065,1,0,0:0:0:0:
192,192,88207,1,0,0:0:0:0:
320,192,88278,1,0,0:0:0:0:
448,192,88348,1,0,0:0:0:0:
64,192,88348,1,0,0:0:0:0:
64,192,88490,1,0,0:0:0:0:
192,192,88561,1,0,0:0:0:0:
448,192,88631,1,0,0:0:0:0:
320,192,88631,1,0,0:0:0:0:
192,192,88773,1,0,0:0:0:0:
320,192,88844,1,0,0:0:0:0:
448,192,88914,1,0,0:0:0:0:
64,192,88914,1,0,0:0:0:0:
192,192,89056,1,0,0:0:0:0:
320,192,89127,1,0,0:0:0:0:
448,192,89197,1,0,0:0:0:0:
64,192,89268,1,0,0:0:0:0:
192,192,89339,1,0,0:0:0:0:
320,192,89339,1,0,0:0:0:0:
320,192,89622,1,0,0:0:0:0:
192,192,89693,1,0,0:0:0:0:
64,192,89763,1,0,0:0:0:0:
448,192,89834,1,0,0:0:0:0:
320,192,89905,1,0,0:0:0:0:
64,192,89976,1,0,0:0:0:0:
192,192,90046,1,0,0:0:0:0:
448,192,90046,1,0,0:0:0:0:
320,192,90188,1,0,0:0:0:0:
192,192,90259,1,0,0:0:0:0:
448,192,90329,1,0,0:0:0:0:
64,192,90400,1,0,0:0:0:0:
192,192,90471,1,0,0:0:0:0:
320,192,90471,1,0,0:0:0:0:
448,192,90612,1,0,0:0:0:0:
320,192,90683,1,0,0:0:0:0:
192,192,90754,1,0,0:0:0:0:
64,192,90825,1,0,0:0:0:0:
320,192,90896,1,0,0:0:0:0:
448,192,90896,1,0,0:0:0:0:
192,192,91037,1,0,0:0:0:0:
320,192,91108,1,0,0:0:0:0:
448,192,91179,1,0,0:0:0:0:
64,192,91179,1,0,0:0:0:0:
192,192,91320,1,0,0:0:0:0:
320,192,91391,1,0,0:0:0:0:
448,192,91462,1,0,0:0:0:0:
64,192,91532,1,0,0:0:0:0:
192,192,91603,1,0,0:0:0:0:
320,192,91603,1,0,0:0:0:0:
448,192,91886,1,0,0:0:0:0:
64,192,92028,1,0,0:0:0:0:
192,192,92098,1,0,0:0:0:0:
448,192,92169,1,0,0:0:0:0:
320,192,92240,1,0,0:0:0:0:
192,192,92311,1,0,0:0:0:0:
64,192,92311,1,0,0:0:0:0:
448,192,92381,1,0,0:0:0:0:
320,192,92452,1,0,0:0:0:0:
192,192,92523,1,0,0:0:0:0:
64,192,92594,1,0,0:0:0:0:
448,192,92594,1,0,0:0:0:0:
192,192,92664,1,0,0:0:0:0:
320,192,92735,1,0,0:0:0:0:
448,192,92806,1,0,0:0:0:0:
192,192,92877,1,0,0:0:0:0:
64,192,92877,1,0,0:0:0:0:
320,192,92947,1,0,0:0:0:0:
448,192,93018,1,0,0:0:0:0:
192,192,93018,1,0,0:0:0:0:
64,192,93089,1,0,0:0:0:0:
320,192,93160,1,0,0:0:0:0:
448,192,93160,1,0,0:0:0:0:
192,192,93230,1,0,0:0:0:0:
64,192,93301,1,0,0:0:0:0:
320,192,93301,1,0,0:0:0:0:
448,192,93372,1,0,0:0:0:0:
192,192,93443,1,0,0:0:0:0:
64,192,93443,1,0,0:0:0:0:
320,192,93584,1,0,0:0:0:0:
192,192,93655,1,0,0:0:0:0:
64,192,93726,1,0,0:0:0:0:
448,192,93796,1,0,0:0:0:0:
320,192,93867,1,0,0:0:0:0:
192,192,93867,1,0,0:0:0:0:
64,192,94009,1,0,0:0:0:0:
448,192,94079,1,0,0:0:0:0:
320,192,94150,1,0,0:0:0:0:
192,192,94221,1,0,0:0:0:0:
448,192,94433,1,0,0:0:0:0:
192,192,94575,1,0,0:0:0:0:
64,192,94575,1,0,0:0:0:0:
320,192,94716,1,0,0:0:0:0:
64,192,94858,1,0,0:0:0:0:
192,192,94929,1,0,0:0:0:0:
448,192,94999,1,0,0:0:0:0:
320,192,95070,1,0,0:0:0:0:
192,192,95141,1,0,0:0:0:0:
64,192,95141,1,0,0:0:0:0:
448,192,95282,1,0,0:0:0:0:
320,192,95353,1,0,0:0:0:0:
64,192,95424,1,0,0:0:0:0:
192,192,95495,1,0,0:0:0:0:
320,192,95565,1,0,0:0:0:0:
448,192,95636,1,0,0:0:0:0:
192,192,95707,1,0,0:0:0:0:
64,192,95707,1,0,0:0:0:0:
448,192,95848,1,0,0:0:0:0:
320,192,95919,1,0,0:0:0:0:
192,192,95990,1,0,0:0:0:0:
64,192,96061,1,0,0:0:0:0:
320,192,96131,1,0,0:0:0:0:
448,192,96131,1,0,0:0:0:0:
192,192,96414,1,0,0:0:0:0:
320,192,96485,1,0,0:0:0:0:
448,192,96556,1,0,0:0:0:0:
64,192,96627,1,0,0:0:0:0:
192,192,96697,1,0,0:0:0:0:
320,192,96768,1,0,0:0:0:0:
448,192,96839,1,0,0:0:0:0:
64,192,96839,1,0,0:0:0:0:
64,192,96980,1,0,0:0:0:0:
192,192,97051,1,0,0:0:0:0:
320,192,97122,1,0,0:0:0:0:
448,192,97122,1,0,0:0:0:0:
448,192,97263,1,0,0:0:0:0:
320,192,97334,1,0,0:0:0:0:
192,192,97405,1,0,0:0:0:0:
64,192,97405,1,0,0:0:0:0:
64,192,97546,1,0,0:0:0:0:
192,192,97617,1,0,0:0:0:0:
320,192,97688,1,0,0:0:0:0:
448,192,97688,1,0,0:0:0:0:
448,192,97829,1,0,0:0:0:0:
320,192,97900,1,0,0:0:0:0:
192,192,97971,1,0,0:0:0:0:
64,192,97971,1,0,0:0:0:0:
64,192,98112,1,0,0:0:0:0:
192,192,98183,1,0,0:0:0:0:
320,192,98254,1,0,0:0:0:0:
448,192,98325,1,0,0:0:0:0:
192,192,98396,1,0,0:0:0:0:
64,192,98396,1,0,0:0:0:0:
448,192,98679,1,0,0:0:0:0:
320,192,98749,1,0,0:0:0:0:
192,192,98820,1,0,0:0:0:0:
64,192,98891,1,0,0:0:0:0:
448,192,98962,1,0,0:0:0:0:
320,192,99032,1,0,0:0:0:0:
64,192,99103,1,0,0:0:0:0:
448,192,99103,1,0,0:0:0:0:
64,192,99245,1,0,0:0:0:0:
192,192,99315,1,0,0:0:0:0:
320,192,99386,1,0,0:0:0:0:
448,192,99457,1,0,0:0:0:0:
192,192,99528,1,0,0:0:0:0:
64,192,99528,1,0,0:0:0:0:
448,192,99669,1,0,0:0:0:0:
320,192,99740,1,0,0:0:0:0:
64,192,99811,1,0,0:0:0:0:
192,192,99881,1,0,0:0:0:0:
320,192,99952,1,0,0:0:0:0:
448,192,99952,1,0,0:0:0:0:
64,192,100094,1,0,0:0:0:0:
192,192,100164,1,0,0:0:0:0:
448,192,100235,1,0,0:0:0:0:
64,192,100235,1,0,0:0:0:0:
320,192,100377,1,0,0:0:0:0:
192,192,100447,1,0,0:0:0:0:
64,192,100518,1,0,0:0:0:0:
448,192,100589,1,0,0:0:0:0:
320,192,100660,1,0,0:0:0:0:
192,192,100660,1,0,0:0:0:0:
64,192,100943,1,0,0:0:0:0:
448,192,100943,1,0,0:0:0:0:
320,192,101084,1,0,0:0:0:0:
192,192,101155,1,0,0:0:0:0:
64,192,101226,1,0,0:0:0:0:
448,192,101296,1,0,0:0:0:0:
320,192,101367,1,0,0:0:0:0:
192,192,101367,1,0,0:0:0:0:
64,192,101438,1,0,0:0:0:0:
448,192,101509,1,0,0:0:0:0:
320,192,101579,1,0,0:0:0:0:
448,192,101650,1,0,0:0:0:0:
64,192,101721,1,0,0:0:0:0:
192,192,101792,1,0,0:0:0:0:
320,192,101862,1,0,0:0:0:0:
448,192,101933,1,0,0:0:0:0:
192,192,101933,1,0,0:0:0:0:
64,192,102004,1,0,0:0:0:0:
448,192,102075,1,0,0:0:0:0:
320,192,102146,1,0,0:0:0:0:
192,192,102216,1,0,0:0:0:0:
64,192,102287,1,0,0:0:0:0:
448,192,102358,1,0,0:0:0:0:
320,192,102429,1,0,0:0:0:0:
192,192,102499,1,0,0:0:0:0:
64,192,102499,1,0,0:0:0:0:
320,192,102570,1,0,0:0:0:0:
448,192,102641,1,0,0:0:0:0:
64,192,102712,1,0,0:0:0:0:
192,192,102782,1,0,0:0:0:0:
320,192,102782,1,0,0:0:0:0:
448,192,102853,1,0,0:0:0:0:
64,192,102924,1,0,0:0:0:0:
192,192,102995,1,0,0:0:0:0:
320,192,103065,1,0,0:0:0:0:
448,192,103065,1,0,0:0:0:0:
192,192,103136,1,0,0:0:0:0:
64,192,103207,1,0,0:0:0:0:
448,192,103207,1,0,0:0:0:0:
320,192,103278,1,0,0:0:0:0:
192,192,103348,1,0,0:0:0:0:
64,192,103348,1,0,0:0:0:0:
448,192,103419,1,0,0:0:0:0:
320,192,103490,1,0,0:0:0:0:
192,192,103490,1,0,0:0:0:0:
64,192,103561,1,0,0:0:0:0:
448,192,103631,1,0,0:0:0:0:
320,192,103631,1,0,0:0:0:0:
64,192,103773,1,0,0:0:0:0:
192,192,103844,1,0,0:0:0:0:
320,192,103914,1,0,0:0:0:0:
448,192,103985,1,0,0:0:0:0:
64,192,104056,1,0,0:0:0:0:
192,192,104127,1,0,0:0:0:0:
448,192,104197,1,0,0:0:0:0:
320,192,104268,1,0,0:0:0:0:
192,192,104339,1,0,0:0:0:0:
64,192,104410,1,0,0:0:0:0:
448,192,104480,1,0,0:0:0:0:
320,192,104551,1,0,0:0:0:0:
192,192,104622,1,0,0:0:0:0:
64,192,104693,1,0,0:0:0:0:
448,192,104763,1,0,0:0:0:0:
192,192,104834,1,0,0:0:0:0:
320,192,104905,1,0,0:0:0:0:
448,192,104976,1,0,0:0:0:0:
64,192,105046,1,0,0:0:0:0:
192,192,105117,1,0,0:0:0:0:
320,192,105188,1,0,0:0:0:0:
448,192,105259,1,0,0:0:0:0:
64,192,105329,1,0,0:0:0:0:
192,192,105400,1,0,0:0:0:0:
320,192,105471,1,0,0:0:0:0:
192,192,105542,1,0,0:0:0:0:
64,192,105612,1,0,0:0:0:0:
448,192,105683,1,0,0:0:0:0:
320,192,105754,1,0,0:0:0:0:
192,192,105825,1,0,0:0:0:0:
64,192,105896,1,0,0:0:0:0:
320,192,105966,1,0,0:0:0:0:
448,192,106037,1,0,0:0:0:0:
64,192,106108,1,0,0:0:0:0:
192,192,106179,1,0,0:0:0:0:
320,192,106249,1,0,0:0:0:0:
448,192,106320,1,0,0:0:0:0:
64,192,106391,1,0,0:0:0:0:
192,192,106462,1,0,0:0:0:0:
448,192,106532,1,0,0:0:0:0:
320,192,106603,1,0,0:0:0:0:
192,192,106674,1,0,0:0:0:0:
64,192,106745,1,0,0:0:0:0:
448,192,106815,1,0,0:0:0:0:
320,192,106886,1,0,0:0:0:0:
192,192,106957,1,0,0:0:0:0:
64,192,107028,1,0,0:0:0:0:
320,192,107098,1,0,0:0:0:0:
448,192,107169,1,0,0:0:0:0:
64,192,107240,1,0,0:0:0:0:
192,192,107311,1,0,0:0:0:0:
320,192,107381,1,0,0:0:0:0:
448,192,107452,1,0,0:0:0:0:
64,192,107523,1,0,0:0:0:0:
192,192,107594,1,0,0:0:0:0:
320,192,107594,1,0,0:0:0:0:
448,192,107782,1,0,0:0:0:0:
192,192,107782,1,0,0:0:0:0:
320,192,107971,1,0,0:0:0:0:
64,192,107971,1,0,0:0:0:0:
64,192,108160,1,0,0:0:0:0:
192,192,108160,1,0,0:0:0:0:
448,192,108160,1,0,0:0:0:0:
320,192,108301,1,0,0:0:0:0:
192,192,108372,1,0,0:0:0:0:
64,192,108443,1,0,0:0:0:0:
448,192,108513,1,0,0:0:0:0:
320,192,108584,1,0,0:0:0:0:
192,192,108655,1,0,0:0:0:0:
64,192,108726,1,0,0:0:0:0:
320,192,108796,1,0,0:0:0:0:
448,192,108867,1,0,0:0:0:0:
64,192,108938,1,0,0:0:0:0:
192,192,109009,1,0,0:0:0:0:
320,192,109079,1,0,0:0:0:0:
448,192,109150,1,0,0:0:0:0:
64,192,109221,1,0,0:0:0:0:
320,192,109292,1,0,0:0:0:0:
192,192,109292,1,0,0:0:0:0:
448,192,109362,1,0,0:0:0:0:
64,192,109433,1,0,0:0:0:0:
192,192,109504,1,0,0:0:0:0:
448,192,109575,1,0,0:0:0:0:
320,192,109646,1,0,0:0:0:0:
192,192,109716,1,0,0:0:0:0:
64,192,109787,1,0,0:0:0:0:
320,192,109858,1,0,0:0:0:0:
448,192,109929,1,0,0:0:0:0:
64,192,109999,1,0,0:0:0:0:
192,192,110070,1,0,0:0:0:0:
320,192,110141,1,0,0:0:0:0:
448,192,110212,1,0,0:0:0:0:
64,192,110282,1,0,0:0:0:0:
192,192,110353,1,0,0:0:0:0:
320,192,110424,1,0,0:0:0:0:
448,192,110424,1,0,0:0:0:0:
192,192,110495,1,0,0:0:0:0:
64,192,110565,1,0,0:0:0:0:
448,192,110636,1,0,0:0:0:0:
320,192,110707,1,0,0:0:0:0:
192,192,110778,1,0,0:0:0:0:
64,192,110848,1,0,0:0:0:0:
320,192,110919,1,0,0:0:0:0:
448,192,110990,1,0,0:0:0:0:
64,192,110990,1,0,0:0:0:0:
192,192,111061,1,0,0:0:0:0:
320,192,111131,1,0,0:0:0:0:
448,192,111202,1,0,0:0:0:0:
64,192,111273,1,0,0:0:0:0:
192,192,111344,1,0,0:0:0:0:
320,192,111414,1,0,0:0:0:0:
448,192,111485,1,0,0:0:0:0:
192,192,111556,1,0,0:0:0:0:
64,192,111556,1,0,0:0:0:0:
320,192,111627,1,0,0:0:0:0:
448,192,111697,1,0,0:0:0:0:
64,192,111768,1,0,0:0:0:0:
192,192,111839,1,0,0:0:0:0:
320,192,111839,1,0,0:0:0:0:
448,192,111933,1,0,0:0:0:0:
64,192,112028,1,0,0:0:0:0:
320,192,112122,1,0,0:0:0:0:
192,192,112193,1,0,0:0:0:0:
64,192,112263,1,0,0:0:0:0:
448,192,112334,1,0,0:0:0:0:
320,192,112405,1,0,0:0:0:0:
192,192,112405,1,0,0:0:0:0:
64,192,112546,1,0,0:0:0:0:
320,192,112688,1,0,0:0:0:0:
448,192,112688,1,0,0:0:0:0:
192,192,112829,1,0,0:0:0:0:
320,192,112900,1,0,0:0:0:0:
448,192,112971,1,0,0:0:0:0:
64,192,112971,1,0,0:0:0:0:
192,192,113042,1,0,0:0:0:0:
320,192,113112,1,0,0:0:0:0:
448,192,113183,1,0,0:0:0:0:
192,192,113254,1,0,0:0:0:0:
64,192,113254,1,0,0:0:0:0:
320,192,113325,1,0,0:0:0:0:
448,192,113396,1,0,0:0:0:0:
64,192,113466,1,0,0:0:0:0:
192,192,113537,1,0,0:0:0:0:
320,192,113537,1,0,0:0:0:0:
448,192,113608,1,0,0:0:0:0:
192,192,113679,1,0,0:0:0:0:
64,192,113749,1,0,0:0:0:0:
320,192,113820,1,0,0:0:0:0:
448,192,113820,1,0,0:0:0:0:
192,192,113891,1,0,0:0:0:0:
64,192,113962,1,0,0:0:0:0:
448,192,114032,1,0,0:0:0:0:
320,192,114103,1,0,0:0:0:0:
64,192,114103,1,0,0:0:0:0:
192,192,114174,1,0,0:0:0:0:
320,192,114245,1,0,0:0:0:0:
448,192,114315,1,0,0:0:0:0:
192,192,114386,1,0,0:0:0:0:
64,192,114386,1,0,0:0:0:0:
320,192,114457,1,0,0:0:0:0:
448,192,114528,1,0,0:0:0:0:
64,192,114598,1,0,0:0:0:0:
192,192,114669,1,0,0:0:0:0:
448,192,114669,1,0,0:0:0:0:
320,192,114740,1,0,0:0:0:0:
192,192,114811,1,0,0:0:0:0:
64,192,114881,1,0,0:0:0:0:
320,192,114952,1,0,0:0:0:0:
448,192,114952,1,0,0:0:0:0:
192,192,115023,1,0,0:0:0:0:
64,192,115094,1,0,0:0:0:0:
448,192,115164,1,0,0:0:0:0:
320,192,115235,1,0,0:0:0:0:
64,192,115235,1,0,0:0:0:0:
192,192,115306,1,0,0:0:0:0:
320,192,115377,1,0,0:0:0:0:
448,192,115447,1,0,0:0:0:0:
192,192,115518,1,0,0:0:0:0:
64,192,115518,1,0,0:0:0:0:
320,192,115589,1,0,0:0:0:0:
448,192,115660,1,0,0:0:0:0:
64,192,115730,1,0,0:0:0:0:
192,192,115801,1,0,0:0:0:0:
320,192,115801,1,0,0:0:0:0:
448,192,115872,1,0,0:0:0:0:
64,192,115943,1,0,0:0:0:0:
192,192,116013,1,0,0:0:0:0:
320,192,116084,1,0,0:0:0:0:
448,192,116084,1,0,0:0:0:0:
192,192,116155,1,0,0:0:0:0:
64,192,116226,1,0,0:0:0:0:
448,192,116296,1,0,0:0:0:0:
320,192,116367,1,0,0:0:0:0:
192,192,116367,1,0,0:0:0:0:
64,192,116438,1,0,0:0:0:0:
448,192,116509,1,0,0:0:0:0:
320,192,116579,1,0,0:0:0:0:
192,192,116650,1,0,0:0:0:0:
64,192,116650,1,0,0:0:0:0:
64,192,116839,1,0,0:0:0:0:
320,192,116839,1,0,0:0:0:0:
192,192,117028,1,0,0:0:0:0:
448,192,117028,1,0,0:0:0:0:
320,192,117216,1,0,0:0:0:0:
448,192,117216,1,0,0:0:0:0:
64,192,117287,1,0,0:0:0:0:
192,192,117358,1,0,0:0:0:0:
320,192,117429,1,0,0:0:0:0:
448,192,117499,1,0,0:0:0:0:
192,192,117499,1,0,0:0:0:0:
64,192,117570,1,0,0:0:0:0:
448,192,117641,1,0,0:0:0:0:
320,192,117712,1,0,0:0:0:0:
192,192,117782,1,0,0:0:0:0:
64,192,117782,1,0,0:0:0:0:
320,192,117853,1,0,0:0:0:0:
448,192,117924,1,0,0:0:0:0:
64,192,117995,1,0,0:0:0:0:
192,192,118065,1,0,0:0:0:0:
320,192,118065,1,0,0:0:0:0:
448,192,118136,1,0,0:0:0:0:
64,192,118207,1,0,0:0:0:0:
192,192,118278,1,0,0:0:0:0:
320,192,118348,1,0,0:0:0:0:
448,192,118348,1,0,0:0:0:0:
192,192,118419,1,0,0:0:0:0:
64,192,118490,1,0,0:0:0:0:
448,192,118561,1,0,0:0:0:0:
320,192,118631,1,0,0:0:0:0:
192,192,118631,1,0,0:0:0:0:
64,192,118702,1,0,0:0:0:0:
448,192,118773,1,0,0:0:0:0:
320,192,118844,1,0,0:0:0:0:
192,192,118914,1,0,0:0:0:0:
64,192,118914,1,0,0:0:0:0:
320,192,118985,1,0,0:0:0:0:
448,192,119056,1,0,0:0:0:0:
64,192,119127,1,0,0:0:0:0:
192,192,119197,1,0,0:0:0:0:
448,192,119197,1,0,0:0:0:0:
320,192,119268,1,0,0:0:0:0:
192,192,119339,1,0,0:0:0:0:
64,192,119410,1,0,0:0:0:0:
448,192,119480,1,0,0:0:0:0:
320,192,119480,1,0,0:0:0:0:
192,192,119551,1,0,0:0:0:0:
64,192,119622,1,0,0:0:0:0:
448,192,119693,1,0,0:0:0:0:
320,192,119763,1,0,0:0:0:0:
192,192,119763,1,0,0:0:0:0:
64,192,119834,1,0,0:0:0:0:
320,192,119905,1,0,0:0:0:0:
448,192,119976,1,0,0:0:0:0:
192,192,120046,1,0,0:0:0:0:
64,192,120046,1,0,0:0:0:0:
320,192,120117,1,0,0:0:0:0:
448,192,120188,1,0,0:0:0:0:
64,192,120259,1,0,0:0:0:0:
192,192,120329,1,0,0:0:0:0:
320,192,120329,1,0,0:0:0:0:
448,192,120400,1,0,0:0:0:0:
64,192,120471,1,0,0:0:0:0:
192,192,120542,1,0,0:0:0:0:
320,192,120612,1,0,0:0:0:0:
448,192,120612,1,0,0:0:0:0:
192,192,120683,1,0,0:0:0:0:
64,192,120754,1,0,0:0:0:0:
448,192,120825,1,0,0:0:0:0:
320,192,120896,1,0,0:0:0:0:
192,192,120896,1,0,0:0:0:0:
64,192,120990,1,0,0:0:0:0:
448,192,121084,1,0,0:0:0:0:
192,192,121179,1,0,0:0:0:0:
64,192,121179,1,0,0:0:0:0:
320,192,121249,1,0,0:0:0:0:
448,192,121320,1,0,0:0:0:0:
64,192,121391,1,0,0:0:0:0:
192,192,121462,1,0,0:0:0:0:
320,192,121462,1,0,0:0:0:0:
448,192,121532,1,0,0:0:0:0:
64,192,121603,1,0,0:0:0:0:
192,192,121674,1,0,0:0:0:0:
320,192,121745,1,0,0:0:0:0:
448,192,121745,1,0,0:0:0:0:
64,192,121886,1,0,0:0:0:0:
192,192,121957,1,0,0:0:0:0:
448,192,122028,1,0,0:0:0:0:
320,192,122098,1,0,0:0:0:0:
192,192,122169,1,0,0:0:0:0:
64,192,122240,1,0,0:0:0:0:
320,192,122311,1,0,0:0:0:0:
448,192,122381,1,0,0:0:0:0:
64,192,122452,1,0,0:0:0:0:
192,192,122523,1,0,0:0:0:0:
320,192,122594,1,0,0:0:0:0:
448,192,122664,1,0,0:0:0:0:
64,192,122735,1,0,0:0:0:0:
320,192,122806,1,0,0:0:0:0:
192,192,122877,1,0,0:0:0:0:
64,192,122947,1,0,0:0:0:0:
448,192,123018,1,0,0:0:0:0:
320,192,123089,1,0,0:0:0:0:
192,192,123160,1,0,0:0:0:0:
64,192,123230,1,0,0:0:0:0:
320,192,123301,1,0,0:0:0:0:
448,192,123372,1,0,0:0:0:0:
64,192,123443,1,0,0:0:0:0:
192,192,123443,1,0,0:0:0:0:
320,192,123513,1,0,0:0:0:0:
448,192,123584,1,0,0:0:0:0:
64,192,123655,1,0,0:0:0:0:
192,192,123726,1,0,0:0:0:0:
448,192,123796,1,0,0:0:0:0:
320,192,123867,1,0,0:0:0:0:
192,192,123938,1,0,0:0:0:0:
64,192,124009,1,0,0:0:0:0:
320,192,124009,1,0,0:0:0:0:
448,192,124079,1,0,0:0:0:0:
64,192,124150,1,0,0:0:0:0:
192,192,124221,1,0,0:0:0:0:
320,192,124292,1,0,0:0:0:0:
448,192,124362,1,0,0:0:0:0:
192,192,124433,1,0,0:0:0:0:
64,192,124504,1,0,0:0:0:0:
448,192,124575,1,0,0:0:0:0:
320,192,124646,1,0,0:0:0:0:
192,192,124716,1,0,0:0:0:0:
448,192,124787,1,0,0:0:0:0:
64,192,124858,1,0,0:0:0:0:
192,192,124929,1,0,0:0:0:0:
320,192,124999,1,0,0:0:0:0:
448,192,125070,1,0,0:0:0:0:
64,192,125141,1,0,0:0:0:0:
192,192,125212,1,0,0:0:0:0:
448,192,125282,1,0,0:0:0:0:
320,192,125353,1,0,0:0:0:0:
192,192,125424,1,0,0:0:0:0:
64,192,125495,1,0,0:0:0:0:
448,192,125565,1,0,0:0:0:0:
320,192,125636,1,0,0:0:0:0:
192,192,125707,1,0,0:0:0:0:
64,192,125707,1,0,0:0:0:0:
64,192,125896,1,0,0:0:0:0:
448,192,125896,1,0,0:0:0:0:
320,192,126084,1,0,0:0:0:0:
448,192,126084,1,0,0:0:0:0:
192,192,126273,1,0,0:0:0:0:
64,192,126273,1,0,0:0:0:0:
448,192,126414,1,0,0:0:0:0:
320,192,126485,1,0,0:0:0:0:
192,192,126556,1,0,0:0:0:0:
64,192,126627,1,0,0:0:0:0:
320,192,126697,1,0,0:0:0:0:
448,192,126768,1,0,0:0:0:0:
64,192,126839,1,0,0:0:0:0:
192,192,126910,1,0,0:0:0:0:
320,192,126980,1,0,0:0:0:0:
64,192,127051,1,0,0:0:0:0:
448,192,127122,1,0,0:0:0:0:
320,192,127193,1,0,0:0:0:0:
192,192,127263,1,0,0:0:0:0:
64,192,127334,1,0,0:0:0:0:
320,192,127405,1,0,0:0:0:0:
448,192,127405,1,0,0:0:0:0:
192,192,127476,1,0,0:0:0:0:
64,192,127546,1,0,0:0:0:0:
320,192,127617,1,0,0:0:0:0:
448,192,127688,1,0,0:0:0:0:
64,192,127759,1,0,0:0:0:0:
192,192,127829,1,0,0:0:0:0:
320,192,127900,1,0,0:0:0:0:
64,192,127971,1,0,0:0:0:0:
448,192,127971,1,0,0:0:0:0:
192,192,128042,1,0,0:0:0:0:
448,192,128112,1,0,0:0:0:0:
320,192,128183,1,0,0:0:0:0:
192,192,128254,1,0,0:0:0:0:
64,192,128325,1,0,0:0:0:0:
448,192,128396,1,0,0:0:0:0:
320,192,128466,1,0,0:0:0:0:
64,192,128537,1,0,0:0:0:0:
192,192,128537,1,0,0:0:0:0:
320,192,128608,1,0,0:0:0:0:
448,192,128679,1,0,0:0:0:0:
64,192,128749,1,0,0:0:0:0:
192,192,128820,1,0,0:0:0:0:
320,192,128891,1,0,0:0:0:0:
448,192,128962,1,0,0:0:0:0:
192,192,129032,1,0,0:0:0:0:
64,192,129103,1,0,0:0:0:0:
448,192,129103,1,0,0:0:0:0:
320,192,129174,1,0,0:0:0:0:
192,192,129245,1,0,0:0:0:0:
64,192,129315,1,0,0:0:0:0:
448,192,129386,1,0,0:0:0:0:
192,192,129457,1,0,0:0:0:0:
320,192,129528,1,0,0:0:0:0:
448,192,129598,1,0,0:0:0:0:
192,192,129669,1,0,0:0:0:0:
64,192,129669,1,0,0:0:0:0:
320,192,129740,1,0,0:0:0:0:
448,192,129811,1,0,0:0:0:0:
64,192,129881,1,0,0:0:0:0:
192,192,129952,1,0,0:0:0:0:
448,192,130046,1,0,0:0:0:0:
64,192,130141,1,0,0:0:0:0:
192,192,130235,1,0,0:0:0:0:
320,192,130235,1,0,0:0:0:0:
448,192,130306,1,0,0:0:0:0:
64,192,130377,1,0,0:0:0:0:
192,192,130447,1,0,0:0:0:0:
320,192,130518,1,0,0:0:0:0:
448,192,130518,1,0,0:0:0:0:
64,192,130589,1,0,0:0:0:0:
192,192,130660,1,0,0:0:0:0:
320,192,130730,1,0,0:0:0:0:
448,192,130801,1,0,0:0:0:0:
64,192,130801,1,0,0:0:0:0:
192,192,130801,1,0,0:0:0:0:
320,192,130872,1,0,0:0:0:0:
64,192,130943,1,0,0:0:0:0:
192,192,131013,1,0,0:0:0:0:
320,192,131084,1,0,0:0:0:0:
448,192,131155,1,0,0:0:0:0:
64,192,131226,1,0,0:0:0:0:
192,192,131296,1,0,0:0:0:0:
448,192,131367,1,0,0:0:0:0:
320,192,131438,1,0,0:0:0:0:
192,192,131509,1,0,0:0:0:0:
64,192,131579,1,0,0:0:0:0:
448,192,131650,1,0,0:0:0:0:
320,192,131721,1,0,0:0:0:0:
64,192,131792,1,0,0:0:0:0:
192,192,131862,1,0,0:0:0:0:
320,192,131933,1,0,0:0:0:0:
448,192,131933,1,0,0:0:0:0:
192,192,132004,1,0,0:0:0:0:
64,192,132075,1,0,0:0:0:0:
448,192,132146,1,0,0:0:0:0:
320,192,132216,1,0,0:0:0:0:
64,192,132287,1,0,0:0:0:0:
192,192,132358,1,0,0:0:0:0:
320,192,132429,1,0,0:0:0:0:
448,192,132499,1,0,0:0:0:0:
192,192,132499,1,0,0:0:0:0:
64,192,132570,1,0,0:0:0:0:
320,192,132641,1,0,0:0:0:0:
448,192,132712,1,0,0:0:0:0:
64,192,132782,1,0,0:0:0:0:
192,192,132853,1,0,0:0:0:0:
448,192,132924,1,0,0:0:0:0:
320,192,132995,1,0,0:0:0:0:
192,192,133065,1,0,0:0:0:0:
64,192,133065,1,0,0:0:0:0:
320,192,133136,1,0,0:0:0:0:
192,192,133207,1,0,0:0:0:0:
64,192,133278,1,0,0:0:0:0:
448,192,133348,1,0,0:0:0:0:
320,192,133419,1,0,0:0:0:0:
192,192,133490,1,0,0:0:0:0:
64,192,133561,1,0,0:0:0:0:
320,192,133631,1,0,0:0:0:0:
448,192,133702,1,0,0:0:0:0:
64,192,133773,1,0,0:0:0:0:
192,192,133844,1,0,0:0:0:0:
320,192,133914,1,0,0:0:0:0:
448,192,133985,1,0,0:0:0:0:
64,192,134056,1,0,0:0:0:0:
192,192,134127,1,0,0:0:0:0:
320,192,134197,1,0,0:0:0:0:
448,192,134197,1,0,0:0:0:0:
192,192,134268,1,0,0:0:0:0:
64,192,134339,1,0,0:0:0:0:
448,192,134410,1,0,0:0:0:0:
320,192,134480,1,0,0:0:0:0:
192,192,134551,1,0,0:0:0:0:
448,192,134622,1,0,0:0:0:0:
64,192,134693,1,0,0:0:0:0:
192,192,134763,1,0,0:0:0:0:
320,192,134763,1,0,0:0:0:0:
64,192,134952,1,0,0:0:0:0:
448,192,134952,1,0,0:0:0:0:
192,192,135141,1,0,0:0:0:0:
64,192,135141,1,0,0:0:0:0:
320,192,135329,1,0,0:0:0:0:
448,192,135329,1,0,0:0:0:0:
192,192,135400,1,0,0:0:0:0:
64,192,135471,1,0,0:0:0:0:
448,192,135542,1,0,0:0:0:0:
320,192,135612,1,0,0:0:0:0:
64,192,135683,1,0,0:0:0:0:
192,192,135754,1,0,0:0:0:0:
320,192,135825,1,0,0:0:0:0:
448,192,135896,1,0,0:0:0:0:
64,192,135966,1,0,0:0:0:0:
192,192,136037,1,0,0:0:0:0:
320,192,136108,1,0,0:0:0:0:
448,192,136179,1,0,0:0:0:0:
192,192,136249,1,0,0:0:0:0:
64,192,136320,1,0,0:0:0:0:
448,192,136391,1,0,0:0:0:0:
320,192,136462,1,0,0:0:0:0:
192,192,136462,1,0,0:0:0:0:
64,192,136532,1,0,0:0:0:0:
320,192,136603,1,0,0:0:0:0:
448,192,136674,1,0,0:0:0:0:
64,192,136745,1,0,0:0:0:0:
192,192,136815,1,0,0:0:0:0:
320,192,136886,1,0,0:0:0:0:
448,192,136957,1,0,0:0:0:0:
192,192,137028,1,0,0:0:0:0:
64,192,137028,1,0,0:0:0:0:
320,192,137098,1,0,0:0:0:0:
448,192,137169,1,0,0:0:0:0:
64,192,137240,1,0,0:0:0:0:
192,192,137311,1,0,0:0:0:0:
448,192,137381,1,0,0:0:0:0:
320,192,137452,1,0,0:0:0:0:
192,192,137523,1,0,0:0:0:0:
320,192,137594,1,0,0:0:0:0:
448,192,137594,1,0,0:0:0:0:
64,192,137664,1,0,0:0:0:0:
448,192,137735,1,0,0:0:0:0:
320,192,137806,1,0,0:0:0:0:
64,192,137877,1,0,0:0:0:0:
192,192,137947,1,0,0:0:0:0:
320,192,138018,1,0,0:0:0:0:
448,192,138089,1,0,0:0:0:0:
64,192,138160,1,0,0:0:0:0:
192,192,138160,1,0,0:0:0:0:
448,192,138230,1,0,0:0:0:0:
320,192,138301,1,0,0:0:0:0:
192,192,138372,1,0,0:0:0:0:
64,192,138443,1,0,0:0:0:0:
448,192,138513,1,0,0:0:0:0:
320,192,138584,1,0,0:0:0:0:
192,192,138655,1,0,0:0:0:0:
64,192,138726,1,0,0:0:0:0:
320,192,138726,1,0,0:0:0:0:
448,192,138796,1,0,0:0:0:0:
64,192,138867,1,0,0:0:0:0:
192,192,138938,1,0,0:0:0:0:
320,192,139009,1,0,0:0:0:0:
448,192,139009,1,0,0:0:0:0:
64,192,139079,1,0,0:0:0:0:
192,192,139150,1,0,0:0:0:0:
448,192,139221,1,0,0:0:0:0:
320,192,139292,1,0,0:0:0:0:
64,192,139292,1,0,0:0:0:0:
192,192,139362,1,0,0:0:0:0:
320,192,139433,1,0,0:0:0:0:
448,192,139504,1,0,0:0:0:0:
64,192,139575,1,0,0:0:0:0:
192,192,139575,1,0,0:0:0:0:
320,192,139646,1,0,0:0:0:0:
448,192,139716,1,0,0:0:0:0:
64,192,139787,1,0,0:0:0:0:
192,192,139858,1,0,0:0:0:0:
320,192,139893,1,0,0:0:0:0:
448,192,139929,128,0,142122:0:0:0:0:
64,192,142122,1,0,0:0:0:0:
192,192,142193,1,0,0:0:0:0:
448,192,142263,1,0,0:0:0:0:
320,192,142334,1,0,0:0:0:0:
192,192,142405,1,0,0:0:0:0:
64,192,142476,1,0,0:0:0:0:
448,192,142546,1,0,0:0:0:0:
320,192,142617,1,0,0:0:0:0:
64,192,142688,1,0,0:0:0:0:
192,192,142759,1,0,0:0:0:0:
320,192,142829,1,0,0:0:0:0:
64,192,142900,1,0,0:0:0:0:
192,192,142971,1,0,0:0:0:0:
448,192,143042,1,0,0:0:0:0:
320,192,143112,1,0,0:0:0:0:
192,192,143183,1,0,0:0:0:0:
64,192,143254,1,0,0:0:0:0:
448,192,143325,1,0,0:0:0:0:
320,192,143396,1,0,0:0:0:0:
64,192,143466,1,0,0:0:0:0:
192,192,143537,1,0,0:0:0:0:
320,192,143608,1,0,0:0:0:0:
448,192,143679,1,0,0:0:0:0:
64,192,143749,1,0,0:0:0:0:
192,192,143820,1,0,0:0:0:0:
448,192,143891,1,0,0:0:0:0:
320,192,143962,1,0,0:0:0:0:
192,192,144032,1,0,0:0:0:0:
64,192,144103,1,0,0:0:0:0:
320,192,144103,1,0,0:0:0:0:
448,192,144103,1,0,0:0:0:0:
192,192,144386,1,0,0:0:0:0:
64,192,144386,1,0,0:0:0:0:
64,192,144669,1,0,0:0:0:0:
320,192,144669,1,0,0:0:0:0:
448,192,144669,1,0,0:0:0:0:
192,192,144740,1,0,0:0:0:0:
320,192,144811,1,0,0:0:0:0:
64,192,144811,1,0,0:0:0:0:
448,192,144881,1,0,0:0:0:0:
192,192,144952,1,0,0:0:0:0:
320,192,145023,1,0,0:0:0:0:
448,192,145094,1,0,0:0:0:0:
64,192,145094,1,0,0:0:0:0:
192,192,145164,1,0,0:0:0:0:
320,192,145235,1,0,0:0:0:0:
448,192,145306,1,0,0:0:0:0:
64,192,145377,1,0,0:0:0:0:
192,192,145447,1,0,0:0:0:0:
448,192,145518,1,0,0:0:0:0:
320,192,145518,1,0,0:0:0:0:
192,192,145589,1,0,0:0:0:0:
64,192,145660,1,0,0:0:0:0:
448,192,145730,1,0,0:0:0:0:
320,192,145801,1,0,0:0:0:0:
192,192,145872,1,0,0:0:0:0:
64,192,145943,1,0,0:0:0:0:
448,192,146013,1,0,0:0:0:0:
192,192,146084,1,0,0:0:0:0:
320,192,146155,1,0,0:0:0:0:
448,192,146226,1,0,0:0:0:0:
64,192,146296,1,0,0:0:0:0:
192,192,146367,1,0,0:0:0:0:
320,192,146438,1,0,0:0:0:0:
448,192,146509,1,0,0:0:0:0:
64,192,146579,1,0,0:0:0:0:
192,192,146650,1,0,0:0:0:0:
448,192,146650,1,0,0:0:0:0:
320,192,146721,1,0,0:0:0:0:
192,192,146792,1,0,0:0:0:0:
64,192,146862,1,0,0:0:0:0:
320,192,146933,1,0,0:0:0:0:
448,192,146933,1,0,0:0:0:0:
448,192,147075,1,0,0:0:0:0:
64,192,147075,1,0,0:0:0:0:
320,192,147075,1,0,0:0:0:0:
64,192,147358,1,0,0:0:0:0:
448,192,147358,1,0,0:0:0:0:
192,192,147358,1,0,0:0:0:0:
320,192,147499,1,0,0:0:0:0:
448,192,147499,1,0,0:0:0:0:
192,192,147570,1,0,0:0:0:0:
64,192,147641,1,0,0:0:0:0:
320,192,147641,1,0,0:0:0:0:
448,192,147712,1,0,0:0:0:0:
320,192,147782,1,0,0:0:0:0:
192,192,147782,1,0,0:0:0:0:
64,192,147782,1,0,0:0:0:0:
64,192,147924,1,0,0:0:0:0:
192,192,147995,1,0,0:0:0:0:
320,192,148065,1,0,0:0:0:0:
448,192,148136,1,0,0:0:0:0:
64,192,148207,1,0,0:0:0:0:
192,192,148278,1,0,0:0:0:0:
320,192,148348,1,0,0:0:0:0:
448,192,148348,1,0,0:0:0:0:
64,192,148348,1,0,0:0:0:0:
448,192,148490,1,0,0:0:0:0:
320,192,148561,1,0,0:0:0:0:
192,192,148631,1,0,0:0:0:0:
64,192,148631,1,0,0:0:0:0:
448,192,148702,1,0,0:0:0:0:
320,192,148773,1,0,0:0:0:0:
192,192,148773,1,0,0:0:0:0:
64,192,148844,1,0,0:0:0:0:
192,192,148914,1,0,0:0:0:0:
448,192,148914,1,0,0:0:0:0:
320,192,148914,1,0,0:0:0:0:
192,192,149127,1,0,0:0:0:0:
320,192,149197,1,0,0:0:0:0:
448,192,149197,1,0,0:0:0:0:
192,192,149480,1,0,0:0:0:0:
64,192,149480,1,0,0:0:0:0:
448,192,149480,1,0,0:0:0:0:
320,192,149693,1,0,0:0:0:0:
192,192,149763,1,0,0:0:0:0:
64,192,149763,1,0,0:0:0:0:
192,192,150046,1,0,0:0:0:0:
320,192,150046,1,0,0:0:0:0:
448,192,150046,1,0,0:0:0:0:
64,192,150259,1,0,0:0:0:0:
192,192,150329,1,0,0:0:0:0:
448,192,150329,1,0,0:0:0:0:
320,192,150612,1,0,0:0:0:0:
64,192,150612,1,0,0:0:0:0:
192,192,150612,1,0,0:0:0:0:
192,192,150825,1,0,0:0:0:0:
448,192,150896,1,0,0:0:0:0:
64,192,150896,1,0,0:0:0:0:
192,192,151179,1,0,0:0:0:0:
64,192,151179,1,0,0:0:0:0:
448,192,151249,1,0,0:0:0:0:
320,192,151320,1,0,0:0:0:0:
192,192,151391,1,0,0:0:0:0:
64,192,151462,1,0,0:0:0:0:
448,192,151462,1,0,0:0:0:0:
192,192,151532,1,0,0:0:0:0:
320,192,151603,1,0,0:0:0:0:
448,192,151674,1,0,0:0:0:0:
192,192,151745,1,0,0:0:0:0:
64,192,151745,1,0,0:0:0:0:
320,192,151815,1,0,0:0:0:0:
448,192,151886,1,0,0:0:0:0:
64,192,151957,1,0,0:0:0:0:
192,192,152028,1,0,0:0:0:0:
320,192,152028,1,0,0:0:0:0:
448,192,152098,1,0,0:0:0:0:
64,192,152169,1,0,0:0:0:0:
192,192,152240,1,0,0:0:0:0:
320,192,152311,1,0,0:0:0:0:
448,192,152311,1,0,0:0:0:0:
192,192,152381,1,0,0:0:0:0:
64,192,152452,1,0,0:0:0:0:
320,192,152452,1,0,0:0:0:0:
448,192,152523,1,0,0:0:0:0:
192,192,152594,1,0,0:0:0:0:
64,192,152594,1,0,0:0:0:0:
320,192,152664,1,0,0:0:0:0:
448,192,152735,1,0,0:0:0:0:
64,192,152735,1,0,0:0:0:0:
192,192,152806,1,0,0:0:0:0:
320,192,152877,1,0,0:0:0:0:
448,192,152877,1,0,0:0:0:0:
64,192,152947,1,0,0:0:0:0:
192,192,153018,1,0,0:0:0:0:
448,192,153018,1,0,0:0:0:0:
320,192,153089,1,0,0:0:0:0:
192,192,153160,1,0,0:0:0:0:
64,192,153160,1,0,0:0:0:0:
448,192,153230,1,0,0:0:0:0:
320,192,153301,1,0,0:0:0:0:
64,192,153301,1,0,0:0:0:0:
192,192,153372,1,0,0:0:0:0:
448,192,153443,128,0,153726:0:0:0:0:
64,192,153726,1,0,0:0:0:0:
320,192,153726,1,0,0:0:0:0:
192,192,153796,1,0,0:0:0:0:
448,192,153867,1,0,0:0:0:0:
320,192,153867,1,0,0:0:0:0:
64,192,153938,1,0,0:0:0:0:
192,192,154009,1,0,0:0:0:0:
448,192,154079,1,0,0:0:0:0:
320,192,154150,1,0,0:0:0:0:
64,192,154150,1,0,0:0:0:0:
192,192,154221,1,0,0:0:0:0:
320,192,154292,1,0,0:0:0:0:
448,192,154362,1,0,0:0:0:0:
64,192,154433,1,0,0:0:0:0:
192,192,154504,1,0,0:0:0:0:
320,192,154575,1,0,0:0:0:0:
448,192,154575,1,0,0:0:0:0:
192,192,154646,1,0,0:0:0:0:
64,192,154716,1,0,0:0:0:0:
448,192,154787,1,0,0:0:0:0:
320,192,154858,1,0,0:0:0:0:
192,192,154929,1,0,0:0:0:0:
64,192,154999,1,0,0:0:0:0:
320,192,155070,1,0,0:0:0:0:
448,192,155141,1,0,0:0:0:0:
192,192,155212,1,0,0:0:0:0:
320,192,155282,1,0,0:0:0:0:
64,192,155353,1,0,0:0:0:0:
192,192,155424,1,0,0:0:0:0:
320,192,155495,1,0,0:0:0:0:
448,192,155565,1,0,0:0:0:0:
64,192,155636,1,0,0:0:0:0:
192,192,155707,1,0,0:0:0:0:
320,192,155707,1,0,0:0:0:0:
448,192,155778,1,0,0:0:0:0:
64,192,155848,1,0,0:0:0:0:
192,192,155919,1,0,0:0:0:0:
320,192,155990,1,0,0:0:0:0:
448,192,155990,1,0,0:0:0:0:
64,192,156131,1,0,0:0:0:0:
192,192,156131,1,0,0:0:0:0:
448,192,156131,1,0,0:0:0:0:
320,192,156414,1,0,0:0:0:0:
192,192,156414,1,0,0:0:0:0:
64,192,156414,1,0,0:0:0:0:
448,192,156556,1,0,0:0:0:0:
64,192,156556,1,0,0:0:0:0:
192,192,156627,1,0,0:0:0:0:
320,192,156697,1,0,0:0:0:0:
448,192,156768,1,0,0:0:0:0:
320,192,156839,1,0,0:0:0:0:
192,192,156839,1,0,0:0:0:0:
64,192,156839,1,0,0:0:0:0:
64,192,156980,1,0,0:0:0:0:
192,192,157051,1,0,0:0:0:0:
320,192,157122,1,0,0:0:0:0:
448,192,157193,1,0,0:0:0:0:
64,192,157263,1,0,0:0:0:0:
192,192,157334,1,0,0:0:0:0:
320,192,157405,1,0,0:0:0:0:
448,192,157405,1,0,0:0:0:0:
64,192,157405,1,0,0:0:0:0:
448,192,157546,1,0,0:0:0:0:
320,192,157617,1,0,0:0:0:0:
192,192,157688,1,0,0:0:0:0:
64,192,157688,1,0,0:0:0:0:
448,192,157759,1,0,0:0:0:0:
320,192,157829,1,0,0:0:0:0:
192,192,157829,1,0,0:0:0:0:
64,192,157900,1,0,0:0:0:0:
192,192,157971,1,0,0:0:0:0:
448,192,157971,1,0,0:0:0:0:
320,192,157971,1,0,0:0:0:0:
64,192,158183,1,0,0:0:0:0:
192,192,158254,1,0,0:0:0:0:
448,192,158254,1,0,0:0:0:0:
320,192,158537,1,0,0:0:0:0:
448,192,158537,1,0,0:0:0:0:
64,192,158537,1,0,0:0:0:0:
192,192,158749,1,0,0:0:0:0:
320,192,158820,1,0,0:0:0:0:
448,192,158820,1,0,0:0:0:0:
192,192,159103,1,0,0:0:0:0:
64,192,159103,1,0,0:0:0:0:
448,192,159103,1,0,0:0:0:0:
320,192,159315,1,0,0:0:0:0:
192,192,159386,1,0,0:0:0:0:
64,192,159386,1,0,0:0:0:0:
64,192,159669,1,0,0:0:0:0:
320,192,159669,1,0,0:0:0:0:
448,192,159669,1,0,0:0:0:0:
192,192,159881,1,0,0:0:0:0:
64,192,159952,1,0,0:0:0:0:
448,192,159952,1,0,0:0:0:0:
64,192,160235,1,0,0:0:0:0:
192,192,160235,1,0,0:0:0:0:
448,192,160306,1,0,0:0:0:0:
320,192,160377,1,0,0:0:0:0:
192,192,160447,1,0,0:0:0:0:
64,192,160518,1,0,0:0:0:0:
320,192,160518,1,0,0:0:0:0:
448,192,160589,1,0,0:0:0:0:
64,192,160660,1,0,0:0:0:0:
192,192,160730,1,0,0:0:0:0:
320,192,160801,1,0,0:0:0:0:
448,192,160801,1,0,0:0:0:0:
64,192,160872,1,0,0:0:0:0:
192,192,160943,1,0,0:0:0:0:
448,192,161013,1,0,0:0:0:0:
320,192,161084,1,0,0:0:0:0:
64,192,161084,1,0,0:0:0:0:
192,192,161155,1,0,0:0:0:0:
448,192,161226,1,0,0:0:0:0:
320,192,161296,1,0,0:0:0:0:
192,192,161367,1,0,0:0:0:0:
64,192,161367,1,0,0:0:0:0:
448,192,161367,1,0,0:0:0:0:
320,192,161438,1,0,0:0:0:0:
192,192,161509,1,0,0:0:0:0:
64,192,161509,1,0,0:0:0:0:
448,192,161579,1,0,0:0:0:0:
320,192,161650,1,0,0:0:0:0:
192,192,161650,1,0,0:0:0:0:
64,192,161721,1,0,0:0:0:0:
320,192,161792,1,0,0:0:0:0:
448,192,161792,1,0,0:0:0:0:
64,192,161862,1,0,0:0:0:0:
192,192,161933,1,0,0:0:0:0:
448,192,161933,1,0,0:0:0:0:
320,192,162004,1,0,0:0:0:0:
192,192,162075,1,0,0:0:0:0:
64,192,162075,1,0,0:0:0:0:
448,192,162146,1,0,0:0:0:0:
320,192,162216,1,0,0:0:0:0:
64,192,162216,1,0,0:0:0:0:
192,192,162287,1,0,0:0:0:0:
320,192,162358,1,0,0:0:0:0:
448,192,162358,1,0,0:0:0:0:
64,192,162429,1,0,0:0:0:0:
192,192,162499,1,0,0:0:0:0:
320,192,162499,1,0,0:0:0:0:
448,192,162570,1,0,0:0:0:0:
192,192,162641,1,0,0:0:0:0:
64,192,162641,1,0,0:0:0:0:
320,192,162712,1,0,0:0:0:0:
448,192,162782,1,0,0:0:0:0:
192,192,162782,1,0,0:0:0:0:
64,192,162853,1,0,0:0:0:0:
320,192,162924,1,0,0:0:0:0:
448,192,162924,1,0,0:0:0:0:
192,192,162995,1,0,0:0:0:0:
64,192,163065,1,0,0:0:0:0:
448,192,163065,1,0,0:0:0:0:
320,192,163136,1,0,0:0:0:0:
192,192,163207,1,0,0:0:0:0:
64,192,163207,1,0,0:0:0:0:
448,192,163278,1,0,0:0:0:0:
320,192,163348,1,0,0:0:0:0:
192,192,163348,1,0,0:0:0:0:
64,192,163419,1,0,0:0:0:0:
448,192,163490,1,0,0:0:0:0:
320,192,163490,1,0,0:0:0:0:
192,192,163561,1,0,0:0:0:0:
64,192,163631,1,0,0:0:0:0:
448,192,163631,1,0,0:0:0:0:
320,192,163702,1,0,0:0:0:0:
192,192,163773,1,0,0:0:0:0:
448,192,163844,1,0,0:0:0:0:
320,192,163914,1,0,0:0:0:0:
192,192,163985,1,0,0:0:0:0:
64,192,164056,1,0,0:0:0:0:
448,192,164127,1,0,0:0:0:0:
320,192,164197,1,0,0:0:0:0:
192,192,164268,1,0,0:0:0:0:
64,192,164339,1,0,0:0:0:0:
320,192,164410,1,0,0:0:0:0:
192,192,164480,1,0,0:0:0:0:
448,192,164551,1,0,0:0:0:0:
320,192,164622,1,0,0:0:0:0:
192,192,164693,1,0,0:0:0:0:
448,192,164763,1,0,0:0:0:0:
320,192,164763,1,0,0:0:0:0:
64,192,164763,1,0,0:0:0:0:
192,192,164905,1,0,0:0:0:0:
320,192,164976,1,0,0:0:0:0:
448,192,165046,1,0,0:0:0:0:
64,192,165117,1,0,0:0:0:0:
192,192,165188,1,0,0:0:0:0:
320,192,165259,1,0,0:0:0:0:
64,192,165329,1,0,0:0:0:0:
448,192,165400,1,0,0:0:0:0:
320,192,165471,1,0,0:0:0:0:
192,192,165542,1,0,0:0:0:0:
64,192,165612,1,0,0:0:0:0:
448,192,165683,1,0,0:0:0:0:
320,192,165754,1,0,0:0:0:0:
192,192,165825,1,0,0:0:0:0:
448,192,165896,1,0,0:0:0:0:
64,192,165966,1,0,0:0:0:0:
192,192,166037,1,0,0:0:0:0:
320,192,166108,1,0,0:0:0:0:
448,192,166179,1,0,0:0:0:0:
192,192,166249,1,0,0:0:0:0:
64,192,166320,1,0,0:0:0:0:
448,192,166391,1,0,0:0:0:0:
320,192,166462,1,0,0:0:0:0:
192,192,166532,1,0,0:0:0:0:
64,192,166603,1,0,0:0:0:0:
320,192,166674,1,0,0:0:0:0:
192,192,166745,1,0,0:0:0:0:
448,192,166815,1,0,0:0:0:0:
320,192,166886,1,0,0:0:0:0:
192,192,166957,1,0,0:0:0:0:
448,192,167028,1,0,0:0:0:0:
320,192,167028,1,0,0:0:0:0:
64,192,167169,1,0,0:0:0:0:
320,192,167240,1,0,0:0:0:0:
64,192,167311,1,0,0:0:0:0:
192,192,167381,1,0,0:0:0:0:
320,192,167452,1,0,0:0:0:0:
448,192,167523,1,0,0:0:0:0:
64,192,167594,1,0,0:0:0:0:
192,192,167664,1,0,0:0:0:0:
448,192,167735,1,0,0:0:0:0:
320,192,167806,1,0,0:0:0:0:
192,192,167877,1,0,0:0:0:0:
448,192,167947,1,0,0:0:0:0:
64,192,168018,1,0,0:0:0:0:
192,192,168089,1,0,0:0:0:0:
320,192,168160,1,0,0:0:0:0:
448,192,168230,1,0,0:0:0:0:
192,192,168301,1,0,0:0:0:0:
320,192,168372,1,0,0:0:0:0:
64,192,168443,1,0,0:0:0:0:
192,192,168513,1,0,0:0:0:0:
320,192,168584,1,0,0:0:0:0:
448,192,168655,1,0,0:0:0:0:
64,192,168726,1,0,0:0:0:0:
192,192,168796,1,0,0:0:0:0:
320,192,168867,1,0,0:0:0:0:
192,192,168938,1,0,0:0:0:0:
64,192,169009,1,0,0:0:0:0:
448,192,169079,1,0,0:0:0:0:
320,192,169150,1,0,0:0:0:0:
192,192,169221,1,0,0:0:0:0:
320,192,169292,1,0,0:0:0:0:
64,192,169292,1,0,0:0:0:0:
448,192,169292,1,0,0:0:0:0:
192,192,169433,1,0,0:0:0:0:
64,192,169504,1,0,0:0:0:0:
448,192,169575,1,0,0:0:0:0:
320,192,169646,1,0,0:0:0:0:
192,192,169716,1,0,0:0:0:0:
64,192,169787,1,0,0:0:0:0:
448,192,169858,1,0,0:0:0:0:
192,192,169929,1,0,0:0:0:0:
320,192,169999,1,0,0:0:0:0:
64,192,170070,1,0,0:0:0:0:
192,192,170141,1,0,0:0:0:0:
320,192,170212,1,0,0:0:0:0:
448,192,170282,1,0,0:0:0:0:
64,192,170353,1,0,0:0:0:0:
320,192,170424,1,0,0:0:0:0:
192,192,170495,1,0,0:0:0:0:
448,192,170565,1,0,0:0:0:0:
320,192,170636,1,0,0:0:0:0:
192,192,170707,1,0,0:0:0:0:
64,192,170778,1,0,0:0:0:0:
448,192,170848,1,0,0:0:0:0:
192,192,170919,1,0,0:0:0:0:
320,192,170990,1,0,0:0:0:0:
64,192,171061,1,0,0:0:0:0:
192,192,171131,1,0,0:0:0:0:
448,192,171202,1,0,0:0:0:0:
320,192,171273,1,0,0:0:0:0:
64,192,171344,1,0,0:0:0:0:
192,192,171414,1,0,0:0:0:0:
320,192,171485,1,0,0:0:0:0:
448,192,171556,1,0,0:0:0:0:
64,192,171556,1,0,0:0:0:0:
192,192,171556,1,0,0:0:0:0:
320,192,171697,1,0,0:0:0:0:
192,192,171768,1,0,0:0:0:0:
64,192,171839,1,0,0:0:0:0:
448,192,171910,1,0,0:0:0:0:
320,192,171980,1,0,0:0:0:0:
192,192,172051,1,0,0:0:0:0:
448,192,172122,1,0,0:0:0:0:
64,192,172193,1,0,0:0:0:0:
192,192,172263,1,0,0:0:0:0:
320,192,172334,1,0,0:0:0:0:
448,192,172405,1,0,0:0:0:0:
192,192,172476,1,0,0:0:0:0:
320,192,172546,1,0,0:0:0:0:
64,192,172617,1,0,0:0:0:0:
192,192,172688,1,0,0:0:0:0:
448,192,172688,1,0,0:0:0:0:
320,192,172759,1,0,0:0:0:0:
192,192,172829,1,0,0:0:0:0:
64,192,172900,1,0,0:0:0:0:
448,192,172971,1,0,0:0:0:0:
320,192,173042,1,0,0:0:0:0:
192,192,173112,1,0,0:0:0:0:
64,192,173183,1,0,0:0:0:0:
448,192,173254,1,0,0:0:0:0:
320,192,173325,1,0,0:0:0:0:
192,192,173396,1,0,0:0:0:0:
64,192,173466,1,0,0:0:0:0:
448,192,173537,1,0,0:0:0:0:
192,192,173608,1,0,0:0:0:0:
320,192,173679,1,0,0:0:0:0:
448,192,173749,1,0,0:0:0:0:
64,192,173820,1,0,0:0:0:0:
192,192,173820,1,0,0:0:0:0:
320,192,173962,1,0,0:0:0:0:
448,192,174032,1,0,0:0:0:0:
64,192,174103,1,0,0:0:0:0:
192,192,174103,1,0,0:0:0:0:
320,192,174174,1,0,0:0:0:0:
448,192,174245,1,0,0:0:0:0:
64,192,174315,1,0,0:0:0:0:
320,192,174386,1,0,0:0:0:0:
192,192,174386,1,0,0:0:0:0:
448,192,174457,1,0,0:0:0:0:
64,192,174528,1,0,0:0:0:0:
192,192,174598,1,0,0:0:0:0:
448,192,174669,1,0,0:0:0:0:
320,192,174669,1,0,0:0:0:0:
192,192,174740,1,0,0:0:0:0:
64,192,174811,1,0,0:0:0:0:
448,192,174881,1,0,0:0:0:0:
64,192,174952,1,0,0:0:0:0:
320,192,174952,1,0,0:0:0:0:
192,192,175023,1,0,0:0:0:0:
448,192,175094,1,0,0:0:0:0:
320,192,175164,1,0,0:0:0:0:
192,192,175235,1,0,0:0:0:0:
64,192,175235,1,0,0:0:0:0:
320,192,175306,1,0,0:0:0:0:
448,192,175377,1,0,0:0:0:0:
64,192,175447,1,0,0:0:0:0:
320,192,175518,1,0,0:0:0:0:
192,192,175518,1,0,0:0:0:0:
448,192,175589,1,0,0:0:0:0:
64,192,175660,1,0,0:0:0:0:
192,192,175730,1,0,0:0:0:0:
320,192,175801,1,0,0:0:0:0:
448,192,175801,1,0,0:0:0:0:
192,192,175872,1,0,0:0:0:0:
64,192,175943,1,0,0:0:0:0:
448,192,176013,1,0,0:0:0:0:
192,192,176084,1,0,0:0:0:0:
64,192,176084,1,0,0:0:0:0:
320,192,176084,1,0,0:0:0:0:
448,192,176155,1,0,0:0:0:0:
64,192,176226,1,0,0:0:0:0:
192,192,176296,1,0,0:0:0:0:
320,192,176367,1,0,0:0:0:0:
448,192,176367,1,0,0:0:0:0:
192,192,176438,1,0,0:0:0:0:
64,192,176509,1,0,0:0:0:0:
448,192,176579,1,0,0:0:0:0:
320,192,176650,1,0,0:0:0:0:
192,192,176650,1,0,0:0:0:0:
64,192,176721,1,0,0:0:0:0:
448,192,176792,1,0,0:0:0:0:
320,192,176862,1,0,0:0:0:0:
192,192,176933,1,0,0:0:0:0:
64,192,176933,1,0,0:0:0:0:
320,192,177004,1,0,0:0:0:0:
448,192,177075,1,0,0:0:0:0:
192,192,177146,1,0,0:0:0:0:
64,192,177216,1,0,0:0:0:0:
320,192,177216,1,0,0:0:0:0:
448,192,177287,1,0,0:0:0:0:
192,192,177358,1,0,0:0:0:0:
320,192,177429,1,0,0:0:0:0:
448,192,177499,1,0,0:0:0:0:
64,192,177499,1,0,0:0:0:0:
320,192,177570,1,0,0:0:0:0:
192,192,177641,1,0,0:0:0:0:
64,192,177712,1,0,0:0:0:0:
448,192,177782,1,0,0:0:0:0:
320,192,177782,1,0,0:0:0:0:
192,192,177853,1,0,0:0:0:0:
64,192,177924,1,0,0:0:0:0:
320,192,177995,1,0,0:0:0:0:
448,192,178065,1,0,0:0:0:0:
192,192,178065,1,0,0:0:0:0:
64,192,178136,1,0,0:0:0:0:
448,192,178207,1,0,0:0:0:0:
320,192,178278,1,0,0:0:0:0:
192,192,178348,1,0,0:0:0:0:
64,192,178348,1,0,0:0:0:0:
448,192,178348,1,0,0:0:0:0:
320,192,178419,1,0,0:0:0:0:
192,192,178490,1,0,0:0:0:0:
64,192,178490,1,0,0:0:0:0:
448,192,178561,1,0,0:0:0:0:
320,192,178631,1,0,0:0:0:0:
64,192,178631,1,0,0:0:0:0:
192,192,178702,1,0,0:0:0:0:
320,192,178773,1,0,0:0:0:0:
448,192,178773,1,0,0:0:0:0:
192,192,178844,1,0,0:0:0:0:
64,192,178914,1,0,0:0:0:0:
448,192,178914,1,0,0:0:0:0:
320,192,178985,1,0,0:0:0:0:
192,192,179056,1,0,0:0:0:0:
64,192,179056,1,0,0:0:0:0:
448,192,179127,1,0,0:0:0:0:
320,192,179197,1,0,0:0:0:0:
192,192,179197,1,0,0:0:0:0:
64,192,179268,1,0,0:0:0:0:
320,192,179339,1,0,0:0:0:0:
448,192,179339,1,0,0:0:0:0:
64,192,179410,1,0,0:0:0:0:
192,192,179480,1,0,0:0:0:0:
448,192,179480,1,0,0:0:0:0:
320,192,179551,1,0,0:0:0:0:
192,192,179622,1,0,0:0:0:0:
64,192,179622,1,0,0:0:0:0:
448,192,179693,1,0,0:0:0:0:
320,192,179763,1,0,0:0:0:0:
192,192,179763,1,0,0:0:0:0:
64,192,179834,1,0,0:0:0:0:
448,192,179905,1,0,0:0:0:0:
320,192,179905,1,0,0:0:0:0:
192,192,179976,1,0,0:0:0:0:
320,192,180046,1,0,0:0:0:0:
448,192,180046,1,0,0:0:0:0:
64,192,180117,1,0,0:0:0:0:
192,192,180188,1,0,0:0:0:0:
320,192,180188,1,0,0:0:0:0:
448,192,180259,1,0,0:0:0:0:
192,192,180329,1,0,0:0:0:0:
64,192,180329,1,0,0:0:0:0:
320,192,180400,1,0,0:0:0:0:
64,192,180471,1,0,0:0:0:0:
448,192,180471,1,0,0:0:0:0:
192,192,180542,1,0,0:0:0:0:
320,192,180612,1,0,0:0:0:0:
448,192,180612,1,0,0:0:0:0:
192,192,180683,1,0,0:0:0:0:
64,192,180754,1,0,0:0:0:0:
448,192,180754,1,0,0:0:0:0:
320,192,180825,1,0,0:0:0:0:
192,192,180896,1,0,0:0:0:0:
64,192,180896,1,0,0:0:0:0:
448,192,180966,1,0,0:0:0:0:
192,192,181037,1,0,0:0:0:0:
64,192,181037,1,0,0:0:0:0:
448,192,181108,1,0,0:0:0:0:
192,192,181179,1,0,0:0:0:0:
320,192,181179,1,0,0:0:0:0:
64,192,181249,1,0,0:0:0:0:
448,192,181320,1,0,0:0:0:0:
320,192,181320,1,0,0:0:0:0:
192,192,181391,1,0,0:0:0:0:
64,192,181462,1,0,0:0:0:0:
448,192,181462,1,0,0:0:0:0:
320,192,181532,1,0,0:0:0:0:
192,192,181603,1,0,0:0:0:0:
64,192,181603,1,0,0:0:0:0:
320,192,181674,1,0,0:0:0:0:
448,192,181745,1,0,0:0:0:0:
64,192,181745,1,0,0:0:0:0:
192,192,181815,1,0,0:0:0:0:
320,192,181886,1,0,0:0:0:0:
448,192,181957,1,0,0:0:0:0:
192,192,182028,1,0,0:0:0:0:
64,192,182028,1,0,0:0:0:0:
448,192,182098,1,0,0:0:0:0:
320,192,182169,1,0,0:0:0:0:
192,192,182240,1,0,0:0:0:0:
64,192,182311,1,0,0:0:0:0:
448,192,182311,1,0,0:0:0:0:
320,192,182381,1,0,0:0:0:0:
192,192,182452,1,0,0:0:0:0:
64,192,182452,1,0,0:0:0:0:
448,192,182523,1,0,0:0:0:0:
320,192,182594,1,0,0:0:0:0:
192,192,182594,1,0,0:0:0:0:
64,192,182664,1,0,0:0:0:0:
320,192,182735,1,0,0:0:0:0:
448,192,182735,1,0,0:0:0:0:
192,192,182806,1,0,0:0:0:0:
64,192,182877,1,0,0:0:0:0:
448,192,182947,1,0,0:0:0:0:
320,192,183018,1,0,0:0:0:0:
192,192,183089,1,0,0:0:0:0:
64,192,183160,1,0,0:0:0:0:
320,192,183230,1,0,0:0:0:0:
448,192,183301,1,0,0:0:0:0:
64,192,183372,1,0,0:0:0:0:
320,192,183443,1,0,0:0:0:0:
192,192,183513,1,0,0:0:0:0:
64,192,183584,1,0,0:0:0:0:
448,192,183655,1,0,0:0:0:0:
320,192,183726,1,0,0:0:0:0:
192,192,183796,1,0,0:0:0:0:
64,192,183867,1,0,0:0:0:0:
448,192,183938,1,0,0:0:0:0:
192,192,184009,1,0,0:0:0:0:
64,192,184009,1,0,0:0:0:0:
320,192,184079,1,0,0:0:0:0:
448,192,184079,1,0,0:0:0:0:
192,192,184150,1,0,0:0:0:0:
64,192,184150,1,0,0:0:0:0:
320,192,184221,1,0,0:0:0:0:
448,192,184221,1,0,0:0:0:0:
64,192,184292,1,0,0:0:0:0:
192,192,184362,1,0,0:0:0:0:
320,192,184362,1,0,0:0:0:0:
448,192,184433,1,0,0:0:0:0:
64,192,184433,1,0,0:0:0:0:
192,192,184504,1,0,0:0:0:0:
320,192,184504,1,0,0:0:0:0:
448,192,184575,1,0,0:0:0:0:
64,192,184646,1,0,0:0:0:0:
448,192,184716,1,0,0:0:0:0:
64,192,184787,1,0,0:0:0:0:
448,192,184858,1,0,0:0:0:0:
64,192,184929,1,0,0:0:0:0:
192,192,184999,1,0,0:0:0:0:
320,192,185070,1,0,0:0:0:0:
64,192,185141,1,0,0:0:0:0:
448,192,185141,128,0,187122:0:0:0:0:
64,192,186131,128,0,187122:0:0:0:0:
192,192,187122,1,0,0:0:0:0:
320,192,187122,1,0,0:0:0:0:
64,192,187405,1,0,0:0:0:0:
320,192,187405,1,0,0:0:0:0:
192,192,187476,1,0,0:0:0:0:
448,192,187546,1,0,0:0:0:0:
320,192,187617,1,0,0:0:0:0:
192,192,187688,1,0,0:0:0:0:
64,192,187688,1,0,0:0:0:0:
448,192,187759,1,0,0:0:0:0:
320,192,187829,1,0,0:0:0:0:
192,192,187900,1,0,0:0:0:0:
64,192,187971,1,0,0:0:0:0:
320,192,187971,1,0,0:0:0:0:
448,192,188042,1,0,0:0:0:0:
64,192,188112,1,0,0:0:0:0:
192,192,188183,1,0,0:0:0:0:
320,192,188254,1,0,0:0:0:0:
448,192,188254,1,0,0:0:0:0:
64,192,188325,1,0,0:0:0:0:
192,192,188396,1,0,0:0:0:0:
320,192,188466,1,0,0:0:0:0:
448,192,188537,1,0,0:0:0:0:
192,192,188537,1,0,0:0:0:0:
64,192,188608,1,0,0:0:0:0:
448,192,188679,1,0,0:0:0:0:
320,192,188749,1,0,0:0:0:0:
192,192,188820,1,0,0:0:0:0:
64,192,188820,1,0,0:0:0:0:
320,192,188891,1,0,0:0:0:0:
448,192,188962,1,0,0:0:0:0:
192,192,189032,1,0,0:0:0:0:
320,192,189103,1,0,0:0:0:0:
64,192,189103,1,0,0:0:0:0:
448,192,189174,1,0,0:0:0:0:
64,192,189245,1,0,0:0:0:0:
192,192,189315,1,0,0:0:0:0:
320,192,189386,1,0,0:0:0:0:
448,192,189386,1,0,0:0:0:0:
64,192,189457,1,0,0:0:0:0:
192,192,189528,1,0,0:0:0:0:
448,192,189598,1,0,0:0:0:0:
320,192,189669,1,0,0:0:0:0:
64,192,189669,1,0,0:0:0:0:
192,192,189740,1,0,0:0:0:0:
320,192,189811,1,0,0:0:0:0:
448,192,189881,1,0,0:0:0:0:
64,192,189952,1,0,0:0:0:0:
192,192,189952,1,0,0:0:0:0:
320,192,190023,1,0,0:0:0:0:
448,192,190094,1,0,0:0:0:0:
64,192,190164,1,0,0:0:0:0:
192,192,190235,1,0,0:0:0:0:
320,192,190235,1,0,0:0:0:0:
448,192,190306,1,0,0:0:0:0:
64,192,190377,1,0,0:0:0:0:
192,192,190447,1,0,0:0:0:0:
320,192,190518,1,0,0:0:0:0:
448,192,190518,1,0,0:0:0:0:
192,192,190589,1,0,0:0:0:0:
64,192,190660,1,0,0:0:0:0:
448,192,190660,1,0,0:0:0:0:
320,192,190801,1,0,0:0:0:0:
192,192,190801,1,0,0:0:0:0:
448,192,190872,1,0,0:0:0:0:
64,192,190943,1,0,0:0:0:0:
192,192,191013,1,0,0:0:0:0:
320,192,191084,1,0,0:0:0:0:
448,192,191084,1,0,0:0:0:0:
192,192,191155,1,0,0:0:0:0:
64,192,191226,1,0,0:0:0:0:
448,192,191296,1,0,0:0:0:0:
320,192,191367,1,0,0:0:0:0:
192,192,191367,1,0,0:0:0:0:
64,192,191438,1,0,0:0:0:0:
448,192,191509,1,0,0:0:0:0:
320,192,191579,1,0,0:0:0:0:
192,192,191650,1,0,0:0:0:0:
64,192,191650,1,0,0:0:0:0:
448,192,191721,1,0,0:0:0:0:
320,192,191792,1,0,0:0:0:0:
192,192,191862,1,0,0:0:0:0:
64,192,191933,1,0,0:0:0:0:
448,192,191933,1,0,0:0:0:0:
192,192,192004,1,0,0:0:0:0:
320,192,192075,1,0,0:0:0:0:
448,192,192146,1,0,0:0:0:0:
64,192,192216,1,0,0:0:0:0:
192,192,192216,1,0,0:0:0:0:
320,192,192287,1,0,0:0:0:0:
448,192,192358,1,0,0:0:0:0:
64,192,192429,1,0,0:0:0:0:
192,192,192499,1,0,0:0:0:0:
448,192,192499,1,0,0:0:0:0:
320,192,192570,1,0,0:0:0:0:
192,192,192641,1,0,0:0:0:0:
64,192,192712,1,0,0:0:0:0:
320,192,192782,1,0,0:0:0:0:
448,192,192782,1,0,0:0:0:0:
192,192,192924,1,0,0:0:0:0:
64,192,193065,1,0,0:0:0:0:
448,192,193065,1,0,0:0:0:0:
320,192,193136,1,0,0:0:0:0:
192,192,193207,1,0,0:0:0:0:
64,192,193278,1,0,0:0:0:0:
320,192,193348,1,0,0:0:0:0:
448,192,193348,1,0,0:0:0:0:
192,192,193419,1,0,0:0:0:0:
64,192,193490,1,0,0:0:0:0:
320,192,193561,1,0,0:0:0:0:
448,192,193631,1,0,0:0:0:0:
192,192,193631,1,0,0:0:0:0:
64,192,193702,1,0,0:0:0:0:
320,192,193773,1,0,0:0:0:0:
448,192,193844,1,0,0:0:0:0:
192,192,193914,1,0,0:0:0:0:
64,192,193914,1,0,0:0:0:0:
320,192,193985,1,0,0:0:0:0:
448,192,194056,1,0,0:0:0:0:
64,192,194127,1,0,0:0:0:0:
192,192,194197,1,0,0:0:0:0:
320,192,194197,1,0,0:0:0:0:
448,192,194268,1,0,0:0:0:0:
64,192,194339,1,0,0:0:0:0:
192,192,194410,1,0,0:0:0:0:
320,192,194480,1,0,0:0:0:0:
448,192,194480,1,0,0:0:0:0:
192,192,194551,1,0,0:0:0:0:
64,192,194622,1,0,0:0:0:0:
448,192,194693,1,0,0:0:0:0:
320,192,194763,1,0,0:0:0:0:
192,192,194763,1,0,0:0:0:0:
64,192,194834,1,0,0:0:0:0:
448,192,194905,1,0,0:0:0:0:
320,192,194976,1,0,0:0:0:0:
192,192,195046,1,0,0:0:0:0:
64,192,195046,1,0,0:0:0:0:
320,192,195117,1,0,0:0:0:0:
448,192,195188,1,0,0:0:0:0:
64,192,195259,1,0,0:0:0:0:
192,192,195329,1,0,0:0:0:0:
320,192,195329,1,0,0:0:0:0:
448,192,195400,1,0,0:0:0:0:
64,192,195471,1,0,0:0:0:0:
192,192,195542,1,0,0:0:0:0:
320,192,195612,1,0,0:0:0:0:
448,192,195612,1,0,0:0:0:0:
192,192,195683,1,0,0:0:0:0:
64,192,195754,1,0,0:0:0:0:
448,192,195825,1,0,0:0:0:0:
320,192,195896,1,0,0:0:0:0:
192,192,195896,1,0,0:0:0:0:
64,192,195966,1,0,0:0:0:0:
448,192,196037,1,0,0:0:0:0:
320,192,196108,1,0,0:0:0:0:
192,192,196179,1,0,0:0:0:0:
64,192,196179,1,0,0:0:0:0:
320,192,196249,1,0,0:0:0:0:
448,192,196249,1,0,0:0:0:0:
192,192,196320,1,0,0:0:0:0:
64,192,196320,1,0,0:0:0:0:
320,192,196391,1,0,0:0:0:0:
448,192,196391,1,0,0:0:0:0:
192,192,196462,1,0,0:0:0:0:
64,192,196462,1,0,0:0:0:0:
320,192,196532,1,0,0:0:0:0:
448,192,196603,1,0,0:0:0:0:
192,192,196603,1,0,0:0:0:0:
64,192,196674,1,0,0:0:0:0:
320,192,196745,1,0,0:0:0:0:
448,192,196745,1,0,0:0:0:0:
192,192,196815,1,0,0:0:0:0:
64,192,196886,1,0,0:0:0:0:
320,192,196886,1,0,0:0:0:0:
448,192,196957,1,0,0:0:0:0:
192,192,197028,1,0,0:0:0:0:
64,192,197028,1,0,0:0:0:0:
320,192,197098,1,0,0:0:0:0:
448,192,197169,1,0,0:0:0:0:
64,192,197169,1,0,0:0:0:0:
192,192,197240,1,0,0:0:0:0:
320,192,197311,1,0,0:0:0:0:
448,192,197311,1,0,0:0:0:0:
64,192,197381,1,0,0:0:0:0:
192,192,197452,1,0,0:0:0:0:
320,192,197452,1,0,0:0:0:0:
448,192,197523,1,0,0:0:0:0:
192,192,197594,1,0,0:0:0:0:
64,192,197594,1,0,0:0:0:0:
448,192,197664,1,0,0:0:0:0:
320,192,197735,1,0,0:0:0:0:
64,192,197735,1,0,0:0:0:0:
192,192,197806,1,0,0:0:0:0:
320,192,197877,1,0,0:0:0:0:
448,192,197877,1,0,0:0:0:0:
64,192,197947,1,0,0:0:0:0:
192,192,198018,1,0,0:0:0:0:
448,192,198018,1,0,0:0:0:0:
320,192,198089,1,0,0:0:0:0:
192,192,198160,1,0,0:0:0:0:
64,192,198160,1,0,0:0:0:0:
448,192,198230,1,0,0:0:0:0:
320,192,198301,1,0,0:0:0:0:
192,192,198301,1,0,0:0:0:0:
64,192,198372,1,0,0:0:0:0:
320,192,198443,1,0,0:0:0:0:
448,192,198443,1,0,0:0:0:0:
192,192,198513,1,0,0:0:0:0:
64,192,198584,1,0,0:0:0:0:
448,192,198584,1,0,0:0:0:0:
320,192,198655,1,0,0:0:0:0:
192,192,198726,1,0,0:0:0:0:
64,192,198726,1,0,0:0:0:0:
320,192,198796,1,0,0:0:0:0:
448,192,198867,1,0,0:0:0:0:
64,192,198867,1,0,0:0:0:0:
192,192,198938,1,0,0:0:0:0:
320,192,199009,1,0,0:0:0:0:
448,192,199009,1,0,0:0:0:0:
192,192,199079,1,0,0:0:0:0:
64,192,199150,1,0,0:0:0:0:
320,192,199150,1,0,0:0:0:0:
448,192,199221,1,0,0:0:0:0:
192,192,199292,1,0,0:0:0:0:
64,192,199292,1,0,0:0:0:0:
320,192,199362,1,0,0:0:0:0:
448,192,199433,1,0,0:0:0:0:
192,192,199433,1,0,0:0:0:0:
64,192,199504,1,0,0:0:0:0:
320,192,199575,1,0,0:0:0:0:
448,192,199575,1,0,0:0:0:0:
64,192,199646,1,0,0:0:0:0:
192,192,199716,1,0,0:0:0:0:
320,192,199716,1,0,0:0:0:0:
448,192,199787,1,0,0:0:0:0:
64,192,199858,1,0,0:0:0:0:
192,192,199858,1,0,0:0:0:0:
320,192,199929,1,0,0:0:0:0:
448,192,199999,1,0,0:0:0:0:
192,192,199999,1,0,0:0:0:0:
64,192,200070,1,0,0:0:0:0:
320,192,200141,1,0,0:0:0:0:
448,192,200141,1,0,0:0:0:0:
192,192,200212,1,0,0:0:0:0:
64,192,200282,1,0,0:0:0:0:
448,192,200282,1,0,0:0:0:0:
320,192,200353,1,0,0:0:0:0:
192,192,200424,1,0,0:0:0:0:
64,192,200424,1,0,0:0:0:0:
320,192,200495,1,0,0:0:0:0:
448,192,200565,1,0,0:0:0:0:
64,192,200565,1,0,0:0:0:0:
192,192,200636,1,0,0:0:0:0:
320,192,200707,1,0,0:0:0:0:
448,192,200707,1,0,0:0:0:0:
64,192,200778,1,0,0:0:0:0:
192,192,200848,1,0,0:0:0:0:
320,192,200848,1,0,0:0:0:0:
448,192,200919,1,0,0:0:0:0:
192,192,200990,1,0,0:0:0:0:
64,192,200990,1,0,0:0:0:0:
320,192,201061,1,0,0:0:0:0:
448,192,201131,1,0,0:0:0:0:
192,192,201131,1,0,0:0:0:0:
64,192,201202,1,0,0:0:0:0:
320,192,201273,1,0,0:0:0:0:
448,192,201273,1,0,0:0:0:0:
192,192,201344,1,0,0:0:0:0:
64,192,201414,1,0,0:0:0:0:
448,192,201414,1,0,0:0:0:0:
320,192,201485,1,0,0:0:0:0:
192,192,201556,1,0,0:0:0:0:
64,192,201556,1,0,0:0:0:0:
448,192,201627,1,0,0:0:0:0:
320,192,201697,1,0,0:0:0:0:
192,192,201697,1,0,0:0:0:0:
64,192,201768,1,0,0:0:0:0:
320,192,201839,1,0,0:0:0:0:
448,192,201839,1,0,0:0:0:0:
192,192,201910,1,0,0:0:0:0:
64,192,201980,1,0,0:0:0:0:
448,192,201980,1,0,0:0:0:0:
320,192,202051,1,0,0:0:0:0:
192,192,202122,1,0,0:0:0:0:
64,192,202122,1,0,0:0:0:0:
320,192,202193,1,0,0:0:0:0:
448,192,202263,1,0,0:0:0:0:
192,192,202263,1,0,0:0:0:0:
64,192,202334,1,0,0:0:0:0:
320,192,202405,1,0,0:0:0:0:
448,192,202405,1,0,0:0:0:0:
64,192,202476,1,0,0:0:0:0:
192,192,202546,1,0,0:0:0:0:
320,192,202546,1,0,0:0:0:0:
448,192,202617,1,0,0:0:0:0:
64,192,202688,1,0,0:0:0:0:
192,192,202688,1,0,0:0:0:0:
320,192,202759,1,0,0:0:0:0:
448,192,202829,1,0,0:0:0:0:
192,192,202829,1,0,0:0:0:0:
64,192,202900,1,0,0:0:0:0:
320,192,202971,1,0,0:0:0:0:
448,192,202971,1,0,0:0:0:0:
192,192,203042,1,0,0:0:0:0:
64,192,203112,1,0,0:0:0:0:
448,192,203112,1,0,0:0:0:0:
320,192,203183,1,0,0:0:0:0:
192,192,203254,1,0,0:0:0:0:
64,192,203254,1,0,0:0:0:0:
448,192,203325,1,0,0:0:0:0:
320,192,203396,1,0,0:0:0:0:
64,192,203396,1,0,0:0:0:0:
192,192,203466,1,0,0:0:0:0:
320,192,203537,1,0,0:0:0:0:
448,192,203537,1,0,0:0:0:0:
64,192,203608,1,0,0:0:0:0:
192,192,203679,1,0,0:0:0:0:
320,192,203679,1,0,0:0:0:0:
448,192,203749,1,0,0:0:0:0:
192,192,203820,1,0,0:0:0:0:
64,192,203820,1,0,0:0:0:0:
448,192,203891,1,0,0:0:0:0:
320,192,203962,1,0,0:0:0:0:
64,192,203962,1,0,0:0:0:0:
192,192,204032,1,0,0:0:0:0:
320,192,204103,1,0,0:0:0:0:
448,192,204103,1,0,0:0:0:0:
192,192,204174,1,0,0:0:0:0:
64,192,204245,1,0,0:0:0:0:
448,192,204245,1,0,0:0:0:0:
320,192,204315,1,0,0:0:0:0:
192,192,204386,1,0,0:0:0:0:
64,192,204386,1,0,0:0:0:0:
448,192,204457,1,0,0:0:0:0:
320,192,204528,1,0,0:0:0:0:
192,192,204528,1,0,0:0:0:0:
64,192,204598,1,0,0:0:0:0:
320,192,204669,1,0,0:0:0:0:
448,192,204669,1,0,0:0:0:0:
192,192,204740,1,0,0:0:0:0:
64,192,204811,1,0,0:0:0:0:
448,192,204811,1,0,0:0:0:0:
320,192,204881,1,0,0:0:0:0:
192,192,204952,1,0,0:0:0:0:
64,192,204952,1,0,0:0:0:0:
320,192,205023,1,0,0:0:0:0:
448,192,205094,1,0,0:0:0:0:
192,192,205094,1,0,0:0:0:0:
64,192,205164,1,0,0:0:0:0:
320,192,205235,1,0,0:0:0:0:
448,192,205235,1,0,0:0:0:0:
192,192,205306,1,0,0:0:0:0:
64,192,205306,1,0,0:0:0:0:
448,192,205377,1,0,0:0:0:0:
320,192,205377,1,0,0:0:0:0:
64,192,205447,1,0,0:0:0:0:
192,192,205447,1,0,0:0:0:0:
320,192,205518,1,0,0:0:0:0:
448,192,205518,1,0,0:0:0:0:
64,192,205589,1,0,0:0:0:0:
192,192,205660,1,0,0:0:0:0:
320,192,205730,1,0,0:0:0:0:
448,192,205801,1,0,0:0:0:0:
64,192,205872,1,0,0:0:0:0:
192,192,205943,1,0,0:0:0:0:
320,192,206013,1,0,0:0:0:0:
64,192,206084,1,0,0:0:0:0:
192,192,206155,1,0,0:0:0:0:
448,192,206226,1,0,0:0:0:0:
320,192,206296,1,0,0:0:0:0:
192,192,206367,1,0,0:0:0:0:
64,192,206438,1,0,0:0:0:0:
448,192,206509,1,0,0:0:0:0:
320,192,206579,1,0,0:0:0:0:
64,192,206650,1,0,0:0:0:0:
192,192,206721,1,0,0:0:0:0:
320,192,206792,1,0,0:0:0:0:
448,192,206862,1,0,0:0:0:0:
192,192,206933,1,0,0:0:0:0:
64,192,207004,1,0,0:0:0:0:
448,192,207075,1,0,0:0:0:0:
192,192,207146,1,0,0:0:0:0:
320,192,207216,1,0,0:0:0:0:
192,192,207287,1,0,0:0:0:0:
64,192,207358,1,0,0:0:0:0:
448,192,207429,1,0,0:0:0:0:
320,192,207499,1,0,0:0:0:0:
192,192,207499,1,0,0:0:0:0:
64,192,207499,1,0,0:0:0:0:
64,192,207782,1,0,0:0:0:0:
320,192,207782,1,0,0:0:0:0:
448,192,207782,1,0,0:0:0:0:
192,192,207853,1,0,0:0:0:0:
320,192,207924,1,0,0:0:0:0:
448,192,207995,1,0,0:0:0:0:
192,192,208065,1,0,0:0:0:0:
64,192,208136,1,0,0:0:0:0:
448,192,208207,1,0,0:0:0:0:
320,192,208278,1,0,0:0:0:0:
192,192,208348,1,0,0:0:0:0:
64,192,208419,1,0,0:0:0:0:
320,192,208490,1,0,0:0:0:0:
448,192,208561,1,0,0:0:0:0:
64,192,208631,1,0,0:0:0:0:
192,192,208702,1,0,0:0:0:0:
320,192,208773,1,0,0:0:0:0:
448,192,208844,1,0,0:0:0:0:
64,192,208914,1,0,0:0:0:0:
192,192,208985,1,0,0:0:0:0:
320,192,209056,1,0,0:0:0:0:
448,192,209127,1,0,0:0:0:0:
192,192,209197,1,0,0:0:0:0:
320,192,209268,1,0,0:0:0:0:
448,192,209339,1,0,0:0:0:0:
64,192,209410,1,0,0:0:0:0:
192,192,209480,1,0,0:0:0:0:
320,192,209551,1,0,0:0:0:0:
448,192,209622,1,0,0:0:0:0:
64,192,209693,1,0,0:0:0:0:
192,192,209763,1,0,0:0:0:0:
448,192,209763,128,0,210046:0:0:0:0:
64,192,210046,1,0,0:0:0:0:
192,192,210046,1,0,0:0:0:0:
64,192,210329,1,0,0:0:0:0:
448,192,210329,1,0,0:0:0:0:
320,192,210329,1,0,0:0:0:0:
192,192,210471,1,0,0:0:0:0:
64,192,210754,1,0,0:0:0:0:
448,192,210754,1,0,0:0:0:0:
192,192,210896,1,0,0:0:0:0:
320,192,210966,1,0,0:0:0:0:
448,192,211037,1,0,0:0:0:0:
64,192,211108,1,0,0:0:0:0:
192,192,211179,1,0,0:0:0:0:
320,192,211179,1,0,0:0:0:0:
448,192,211249,1,0,0:0:0:0:
64,192,211320,1,0,0:0:0:0:
192,192,211391,1,0,0:0:0:0:
448,192,211462,1,0,0:0:0:0:
320,192,211532,1,0,0:0:0:0:
192,192,211603,1,0,0:0:0:0:
64,192,211674,1,0,0:0:0:0:
448,192,211745,1,0,0:0:0:0:
320,192,211815,1,0,0:0:0:0:
192,192,211886,1,0,0:0:0:0:
64,192,211957,1,0,0:0:0:0:
320,192,212028,1,0,0:0:0:0:
448,192,212098,1,0,0:0:0:0:
64,192,212169,1,0,0:0:0:0:
192,192,212240,1,0,0:0:0:0:
320,192,212311,1,0,0:0:0:0:
448,192,212311,1,0,0:0:0:0:
64,192,212311,1,0,0:0:0:0:
64,192,212594,1,0,0:0:0:0:
192,192,212594,1,0,0:0:0:0:
448,192,212594,1,0,0:0:0:0:
64,192,212735,1,0,0:0:0:0:
448,192,212877,1,0,0:0:0:0:
320,192,212877,1,0,0:0:0:0:
192,192,213018,1,0,0:0:0:0:
64,192,213018,1,0,0:0:0:0:
320,192,213160,1,0,0:0:0:0:
448,192,213160,1,0,0:0:0:0:
64,192,213160,1,0,0:0:0:0:
192,192,213230,1,0,0:0:0:0:
448,192,213301,1,0,0:0:0:0:
320,192,213372,1,0,0:0:0:0:
192,192,213443,1,0,0:0:0:0:
64,192,213443,1,0,0:0:0:0:
64,192,213726,1,0,0:0:0:0:
320,192,213726,1,0,0:0:0:0:
192,192,213796,1,0,0:0:0:0:
448,192,213867,1,0,0:0:0:0:
320,192,213938,1,0,0:0:0:0:
192,192,214009,1,0,0:0:0:0:
64,192,214009,1,0,0:0:0:0:
448,192,214009,1,0,0:0:0:0:
64,192,214150,1,0,0:0:0:0:
192,192,214221,1,0,0:0:0:0:
320,192,214292,1,0,0:0:0:0:
448,192,214362,1,0,0:0:0:0:
192,192,214433,1,0,0:0:0:0:
320,192,214504,1,0,0:0:0:0:
448,192,214575,1,0,0:0:0:0:
192,192,214575,1,0,0:0:0:0:
64,192,214575,1,0,0:0:0:0:
64,192,214787,1,0,0:0:0:0:
448,192,214858,1,0,0:0:0:0:
320,192,214858,1,0,0:0:0:0:
320,192,215141,1,0,0:0:0:0:
448,192,215141,1,0,0:0:0:0:
64,192,215141,1,0,0:0:0:0:
192,192,215353,1,0,0:0:0:0:
64,192,215424,1,0,0:0:0:0:
448,192,215424,1,0,0:0:0:0:
320,192,215707,1,0,0:0:0:0:
192,192,215707,1,0,0:0:0:0:
64,192,215707,1,0,0:0:0:0:
448,192,215919,1,0,0:0:0:0:
320,192,215990,1,0,0:0:0:0:
64,192,215990,1,0,0:0:0:0:
192,192,216273,1,0,0:0:0:0:
64,192,216273,1,0,0:0:0:0:
448,192,216273,1,0,0:0:0:0:
320,192,216485,1,0,0:0:0:0:
192,192,216556,1,0,0:0:0:0:
64,192,216556,1,0,0:0:0:0:
448,192,216839,1,0,0:0:0:0:
64,192,216839,1,0,0:0:0:0:
192,192,216910,1,0,0:0:0:0:
320,192,216980,1,0,0:0:0:0:
448,192,217051,1,0,0:0:0:0:
192,192,217122,1,0,0:0:0:0:
64,192,217122,1,0,0:0:0:0:
320,192,217193,1,0,0:0:0:0:
448,192,217263,1,0,0:0:0:0:
64,192,217334,1,0,0:0:0:0:
192,192,217405,1,0,0:0:0:0:
320,192,217405,1,0,0:0:0:0:
448,192,217476,1,0,0:0:0:0:
192,192,217546,1,0,0:0:0:0:
64,192,217617,1,0,0:0:0:0:
320,192,217688,1,0,0:0:0:0:
448,192,217688,1,0,0:0:0:0:
192,192,217759,1,0,0:0:0:0:
64,192,217829,1,0,0:0:0:0:
448,192,217900,1,0,0:0:0:0:
320,192,217971,1,0,0:0:0:0:
192,192,217971,1,0,0:0:0:0:
64,192,218042,1,0,0:0:0:0:
320,192,218112,1,0,0:0:0:0:
448,192,218112,1,0,0:0:0:0:
192,192,218183,1,0,0:0:0:0:
64,192,218254,1,0,0:0:0:0:
320,192,218254,1,0,0:0:0:0:
448,192,218325,1,0,0:0:0:0:
64,192,218396,1,0,0:0:0:0:
192,192,218396,1,0,0:0:0:0:
320,192,218466,1,0,0:0:0:0:
448,192,218537,1,0,0:0:0:0:
64,192,218537,1,0,0:0:0:0:
192,192,218608,1,0,0:0:0:0:
320,192,218679,1,0,0:0:0:0:
448,192,218679,1,0,0:0:0:0:
64,192,218749,1,0,0:0:0:0:
192,192,218820,1,0,0:0:0:0:
320,192,218820,1,0,0:0:0:0:
448,192,218891,1,0,0:0:0:0:
64,192,218962,1,0,0:0:0:0:
192,192,218962,1,0,0:0:0:0:
320,192,219032,1,0,0:0:0:0:
448,192,219103,128,0,219386:0:0:0:0:
64,192,219386,1,0,0:0:0:0:
192,192,219386,1,0,0:0:0:0:
320,192,219457,1,0,0:0:0:0:
448,192,219528,1,0,0:0:0:0:
192,192,219528,1,0,0:0:0:0:
64,192,219598,1,0,0:0:0:0:
448,192,219669,1,0,0:0:0:0:
320,192,219740,1,0,0:0:0:0:
192,192,219811,1,0,0:0:0:0:
64,192,219811,1,0,0:0:0:0:
448,192,219881,1,0,0:0:0:0:
320,192,219952,1,0,0:0:0:0:
64,192,220023,1,0,0:0:0:0:
192,192,220094,1,0,0:0:0:0:
320,192,220164,1,0,0:0:0:0:
448,192,220235,1,0,0:0:0:0:
192,192,220235,1,0,0:0:0:0:
64,192,220306,1,0,0:0:0:0:
448,192,220377,1,0,0:0:0:0:
320,192,220447,1,0,0:0:0:0:
192,192,220518,1,0,0:0:0:0:
64,192,220589,1,0,0:0:0:0:
448,192,220660,1,0,0:0:0:0:
320,192,220730,1,0,0:0:0:0:
192,192,220801,1,0,0:0:0:0:
448,192,220872,1,0,0:0:0:0:
64,192,220943,1,0,0:0:0:0:
192,192,221013,1,0,0:0:0:0:
320,192,221084,1,0,0:0:0:0:
448,192,221155,1,0,0:0:0:0:
64,192,221226,1,0,0:0:0:0:
192,192,221296,1,0,0:0:0:0:
320,192,221367,1,0,0:0:0:0:
448,192,221367,1,0,0:0:0:0:
192,192,221438,1,0,0:0:0:0:
64,192,221509,1,0,0:0:0:0:
320,192,221579,1,0,0:0:0:0:
192,192,221650,1,0,0:0:0:0:
448,192,221650,1,0,0:0:0:0:
448,192,221792,1,0,0:0:0:0:
64,192,221792,1,0,0:0:0:0:
320,192,221792,1,0,0:0:0:0:
192,192,222075,1,0,0:0:0:0:
64,192,222075,1,0,0:0:0:0:
320,192,222075,1,0,0:0:0:0:
64,192,222216,1,0,0:0:0:0:
448,192,222216,1,0,0:0:0:0:
192,192,222287,1,0,0:0:0:0:
448,192,222358,1,0,0:0:0:0:
320,192,222358,1,0,0:0:0:0:
64,192,222429,1,0,0:0:0:0:
192,192,222499,1,0,0:0:0:0:
320,192,222499,1,0,0:0:0:0:
448,192,222499,1,0,0:0:0:0:
320,192,222641,1,0,0:0:0:0:
192,192,222712,1,0,0:0:0:0:
64,192,222782,1,0,0:0:0:0:
448,192,222853,1,0,0:0:0:0:
320,192,222924,1,0,0:0:0:0:
192,192,222995,1,0,0:0:0:0:
320,192,223065,1,0,0:0:0:0:
448,192,223065,1,0,0:0:0:0:
64,192,223065,1,0,0:0:0:0:
192,192,223207,1,0,0:0:0:0:
320,192,223278,1,0,0:0:0:0:
448,192,223348,1,0,0:0:0:0:
64,192,223348,1,0,0:0:0:0:
192,192,223419,1,0,0:0:0:0:
320,192,223490,1,0,0:0:0:0:
448,192,223490,1,0,0:0:0:0:
64,192,223561,1,0,0:0:0:0:
192,192,223631,1,0,0:0:0:0:
320,192,223631,1,0,0:0:0:0:
448,192,223631,1,0,0:0:0:0:
64,192,223844,1,0,0:0:0:0:
192,192,223914,1,0,0:0:0:0:
448,192,223914,1,0,0:0:0:0:
192,192,224197,1,0,0:0:0:0:
64,192,224197,1,0,0:0:0:0:
320,192,224197,1,0,0:0:0:0:
448,192,224410,1,0,0:0:0:0:
320,192,224480,1,0,0:0:0:0:
192,192,224480,1,0,0:0:0:0:
64,192,224763,1,0,0:0:0:0:
320,192,224763,1,0,0:0:0:0:
448,192,224763,1,0,0:0:0:0:
192,192,224976,1,0,0:0:0:0:
64,192,225046,1,0,0:0:0:0:
448,192,225046,1,0,0:0:0:0:
320,192,225329,1,0,0:0:0:0:
192,192,225329,1,0,0:0:0:0:
64,192,225329,1,0,0:0:0:0:
448,192,225542,1,0,0:0:0:0:
192,192,225612,1,0,0:0:0:0:
64,192,225612,1,0,0:0:0:0:
320,192,225896,1,0,0:0:0:0:
448,192,225896,1,0,0:0:0:0:
192,192,225966,1,0,0:0:0:0:
64,192,226037,1,0,0:0:0:0:
320,192,226108,1,0,0:0:0:0:
192,192,226179,1,0,0:0:0:0:
448,192,226179,1,0,0:0:0:0:
64,192,226249,1,0,0:0:0:0:
320,192,226320,1,0,0:0:0:0:
192,192,226391,1,0,0:0:0:0:
64,192,226462,1,0,0:0:0:0:
320,192,226462,1,0,0:0:0:0:
448,192,226532,1,0,0:0:0:0:
64,192,226603,1,0,0:0:0:0:
192,192,226674,1,0,0:0:0:0:
320,192,226745,1,0,0:0:0:0:
448,192,226745,1,0,0:0:0:0:
64,192,226815,1,0,0:0:0:0:
192,192,226886,1,0,0:0:0:0:
320,192,226957,1,0,0:0:0:0:
448,192,227028,1,0,0:0:0:0:
192,192,227028,1,0,0:0:0:0:
64,192,227098,1,0,0:0:0:0:
320,192,227169,1,0,0:0:0:0:
448,192,227169,1,0,0:0:0:0:
192,192,227240,1,0,0:0:0:0:
64,192,227311,1,0,0:0:0:0:
320,192,227311,1,0,0:0:0:0:
448,192,227381,1,0,0:0:0:0:
192,192,227452,1,0,0:0:0:0:
64,192,227452,1,0,0:0:0:0:
320,192,227523,1,0,0:0:0:0:
448,192,227594,1,0,0:0:0:0:
64,192,227594,1,0,0:0:0:0:
192,192,227664,1,0,0:0:0:0:
320,192,227735,1,0,0:0:0:0:
448,192,227735,1,0,0:0:0:0:
192,192,227806,1,0,0:0:0:0:
64,192,227877,1,0,0:0:0:0:
320,192,227877,1,0,0:0:0:0:
448,192,227947,1,0,0:0:0:0:
192,192,228018,1,0,0:0:0:0:
64,192,228018,1,0,0:0:0:0:
320,192,228089,1,0,0:0:0:0:
448,192,228160,1,0,0:0:0:0:
64,192,228160,1,0,0:0:0:0:
192,192,228230,1,0,0:0:0:0:
320,192,228301,1,0,0:0:0:0:
448,192,228301,1,0,0:0:0:0:
64,192,228372,1,0,0:0:0:0:
192,192,228443,1,0,0:0:0:0:
320,192,228443,1,0,0:0:0:0:
448,192,228513,1,0,0:0:0:0:
64,192,228584,1,0,0:0:0:0:
192,192,228584,1,0,0:0:0:0:
320,192,228655,1,0,0:0:0:0:
448,192,228726,1,0,0:0:0:0:
64,192,228726,1,0,0:0:0:0:
192,192,228796,1,0,0:0:0:0:
320,192,228867,1,0,0:0:0:0:
448,192,228867,1,0,0:0:0:0:
64,192,228938,1,0,0:0:0:0:
192,192,229009,1,0,0:0:0:0:
320,192,229009,1,0,0:0:0:0:
448,192,229079,1,0,0:0:0:0:
64,192,229150,1,0,0:0:0:0:
192,192,229150,1,0,0:0:0:0:
320,192,229221,1,0,0:0:0:0:
448,192,229292,1,0,0:0:0:0:
192,192,229292,1,0,0:0:0:0:
64,192,229362,1,0,0:0:0:0:
448,192,229433,1,0,0:0:0:0:
320,192,229504,1,0,0:0:0:0:
192,192,229575,1,0,0:0:0:0:
64,192,229646,1,0,0:0:0:0:
448,192,229716,1,0,0:0:0:0:
320,192,229787,1,0,0:0:0:0:
64,192,229858,1,0,0:0:0:0:
320,192,229929,1,0,0:0:0:0:
192,192,229999,1,0,0:0:0:0:
64,192,230070,1,0,0:0:0:0:
448,192,230141,1,0,0:0:0:0:
320,192,230212,1,0,0:0:0:0:
192,192,230282,1,0,0:0:0:0:
64,192,230353,1,0,0:0:0:0:
448,192,230424,1,0,0:0:0:0:
320,192,230495,1,0,0:0:0:0:
192,192,230565,1,0,0:0:0:0:
64,192,230636,1,0,0:0:0:0:
448,192,230707,1,0,0:0:0:0:
320,192,230778,1,0,0:0:0:0:
192,192,230848,1,0,0:0:0:0:
64,192,230919,1,0,0:0:0:0:
448,192,230990,1,0,0:0:0:0:
64,192,231061,1,0,0:0:0:0:
448,192,231131,1,0,0:0:0:0:
64,192,231202,1,0,0:0:0:0:
320,192,231273,1,0,0:0:0:0:
192,192,231273,1,0,0:0:0:0:
448,192,231273,1,0,0:0:0:0:
192,192,231556,1,0,0:0:0:0:
64,192,231556,1,0,0:0:0:0:
448,192,231556,1,0,0:0:0:0:
320,192,231697,1,0,0:0:0:0:
192,192,231768,1,0,0:0:0:0:
448,192,231839,1,0,0:0:0:0:
64,192,231839,1,0,0:0:0:0:
192,192,231980,1,0,0:0:0:0:
320,192,232051,1,0,0:0:0:0:
64,192,232122,1,0,0:0:0:0:
448,192,232122,1,0,0:0:0:0:
320,192,232263,1,0,0:0:0:0:
192,192,232334,1,0,0:0:0:0:
448,192,232405,1,0,0:0:0:0:
320,192,232405,1,0,0:0:0:0:
64,192,232546,1,0,0:0:0:0:
448,192,232617,1,0,0:0:0:0:
64,192,232688,1,0,0:0:0:0:
192,192,232688,1,0,0:0:0:0:
320,192,232829,1,0,0:0:0:0:
192,192,232900,1,0,0:0:0:0:
64,192,232971,1,0,0:0:0:0:
448,192,232971,1,0,0:0:0:0:
320,192,233112,1,0,0:0:0:0:
192,192,233183,1,0,0:0:0:0:
448,192,233254,1,0,0:0:0:0:
320,192,233254,1,0,0:0:0:0:
64,192,233396,1,0,0:0:0:0:
448,192,233466,1,0,0:0:0:0:
64,192,233537,1,0,0:0:0:0:
192,192,233537,1,0,0:0:0:0:
320,192,233679,1,0,0:0:0:0:
192,192,233749,1,0,0:0:0:0:
448,192,233820,1,0,0:0:0:0:
64,192,233820,1,0,0:0:0:0:
192,192,233962,1,0,0:0:0:0:
320,192,234032,1,0,0:0:0:0:
192,192,234103,1,0,0:0:0:0:
448,192,234103,1,0,0:0:0:0:
64,192,234245,1,0,0:0:0:0:
448,192,234315,1,0,0:0:0:0:
192,192,234386,1,0,0:0:0:0:
320,192,234386,1,0,0:0:0:0:
64,192,234528,1,0,0:0:0:0:
192,192,234598,1,0,0:0:0:0:
448,192,234669,1,0,0:0:0:0:
320,192,234669,1,0,0:0:0:0:
64,192,234811,1,0,0:0:0:0:
448,192,234881,1,0,0:0:0:0:
64,192,234952,1,0,0:0:0:0:
320,192,234952,1,0,0:0:0:0:
192,192,235094,1,0,0:0:0:0:
320,192,235164,1,0,0:0:0:0:
64,192,235235,1,0,0:0:0:0:
448,192,235235,1,0,0:0:0:0:
192,192,235377,1,0,0:0:0:0:
448,192,235447,1,0,0:0:0:0:
64,192,235518,1,0,0:0:0:0:
320,192,235518,1,0,0:0:0:0:
448,192,235660,1,0,0:0:0:0:
320,192,235730,1,0,0:0:0:0:
64,192,235801,1,0,0:0:0:0:
192,192,235801,1,0,0:0:0:0:
448,192,235872,1,0,0:0:0:0:
320,192,235943,1,0,0:0:0:0:
192,192,236013,1,0,0:0:0:0:
448,192,236084,1,0,0:0:0:0:
64,192,236084,1,0,0:0:0:0:
320,192,236226,1,0,0:0:0:0:
64,192,236296,1,0,0:0:0:0:
448,192,236367,1,0,0:0:0:0:
192,192,236367,1,0,0:0:0:0:
192,192,236509,1,0,0:0:0:0:
320,192,236579,1,0,0:0:0:0:
448,192,236650,1,0,0:0:0:0:
64,192,236650,1,0,0:0:0:0:
192,192,236792,1,0,0:0:0:0:
320,192,236862,1,0,0:0:0:0:
64,192,236933,1,0,0:0:0:0:
192,192,236933,1,0,0:0:0:0:
448,192,237075,1,0,0:0:0:0:
64,192,237146,1,0,0:0:0:0:
448,192,237216,1,0,0:0:0:0:
320,192,237216,1,0,0:0:0:0:
64,192,237358,1,0,0:0:0:0:
192,192,237429,1,0,0:0:0:0:
448,192,237499,1,0,0:0:0:0:
320,192,237499,1,0,0:0:0:0:
192,192,237641,1,0,0:0:0:0:
320,192,237712,1,0,0:0:0:0:
64,192,237782,1,0,0:0:0:0:
448,192,237782,1,0,0:0:0:0:
320,192,237924,1,0,0:0:0:0:
192,192,237995,1,0,0:0:0:0:
448,192,238065,1,0,0:0:0:0:
64,192,238065,1,0,0:0:0:0:
320,192,238207,1,0,0:0:0:0:
192,192,238278,1,0,0:0:0:0:
448,192,238348,1,0,0:0:0:0:
320,192,238348,1,0,0:0:0:0:
64,192,238490,1,0,0:0:0:0:
192,192,238561,1,0,0:0:0:0:
64,192,238631,1,0,0:0:0:0:
320,192,238631,1,0,0:0:0:0:
448,192,238773,1,0,0:0:0:0:
64,192,238844,1,0,0:0:0:0:
320,192,238914,1,0,0:0:0:0:
192,192,238914,1,0,0:0:0:0:
448,192,239056,1,0,0:0:0:0:
64,192,239127,1,0,0:0:0:0:
448,192,239197,1,0,0:0:0:0:
320,192,239197,1,0,0:0:0:0:
192,192,239339,1,0,0:0:0:0:
320,192,239410,1,0,0:0:0:0:
64,192,239480,1,0,0:0:0:0:
448,192,239480,1,0,0:0:0:0:
320,192,239622,1,0,0:0:0:0:
192,192,239693,1,0,0:0:0:0:
320,192,239763,1,0,0:0:0:0:
448,192,239763,1,0,0:0:0:0:
64,192,239905,1,0,0:0:0:0:
320,192,240046,1,0,0:0:0:0:
192,192,240046,1,0,0:0:0:0:
448,192,240188,1,0,0:0:0:0:
64,192,240329,1,0,0:0:0:0:
192,192,240329,1,0,0:0:0:0:
448,192,240471,1,0,0:0:0:0:
192,192,240612,1,0,0:0:0:0:
64,192,240612,1,0,0:0:0:0:
320,192,240612,1,0,0:0:0:0:
448,192,240754,1,0,0:0:0:0:
64,192,240825,1,0,0:0:0:0:
192,192,240896,1,0,0:0:0:0:
320,192,240896,1,0,0:0:0:0:
448,192,241037,1,0,0:0:0:0:
192,192,241108,1,0,0:0:0:0:
448,192,241179,1,0,0:0:0:0:
320,192,241179,1,0,0:0:0:0:
64,192,241320,1,0,0:0:0:0:
192,192,241391,1,0,0:0:0:0:
448,192,241462,1,0,0:0:0:0:
320,192,241532,1,0,0:0:0:0:
192,192,241603,1,0,0:0:0:0:
64,192,241674,1,0,0:0:0:0:
448,192,241745,1,0,0:0:0:0:
320,192,241745,1,0,0:0:0:0:
192,192,241815,1,0,0:0:0:0:
64,192,241886,1,0,0:0:0:0:
448,192,241957,1,0,0:0:0:0:
320,192,242028,1,0,0:0:0:0:
192,192,242028,1,0,0:0:0:0:
64,192,242098,1,0,0:0:0:0:
448,192,242169,1,0,0:0:0:0:
320,192,242240,1,0,0:0:0:0:
192,192,242311,1,0,0:0:0:0:
64,192,242311,1,0,0:0:0:0:
64,192,242452,1,0,0:0:0:0:
192,192,242523,1,0,0:0:0:0:
448,192,242594,1,0,0:0:0:0:
320,192,242594,1,0,0:0:0:0:
64,192,242735,1,0,0:0:0:0:
448,192,242806,1,0,0:0:0:0:
64,192,242877,1,0,0:0:0:0:
320,192,242877,1,0,0:0:0:0:
192,192,243018,1,0,0:0:0:0:
320,192,243089,1,0,0:0:0:0:
64,192,243160,1,0,0:0:0:0:
448,192,243160,1,0,0:0:0:0:
192,192,243301,1,0,0:0:0:0:
320,192,243372,1,0,0:0:0:0:
448,192,243443,1,0,0:0:0:0:
192,192,243443,1,0,0:0:0:0:
64,192,243584,1,0,0:0:0:0:
192,192,243655,1,0,0:0:0:0:
320,192,243726,1,0,0:0:0:0:
448,192,243796,1,0,0:0:0:0:
64,192,243867,1,0,0:0:0:0:
192,192,243938,1,0,0:0:0:0:
448,192,244009,1,0,0:0:0:0:
320,192,244009,1,0,0:0:0:0:
64,192,244079,1,0,0:0:0:0:
192,192,244150,1,0,0:0:0:0:
448,192,244221,1,0,0:0:0:0:
320,192,244292,1,0,0:0:0:0:
64,192,244292,1,0,0:0:0:0:
192,192,244362,1,0,0:0:0:0:
448,192,244433,1,0,0:0:0:0:
320,192,244504,1,0,0:0:0:0:
192,192,244575,1,0,0:0:0:0:
64,192,244575,1,0,0:0:0:0:
448,192,244646,1,0,0:0:0:0:
320,192,244716,1,0,0:0:0:0:
192,192,244787,1,0,0:0:0:0:
64,192,244858,1,0,0:0:0:0:
448,192,244929,1,0,0:0:0:0:
192,192,244999,1,0,0:0:0:0:
320,192,245070,1,0,0:0:0:0:
64,192,245141,1,0,0:0:0:0:
448,192,245141,1,0,0:0:0:0:
320,192,245282,1,0,0:0:0:0:
192,192,245353,1,0,0:0:0:0:
448,192,245424,1,0,0:0:0:0:
320,192,245424,1,0,0:0:0:0:
64,192,245565,1,0,0:0:0:0:
192,192,245636,1,0,0:0:0:0:
320,192,245707,1,0,0:0:0:0:
64,192,245707,1,0,0:0:0:0:
192,192,245848,1,0,0:0:0:0:
320,192,245919,1,0,0:0:0:0:
448,192,245990,1,0,0:0:0:0:
64,192,245990,1,0,0:0:0:0:
320,192,246131,1,0,0:0:0:0:
192,192,246202,1,0,0:0:0:0:
448,192,246273,1,0,0:0:0:0:
64,192,246273,1,0,0:0:0:0:
64,192,246556,1,0,0:0:0:0:
320,192,246556,1,0,0:0:0:0:
192,192,246839,1,0,0:0:0:0:
64,192,246839,1,0,0:0:0:0:
448,192,247122,1,0,0:0:0:0:
320,192,247122,1,0,0:0:0:0:
64,192,247405,1,0,0:0:0:0:
448,192,247405,1,0,0:0:0:0:
192,192,247546,1,0,0:0:0:0:
320,192,247688,1,0,0:0:0:0:
448,192,247688,1,0,0:0:0:0:
64,192,247759,1,0,0:0:0:0:
192,192,247829,1,0,0:0:0:0:
448,192,247900,1,0,0:0:0:0:
320,192,247971,1,0,0:0:0:0:
192,192,248042,1,0,0:0:0:0:
64,192,248112,1,0,0:0:0:0:
448,192,248183,1,0,0:0:0:0:
320,192,248254,1,0,0:0:0:0:
192,192,248254,1,0,0:0:0:0:
64,192,248396,1,0,0:0:0:0:
192,192,248466,1,0,0:0:0:0:
448,192,248537,1,0,0:0:0:0:
320,192,248537,1,0,0:0:0:0:
64,192,248679,1,0,0:0:0:0:
192,192,248749,1,0,0:0:0:0:
320,192,248820,1,0,0:0:0:0:
448,192,248891,1,0,0:0:0:0:
192,192,248962,1,0,0:0:0:0:
320,192,249032,1,0,0:0:0:0:
64,192,249103,1,0,0:0:0:0:
192,192,249174,1,0,0:0:0:0:
448,192,249245,1,0,0:0:0:0:
320,192,249315,1,0,0:0:0:0:
192,192,249386,1,0,0:0:0:0:
64,192,249457,1,0,0:0:0:0:
448,192,249528,1,0,0:0:0:0:
320,192,249598,1,0,0:0:0:0:
448,192,249669,1,0,0:0:0:0:
64,192,249669,1,0,0:0:0:0:
192,192,249669,1,0,0:0:0:0:
192,192,249811,1,0,0:0:0:0:
320,192,249881,1,0,0:0:0:0:
64,192,249952,1,0,0:0:0:0:
448,192,249952,1,0,0:0:0:0:
192,192,250094,1,0,0:0:0:0:
320,192,250164,1,0,0:0:0:0:
192,192,250235,1,0,0:0:0:0:
64,192,250235,1,0,0:0:0:0:
448,192,250377,1,0,0:0:0:0:
64,192,250447,1,0,0:0:0:0:
448,192,250518,1,0,0:0:0:0:
320,192,250518,1,0,0:0:0:0:
192,192,250660,1,0,0:0:0:0:
320,192,250730,1,0,0:0:0:0:
64,192,250801,1,0,0:0:0:0:
448,192,250801,1,0,0:0:0:0:
192,192,250943,1,0,0:0:0:0:
320,192,251013,1,0,0:0:0:0:
448,192,251084,1,0,0:0:0:0:
64,192,251155,1,0,0:0:0:0:
192,192,251226,1,0,0:0:0:0:
448,192,251296,1,0,0:0:0:0:
320,192,251367,1,0,0:0:0:0:
192,192,251438,1,0,0:0:0:0:
64,192,251509,1,0,0:0:0:0:
448,192,251579,1,0,0:0:0:0:
320,192,251650,1,0,0:0:0:0:
192,192,251721,1,0,0:0:0:0:
64,192,251792,1,0,0:0:0:0:
448,192,251862,1,0,0:0:0:0:
64,192,251933,1,0,0:0:0:0:
192,192,251933,1,0,0:0:0:0:
192,192,252075,1,0,0:0:0:0:
320,192,252146,1,0,0:0:0:0:
448,192,252216,1,0,0:0:0:0:
64,192,252216,1,0,0:0:0:0:
64,192,252358,1,0,0:0:0:0:
192,192,252429,1,0,0:0:0:0:
448,192,252499,1,0,0:0:0:0:
320,192,252499,1,0,0:0:0:0:
64,192,252641,1,0,0:0:0:0:
192,192,252712,1,0,0:0:0:0:
320,192,252782,1,0,0:0:0:0:
448,192,252782,1,0,0:0:0:0:
448,192,252924,1,0,0:0:0:0:
320,192,252995,1,0,0:0:0:0:
64,192,253065,1,0,0:0:0:0:
192,192,253065,1,0,0:0:0:0:
64,192,253207,1,0,0:0:0:0:
448,192,253348,1,0,0:0:0:0:
320,192,253348,1,0,0:0:0:0:
64,192,253490,1,0,0:0:0:0:
320,192,253631,1,0,0:0:0:0:
192,192,253631,1,0,0:0:0:0:
448,192,253773,1,0,0:0:0:0:
64,192,253914,1,0,0:0:0:0:
192,192,253914,1,0,0:0:0:0:
320,192,253985,1,0,0:0:0:0:
192,192,254056,1,0,0:0:0:0:
448,192,254056,1,0,0:0:0:0:
64,192,254127,1,0,0:0:0:0:
448,192,254197,1,0,0:0:0:0:
320,192,254197,1,0,0:0:0:0:
64,192,254339,1,0,0:0:0:0:
192,192,254410,1,0,0:0:0:0:
320,192,254480,1,0,0:0:0:0:
448,192,254551,1,0,0:0:0:0:
64,192,254622,1,0,0:0:0:0:
320,192,254693,1,0,0:0:0:0:
448,192,254763,1,0,0:0:0:0:
192,192,254763,1,0,0:0:0:0:
64,192,254834,1,0,0:0:0:0:
320,192,254905,1,0,0:0:0:0:
192,192,254976,1,0,0:0:0:0:
64,192,255046,1,0,0:0:0:0:
320,192,255117,1,0,0:0:0:0:
448,192,255188,1,0,0:0:0:0:
64,192,255259,1,0,0:0:0:0:
320,192,255329,1,0,0:0:0:0:
192,192,255329,1,0,0:0:0:0:
192,192,255471,1,0,0:0:0:0:
320,192,255542,1,0,0:0:0:0:
448,192,255612,1,0,0:0:0:0:
64,192,255612,1,0,0:0:0:0:
192,192,255754,1,0,0:0:0:0:
320,192,255825,1,0,0:0:0:0:
64,192,255896,1,0,0:0:0:0:
192,192,255896,1,0,0:0:0:0:
448,192,256037,1,0,0:0:0:0:
64,192,256179,1,0,0:0:0:0:
192,192,256179,1,0,0:0:0:0:
320,192,256320,1,0,0:0:0:0:
64,192,256462,1,0,0:0:0:0:
448,192,256462,1,0,0:0:0:0:
64,192,256603,1,0,0:0:0:0:
192,192,256674,1,0,0:0:0:0:
320,192,256745,1,0,0:0:0:0:
448,192,256815,1,0,0:0:0:0:
64,192,256886,1,0,0:0:0:0:
192,192,256957,1,0,0:0:0:0:
448,192,257028,1,0,0:0:0:0:
320,192,257028,1,0,0:0:0:0:
192,192,257098,1,0,0:0:0:0:
64,192,257169,1,0,0:0:0:0:
448,192,257240,1,0,0:0:0:0:
320,192,257311,1,0,0:0:0:0:
192,192,257381,1,0,0:0:0:0:
64,192,257452,1,0,0:0:0:0:
448,192,257523,1,0,0:0:0:0:
320,192,257594,1,0,0:0:0:0:
192,192,257594,1,0,0:0:0:0:
64,192,257735,1,0,0:0:0:0:
192,192,257806,1,0,0:0:0:0:
320,192,257877,1,0,0:0:0:0:
448,192,257877,1,0,0:0:0:0:
192,192,257947,1,0,0:0:0:0:
64,192,258018,1,0,0:0:0:0:
320,192,258018,1,0,0:0:0:0:
448,192,258089,1,0,0:0:0:0:
64,192,258160,1,0,0:0:0:0:
192,192,258160,1,0,0:0:0:0:
320,192,258230,1,0,0:0:0:0:
448,192,258301,1,0,0:0:0:0:
192,192,258301,1,0,0:0:0:0:
320,192,258372,1,0,0:0:0:0:
64,192,258443,1,0,0:0:0:0:
448,192,258443,1,0,0:0:0:0:
192,192,258513,1,0,0:0:0:0:
320,192,258584,1,0,0:0:0:0:
448,192,258584,1,0,0:0:0:0:
64,192,258655,1,0,0:0:0:0:
192,192,258726,1,0,0:0:0:0:
448,192,258726,1,0,0:0:0:0:
320,192,258726,1,0,0:0:0:0:
64,192,259009,1,0,0:0:0:0:
448,192,259009,1,0,0:0:0:0:
192,192,259150,1,0,0:0:0:0:
320,192,259221,1,0,0:0:0:0:
192,192,259292,1,0,0:0:0:0:
64,192,259575,1,0,0:0:0:0:
448,192,259575,1,0,0:0:0:0:
192,192,259716,1,0,0:0:0:0:
320,192,259787,1,0,0:0:0:0:
448,192,259858,1,0,0:0:0:0:
64,192,260141,1,0,0:0:0:0:
192,192,260141,1,0,0:0:0:0:
448,192,260282,1,0,0:0:0:0:
64,192,260353,1,0,0:0:0:0:
448,192,260424,1,0,0:0:0:0:
448,192,260707,1,0,0:0:0:0:
192,192,260707,1,0,0:0:0:0:
448,192,260990,1,0,0:0:0:0:
320,192,260990,1,0,0:0:0:0:
64,192,260990,1,0,0:0:0:0:
192,192,261273,1,0,0:0:0:0:
448,192,261273,1,0,0:0:0:0:
320,192,261414,1,0,0:0:0:0:
192,192,261485,1,0,0:0:0:0:
64,192,261556,1,0,0:0:0:0:
320,192,261839,1,0,0:0:0:0:
448,192,261839,1,0,0:0:0:0:
192,192,261980,1,0,0:0:0:0:
320,192,262051,1,0,0:0:0:0:
64,192,262122,1,0,0:0:0:0:
448,192,262122,1,0,0:0:0:0:
192,192,262263,1,0,0:0:0:0:
320,192,262334,1,0,0:0:0:0:
448,192,262405,1,0,0:0:0:0:
64,192,262405,1,0,0:0:0:0:
192,192,262476,1,0,0:0:0:0:
320,192,262546,1,0,0:0:0:0:
448,192,262617,1,0,0:0:0:0:
64,192,262688,1,0,0:0:0:0:
192,192,262688,1,0,0:0:0:0:
448,192,262759,1,0,0:0:0:0:
320,192,262829,1,0,0:0:0:0:
192,192,262900,1,0,0:0:0:0:
448,192,262971,1,0,0:0:0:0:
64,192,262971,1,0,0:0:0:0:
320,192,263042,1,0,0:0:0:0:
64,192,263112,1,0,0:0:0:0:
192,192,263112,1,0,0:0:0:0:
448,192,263183,1,0,0:0:0:0:
64,192,263254,1,0,0:0:0:0:
192,192,263254,1,0,0:0:0:0:
320,192,263254,1,0,0:0:0:0:
192,192,263396,1,0,0:0:0:0:
320,192,263466,1,0,0:0:0:0:
448,192,263537,1,0,0:0:0:0:
64,192,263537,1,0,0:0:0:0:
192,192,263679,1,0,0:0:0:0:
448,192,263749,1,0,0:0:0:0:
64,192,263820,1,0,0:0:0:0:
192,192,263820,1,0,0:0:0:0:
320,192,263962,1,0,0:0:0:0:
448,192,264032,1,0,0:0:0:0:
192,192,264103,1,0,0:0:0:0:
64,192,264103,1,0,0:0:0:0:
320,192,264197,1,0,0:0:0:0:
448,192,264292,1,0,0:0:0:0:
64,192,264386,1,0,0:0:0:0:
192,192,264386,1,0,0:0:0:0:
448,192,264480,1,0,0:0:0:0:
320,192,264575,1,0,0:0:0:0:
448,192,264669,1,0,0:0:0:0:
192,192,264669,1,0,0:0:0:0:
64,192,264763,1,0,0:0:0:0:
448,192,264858,1,0,0:0:0:0:
320,192,264952,1,0,0:0:0:0:
192,192,264952,1,0,0:0:0:0:
64,192,265046,1,0,0:0:0:0:
448,192,265141,1,0,0:0:0:0:
64,192,265235,1,0,0:0:0:0:
320,192,265235,1,0,0:0:0:0:
192,192,265329,1,0,0:0:0:0:
320,192,265424,1,0,0:0:0:0:
192,192,265518,1,0,0:0:0:0:
448,192,265518,1,0,0:0:0:0:
64,192,265518,1,0,0:0:0:0:
320,192,265589,1,0,0:0:0:0:
192,192,265660,1,0,0:0:0:0:
64,192,265660,1,0,0:0:0:0:
448,192,265730,1,0,0:0:0:0:
320,192,265801,1,0,0:0:0:0:
64,192,265801,1,0,0:0:0:0:
192,192,265872,1,0,0:0:0:0:
320,192,265943,1,0,0:0:0:0:
448,192,265943,1,0,0:0:0:0:
64,192,266013,1,0,0:0:0:0:
320,192,266084,1,0,0:0:0:0:
192,192,266084,1,0,0:0:0:0:
448,192,266155,1,0,0:0:0:0:
64,192,266226,1,0,0:0:0:0:
192,192,266226,1,0,0:0:0:0:
320,192,266296,1,0,0:0:0:0:
448,192,266367,1,0,0:0:0:0:
192,192,266367,1,0,0:0:0:0:
64,192,266438,1,0,0:0:0:0:
320,192,266509,1,0,0:0:0:0:
448,192,266509,1,0,0:0:0:0:
192,192,266579,1,0,0:0:0:0:
64,192,266650,1,0,0:0:0:0:
448,192,266650,1,0,0:0:0:0:
320,192,266721,1,0,0:0:0:0:
192,192,266792,1,0,0:0:0:0:
64,192,266792,1,0,0:0:0:0:
320,192,266862,1,0,0:0:0:0:
448,192,266862,1,0,0:0:0:0:
192,192,266933,1,0,0:0:0:0:
64,192,266933,1,0,0:0:0:0:
448,192,267004,1,0,0:0:0:0:
320,192,267075,1,0,0:0:0:0:
192,192,267146,1,0,0:0:0:0:
64,192,267216,1,0,0:0:0:0:
448,192,267287,1,0,0:0:0:0:
320,192,267358,1,0,0:0:0:0:
192,192,267429,1,0,0:0:0:0:
64,192,267499,1,0,0:0:0:0:
320,192,267570,1,0,0:0:0:0:
192,192,267641,1,0,0:0:0:0:
64,192,267712,1,0,0:0:0:0:
320,192,267782,1,0,0:0:0:0:
448,192,267782,1,0,0:0:0:0:
192,192,267853,1,0,0:0:0:0:
320,192,267924,1,0,0:0:0:0:
448,192,267995,1,0,0:0:0:0:
64,192,268065,1,0,0:0:0:0:
192,192,268136,1,0,0:0:0:0:
320,192,268207,1,0,0:0:0:0:
448,192,268278,1,0,0:0:0:0:
64,192,268348,1,0,0:0:0:0:
192,192,268419,1,0,0:0:0:0:
320,192,268490,1,0,0:0:0:0:
448,192,268561,1,0,0:0:0:0:
192,192,268631,1,0,0:0:0:0:
64,192,268702,1,0,0:0:0:0:
448,192,268773,1,0,0:0:0:0:
320,192,268844,1,0,0:0:0:0:
64,192,268914,1,0,0:0:0:0:
192,192,268985,1,0,0:0:0:0:
320,192,269056,1,0,0:0:0:0:
448,192,269127,1,0,0:0:0:0:
320,192,269197,1,0,0:0:0:0:
192,192,269268,1,0,0:0:0:0:
64,192,269339,1,0,0:0:0:0:
448,192,269410,1,0,0:0:0:0:
320,192,269480,1,0,0:0:0:0:
192,192,269551,1,0,0:0:0:0:
64,192,269622,1,0,0:0:0:0:
448,192,269693,1,0,0:0:0:0:
320,192,269763,1,0,0:0:0:0:
192,192,269834,1,0,0:0:0:0:
64,192,269905,1,0,0:0:0:0:
448,192,269976,128,0,270896:0:0:0:0:
320,192,270896,1,0,0:0:0:0:
192,192,270896,1,0,0:0:0:0:
64,192,270896,1,0,0:0:0:0:
192,192,271462,128,0,276839:0:0:0:0:
64,192,271462,128,0,279669:0:0:0:0:
448,192,271462,128,0,274009:0:0:0:0:
