osu file format v14

[General]
AudioFilename: audio.mp3
AudioLeadIn: 0
PreviewTime:143808
Countdown: 0
SampleSet: Soft
StackLeniency: 0.7
Mode: 0
LetterboxInBreaks: 0
WidescreenStoryboard: 1

[Editor]
Bookmarks: 9374,18431,27487,36544,38808,56921,75034,84091,103336,121450,143808,162487,164468,184846,205223,210034,213148
DistanceSpacing: 1
BeatDivisor: 4
GridSize: 32
TimelineZoom: 3.499999

[Metadata]
Title:Longinus
TitleUnicode:Longinus
Artist:xi
ArtistUnicode:xi
Creator:Anxient
Version:Ultra
Source:
Tags:FA Featured Artist techstreams Diverse System AD:PIANO V Noir electronic instrumental anime girl anime_girl jungkyuyoung natsume shiki natsume_shiki scub domino [keqing] 8972308 house techno trance Japan
BeatmapID:4377500
BeatmapSetID:1902907

[Difficulty]
HPDrainRate:4
CircleSize:4.3
OverallDifficulty:9.3
ApproachRate:9.7
SliderMultiplier:2.12
SliderTickRate:1

[Events]
//Background and Video events
0,0,"BG.jpg",0,0
//Break Periods
2,82027,83313
2,210234,211521
//Storyboard Layer 0 (Background)
//Storyboard Layer 1 (Fail)
//Storyboard Layer 2 (Pass)
//Storyboard Layer 3 (Foreground)
//Storyboard Layer 4 (Overlay)
//Storyboard Sound Samples

[TimingPoints]
318,283.018867924528,4,2,1,70,1,0
10082,-133.333333333333,4,2,1,70,0,0
14610,-117.647058823529,4,2,1,70,0,0
18431,-100,4,2,1,80,0,0
27487,-90.9090909090909,4,2,1,80,0,0
35553,-76.9230769230769,4,2,1,80,0,0
36402,-83.3333333333333,4,2,1,80,0,0
38808,-90.9090909090909,4,2,1,80,0,0
38879,-90.9090909090909,4,2,1,70,0,0
75034,-90.9090909090909,4,2,1,60,0,0
84091,-125,4,2,1,60,0,0
90601,-111.111111111111,4,2,1,60,0,0
90884,-100,4,2,1,60,0,0
92016,-100,4,2,1,65,0,0
93148,-90.9090909090909,4,2,1,70,0,0
98808,-83.3333333333333,4,2,1,70,0,0
103336,-83.3333333333333,4,2,1,80,0,0
103407,-83.3333333333333,4,2,1,70,0,0
121450,-83.3333333333333,4,2,1,75,0,1
139563,-83.3333333333333,4,2,1,75,0,0
143808,-66.6666666666667,4,2,1,75,0,0
144374,-66.6666666666667,4,2,1,80,0,1
144799,-76.9230769230769,4,2,1,80,0,1
153148,-142.857142857143,4,2,1,80,0,0
153431,-142.857142857143,4,2,1,80,0,1
153572,-76.9230769230769,4,2,1,80,0,1
164468,-83.3333333333333,4,2,1,70,0,0
173525,-83.3333333333333,4,2,1,75,0,0
182582,-83.3333333333333,4,2,1,65,0,0
184846,-333.333333333333,4,2,1,65,0,0
186827,-333.333333333333,4,2,1,75,0,0
187110,-333.333333333333,4,2,1,85,0,1
188101,-83.3333333333333,4,2,1,85,0,1
205223,-83.3333333333333,4,2,1,85,0,0
205506,-90.9090909090909,4,2,1,75,0,0
205789,-100,4,2,1,75,0,0
207204,-76.9230769230769,4,2,1,85,0,0
207487,-83.3333333333333,4,2,1,85,0,0
207557,-83.3333333333333,4,2,1,75,0,0
207770,-90.9090909090909,4,2,1,75,0,0
208053,-100,4,2,1,75,0,0
210034,-100,4,2,1,55,0,0
212016,-90.9090909090909,4,2,1,80,0,0
212723,-83.3333333333333,4,2,1,80,0,0
213148,-76.9230769230769,4,2,1,85,0,1
218808,-76.9230769230769,4,2,1,85,0,0
219091,-76.9230769230769,4,2,1,85,0,1
228997,-76.9230769230769,4,2,1,75,0,1
230978,-66.6666666666667,4,2,1,75,0,1
231261,-66.6666666666667,4,2,1,75,0,0
231827,-83.3333333333333,4,2,1,75,0,0
249374,-76.9230769230769,4,2,1,75,0,0
267487,-76.9230769230769,4,2,1,70,0,0
269751,-142.857142857143,4,2,1,70,0,0
270601,-142.857142857143,4,2,1,85,0,0

[Colours]
Combo1 : 71,201,152
Combo2 : 250,245,218
Combo3 : 251,192,55
Combo4 : 192,211,226

[HitObjects]
57,383,9374,5,0,0:0:0:0:
115,341,9516,1,0,0:0:0:0:
65,290,9657,1,0,0:0:0:0:
35,224,9799,1,0,0:0:0:0:
22,220,10082,6,0,L|-3:134,2,79.5000000000002
226,240,10506,6,0,P|209:279|203:316,1,79.5000000000002
145,222,10789,2,0,P|119:187|89:164,1,79.5000000000002
235,136,11072,2,0,P|277:131|359:100,1,119.25
353,95,11355,1,0,0:0:0:0:
500,316,11638,5,0,0:0:0:0:
458,258,11780,1,0,0:0:0:0:
407,308,11921,1,0,0:0:0:0:
341,338,12063,1,0,0:0:0:0:
331,327,12346,6,0,L|356:241,2,79.5000000000002
336,118,12770,5,0,0:0:0:0:
336,118,12841,1,0,0:0:0:0:
336,118,12912,2,0,L|299:165,1,39.7500000000001
280,217,13053,2,0,L|176:245,1,79.5000000000002
82,250,13336,5,0,0:0:0:0:
82,250,13407,1,0,0:0:0:0:
82,250,13478,2,0,L|119:297,1,39.7500000000001
138,349,13619,2,0,L|242:377,1,79.5000000000002
177,153,13902,5,0,0:0:0:0:
112,103,14044,1,0,0:0:0:0:
42,144,14185,1,0,0:0:0:0:
36,62,14327,1,0,0:0:0:0:
26,46,14610,6,0,L|127:4,2,90.1000000000003
148,201,15034,6,0,P|141:172|117:154,2,60.0666666666669
246,168,15317,2,0,P|262:143|259:114,2,60.0666666666669
339,214,15601,2,0,P|368:207|386:184,2,60.0666666666669
372,314,15884,2,0,P|397:329|427:325,2,60.0666666666669
241,287,16167,6,0,P|198:302|158:323,1,90.1000000000003
216,65,16450,5,0,0:0:0:0:
224,49,16520,1,0,0:0:0:0:
241,43,16591,2,0,P|273:50|292:69,1,45.0500000000002
332,115,16733,1,0,0:0:0:0:
477,253,16874,6,0,B|435:256|419:224|419:224|399:180|349:187,1,135.15
360,194,17157,1,0,0:0:0:0:
452,32,17299,6,0,L|486:24,2,30.0333333333334
476,46,17440,2,0,L|506:64,8,30.0333333333334
471,76,17865,5,0,0:0:0:0:
445,147,17935,1,0,0:0:0:0:
400,204,18006,1,0,0:0:0:0:
347,230,18077,1,0,0:0:0:0:
331,267,18148,1,0,0:0:0:0:
342,295,18218,1,0,0:0:0:0:
363,301,18289,2,0,P|401:283|400:257,1,45.0500000000002
430,5,18431,6,0,P|376:22|262:97,1,159,4|0,1:1|0:0,0:0:0:0:
263,102,18714,1,2,2:3:0:0:
258,111,18784,1,0,0:0:0:0:
254,120,18855,2,0,P|256:161|279:169,1,53
448,264,18997,5,2,2:3:0:0:
502,218,19067,1,0,0:0:0:0:
484,155,19138,1,0,0:0:0:0:
426,147,19209,1,0,0:0:0:0:
396,177,19280,1,2,2:3:0:0:
392,214,19351,1,0,0:0:0:0:
405,233,19421,1,0,0:0:0:0:
431,250,19492,1,0,0:0:0:0:
442,270,19563,6,0,P|410:269|383:284,3,53,2|0|0|0,2:3|0:0|0:0|0:0,0:0:0:0:
321,252,19846,2,0,P|298:273|289:304,3,53,2|0|0|0,2:3|0:0|0:0|0:0,0:0:0:0:
226,335,20129,5,2,2:3:0:0:
208,339,20200,1,0,0:0:0:0:
191,344,20270,1,0,0:0:0:0:
175,349,20341,1,0,0:0:0:0:
158,356,20412,1,2,2:3:0:0:
142,363,20483,1,0,0:0:0:0:
126,370,20553,2,0,P|96:338|116:313,1,53
187,105,20695,6,0,P|254:134|239:206,1,159,0|0,1:0|0:0,0:0:0:0:
205,222,20978,1,2,2:3:0:0:
188,221,21049,1,0,0:0:0:0:
173,215,21119,2,0,P|150:177|185:160,1,53
207,4,21261,5,2,2:3:0:0:
267,15,21332,1,0,0:0:0:0:
306,42,21402,1,0,0:0:0:0:
322,71,21473,1,0,0:0:0:0:
348,92,21544,1,2,2:3:0:0:
374,92,21615,1,0,0:0:0:0:
392,81,21685,1,0,0:0:0:0:
396,65,21756,1,0,0:0:0:0:
392,54,21827,6,0,P|370:29|339:49,3,53,2|0|0|0,2:3|0:0|0:0|0:0,0:0:0:0:
336,169,22110,2,0,P|302:166|294:202,3,53,2|0|0|0,2:3|0:0|0:0|0:0,0:0:0:0:
384,246,22393,2,0,P|359:268|378:299,3,53,2|0|0|0,2:3|0:0|0:0|0:0,0:0:0:0:
440,299,22676,1,2,2:3:0:0:
434,323,22747,1,0,0:0:0:0:
451,342,22817,2,0,P|484:334|458:298,1,53
501,125,22959,6,0,P|444:138|316:194,1,159,0|0,1:0|0:0,0:0:0:0:
320,163,23242,1,2,2:3:0:0:
305,157,23313,1,0,0:0:0:0:
290,151,23384,2,0,P|262:114|280:89,1,53
201,10,23525,5,2,2:3:0:0:
136,20,23596,1,0,0:0:0:0:
102,50,23667,1,0,0:0:0:0:
89,89,23737,1,0,0:0:0:0:
65,114,23808,1,2,2:3:0:0:
39,124,23879,1,0,0:0:0:0:
17,119,23950,2,0,P|-4:77|20:64,1,53
157,130,24091,5,2,2:3:0:0:
177,138,24162,1,0,0:0:0:0:
185,153,24233,2,0,P|188:178|165:189,1,53
109,237,24374,5,2,2:3:0:0:
38,0,24516,1,0,0:0:0:0:
103,243,24657,5,2,2:3:0:0:
32,6,24799,1,0,0:0:0:0:
41,152,24940,5,2,2:3:0:0:
51,148,25011,1,0,0:0:0:0:
57,139,25082,2,0,L|72:73,1,53
346,71,25223,5,0,1:0:0:0:
241,3,25365,5,0,0:0:0:0:
181,36,25435,1,0,0:0:0:0:
174,94,25506,1,2,2:3:0:0:
207,134,25577,1,0,0:0:0:0:
250,141,25648,1,0,0:0:0:0:
278,163,25718,1,0,0:0:0:0:
285,188,25789,1,2,2:3:0:0:
276,208,25860,1,0,0:0:0:0:
262,216,25931,1,0,0:0:0:0:
249,219,26001,1,0,0:0:0:0:
238,212,26072,2,0,P|218:171|260:160,1,53,2|0,2:3|0:0,0:0:0:0:
309,88,26214,2,0,P|349:63|395:53,1,53
503,22,26355,5,2,1:3:0:0:
494,52,26426,1,0,0:0:0:0:
485,82,26497,1,0,0:0:0:0:
476,112,26567,1,0,0:0:0:0:
440,143,26638,5,2,2:3:0:0:
449,173,26709,1,0,0:0:0:0:
458,203,26780,1,0,0:0:0:0:
467,233,26851,1,0,0:0:0:0:
504,262,26921,5,2,2:3:0:0:
488,270,26992,1,0,0:0:0:0:
471,279,27063,1,0,0:0:0:0:
455,288,27134,1,0,0:0:0:0:
426,286,27204,5,2,2:3:0:0:
417,303,27275,1,0,0:0:0:0:
408,319,27346,1,0,0:0:0:0:
399,336,27417,1,0,0:0:0:0:
359,370,27487,6,0,B|301:378|287:333|287:333|276:267|200:279,1,174.9,4|0,1:1|2:0,0:0:0:0:
202,249,27770,1,2,3:3:0:0:
186,241,27841,1,0,2:0:0:0:
168,244,27912,2,0,P|139:283|177:318,1,58.3,0|0,3:0|2:0,0:0:0:0:
222,374,28053,5,2,3:3:0:0:
268,338,28124,1,0,2:0:0:0:
299,288,28195,1,0,3:0:0:0:
319,233,28266,1,0,2:0:0:0:
327,175,28336,1,2,3:3:0:0:
295,132,28407,1,0,2:0:0:0:
254,132,28478,2,0,P|236:172|259:192,1,58.3,0|0,3:0|2:0,0:0:0:0:
393,264,28619,6,0,P|434:279|431:309,3,58.3,2|0|0|0,3:3|2:0|3:0|2:0,0:0:0:0:
461,207,28902,2,0,P|501:188|521:212,3,58.3,2|0|0|0,3:3|2:0|3:0|2:0,0:0:0:0:
468,118,29185,2,0,P|483:76|513:79,3,58.3,2|0|0|0,3:3|2:0|3:0|2:0,0:0:0:0:
411,50,29468,2,0,P|392:10|416:-10,3,58.3,2|0|0|0,3:3|2:0|3:0|2:0,0:0:0:0:
367,158,29751,6,0,L|168:111,1,174.9,4|0,1:1|2:0,0:0:0:0:
164,92,30034,1,2,3:3:0:0:
153,71,30105,1,0,2:0:0:0:
158,48,30176,2,0,P|190:19|217:45,1,58.3,0|0,3:0|2:0,0:0:0:0:
268,160,30317,5,2,3:3:0:0:
253,227,30388,1,0,2:0:0:0:
203,266,30459,1,0,3:0:0:0:
151,264,30530,1,0,2:0:0:0:
115,241,30601,1,2,3:3:0:0:
79,245,30671,1,0,2:0:0:0:
59,266,30742,1,0,3:0:0:0:
58,282,30813,1,0,2:0:0:0:
64,291,30884,6,0,P|94:317|117:304,3,58.3,2|0|0|0,3:3|2:0|3:0|2:0,0:0:0:0:
42,174,31167,5,2,3:3:0:0:
92,202,31237,1,0,2:0:0:0:
140,236,31308,1,0,3:0:0:0:
183,275,31379,1,0,3:0:0:0:
220,320,31450,2,0,P|239:341|256:365,1,58.3,2|0,3:3|2:0,0:0:0:0:
425,384,31591,6,0,L|458:315,1,58.3,0|0,3:0|2:0,0:0:0:0:
422,265,31733,1,2,3:3:0:0:
422,265,31803,1,0,3:0:0:0:
422,265,31874,2,0,L|354:326,1,58.3,0|0,3:0|3:0,0:0:0:0:
316,358,32016,6,0,P|297:296|260:160,1,174.9,4|0,1:1|3:0,0:0:0:0:
295,168,32299,1,2,3:3:0:0:
311,161,32369,1,0,3:0:0:0:
324,150,32440,2,0,P|338:113|313:84,1,58.3,0|0,3:0|3:0,0:0:0:0:
172,193,32582,5,2,3:3:0:0:
144,129,32652,1,0,3:0:0:0:
97,111,32723,1,0,3:0:0:0:
60,129,32794,1,0,3:0:0:0:
27,118,32865,1,2,3:3:0:0:
21,94,32935,1,0,3:0:0:0:
29,80,33006,2,0,P|47:59|66:22,1,58.3,0|0,3:0|3:0,0:0:0:0:
202,9,33148,6,0,P|221:71|258:207,1,174.9,4|0,1:1|3:0,0:0:0:0:
279,205,33431,6,0,P|258:252|254:281,1,58.3,2|0,3:3|3:0,0:0:0:0:
165,345,33572,2,0,P|186:298|190:269,1,58.3,0|0,3:0|3:0,0:0:0:0:
134,176,33714,6,0,P|142:203|156:229,1,58.3,2|0,3:3|3:0,0:0:0:0:
310,374,33855,2,0,P|301:346|287:320,1,58.3,0|0,3:0|3:0,0:0:0:0:
220,280,33997,5,2,3:3:0:0:
225,278,34067,1,0,3:0:0:0:
230,276,34138,1,0,3:0:0:0:
448,343,34280,5,4,1:1:0:0:
479,179,34421,5,0,3:0:0:0:
510,152,34492,1,0,3:0:0:0:
512,111,34563,1,2,3:3:0:0:
487,78,34634,1,0,3:0:0:0:
447,80,34704,2,0,P|412:108|425:150,1,58.3,0|0,3:0|3:0,0:0:0:0:
317,184,34846,5,2,1:3:0:0:
300,207,34917,1,0,3:0:0:0:
305,235,34987,1,0,3:0:0:0:
329,253,35058,1,0,3:0:0:0:
356,244,35129,1,2,3:3:0:0:
361,244,35200,1,0,3:0:0:0:
365,247,35270,2,0,P|399:207|387:171,1,58.3,0|0,3:0|3:0,0:0:0:0:
319,82,35412,5,4,1:1:0:0:
319,82,35483,1,0,3:0:0:0:
319,82,35553,2,0,L|304:-4,1,68.9,0|0,3:0|3:0,0:0:0:0:
237,124,35695,5,2,1:3:0:0:
237,124,35766,1,0,3:0:0:0:
237,124,35836,2,0,L|165:73,1,68.9,0|0,3:0|3:0,0:0:0:0:
208,211,35978,6,0,L|122:226,1,68.9,2|0,1:3|3:0,0:0:0:0:
21,209,36119,2,0,L|65:261,1,68.9,0|0,1:0|3:0,0:0:0:0:
113,372,36261,5,2,1:3:0:0:
113,372,36332,1,0,3:0:0:0:
113,372,36402,2,0,L|143:290,1,63.6,0|0,1:0|3:0,0:0:0:0:
166,309,36544,6,0,P|200:284|226:305,7,63.6
302,202,37110,2,0,P|306:243|275:255,7,63.6
326,373,37676,5,0,3:1:0:0:
317,374,37747,1,0,2:1:0:0:
308,373,37817,1,0,3:1:0:0:
299,369,37888,1,0,3:1:0:0:
292,364,37959,1,0,3:1:0:0:
287,356,38030,1,0,3:1:0:0:
285,348,38101,1,0,3:1:0:0:
285,339,38171,1,0,3:1:0:0:
290,327,38242,1,0,3:1:0:0:
312,303,38313,1,0,3:1:0:0:
356,300,38384,1,0,3:1:0:0:
391,335,38454,1,0,3:1:0:0:
450,357,38525,1,0,3:1:0:0:
501,318,38596,1,0,3:1:0:0:
496,247,38667,1,0,3:1:0:0:
426,218,38737,1,0,3:1:0:0:
376,268,38808,6,0,P|406:191|443:65,1,174.9,4|0,1:1|3:2,0:0:0:0:
417,78,39091,1,0,1:2:0:0:
219,7,39233,1,2,3:2:0:0:
219,7,39303,1,0,3:2:0:0:
219,7,39374,2,0,P|200:66|263:90,1,116.6,0|2,1:2|3:2,0:0:0:0:
252,84,39586,1,0,3:2:0:0:
267,75,39657,2,0,P|318:84|295:146,1,116.6,0|2,1:2|3:2,0:0:0:0:
306,146,39869,1,0,3:2:0:0:
300,157,39940,5,0,1:2:0:0:
221,265,40082,1,2,3:2:0:0:
221,265,40152,1,0,3:2:0:0:
221,265,40223,1,0,1:1:0:0:
355,280,40365,1,2,3:2:0:0:
355,280,40435,1,0,3:2:0:0:
355,280,40506,6,0,P|291:315|251:358,1,116.6,0|2,1:2|3:2,0:0:0:0:
167,142,40789,2,0,P|229:179|286:193,1,116.6,0|2,1:2|3:2,0:0:0:0:
142,374,41072,6,0,P|143:301|126:244,1,116.6,0|2,1:2|3:2,0:0:0:0:
105,247,41284,1,0,3:2:0:0:
78,234,41355,2,0,P|36:215|72:148,1,116.6,0|2,1:2|3:2,0:0:0:0:
65,148,41567,1,0,3:2:0:0:
82,150,41638,1,0,1:1:0:0:
220,82,41780,1,2,3:2:0:0:
220,82,41851,1,0,3:2:0:0:
220,82,41921,1,0,1:2:0:0:
100,0,42063,5,2,3:2:0:0:
100,0,42134,1,0,3:2:0:0:
100,0,42204,2,0,P|128:76|172:179,1,174.9,0|0,1:2|3:2,0:0:0:0:
187,167,42487,2,0,P|248:178|300:203,1,116.6,0|2,1:2|3:2,0:0:0:0:
314,185,42700,1,0,3:2:0:0:
331,169,42770,2,0,P|349:141|287:99,1,116.6,0|2,1:2|3:2,0:0:0:0:
220,252,43053,5,0,1:1:0:0:
209,265,43124,1,0,3:2:0:0:
198,278,43195,2,0,P|181:332|180:364,1,58.3,0|0,1:2|1:2,0:0:0:0:
239,370,43336,6,0,P|299:342|385:303,1,116.6,0|2,1:2|3:2,0:0:0:0:
357,294,43549,1,0,3:2:0:0:
369,267,43619,2,0,P|433:239|447:311,1,116.6,0|2,1:2|3:2,0:0:0:0:
451,277,43832,1,0,3:2:0:0:
446,287,43902,1,0,1:2:0:0:
285,194,44044,5,2,3:2:0:0:
285,194,44115,1,0,3:2:0:0:
285,194,44185,1,0,1:2:0:0:
446,101,44327,5,2,3:2:0:0:
446,101,44398,1,0,3:2:0:0:
446,101,44468,2,0,P|474:46|404:27,1,116.6,0|2,1:2|3:2,0:0:0:0:
415,14,44681,1,0,3:2:0:0:
391,12,44751,2,0,P|352:69|347:130,1,116.6,0|2,1:2|3:2,0:0:0:0:
369,267,45034,6,0,P|402:318|454:267,1,116.6,0|2,1:2|3:2,0:0:0:0:
459,283,45247,1,0,3:2:0:0:
473,263,45317,2,0,P|442:200|391:166,1,116.6,0|2,1:2|3:2,0:0:0:0:
395,178,45530,1,0,3:2:0:0:
384,183,45601,1,0,1:2:0:0:
264,229,45742,5,2,3:2:0:0:
264,229,45813,1,0,3:2:0:0:
264,229,45884,1,0,1:1:0:0:
239,359,46025,5,2,3:2:0:0:
239,359,46096,1,0,3:2:0:0:
239,359,46167,2,0,L|114:384,1,116.6,0|2,1:2|3:2,0:0:0:0:
104,360,46379,1,0,3:2:0:0:
84,338,46450,2,0,P|105:284|166:319,1,116.6,0|2,1:2|3:2,0:0:0:0:
340,384,46733,6,0,P|354:325|398:260,1,116.6,0|2,1:2|3:2,0:0:0:0:
410,269,46945,1,0,3:2:0:0:
438,261,47016,2,0,P|467:301|416:347,1,116.6,0|2,1:2|3:2,0:0:0:0:
295,234,47299,6,0,P|281:175|237:110,1,116.6,0|2,1:2|3:2,0:0:0:0:
225,119,47511,1,0,3:2:0:0:
196,111,47582,1,0,1:2:0:0:
343,12,47723,6,0,P|317:24|311:51,1,58.3,2|0,1:2|3:2,0:0:0:0:
429,165,47865,6,0,P|511:141|489:84,1,116.6,2|2,1:1|3:2,0:0:0:0:
496,88,48077,1,0,3:2:0:0:
461,66,48148,2,0,P|405:96|326:165,1,116.6,0|2,1:2|3:2,0:0:0:0:
350,147,48360,1,0,3:2:0:0:
337,166,48431,2,0,P|281:152|187:135,1,116.6,0|2,1:2|3:2,0:0:0:0:
216,150,48643,1,0,3:2:0:0:
208,159,48714,1,0,1:2:0:0:
60,223,48855,5,2,3:2:0:0:
60,223,48926,1,0,3:2:0:0:
60,223,48997,1,0,1:2:0:0:
78,62,49138,5,2,3:2:0:0:
78,62,49209,1,0,3:2:0:0:
78,62,49280,2,0,P|109:118|126:186,1,116.6,0|2,1:1|3:2,0:0:0:0:
135,179,49492,1,0,3:2:0:0:
148,189,49563,6,0,P|123:248|112:318,1,116.6,0|2,1:2|3:2,0:0:0:0:
126,332,49775,1,0,3:2:0:0:
138,364,49846,1,0,1:2:0:0:
20,201,49987,6,0,P|30:245|52:253,1,58.3,2|0,3:2|3:2,0:0:0:0:
208,326,50129,6,0,P|269:303|403:285,1,174.9,0|0,1:2|3:2,0:0:0:0:
395,307,50412,1,0,1:2:0:0:
512,154,50553,5,2,3:2:0:0:
512,154,50624,1,0,3:2:0:0:
512,154,50695,2,0,P|514:98|418:123,1,174.9,0|0,1:1|3:2,0:0:0:0:
397,123,50978,2,0,P|443:183|450:235,1,116.6,0|2,1:2|3:2,0:0:0:0:
445,226,51190,1,0,3:2:0:0:
441,229,51261,2,0,P|366:219|324:187,1,116.6,0|2,1:2|3:2,0:0:0:0:
330,191,51473,1,0,3:2:0:0:
327,185,51544,1,0,1:2:0:0:
299,304,51685,5,2,3:2:0:0:
299,304,51756,1,0,3:2:0:0:
299,304,51827,2,0,P|374:314|416:346,1,116.6,0|2,1:2|3:2,0:0:0:0:
208,263,52110,5,0,1:1:0:0:
159,242,52181,1,0,3:2:0:0:
120,277,52251,1,0,1:2:0:0:
106,327,52322,1,0,1:2:0:0:
58,350,52393,2,0,P|44:287|8:210,1,116.6,4|2,1:2|3:2,0:0:0:0:
12,236,52605,1,0,3:2:0:0:
0,233,52676,1,0,1:2:0:0:
161,160,52817,5,2,3:2:0:0:
161,160,52888,1,0,3:2:0:0:
161,160,52959,1,0,1:2:0:0:
17,57,53101,5,2,3:2:0:0:
17,57,53171,1,0,3:2:0:0:
17,57,53242,2,0,P|37:118|81:191,1,116.6,0|2,1:2|3:2,0:0:0:0:
71,169,53454,1,0,3:2:0:0:
80,175,53525,6,0,P|147:154|103:51,1,174.9,0|0,1:2|3:2,0:0:0:0:
125,59,53808,2,0,P|68:55|89:124,1,116.6,0|2,1:2|3:2,0:0:0:0:
164,240,54091,6,0,P|221:217|304:207,1,116.6,0|2,1:2|3:2,0:0:0:0:
296,179,54303,1,0,3:2:0:0:
317,151,54374,1,0,1:2:0:0:
272,64,54516,2,0,P|241:105|262:134,1,58.3,2|0,3:2|3:2,0:0:0:0:
290,313,54657,6,0,B|314:360|362:345|362:345|430:320|466:401,1,174.9,8|0,1:3|3:2,0:0:0:0:
448,378,54940,1,0,1:1:0:0:
354,249,55082,5,2,3:2:0:0:
354,249,55152,1,0,3:2:0:0:
354,249,55223,1,0,1:2:0:0:
512,232,55365,5,2,3:2:0:0:
512,232,55435,1,0,3:2:0:0:
512,232,55506,2,0,P|492:171|448:98,1,116.6,0|2,1:2|3:2,0:0:0:0:
481,106,55718,1,0,3:2:0:0:
496,88,55789,2,0,P|509:40|438:33,1,116.6,4|2,1:3|3:2,0:0:0:0:
334,0,56072,5,0,1:2:0:0:
272,34,56143,1,0,0:0:0:0:
259,86,56214,1,2,3:2:0:0:
272,124,56284,1,0,3:2:0:0:
306,143,56355,1,0,1:2:0:0:
320,164,56426,1,0,0:0:0:0:
318,186,56497,1,2,3:2:0:0:
309,196,56567,1,0,3:2:0:0:
299,200,56638,2,0,P|262:174|287:146,1,58.3,0|0,1:2|0:0,0:0:0:0:
418,207,56780,2,0,P|437:248|401:259,1,58.3,2|0,1:2|3:2,0:0:0:0:
341,366,56921,6,0,B|317:332|261:348|261:348|213:363|189:316,1,174.9,4|0,1:1|3:2,0:0:0:0:
200,307,57204,1,8,1:2:0:0:
159,187,57346,1,2,3:2:0:0:
143,178,57417,1,0,3:2:0:0:
128,169,57487,1,0,1:2:0:0:
0,329,57629,6,0,P|45:352|74:324,1,58.3,2|0,3:2|3:2,0:0:0:0:
79,331,57770,2,0,P|93:276|15:258,1,116.6,8|2,1:2|3:2,0:0:0:0:
46,234,57983,1,0,3:2:0:0:
42,223,58053,1,0,1:1:0:0:
262,162,58195,1,2,3:2:0:0:
277,136,58266,1,0,3:2:0:0:
291,111,58336,2,0,P|263:62|195:105,1,116.6,8|2,1:2|3:2,0:0:0:0:
8,13,58619,6,0,P|61:47|96:87,1,116.6,0|2,1:2|3:2,0:0:0:0:
105,114,58832,1,0,3:2:0:0:
112,141,58902,1,8,1:2:0:0:
183,259,59044,6,0,L|277:230,1,58.3,2|0,3:2|3:2,0:0:0:0:
385,162,59185,6,0,P|402:103|450:-2,1,174.9,0|0,1:1|3:2,0:0:0:0:
463,25,59468,2,0,P|516:63|479:108,1,116.6,8|2,1:2|3:2,0:0:0:0:
491,115,59681,1,0,3:2:0:0:
483,130,59751,1,0,1:2:0:0:
503,257,59893,5,2,3:2:0:0:
293,160,60034,1,8,1:2:0:0:
387,249,60176,5,2,3:2:0:0:
387,249,60247,1,0,3:2:0:0:
387,249,60317,2,0,P|322:248|309:343,1,174.9,0|0,1:1|3:2,0:0:0:0:
323,332,60601,2,0,P|383:353|438:399,1,116.6,8|2,1:2|3:2,0:0:0:0:
434,377,60813,1,0,3:2:0:0:
443,369,60884,1,0,1:2:0:0:
222,306,61025,6,0,P|210:283|173:266,1,58.3,2|0,3:2|3:2,0:0:0:0:
211,196,61167,1,8,1:2:0:0:
159,187,61237,1,0,1:0:0:0:
119,221,61308,1,2,1:2:0:0:
108,271,61379,1,0,1:2:0:0:
56,279,61450,6,0,P|2:264|39:171,1,174.9,0|0,1:1|3:2,0:0:0:0:
40,158,61733,1,8,1:2:0:0:
228,99,61874,1,2,3:2:0:0:
228,99,61945,1,0,3:2:0:0:
228,99,62016,1,0,1:2:0:0:
54,0,62157,6,0,P|50:26|95:44,1,58.3,2|0,3:2|3:2,0:0:0:0:
90,66,62299,2,0,P|127:121|162:186,1,116.6,8|2,1:2|3:2,0:0:0:0:
186,171,62511,1,0,3:2:0:0:
220,177,62582,5,0,1:1:0:0:
149,354,62723,1,2,3:2:0:0:
316,247,62865,5,8,1:2:0:0:
237,308,63006,1,2,3:2:0:0:
390,339,63148,5,0,1:2:0:0:
401,326,63218,1,0,0:0:0:0:
416,318,63289,2,0,P|466:308|509:311,1,58.3,2|0,3:2|3:2,0:0:0:0:
394,203,63431,5,8,1:2:0:0:
384,171,63501,1,0,0:0:0:0:
366,143,63572,2,0,P|324:106|278:76,1,58.3,2|0,3:2|3:2,0:0:0:0:
415,16,63714,6,0,P|486:14|494:125,1,174.9,0|0,1:1|3:2,0:0:0:0:
498,126,63997,2,0,P|461:132|450:91,1,58.3,8|0,1:2|0:0,0:0:0:0:
435,92,64138,1,2,3:2:0:0:
261,31,64280,5,0,1:2:0:0:
261,31,64351,1,0,0:0:0:0:
261,31,64421,2,0,P|216:37|206:78,1,58.3,2|0,3:2|3:2,0:0:0:0:
155,92,64563,2,0,P|219:130|272:175,1,116.6,8|2,1:2|3:2,0:0:0:0:
346,241,64846,6,0,P|393:302|448:387,1,174.9,0|0,1:1|3:2,0:0:0:0:
459,351,65129,2,0,P|440:276|428:214,1,116.6,8|2,1:2|3:2,0:0:0:0:
296,332,65412,5,0,1:2:0:0:
296,332,65483,1,0,0:0:0:0:
296,332,65553,2,0,P|252:288|246:252,1,58.3,2|0,3:2|3:2,0:0:0:0:
183,276,65695,2,0,P|164:220|238:207,1,116.6,8|2,1:2|1:2,0:0:0:0:
379,69,65978,6,0,P|362:136|344:257,1,174.9,4|0,1:1|3:2,0:0:0:0:
322,213,66261,1,0,1:2:0:0:
122,120,66402,1,2,3:2:0:0:
107,93,66473,1,0,3:2:0:0:
117,64,66544,2,0,P|164:30|192:107,1,116.6,0|2,1:2|3:2,0:0:0:0:
275,128,66827,5,0,1:2:0:0:
73,205,66968,2,0,P|72:238|41:274,1,58.3,2|0,3:2|3:2,0:0:0:0:
0,214,67110,5,2,1:1:0:0:
223,292,67251,1,2,3:2:0:0:
0,214,67393,5,0,1:2:0:0:
223,292,67534,2,0,P|245:316|249:363,1,58.3,2|0,3:2|3:2,0:0:0:0:
202,384,67676,1,0,1:1:0:0:
170,214,67817,1,2,3:2:0:0:
156,194,67888,1,0,3:2:0:0:
164,172,67959,2,0,P|237:187|359:253,1,174.9,0|0,1:2|3:2,0:0:0:0:
315,202,68242,6,0,P|291:131|291:43,1,116.6,8|2,1:3|3:2,0:0:0:0:
302,64,68454,1,0,3:2:0:0:
317,38,68525,1,0,1:2:0:0:
449,237,68667,5,2,3:2:0:0:
449,237,68737,1,0,3:2:0:0:
449,237,68808,2,0,P|442:300|376:297,1,116.6,0|2,1:2|3:2,0:0:0:0:
382,302,69020,1,0,3:2:0:0:
368,291,69091,1,0,1:2:0:0:
405,139,69233,1,2,3:2:0:0:
295,306,69374,5,4,1:3:0:0:
206,95,69516,1,2,3:2:0:0:
253,368,69657,5,0,1:2:0:0:
77,293,69799,1,2,3:2:0:0:
55,300,69869,1,0,3:2:0:0:
32,307,69940,2,0,P|16:362|74:380,1,116.6,0|2,1:2|3:2,0:0:0:0:
179,293,70223,5,0,1:2:0:0:
189,278,70294,1,0,0:0:0:0:
189,260,70365,2,0,P|176:233|150:196,1,58.3,2|0,3:2|3:2,0:0:0:0:
47,104,70506,1,4,1:1:0:0:
46,0,70648,6,0,P|7:13|32:49,1,58.3,2|0,3:2|3:2,0:0:0:0:
40,85,70789,2,0,P|105:103|184:141,1,116.6,0|2,1:2|3:2,0:0:0:0:
162,109,71001,1,0,3:2:0:0:
174,96,71072,2,0,P|239:78|318:40,1,116.6,0|2,1:2|3:2,0:0:0:0:
296,32,71284,1,0,3:2:0:0:
308,5,71355,5,0,1:2:0:0:
362,209,71497,1,2,3:2:0:0:
512,60,71638,1,4,1:1:0:0:
412,58,71780,5,2,3:2:0:0:
400,61,71851,1,0,3:2:0:0:
392,69,71921,2,0,P|376:115|401:140,1,58.3,0|0,1:2|0:0,0:0:0:0:
483,200,72063,1,2,3:2:0:0:
489,209,72134,1,0,3:2:0:0:
494,219,72204,2,0,P|433:267|345:352,1,174.9,0|0,1:2|3:2,0:0:0:0:
346,371,72487,1,0,1:2:0:0:
256,190,72629,5,2,3:2:0:0:
241,228,72700,1,0,3:2:0:0:
234,267,72770,2,0,P|160:291|64:345,1,174.9,4|0,1:1|3:2,0:0:0:0:
64,358,73053,1,0,1:2:0:0:
0,227,73195,5,2,3:2:0:0:
0,227,73266,1,0,3:2:0:0:
0,227,73336,2,0,P|4:166|77:188,1,116.6,4|2,1:1|3:2,0:0:0:0:
80,175,73549,1,0,3:2:0:0:
111,190,73619,2,0,P|163:175|162:121,1,116.6,0|2,1:2|3:2,0:0:0:0:
131,102,73832,1,0,3:2:0:0:
96,102,73902,6,0,P|70:157|18:299,1,174.9,4|0,1:1|3:2,0:0:0:0:
51,304,74185,1,0,1:1:0:0:
92,326,74256,1,0,0:0:0:0:
137,313,74327,1,2,3:2:0:0:
161,272,74398,1,0,3:2:0:0:
196,242,74468,1,0,1:1:0:0:
242,237,74539,1,0,0:0:0:0:
277,267,74610,1,2,3:2:0:0:
282,313,74681,1,0,3:2:0:0:
254,349,74751,1,0,1:1:0:0:
248,346,74822,1,0,0:0:0:0:
244,341,74893,1,2,1:1:0:0:
241,335,74964,1,0,3:2:0:0:
240,329,75034,5,8,1:3:0:0:
256,192,75105,12,0,77228,0:0:0:0:
256,192,77299,12,0,79492,0:0:0:0:
256,192,79563,12,4,81827,0:0:0:0:
156,102,83808,5,8,3:2:0:0:
43,383,84091,6,0,L|154:358,1,84.8,4|0,2:0|0:0,0:0:0:0:
232,276,84374,1,0,0:0:0:0:
232,276,84445,1,0,0:0:0:0:
232,276,84516,2,0,P|252:235|156:231,1,169.6,2|0,0:3|0:0,0:0:0:0:
98,262,84940,2,0,P|81:287|45:286,3,42.4
42,273,85223,6,0,L|26:187,1,84.8,2|0,0:3|0:0,0:0:0:0:
163,21,85506,2,0,L|147:104,1,84.8
128,121,85718,1,0,0:0:0:0:
108,137,85789,2,0,P|73:79|-6:-17,1,169.6,2|0,0:3|0:0,0:0:0:0:
219,257,86355,6,0,P|241:219|288:186,1,84.8,2|0,0:3|0:0,0:0:0:0:
287,318,86638,1,0,0:0:0:0:
287,318,86709,1,0,0:0:0:0:
287,318,86780,2,0,P|371:326|453:345,1,169.6,2|0,0:3|0:0,0:0:0:0:
512,225,87204,1,2,0:3:0:0:
492,218,87275,1,0,0:0:0:0:
471,221,87346,1,0,0:0:0:0:
455,234,87417,1,0,0:0:0:0:
448,254,87487,6,0,P|460:297|482:336,1,84.8,2|0,0:3|0:0,0:0:0:0:
363,227,87770,2,0,P|376:186|398:150,1,84.8,2|0,0:3|0:0,0:0:0:0:
436,41,88053,2,0,P|392:53|353:75,1,84.8,2|0,0:3|0:0,0:0:0:0:
500,135,88336,1,2,0:3:0:0:
310,177,88478,5,0,0:0:0:0:
296,170,88549,1,0,0:0:0:0:
282,164,88619,2,0,P|244:167|231:223,1,84.8,2|0,0:3|0:0,0:0:0:0:
181,348,88902,1,0,0:0:0:0:
181,348,88973,1,0,0:0:0:0:
181,348,89044,2,0,P|171:296|134:165,1,169.6,2|0,0:3|0:0,0:0:0:0:
84,256,89468,2,0,P|68:278|46:281,3,42.4
26,218,89751,6,0,P|-10:178|22:135,1,84.8,2|0,0:3|0:0,0:0:0:0:
104,25,90034,1,0,0:0:0:0:
104,25,90105,1,0,0:0:0:0:
104,25,90176,2,0,P|160:35|147:142,1,169.6,2|0,0:3|0:0,0:0:0:0:
146,145,90530,1,0,0:0:0:0:
125,154,90601,2,0,P|82:141|85:97,1,95.4000000000001,2|0,0:3|0:0,0:0:0:0:
253,26,90884,6,0,P|306:12|367:7,1,106,2|0,0:3|0:0,0:0:0:0:
512,0,91167,1,0,0:0:0:0:
512,0,91237,1,0,0:0:0:0:
512,0,91308,2,0,P|459:26|362:125,1,159,2|0,0:3|0:0,0:0:0:0:
374,122,91591,1,0,0:0:0:0:
258,126,91733,6,0,P|252:168|225:195,3,53
222,205,92016,5,2,0:3:0:0:
156,192,92086,1,0,0:0:0:0:
109,230,92157,1,0,0:0:0:0:
107,283,92228,1,0,0:0:0:0:
137,316,92299,1,0,0:0:0:0:
174,322,92369,1,0,0:0:0:0:
202,313,92440,1,0,0:0:0:0:
218,296,92511,1,0,0:0:0:0:
229,272,92582,1,0,3:0:0:0:
254,242,92652,1,0,3:0:0:0:
306,225,92723,1,0,3:0:0:0:
361,249,92794,1,0,3:0:0:0:
379,310,92865,1,0,3:0:0:0:
351,372,92935,1,0,3:0:0:0:
283,384,93006,2,0,P|283:335|305:290,1,53,0|0,3:0|3:0,0:0:0:0:
402,156,93148,6,0,L|520:115,1,116.6,4|2,1:0|3:0,0:0:0:0:
371,41,93431,1,0,3:0:0:0:
371,41,93501,1,0,0:0:0:0:
371,41,93572,2,0,B|322:35|301:81|301:81|281:133|233:119,1,174.9,2|0,1:3|0:0,0:0:0:0:
213,94,93855,1,2,3:0:0:0:
161,0,93997,1,0,3:0:0:0:
161,0,94067,1,0,0:0:0:0:
161,0,94138,2,0,P|204:1|218:39,1,58.3,2|0,3:0|3:0,0:0:0:0:
309,133,94280,6,0,L|350:251,1,116.6,0|2,1:0|3:0,0:0:0:0:
374,254,94492,1,0,3:0:0:0:
401,265,94563,2,0,P|448:229|412:161,1,116.6,0|2,3:0|3:0,0:0:0:0:
439,371,94846,2,0,P|378:347|226:295,1,174.9,0|0,1:0|3:0,0:0:0:0:
261,277,95129,1,0,1:0:0:0:
114,177,95270,5,2,3:0:0:0:
114,177,95341,1,0,3:0:0:0:
114,177,95412,2,0,P|67:213|103:281,1,116.6,0|2,1:0|3:0,0:0:0:0:
142,363,95695,1,0,3:0:0:0:
142,363,95766,1,0,0:0:0:0:
142,363,95836,2,0,P|160:296|229:139,1,233.2,2|2,1:3|3:0,0:0:0:0:
129,37,96261,5,0,3:0:0:0:
129,37,96332,1,0,0:0:0:0:
129,37,96402,2,0,P|154:85|158:119,1,58.3,2|0,3:0|3:0,0:0:0:0:
316,176,96544,1,2,1:3:0:0:
260,3,96685,6,0,P|243:54|222:81,1,58.3,2|0,3:0|3:0,0:0:0:0:
296,165,96827,1,2,1:3:0:0:
376,71,96968,6,0,P|328:96|294:100,1,58.3,2|0,3:0|3:0,0:0:0:0:
274,171,97110,1,2,1:3:0:0:
410,202,97251,6,0,P|358:185|331:164,1,58.3,2|0,3:0|3:0,0:0:0:0:
262,191,97393,2,0,P|289:247|310:335,1,116.6,2|2,1:3|3:0,0:0:0:0:
470,384,97676,6,0,P|486:328|512:275,1,116.6,4|2,1:0|3:0,0:0:0:0:
309,329,97959,1,0,3:0:0:0:
309,329,98030,1,0,0:0:0:0:
309,329,98101,2,0,P|284:269|160:160,1,233.2,2|2,1:3|3:0,0:0:0:0:
74,213,98525,5,0,3:0:0:0:
62,226,98596,1,0,0:0:0:0:
64,243,98667,2,0,P|89:263|133:235,1,58.3,2|0,3:0|3:0,0:0:0:0:
240,85,98808,6,0,P|238:32|161:26,1,127.2,4|2,1:3|3:0,0:0:0:0:
66,117,99091,1,0,3:0:0:0:
36,105,99162,1,0,0:0:0:0:
27,74,99233,2,0,P|105:97|211:189,1,190.8,0|0,1:0|0:0,0:0:0:0:
206,190,99516,2,0,P|243:161|283:158,1,63.6,2|0,3:0|3:0,0:0:0:0:
327,125,99657,2,0,L|346:-11,1,127.2,0|2,1:0|3:0,0:0:0:0:
476,143,99940,6,0,P|487:211|517:270,1,127.2,4|2,1:2|3:0,0:0:0:0:
478,356,100223,1,0,3:0:0:0:
461,364,100294,1,0,0:0:0:0:
450,380,100365,2,0,P|389:378|409:262,1,190.8,0|0,1:0|0:0,0:0:0:0:
400,242,100648,1,2,3:0:0:0:
327,125,100789,5,0,3:0:0:0:
312,112,100860,1,0,0:0:0:0:
292,112,100931,2,0,P|295:162|329:193,1,63.6,2|0,3:0|3:0,0:0:0:0:
260,350,101072,5,8,1:3:0:0:
193,375,101143,1,0,0:0:0:0:
141,348,101214,1,2,3:0:0:0:
133,304,101284,1,0,3:0:0:0:
104,277,101355,1,0,3:0:0:0:
72,279,101426,1,0,0:0:0:0:
56,293,101497,1,2,3:0:0:0:
53,306,101567,1,0,3:0:0:0:
58,309,101638,5,0,1:0:0:0:
62,313,101709,1,0,0:0:0:0:
62,319,101780,2,0,P|110:343|130:370,1,63.6,2|0,3:0|3:0,0:0:0:0:
210,282,101921,1,0,3:0:0:0:
210,282,101992,1,0,0:0:0:0:
210,282,102063,2,0,P|258:258|278:231,1,63.6,2|0,3:0|3:0,0:0:0:0:
290,185,102204,5,2,1:0:0:0:
147,84,102346,1,2,3:0:0:0:
140,66,102417,1,0,0:0:0:0:
133,48,102487,1,0,1:0:0:0:
86,186,102629,5,2,3:0:0:0:
53,155,102700,1,0,0:0:0:0:
21,124,102770,1,0,1:0:0:0:
24,111,102841,1,0,1:0:0:0:
35,104,102912,1,0,1:0:0:0:
201,270,103053,5,0,1:0:0:0:
258,12,103195,1,0,1:0:0:0:
188,250,103336,5,4,1:0:0:0:
173,253,103407,1,0,2:0:0:0:
147,241,103478,1,2,2:3:0:0:
133,205,103549,1,0,2:0:0:0:
154,162,103619,1,0,2:0:0:0:
211,144,103690,1,0,2:0:0:0:
266,176,103761,1,2,2:3:0:0:
282,237,103832,1,0,2:0:0:0:
259,295,103902,1,0,2:0:0:0:
269,341,103973,1,0,2:0:0:0:
303,364,104044,1,2,2:3:0:0:
335,361,104115,1,0,2:0:0:0:
348,342,104185,1,0,2:0:0:0:
345,336,104256,1,0,2:0:0:0:
341,330,104327,1,2,2:3:0:0:
336,325,104398,1,0,2:0:0:0:
329,321,104468,6,0,L|241:349,3,63.6,0|0|2|0,2:0|2:0|2:3|2:0,0:0:0:0:
211,302,104751,2,0,P|145:334|99:374,1,127.2,0|2,2:0|2:3,0:0:0:0:
39,262,105034,5,0,2:0:0:0:
39,262,105105,1,0,2:0:0:0:
39,262,105176,2,0,P|-1:225|21:190,1,63.6,2|0,2:3|2:0,0:0:0:0:
41,166,105317,2,0,P|97:209|100:281,1,127.2,0|2,2:0|2:3,0:0:0:0:
204,207,105601,5,0,2:0:0:0:
209,204,105671,1,0,2:0:0:0:
216,203,105742,1,2,2:3:0:0:
222,204,105813,1,0,2:0:0:0:
246,211,105884,5,0,2:0:0:0:
249,205,105954,1,0,2:0:0:0:
252,200,106025,1,2,2:3:0:0:
258,196,106096,1,0,2:0:0:0:
280,184,106167,5,0,2:0:0:0:
278,179,106237,1,0,2:0:0:0:
277,173,106308,1,2,2:3:0:0:
278,165,106379,1,0,2:0:0:0:
285,141,106450,5,0,2:0:0:0:
279,138,106520,1,0,2:0:0:0:
274,134,106591,1,2,2:3:0:0:
270,129,106662,1,0,2:0:0:0:
265,103,106733,6,0,P|244:51|360:46,1,190.8,0|0,2:0|2:0,0:0:0:0:
370,27,107016,1,0,2:0:0:0:
381,49,107086,1,0,2:0:0:0:
373,73,107157,2,0,L|297:49,1,63.6,2|0,2:3|2:0,0:0:0:0:
175,125,107299,6,0,P|113:140|61:176,1,84.8,0|0,2:0|0:0,0:0:0:0:
35,172,107487,2,0,P|51:110|46:47,1,84.8,0|0,0:0|1:3,0:0:0:0:
62,28,107676,2,0,P|106:73|163:100,1,84.8
375,161,107865,6,0,P|448:140|459:25,1,190.8,8|0,1:3|0:0,0:0:0:0:
442,29,108148,1,0,3:0:0:0:
294,115,108289,1,2,3:0:0:0:
274,131,108360,1,0,0:0:0:0:
261,153,108431,2,0,L|305:329,1,127.2,0|2,1:0|3:0,0:0:0:0:
309,284,108643,1,0,0:0:0:0:
326,291,108714,2,0,L|298:370,1,63.6,0|0,1:0|0:0,0:0:0:0:
467,242,108855,6,0,P|431:247|391:278,1,63.6,2|0,1:3|1:0,0:0:0:0:
213,331,108997,2,0,P|173:364|156:249,1,190.8,4|0,1:3|0:0,0:0:0:0:
112,239,109280,1,0,3:0:0:0:
122,231,109351,1,0,0:0:0:0:
134,227,109421,2,0,P|179:261|163:296,1,63.6,2|0,1:3|0:0,0:0:0:0:
40,372,109563,5,0,1:0:0:0:
27,370,109634,1,0,0:0:0:0:
15,364,109704,2,0,P|7:308|43:294,1,63.6,2|0,3:0|0:0,0:0:0:0:
76,125,109846,1,0,1:0:0:0:
68,12,109987,6,0,P|109:43|100:74,1,63.6,2|0,1:3|1:0,0:0:0:0:
61,140,110129,2,0,P|137:118|287:82,1,190.8,8|0,1:3|0:0,0:0:0:0:
267,78,110412,1,0,3:0:0:0:
289,66,110483,1,0,0:0:0:0:
311,54,110553,2,0,P|361:73|407:86,1,63.6,2|0,1:3|0:0,0:0:0:0:
512,97,110695,6,0,P|443:135|312:215,1,190.8,6|0,1:2|0:0,0:0:0:0:
323,198,110978,1,0,3:0:0:0:
299,205,111049,1,0,0:0:0:0:
275,212,111119,2,0,P|254:260|230:302,1,63.6,2|0,1:3|1:0,0:0:0:0:
301,323,111261,2,0,P|364:294|450:261,1,127.2,4|2,1:2|3:0,0:0:0:0:
480,37,111544,5,0,1:0:0:0:
441,112,111638,5,0,0:0:0:0:
394,183,111733,5,0,0:0:0:0:
336,245,111827,6,0,L|191:302,1,127.2,4|2,1:2|3:0,0:0:0:0:
206,314,112039,1,0,0:0:0:0:
194,336,112110,1,0,1:0:0:0:
315,372,112251,1,0,1:0:0:0:
95,202,112393,5,4,1:0:0:0:
93,186,112464,1,0,0:0:0:0:
73,165,112534,1,0,3:0:0:0:
35,163,112605,1,0,0:0:0:0:
0,196,112676,1,0,3:0:0:0:
1,256,112747,1,0,0:0:0:0:
48,299,112817,1,0,3:0:0:0:
111,295,112888,1,0,0:0:0:0:
159,255,112959,1,0,3:0:0:0:
206,250,113030,1,0,0:0:0:0:
238,276,113101,1,0,3:0:0:0:
245,307,113171,1,0,0:0:0:0:
231,325,113242,1,0,3:0:0:0:
225,324,113313,1,0,0:0:0:0:
218,322,113384,1,0,3:0:0:0:
212,319,113454,1,0,0:0:0:0:
206,314,113525,6,0,L|225:235,3,63.6,0|0|0|0,3:0|0:0|3:0|0:0,0:0:0:0:
283,208,113808,2,0,P|259:142|247:72,1,127.2,0|0,3:0|3:0,0:0:0:0:
372,23,114091,5,0,3:0:0:0:
372,23,114162,1,0,0:0:0:0:
372,23,114233,2,0,P|352:69|312:73,1,63.6,0|0,3:0|0:0,0:0:0:0:
181,9,114374,1,0,3:0:0:0:
86,97,114516,6,0,P|72:56|106:44,1,63.6,0|0,3:0|0:0,0:0:0:0:
199,0,114657,2,0,P|176:70|118:215,1,190.8,8|0,1:3|0:0,0:0:0:0:
111,190,114940,1,0,3:0:0:0:
87,200,115011,1,0,0:0:0:0:
63,211,115082,2,0,P|42:248|81:275,1,63.6,0|0,3:0|0:0,0:0:0:0:
152,384,115223,5,0,3:0:0:0:
176,374,115294,1,0,0:0:0:0:
200,363,115365,2,0,P|221:326|182:299,1,63.6,0|0,3:0|0:0,0:0:0:0:
168,256,115506,6,0,P|110:303|54:374,1,127.2,0|0,3:0|3:0,0:0:0:0:
294,239,115789,5,4,1:3:0:0:
312,234,115860,1,0,0:0:0:0:
331,236,115931,2,0,B|376:271|394:325|393:325,1,63.6,0|0,3:0|0:0,0:0:0:0:
409,344,116072,1,0,3:0:0:0:
455,350,116143,1,0,0:0:0:0:
495,326,116214,1,0,3:0:0:0:
512,283,116284,1,0,0:0:0:0:
498,238,116355,5,0,1:0:0:0:
472,219,116426,1,0,0:0:0:0:
440,220,116497,2,0,P|408:191|429:146,1,63.6,0|0,3:0|0:0,0:0:0:0:
512,113,116638,1,0,3:0:0:0:
451,94,116709,1,0,0:0:0:0:
390,76,116780,1,0,3:0:0:0:
329,57,116851,1,0,0:0:0:0:
268,38,116921,6,0,P|233:68|226:97,3,63.6,8|0|0|0,1:3|3:0|3:0|3:0,0:0:0:0:
113,122,117204,2,0,P|156:137|185:128,3,63.6,0|0|0|0,3:0|3:0|3:0|3:0,0:0:0:0:
264,215,117487,2,0,P|255:169|233:149,3,63.6,0|0|0|0,1:0|3:0|3:0|3:0,0:0:0:0:
217,126,117770,1,0,1:0:0:0:
27,303,117912,5,0,1:0:0:0:
27,303,117983,1,0,1:0:0:0:
27,303,118053,2,0,P|0:229|101:271,1,190.8,8|0,1:3|3:0,0:0:0:0:
100,244,118336,1,0,3:0:0:0:
107,275,118407,1,0,3:0:0:0:
114,306,118478,2,0,L|190:338,1,63.6,0|0,1:0|3:0,0:0:0:0:
243,384,118619,5,0,1:0:0:0:
243,384,118690,1,0,3:0:0:0:
243,384,118761,2,0,L|319:352,1,63.6,0|0,3:0|3:0,0:0:0:0:
389,347,118902,5,0,1:0:0:0:
389,347,118973,1,0,3:0:0:0:
389,347,119044,2,0,L|420:270,1,63.6,0|0,1:0|1:0,0:0:0:0:
415,137,119185,5,4,1:3:0:0:
350,125,119256,1,0,3:0:0:0:
314,168,119327,1,0,3:0:0:0:
315,209,119398,1,0,3:0:0:0:
306,243,119468,1,0,3:0:0:0:
277,264,119539,1,0,3:0:0:0:
242,265,119610,2,0,P|203:215|235:185,1,63.6,0|0,1:0|3:0,0:0:0:0:
135,190,119751,5,0,1:0:0:0:
135,190,119822,1,0,3:0:0:0:
135,190,119893,2,0,P|142:127|186:128,1,63.6,0|0,3:0|3:0,0:0:0:0:
211,25,120034,6,0,P|228:112|249:189,1,127.2,0|0,3:0|1:0,0:0:0:0:
472,264,120317,5,4,1:2:0:0:
512,218,120388,1,0,3:0:0:0:
493,161,120459,2,0,P|459:132|424:155,1,63.6,0|0,3:0|3:0,0:0:0:0:
377,88,120601,5,4,3:2:0:0:
320,138,120695,5,0,0:0:0:0:
320,214,120789,5,0,0:0:0:0:
256,256,120884,6,0,P|221:266|219:307,3,63.6,0|0|0|0,3:2|3:0|3:0|3:0,0:0:0:0:
319,330,121167,2,0,P|302:361|328:392,3,63.6,4|0|0|0,3:2|3:0|3:0|3:0,0:0:0:0:
403,382,121450,5,4,1:1:0:0:
416,379,121520,1,0,2:0:0:0:
435,365,121591,1,2,3:0:0:0:
449,333,121662,1,0,3:0:0:0:
436,284,121733,1,10,1:2:0:0:
378,251,121803,1,0,2:0:0:0:
306,260,121874,1,2,3:0:0:0:
253,301,121945,1,0,3:0:0:0:
189,279,122016,1,2,1:2:0:0:
173,214,122086,1,0,2:0:0:0:
219,165,122157,1,2,3:0:0:0:
275,173,122228,1,0,3:0:0:0:
298,212,122299,1,10,1:2:0:0:
289,238,122369,1,0,2:0:0:0:
267,250,122440,2,0,P|214:277|186:299,1,63.6,2|0,3:0|3:0,0:0:0:0:
64,369,122582,5,2,1:2:0:0:
51,373,122652,1,0,2:0:0:0:
38,373,122723,2,0,P|11:336|37:312,1,63.6,2|0,3:0|3:0,0:0:0:0:
50,144,122865,5,10,1:2:0:0:
63,140,122935,1,0,2:0:0:0:
76,140,123006,2,0,P|102:176|76:200,1,63.6,2|0,3:0|3:0,0:0:0:0:
28,236,123148,6,0,P|96:284|152:348,1,127.2,2|2,1:2|3:0,0:0:0:0:
151,308,123360,1,0,3:0:0:0:
175,301,123431,2,0,P|220:345|273:380,1,127.2,10|2,1:2|3:0,0:0:0:0:
377,149,123714,5,2,1:2:0:0:
404,115,123784,1,0,2:0:0:0:
401,71,123855,1,2,3:0:0:0:
369,42,123926,1,0,3:0:0:0:
326,43,123997,1,10,1:2:0:0:
294,73,124067,1,0,2:0:0:0:
295,118,124138,2,0,P|318:151|376:138,1,63.6,2|0,3:0|3:0,0:0:0:0:
447,279,124280,5,2,1:2:0:0:
477,275,124351,1,0,2:0:0:0:
497,252,124421,1,2,3:0:0:0:
495,222,124492,1,0,3:0:0:0:
474,201,124563,1,10,1:2:0:0:
443,200,124634,1,0,2:0:0:0:
421,223,124704,2,0,P|414:257|438:280,1,63.6,2|0,3:0|3:0,0:0:0:0:
448,375,124846,6,0,P|383:349|302:324,1,127.2,2|2,1:2|3:0,0:0:0:0:
312,304,125058,1,0,3:0:0:0:
295,276,125129,2,0,P|252:296|203:308,1,63.6,10|0,1:2|2:0,0:0:0:0:
200,361,125270,2,0,P|157:341|108:329,1,63.6,2|0,3:0|3:0,0:0:0:0:
49,199,125412,6,0,L|-7:102,1,84.8,2|0,1:2|0:0,0:0:0:0:
97,106,125601,2,0,L|125:-3,1,84.8,0|10,0:0|1:2,0:0:0:0:
181,118,125789,2,0,L|276:60,1,84.8
336,31,125978,6,0,P|407:33|417:148,1,190.8,4|0,1:3|3:0,0:0:0:0:
390,157,126261,1,10,1:2:0:0:
351,166,126332,1,0,2:0:0:0:
323,149,126402,1,2,3:0:0:0:
297,156,126473,1,0,3:0:0:0:
285,171,126544,6,0,P|296:219|324:222,1,63.6,2|0,1:2|2:0,0:0:0:0:
315,294,126685,2,0,P|356:320|378:302,1,63.6,2|0,3:0|3:0,0:0:0:0:
431,366,126827,1,10,1:2:0:0:
431,366,126898,1,0,2:0:0:0:
431,366,126968,2,0,P|479:355|482:327,1,63.6,2|0,3:0|3:0,0:0:0:0:
512,203,127110,5,2,1:2:0:0:
449,171,127181,1,0,2:0:0:0:
388,189,127251,1,2,3:0:0:0:
362,233,127322,1,0,3:0:0:0:
355,272,127393,1,10,1:2:0:0:
333,290,127464,1,0,2:0:0:0:
307,294,127534,1,2,3:0:0:0:
294,285,127605,1,0,3:0:0:0:
289,273,127676,6,0,P|280:229|316:210,1,63.6,2|0,1:2|2:0,0:0:0:0:
267,151,127817,2,0,P|280:123|267:95,1,63.6,2|0,3:0|3:0,0:0:0:0:
207,55,127959,2,0,P|172:130|140:229,1,127.2,10|2,1:2|3:0,0:0:0:0:
50,384,128242,5,8,1:3:0:0:
1,350,128313,1,0,2:0:0:0:
0,292,128384,1,2,3:0:0:0:
48,263,128454,1,0,3:0:0:0:
99,288,128525,1,10,1:2:0:0:
117,328,128596,1,0,2:0:0:0:
144,348,128667,2,0,P|182:335|177:298,1,63.6,2|0,3:0|3:0,0:0:0:0:
257,290,128808,5,2,1:2:0:0:
257,290,128879,1,0,2:0:0:0:
257,290,128950,2,0,P|275:253|245:230,1,63.6,2|0,3:0|3:0,0:0:0:0:
205,106,129091,2,0,P|178:184|156:286,1,127.2,10|2,1:2|3:0,0:0:0:0:
23,84,129374,6,0,P|107:52|238:-7,1,169.6,2|0,1:1|0:0,0:0:0:0:
267,26,129657,5,10,1:2:0:0:
363,57,129751,5,0,0:0:0:0:
449,112,129846,5,0,0:0:0:0:
509,193,129940,6,0,P|437:215|361:248,1,127.2,2|2,1:2|3:0,0:0:0:0:
378,257,130152,1,0,3:0:0:0:
368,280,130223,2,0,P|350:320|308:325,1,63.6,10|0,1:2|2:0,0:0:0:0:
308,229,130365,2,0,P|282:246|274:277,1,63.6,2|0,3:0|3:0,0:0:0:0:
219,384,130506,6,0,P|202:310|129:189,1,190.8,4|0,1:1|3:0,0:0:0:0:
111,195,130789,1,8,1:2:0:0:
92,189,130860,1,0,0:0:0:0:
73,183,130931,2,0,P|42:143|64:112,1,63.6,2|0,3:0|3:0,0:0:0:0:
69,38,131072,5,8,1:2:0:0:
122,2,131143,1,0,0:0:0:0:
176,19,131214,1,2,3:0:0:0:
193,64,131284,1,0,3:0:0:0:
205,95,131355,1,8,1:2:0:0:
228,104,131426,1,0,0:0:0:0:
251,100,131497,1,2,3:0:0:0:
259,88,131567,1,0,3:0:0:0:
260,79,131638,6,0,P|183:117|213:179,1,127.2,8|2,1:2|3:0,0:0:0:0:
205,169,131851,1,0,3:0:0:0:
225,192,131921,2,0,P|242:257|252:322,1,127.2,8|2,1:2|3:0,0:0:0:0:
430,175,132204,6,0,P|477:246|420:285,1,127.2,8|2,1:2|3:0,0:0:0:0:
432,280,132417,1,0,3:0:0:0:
403,290,132487,2,0,P|355:337|314:389,1,127.2,8|2,1:2|3:0,0:0:0:0:
328,145,132770,5,8,1:3:0:0:
312,131,132841,1,0,0:0:0:0:
301,115,132912,1,2,3:0:0:0:
294,97,132983,1,0,3:0:0:0:
290,79,133053,2,0,P|311:36|355:44,1,63.6,8|0,1:2|0:0,0:0:0:0:
439,9,133195,2,0,P|412:69|414:96,1,63.6,2|0,3:0|3:0,0:0:0:0:
347,224,133336,6,0,L|205:258,1,127.2,8|2,1:2|3:0,0:0:0:0:
209,282,133549,1,0,3:0:0:0:
195,310,133619,2,0,L|53:344,1,127.2,8|2,1:2|3:0,0:0:0:0:
0,140,133902,6,0,L|142:174,1,127.2,4|2,1:3|3:0,0:0:0:0:
4,227,134185,5,8,1:2:0:0:
36,224,134256,1,0,0:0:0:0:
70,200,134327,1,2,3:0:0:0:
102,143,134398,1,0,3:0:0:0:
169,112,134468,6,0,P|200:145|216:181,1,84.8,8|0,1:2|0:0,0:0:0:0:
246,73,134657,2,0,P|235:33|197:19,1,84.8,0|8,0:0|1:2,0:0:0:0:
154,225,134846,2,0,P|165:265|204:280,1,84.8
348,77,135034,5,4,1:1:0:0:
417,63,135105,1,0,0:0:0:0:
466,102,135176,1,2,3:0:0:0:
474,154,135247,1,0,3:0:0:0:
453,186,135317,1,8,1:2:0:0:
421,208,135388,1,0,0:0:0:0:
417,235,135459,1,2,3:0:0:0:
429,255,135530,1,0,3:0:0:0:
442,258,135601,6,0,P|480:308|427:360,1,127.2,8|2,1:2|3:0,0:0:0:0:
443,352,135813,1,0,3:0:0:0:
437,348,135884,1,8,1:2:0:0:
316,247,136025,5,2,3:0:0:0:
274,231,136096,1,0,3:0:0:0:
232,215,136167,1,12,1:2:0:0:
191,334,136308,5,2,3:0:0:0:
213,365,136379,1,0,3:0:0:0:
247,381,136450,1,8,1:2:0:0:
125,237,136591,5,2,3:0:0:0:
96,221,136662,1,0,3:0:0:0:
64,221,136733,2,0,L|-6:27,1,190.8,8|0,1:2|3:0,0:0:0:0:
30,44,137016,2,0,L|69:116,1,63.6,8|0,1:2|3:0,0:0:0:0:
128,115,137157,1,2,3:0:0:0:
304,241,137299,5,12,1:2:0:0:
365,207,137369,1,0,3:0:0:0:
360,151,137440,1,2,1:2:0:0:
313,122,137511,1,0,3:0:0:0:
278,140,137582,1,8,1:2:0:0:
270,164,137652,1,0,3:0:0:0:
261,177,137723,1,2,1:2:0:0:
249,179,137794,1,0,3:0:0:0:
180,157,137865,5,8,1:2:0:0:
160,89,137935,1,0,3:0:0:0:
204,53,138006,1,2,1:2:0:0:
257,66,138077,1,0,3:0:0:0:
269,103,138148,1,8,1:2:0:0:
258,126,138218,1,0,3:0:0:0:
255,142,138289,2,0,P|274:176|322:157,1,63.6,2|0,1:2|3:0,0:0:0:0:
434,254,138431,5,12,1:2:0:0:
490,228,138501,1,0,3:0:0:0:
510,167,138572,1,10,1:2:0:0:
473,115,138643,1,0,3:0:0:0:
410,98,138714,1,8,1:2:0:0:
374,62,138784,1,0,3:0:0:0:
374,23,138855,1,10,1:2:0:0:
397,1,138926,1,0,3:0:0:0:
422,0,138997,1,8,1:2:0:0:
441,14,139067,1,0,3:0:0:0:
448,40,139138,1,10,1:2:0:0:
441,58,139209,1,0,3:0:0:0:
433,67,139280,1,8,1:2:0:0:
429,72,139351,1,0,3:0:0:0:
428,78,139421,2,0,P|416:120|430:171,1,63.6,10|0,1:2|3:0,0:0:0:0:
484,319,139563,5,4,1:0:0:0:
423,298,141827,6,0,P|373:264|349:285,3,63.6,2|0|0|0,0:1|0:0|0:0|0:0,0:0:0:0:
398,190,142110,2,0,P|338:201|336:233,3,63.6
303,131,142393,2,0,P|269:181|290:205,3,63.6
194,156,142676,2,0,P|205:215|237:217,3,63.6
281,274,142959,5,0,0:0:0:0:
293,287,143030,1,0,0:0:0:0:
304,315,143101,1,0,0:0:0:0:
297,349,143171,1,0,0:0:0:0:
265,378,143242,1,0,0:0:0:0:
210,384,143313,1,0,0:0:0:0:
170,341,143384,1,0,0:0:0:0:
179,274,143454,1,0,0:0:0:0:
136,218,143525,1,0,0:0:0:0:
66,225,143596,1,0,0:0:0:0:
38,289,143667,1,0,0:0:0:0:
78,344,143737,1,0,0:0:0:0:
150,337,143808,2,0,P|234:295|334:275,1,159,2|0,1:0|0:0,0:0:0:0:
401,366,144091,6,0,P|416:283|486:97,1,238.5
496,129,144374,1,4,1:1:0:0:
361,190,144516,6,0,P|302:182|306:137,1,79.5,0|0,3:0|3:0,0:0:0:0:
234,18,144657,1,2,1:2:0:0:
131,117,144799,6,0,P|112:66|157:55,1,68.9,0|0,3:0|3:0,0:0:0:0:
253,0,144940,1,8,1:2:0:0:
246,51,145011,1,0,0:0:0:0:
237,102,145082,1,0,3:0:0:0:
223,151,145152,1,0,3:0:0:0:
205,202,145223,1,2,1:2:0:0:
57,341,145365,5,0,3:0:0:0:
41,353,145435,1,0,3:0:0:0:
15,347,145506,1,8,1:2:0:0:
0,304,145577,1,0,0:0:0:0:
38,264,145648,1,0,3:0:0:0:
106,278,145718,1,0,3:0:0:0:
131,341,145789,1,2,1:2:0:0:
302,252,145931,6,0,P|255:278|255:309,1,68.9,0|0,3:0|3:0,0:0:0:0:
158,371,146072,1,8,1:2:0:0:
155,348,146143,1,0,0:0:0:0:
152,325,146214,2,0,P|141:262|131:227,1,68.9,0|0,3:0|3:0,0:0:0:0:
11,150,146355,6,0,P|70:122|206:26,1,206.7,14|0,1:2|3:0,0:0:0:0:
58,85,146638,2,0,P|110:68|143:55,1,68.9,2|0,1:2|3:0,0:0:0:0:
274,0,146780,6,0,P|321:-20|317:86,1,206.7,10|0,1:2|3:0,0:0:0:0:
283,147,147063,2,0,P|248:112|259:78,1,68.9,10|0,1:2|0:0,0:0:0:0:
439,9,147204,5,0,3:2:0:0:
482,68,147275,1,0,3:0:0:0:
471,110,147346,1,0,3:0:0:0:
445,124,147417,1,0,3:0:0:0:
436,143,147487,2,0,P|371:184|303:262,1,137.8,10|0,1:3|3:0,0:0:0:0:
345,249,147700,1,0,3:0:0:0:
361,270,147770,2,0,P|407:285|444:306,1,68.9,2|0,1:2|0:0,0:0:0:0:
452,360,147912,1,0,3:0:0:0:
299,353,148053,6,0,P|258:288|180:220,1,137.8,6|0,1:3|3:0,0:0:0:0:
193,262,148266,1,0,3:0:0:0:
172,278,148336,2,0,P|157:324|136:361,1,68.9,2|0,1:2|1:0,0:0:0:0:
82,369,148478,5,0,1:0:0:0:
54,305,148549,1,0,1:0:0:0:
36,239,148619,2,0,P|19:180|124:205,1,206.7,2|0,1:1|3:0,0:0:0:0:
138,210,148902,2,0,P|132:145|71:124,1,137.8,2|0,1:3|3:0,0:0:0:0:
223,371,149185,5,2,1:3:0:0:
279,161,149327,1,0,3:0:0:0:
264,143,149398,1,0,3:0:0:0:
237,136,149468,2,0,L|217:-3,1,137.8,2|0,1:3|3:0,0:0:0:0:
496,239,149751,6,0,P|513:180|408:205,1,206.7,2|0,1:3|3:0,0:0:0:0:
393,210,150034,2,0,P|398:145|459:124,1,137.8,2|0,1:3|3:0,0:0:0:0:
309,371,150317,5,2,1:3:0:0:
253,161,150459,1,0,3:0:0:0:
268,143,150530,1,0,3:0:0:0:
295,136,150601,2,0,L|315:-3,1,137.8,2|0,1:3|3:0,0:0:0:0:
80,107,150884,5,10,1:3:0:0:
16,144,150954,1,0,0:0:0:0:
20,201,151025,1,2,1:3:0:0:
61,230,151096,1,0,0:0:0:0:
100,223,151167,1,2,1:3:0:0:
116,192,151237,1,0,0:0:0:0:
136,173,151308,1,2,1:3:0:0:
154,174,151379,1,0,0:0:0:0:
163,182,151450,6,0,P|184:226|138:240,1,68.9,2|0,1:3|0:0,0:0:0:0:
10,325,151591,2,0,P|89:344|134:346,1,68.9,2|0,1:3|0:0,0:0:0:0:
257,250,151733,6,0,P|240:295|198:273,1,68.9,2|0,1:3|0:0,0:0:0:0:
149,354,151874,2,0,P|182:361|215:372,1,68.9,2|0,1:3|0:0,0:0:0:0:
393,348,152016,5,6,1:3:0:0:
447,322,152086,1,0,1:3:0:0:
470,266,152157,1,2,1:3:0:0:
450,208,152228,1,0,1:3:0:0:
410,185,152299,1,2,1:3:0:0:
373,201,152369,1,0,1:3:0:0:
366,223,152440,1,2,1:3:0:0:
371,240,152511,1,0,1:3:0:0:
362,238,152582,5,2,1:3:0:0:
355,217,152652,1,0,1:3:0:0:
364,189,152723,1,2,1:3:0:0:
410,169,152794,1,0,1:3:0:0:
460,198,152865,1,2,1:3:0:0:
486,271,152935,1,0,1:3:0:0:
457,341,153006,1,2,1:3:0:0:
389,373,153077,1,0,1:3:0:0:
326,337,153148,6,0,P|282:340|204:362,1,111.3
235,370,153431,1,4,1:1:0:0:
2,230,153572,6,0,P|22:184|72:194,1,68.9,0|0,3:0|3:0,0:0:0:0:
239,124,153714,1,2,1:2:0:0:
290,25,153855,6,0,P|305:81|269:92,1,68.9,0|0,3:0|3:0,0:0:0:0:
231,111,153997,1,8,1:2:0:0:
184,91,154067,1,0,0:0:0:0:
135,74,154138,1,0,3:0:0:0:
86,61,154209,1,0,3:0:0:0:
33,51,154280,1,2,1:2:0:0:
135,185,154421,5,0,3:0:0:0:
127,214,154492,1,0,3:0:0:0:
142,245,154563,1,8,1:2:0:0:
188,254,154634,1,0,0:0:0:0:
237,230,154704,1,0,3:0:0:0:
289,263,154775,1,0,3:0:0:0:
267,321,154846,1,2,1:2:0:0:
174,366,154987,6,0,P|131:337|144:303,1,68.9,0|0,3:0|3:0,0:0:0:0:
162,120,155129,5,8,1:2:0:0:
162,120,155200,1,0,0:0:0:0:
162,120,155270,2,0,P|204:148|191:182,1,68.9,0|0,3:0|3:0,0:0:0:0:
34,272,155412,6,0,P|136:253|237:230,1,206.7,12|0,1:2|3:0,0:0:0:0:
87,206,155695,2,0,P|139:223|172:236,1,68.9,2|0,1:2|3:0,0:0:0:0:
345,347,155836,1,10,1:2:0:0:
453,315,155978,6,0,P|505:282|476:207,1,137.8,0|10,3:0|1:2,0:0:0:0:
480,225,156190,1,0,3:0:0:0:
470,234,156261,1,0,3:2:0:0:
407,214,156332,1,0,3:0:0:0:
397,150,156402,1,0,3:0:0:0:
451,113,156473,1,0,3:0:0:0:
508,145,156544,6,0,P|418:177|326:221,1,137.8,10|0,1:3|3:0,0:0:0:0:
316,165,156756,1,0,3:0:0:0:
282,140,156827,2,0,P|251:111|288:78,1,68.9,2|0,1:2|0:0,0:0:0:0:
315,40,156968,2,0,P|346:69|309:102,1,68.9,0|0,3:0|3:0,0:0:0:0:
276,261,157110,6,0,P|209:279|98:305,1,137.8,6|0,1:3|3:0,0:0:0:0:
121,268,157322,1,0,3:0:0:0:
99,240,157393,2,0,P|147:209|184:255,1,68.9,2|0,1:2|1:0,0:0:0:0:
356,328,157534,5,0,1:0:0:0:
363,339,157605,1,0,1:0:0:0:
370,350,157676,2,0,P|436:363|401:260,1,206.7,2|0,1:1|3:0,0:0:0:0:
406,230,157959,2,0,P|399:171|459:225,1,137.8,2|0,1:3|3:0,0:0:0:0:
498,12,158242,5,2,1:3:0:0:
292,85,158384,1,0,3:0:0:0:
254,67,158454,1,0,3:0:0:0:
216,49,158525,2,0,L|250:195,1,137.8,2|0,1:3|3:0,0:0:0:0:
142,350,158808,6,0,P|76:363|111:260,1,206.7,2|0,1:3|3:0,0:0:0:0:
106,230,159091,2,0,P|112:171|52:225,1,137.8,2|0,1:3|3:0,0:0:0:0:
14,12,159374,5,2,1:3:0:0:
220,144,159516,1,0,3:0:0:0:
258,162,159586,1,0,3:0:0:0:
296,180,159657,2,0,L|262:34,1,137.8,2|0,1:3|3:0,0:0:0:0:
500,62,159940,5,10,1:3:0:0:
440,21,160011,1,0,0:0:0:0:
388,51,160082,1,2,1:3:0:0:
384,98,160152,1,0,0:0:0:0:
405,131,160223,1,2,1:3:0:0:
439,142,160294,1,0,0:0:0:0:
469,131,160365,1,2,1:3:0:0:
496,140,160435,1,0,0:0:0:0:
508,159,160506,6,0,P|505:200|469:207,1,68.9,2|0,1:3|0:0,0:0:0:0:
353,369,160648,2,0,P|356:328|392:321,1,68.9,2|0,1:3|0:0,0:0:0:0:
346,230,160789,6,0,L|432:255,1,68.9,2|0,1:3|0:0,0:0:0:0:
510,296,160931,2,0,L|424:271,1,68.9,2|0,1:3|0:0,0:0:0:0:
194,382,161072,5,6,1:3:0:0:
137,343,161143,1,0,1:3:0:0:
126,287,161214,1,2,1:3:0:0:
160,251,161284,1,0,1:3:0:0:
207,237,161355,1,2,1:3:0:0:
227,202,161426,1,0,1:3:0:0:
214,171,161497,1,2,1:3:0:0:
193,158,161567,1,0,1:3:0:0:
173,163,161638,6,0,P|144:191|166:232,1,68.9,2|0,1:3|1:3,0:0:0:0:
262,311,161780,6,0,P|290:282|268:241,1,68.9,2|0,1:3|1:3,0:0:0:0:
249,102,161921,1,2,1:3:0:0:
242,100,161992,1,0,1:3:0:0:
237,95,162063,2,0,P|235:61|260:40,1,68.9,2|0,1:3|1:3,0:0:0:0:
421,0,162204,5,6,1:2:0:0:
456,21,162275,1,0,1:3:0:0:
472,59,162346,2,0,L|513:77,2,34.45,2|0|0,1:3|0:0|1:3,0:0:0:0:
410,102,162487,5,2,1:3:0:0:
375,123,162558,1,0,1:3:0:0:
359,161,162629,2,0,L|318:179,2,34.45,2|0|0,1:3|0:0|1:3,0:0:0:0:
421,204,162770,5,2,1:3:0:0:
456,225,162841,1,0,1:3:0:0:
472,263,162912,2,0,L|513:281,2,34.45,2|0|0,1:3|0:0|1:3,0:0:0:0:
410,306,163053,5,2,1:3:0:0:
375,327,163124,1,0,1:3:0:0:
359,365,163195,2,0,L|318:383,2,34.45,2|0|0,1:3|0:0|1:3,0:0:0:0:
275,326,163336,5,4,1:2:0:0:
270,320,163407,1,0,0:0:0:0:
263,316,163478,1,0,0:0:0:0:
256,315,163549,1,0,0:0:0:0:
250,310,163619,2,0,L|230:386,3,68.9
150,278,163902,5,0,0:0:0:0:
158,291,163973,1,0,0:0:0:0:
147,311,164044,1,0,2:0:0:0:
112,313,164115,1,0,2:0:0:0:
85,282,164185,1,0,3:0:0:0:
92,232,164256,1,0,3:0:0:0:
108,176,164327,1,0,3:0:0:0:
54,132,164398,1,0,3:0:0:0:
0,182,164468,6,0,P|74:213|204:284,1,190.8,4|0,1:1|0:0,0:0:0:0:
238,232,164751,1,2,2:3:0:0:
262,220,164822,1,0,0:0:0:0:
279,198,164893,2,0,P|289:157|272:122,1,63.6
193,0,165034,5,2,2:3:0:0:
134,25,165105,1,0,0:0:0:0:
130,84,165176,1,0,0:0:0:0:
170,114,165247,1,0,0:0:0:0:
213,105,165317,1,2,2:3:0:0:
236,69,165388,1,0,0:0:0:0:
255,41,165459,1,0,0:0:0:0:
286,29,165530,1,0,0:0:0:0:
310,34,165601,6,0,P|326:94|303:103,3,63.6,2|0|0|0,2:3|0:0|0:0|0:0,0:0:0:0:
421,76,165884,2,0,P|389:129|367:119,3,63.6,2|0|0|0,2:3|0:0|0:0|0:0,0:0:0:0:
469,184,166167,2,0,P|409:200|400:177,3,63.6,2|0|0|0,2:3|0:0|0:0|0:0,0:0:0:0:
426,294,166450,1,2,2:3:0:0:
426,294,166520,1,0,0:0:0:0:
426,294,166591,2,0,P|372:262|382:240,1,63.6
299,183,166733,6,0,L|272:320,1,127.2,0|0,1:0|0:0,0:0:0:0:
157,370,167016,5,2,2:3:0:0:
149,378,167086,1,0,0:0:0:0:
128,379,167157,1,0,0:0:0:0:
100,355,167228,1,0,0:0:0:0:
103,310,167299,1,2,2:3:0:0:
149,275,167369,1,0,0:0:0:0:
212,292,167440,1,0,0:0:0:0:
246,352,167511,1,0,0:0:0:0:
314,368,167582,1,2,2:3:0:0:
362,318,167652,1,0,0:0:0:0:
353,259,167723,1,0,0:0:0:0:
319,240,167794,1,0,0:0:0:0:
293,257,167865,5,2,2:3:0:0:
288,252,167935,1,0,0:0:0:0:
285,246,168006,2,0,L|302:165,1,63.6
252,110,168148,5,2,2:3:0:0:
293,54,168218,1,0,0:0:0:0:
346,41,168289,1,0,0:0:0:0:
390,57,168360,1,0,0:0:0:0:
415,79,168431,1,2,2:3:0:0:
447,81,168501,1,0,0:0:0:0:
469,67,168572,1,0,0:0:0:0:
478,47,168643,1,0,0:0:0:0:
472,29,168714,6,0,P|385:72|330:117,1,127.2,2|0,2:3|0:0,0:0:0:0:
202,238,168997,5,0,1:0:0:0:
134,44,169138,1,0,0:0:0:0:
58,187,169280,5,2,2:3:0:0:
53,199,169351,1,0,0:0:0:0:
34,208,169421,1,0,0:0:0:0:
4,192,169492,1,0,0:0:0:0:
0,151,169563,1,2,2:3:0:0:
43,117,169634,1,0,0:0:0:0:
105,127,169704,1,0,0:0:0:0:
133,184,169775,1,0,0:0:0:0:
113,244,169846,1,2,2:3:0:0:
103,279,169917,1,0,0:0:0:0:
120,310,169987,1,0,0:0:0:0:
135,316,170058,1,0,0:0:0:0:
149,313,170129,6,0,P|214:327|280:357,1,127.2,2|0,2:3|0:0,0:0:0:0:
506,307,170412,5,2,2:3:0:0:
269,378,170553,1,0,0:0:0:0:
512,313,170695,5,2,2:3:0:0:
275,384,170836,1,0,0:0:0:0:
421,375,170978,5,2,2:3:0:0:
417,365,171049,1,0,0:0:0:0:
408,359,171119,2,0,L|342:344,1,63.6
309,286,171261,6,0,P|283:194|250:110,1,127.2,0|0,1:0|0:0,0:0:0:0:
284,114,171473,1,0,0:0:0:0:
324,84,171544,1,2,2:3:0:0:
365,93,171615,1,0,0:0:0:0:
387,114,171685,1,0,0:0:0:0:
392,140,171756,1,0,0:0:0:0:
404,160,171827,1,2,2:3:0:0:
423,164,171898,1,0,0:0:0:0:
439,160,171968,1,0,0:0:0:0:
449,147,172039,1,0,0:0:0:0:
453,132,172110,6,0,P|409:95|373:87,1,63.6,2|0,2:3|0:0,0:0:0:0:
345,10,172251,2,0,P|287:14|256:34,1,63.6
128,15,172393,5,2,1:3:0:0:
149,37,172464,1,0,0:0:0:0:
170,60,172534,1,0,0:0:0:0:
192,83,172605,1,0,0:0:0:0:
201,129,172676,5,2,2:3:0:0:
231,137,172747,1,0,0:0:0:0:
262,144,172817,1,0,0:0:0:0:
292,151,172888,1,0,0:0:0:0:
336,134,172959,5,2,2:3:0:0:
335,151,173030,1,0,0:0:0:0:
334,171,173101,1,0,0:0:0:0:
334,189,173171,1,0,0:0:0:0:
318,212,173242,5,2,2:3:0:0:
328,229,173313,1,0,0:0:0:0:
337,245,173384,1,0,0:0:0:0:
347,262,173454,1,0,0:0:0:0:
357,313,173525,6,0,P|289:331|229:359,1,127.2,4|0,1:1|3:0,0:0:0:0:
215,367,173737,1,0,2:0:0:0:
191,377,173808,2,0,P|162:326|124:313,1,63.6,2|0,3:3|2:0,0:0:0:0:
59,271,173950,5,0,3:0:0:0:
4,219,174020,1,0,2:0:0:0:
23,150,174091,1,2,3:3:0:0:
75,128,174162,1,0,2:0:0:0:
114,149,174233,1,0,3:0:0:0:
123,184,174303,1,0,2:0:0:0:
145,206,174374,1,2,3:3:0:0:
170,210,174445,1,0,2:0:0:0:
193,199,174516,2,0,P|215:149|178:117,1,63.6,0|0,3:0|2:0,0:0:0:0:
211,41,174657,5,2,3:3:0:0:
247,3,174728,1,0,2:0:0:0:
291,0,174799,1,0,3:0:0:0:
320,33,174869,1,0,2:0:0:0:
332,76,174940,1,2,3:3:0:0:
361,108,175011,1,0,2:0:0:0:
405,106,175082,1,0,3:0:0:0:
441,69,175152,1,0,2:0:0:0:
436,23,175223,5,2,3:3:0:0:
424,17,175294,1,0,2:0:0:0:
411,15,175365,2,0,P|370:29|324:62,1,63.6,0|0,3:0|2:0,0:0:0:0:
242,162,175506,5,2,3:3:0:0:
254,156,175577,1,0,2:0:0:0:
267,154,175648,2,0,P|307:168|353:201,1,63.6,0|0,3:0|2:0,0:0:0:0:
512,289,175789,6,0,P|456:328|370:368,1,127.2,4|0,1:1|3:0,0:0:0:0:
366,354,176001,1,0,2:0:0:0:
316,335,176072,1,2,3:3:0:0:
286,285,176143,1,0,2:0:0:0:
223,263,176214,1,0,3:0:0:0:
181,298,176284,1,0,2:0:0:0:
184,343,176355,1,2,3:3:0:0:
210,365,176426,1,0,2:0:0:0:
236,363,176497,2,0,P|270:324|238:297,1,63.6,0|0,3:0|2:0,0:0:0:0:
148,188,176638,5,2,3:3:0:0:
148,188,176709,1,0,2:0:0:0:
148,188,176780,2,0,P|114:227|146:254,1,63.6,0|0,3:0|2:0,0:0:0:0:
42,343,176921,5,2,3:3:0:0:
61,326,176992,1,0,2:0:0:0:
61,301,177063,1,0,3:0:0:0:
31,270,177134,1,0,2:0:0:0:
0,216,177204,1,2,3:3:0:0:
22,149,177275,1,0,2:0:0:0:
75,103,177346,2,0,P|109:82|165:71,1,63.6,0|0,3:0|3:0,0:0:0:0:
267,14,177487,5,2,3:3:0:0:
279,28,177558,1,0,2:0:0:0:
289,43,177629,2,0,P|313:95|326:137,1,63.6,0|0,3:0|2:0,0:0:0:0:
378,130,177770,5,2,3:3:0:0:
355,189,177841,1,0,3:0:0:0:
333,249,177912,2,0,P|319:316|315:359,1,63.6,0|0,3:0|3:0,0:0:0:0:
395,383,178053,5,4,1:1:0:0:
409,384,178124,1,0,3:0:0:0:
424,381,178195,1,0,3:0:0:0:
436,371,178266,1,0,3:0:0:0:
443,358,178336,2,0,P|445:327|424:304,1,63.6,2|0,3:3|3:0,0:0:0:0:
242,214,178478,5,0,3:0:0:0:
169,227,178549,1,0,3:0:0:0:
116,272,178619,1,2,3:3:0:0:
105,332,178690,1,0,3:0:0:0:
135,366,178761,1,0,3:0:0:0:
173,369,178832,1,0,3:0:0:0:
192,344,178902,1,2,3:3:0:0:
192,321,178973,1,0,3:0:0:0:
182,307,179044,6,0,P|166:275|85:256,1,63.6,0|0,3:0|3:0,0:0:0:0:
42,230,179185,2,0,P|-3:177|22:120,1,127.2,4|0,1:1|3:0,0:0:0:0:
243,8,179468,6,0,P|195:38|164:48,1,63.6,2|0,3:3|3:0,0:0:0:0:
110,155,179610,2,0,P|157:124|188:114,1,63.6,0|0,3:0|3:0,0:0:0:0:
299,159,179751,6,0,P|268:154|237:144,1,63.6,2|0,3:3|3:0,0:0:0:0:
54,3,179893,2,0,P|85:7|116:18,1,63.6,0|0,3:0|3:0,0:0:0:0:
172,85,180034,5,2,3:3:0:0:
173,78,180105,1,0,3:0:0:0:
175,73,180176,1,0,3:0:0:0:
393,22,180317,6,0,P|451:36|463:95,1,127.2,4|0,1:1|3:0,0:0:0:0:
426,149,180530,1,0,3:0:0:0:
374,162,180601,1,2,3:3:0:0:
336,145,180671,1,0,3:0:0:0:
299,159,180742,1,0,3:0:0:0:
287,191,180813,1,0,3:0:0:0:
298,215,180884,1,2,1:3:0:0:
313,218,180954,1,0,3:0:0:0:
328,223,181025,1,0,3:0:0:0:
342,231,181096,1,0,3:0:0:0:
355,241,181167,6,0,P|353:277|297:296,1,63.6,2|0,3:3|3:0,0:0:0:0:
264,378,181308,2,0,P|232:358|244:300,1,63.6,0|0,3:0|3:0,0:0:0:0:
110,155,181450,5,4,1:1:0:0:
70,134,181520,1,0,3:0:0:0:
39,142,181591,2,0,P|11:174|-9:215,1,63.6,0|0,3:0|3:0,0:0:0:0:
8,348,181733,5,2,1:3:0:0:
29,370,181803,1,0,3:0:0:0:
61,370,181874,2,0,P|97:342|95:304,1,63.6,0|0,3:0|3:0,0:0:0:0:
72,248,182016,5,2,1:3:0:0:
116,202,182086,1,0,3:0:0:0:
162,158,182157,1,0,1:0:0:0:
208,114,182228,1,0,3:0:0:0:
256,73,182299,2,0,P|306:49|362:39,1,63.6,2|0,1:3|3:0,0:0:0:0:
422,10,182440,2,0,P|418:64|398:118,1,63.6,0|0,1:0|3:0,0:0:0:0:
393,185,182582,5,0,0:0:0:0:
393,185,182652,1,0,0:0:0:0:
393,185,182723,1,0,0:0:0:0:
393,185,182794,1,0,0:0:0:0:
393,185,182865,2,0,P|348:154|311:110,3,63.6
352,260,183148,5,0,0:0:0:0:
352,260,183218,1,0,0:0:0:0:
352,260,183289,1,0,0:0:0:0:
352,260,183360,1,0,0:0:0:0:
352,260,183431,2,0,P|298:270|241:264,3,63.6
238,175,183714,5,0,3:1:0:0:
175,157,183784,1,0,2:1:0:0:
125,188,183855,1,0,3:1:0:0:
114,242,183926,1,0,3:1:0:0:
145,284,183997,1,0,3:1:0:0:
143,345,184067,1,0,3:1:0:0:
107,370,184138,1,0,3:1:0:0:
70,365,184209,1,0,3:1:0:0:
51,341,184280,1,0,3:1:0:0:
51,316,184351,1,0,3:1:0:0:
65,300,184421,1,0,3:1:0:0:
81,292,184492,1,0,3:1:0:0:
93,293,184563,1,0,3:1:0:0:
103,299,184634,1,0,3:1:0:0:
111,308,184704,1,0,3:1:0:0:
117,319,184775,1,0,3:1:0:0:
117,331,184846,6,0,P|86:175|198:286,1,413.4,4|0,3:3|0:0,0:0:0:0:
124,248,186827,5,8,3:2:0:0:
447,381,187110,5,8,1:3:0:0:
464,381,187181,1,0,1:2:0:0:
491,355,187251,1,10,1:2:0:0:
480,304,187322,1,0,1:2:0:0:
420,280,187393,1,0,1:2:0:0:
363,321,187464,1,0,1:2:0:0:
296,328,187534,1,10,1:2:0:0:
254,271,187605,1,0,1:2:0:0:
271,203,187676,1,0,1:2:0:0:
340,190,187747,1,0,1:2:0:0:
391,243,187817,1,10,1:2:0:0:
374,303,187888,1,0,1:2:0:0:
328,313,187959,1,0,1:2:0:0:
296,293,188030,1,0,1:2:0:0:
289,261,188101,2,0,P|310:214|351:228,1,63.6,10|0,1:2|1:2,0:0:0:0:
466,155,188242,5,0,1:3:0:0:
512,94,188313,1,0,1:2:0:0:
475,41,188384,1,10,1:2:0:0:
423,45,188454,1,0,1:2:0:0:
401,84,188525,1,0,1:2:0:0:
372,103,188596,1,0,1:2:0:0:
342,94,188667,1,10,1:2:0:0:
330,76,188737,1,0,1:2:0:0:
334,58,188808,6,0,P|354:13|360:-33,3,63.6,0|0|10|0,1:2|1:2|1:2|1:2,0:0:0:0:
256,84,189091,2,0,P|238:38|210:1,1,63.6,0|0,1:2|1:2,0:0:0:0:
219,157,189233,2,0,P|173:137|127:130,1,63.6,10|0,1:2|1:2,0:0:0:0:
80,171,189374,5,4,1:3:0:0:
67,178,189445,1,0,1:2:0:0:
61,196,189516,1,10,1:2:0:0:
73,232,189586,1,0,1:2:0:0:
125,262,189657,1,0,1:2:0:0:
191,234,189728,1,0,1:2:0:0:
258,251,189799,1,10,1:2:0:0:
276,317,189869,1,0,1:2:0:0:
236,375,189940,5,0,1:2:0:0:
217,370,190011,1,0,1:2:0:0:
200,359,190082,2,0,P|192:313|228:302,1,63.6,10|0,1:2|1:2,0:0:0:0:
408,257,190223,5,0,1:2:0:0:
448,237,190294,1,0,1:2:0:0:
458,193,190365,2,0,P|459:160|430:114,1,63.6,10|0,1:2|1:2,0:0:0:0:
345,30,190506,5,0,1:3:0:0:
268,17,190577,1,0,1:2:0:0:
213,62,190648,1,10,1:2:0:0:
207,119,190718,1,0,1:2:0:0:
181,157,190789,1,0,1:2:0:0:
137,171,190860,1,0,1:2:0:0:
104,153,190931,1,10,1:2:0:0:
97,129,191001,1,0,1:2:0:0:
126,59,191072,5,0,1:2:0:0:
196,67,191143,1,0,1:2:0:0:
255,90,191214,1,10,1:2:0:0:
303,120,191284,1,0,1:2:0:0:
338,145,191355,1,0,1:2:0:0:
364,173,191426,1,0,1:2:0:0:
380,199,191497,2,0,P|395:226|407:256,1,63.6,10|0,1:2|1:2,0:0:0:0:
431,358,191638,5,8,1:3:0:0:
404,368,191709,1,0,1:2:0:0:
364,353,191780,2,0,P|333:315|347:278,1,63.6,10|0,1:2|1:2,0:0:0:0:
470,100,191921,5,0,1:2:0:0:
473,94,191992,1,0,1:2:0:0:
476,88,192063,5,10,1:2:0:0:
430,25,192134,1,0,1:2:0:0:
356,42,192204,1,0,1:2:0:0:
337,97,192275,1,0,1:2:0:0:
338,145,192346,1,10,1:2:0:0:
316,179,192417,1,0,1:2:0:0:
276,187,192487,1,0,1:2:0:0:
251,170,192558,1,0,1:2:0:0:
243,145,192629,2,0,P|240:113|260:84,1,63.6,10|0,1:2|1:2,0:0:0:0:
423,196,192770,5,0,1:3:0:0:
423,196,192841,1,0,1:2:0:0:
423,196,192912,2,0,P|439:222|435:253,1,63.6,10|0,1:2|1:2,0:0:0:0:
362,274,193053,5,0,1:2:0:0:
362,274,193124,1,0,1:2:0:0:
362,274,193195,2,0,P|354:304|330:324,1,63.6,10|0,1:2|1:2,0:0:0:0:
263,286,193336,5,0,1:2:0:0:
263,286,193407,1,0,1:2:0:0:
263,286,193478,2,0,P|236:302|205:298,1,63.6,10|0,1:2|1:2,0:0:0:0:
144,245,193619,5,0,1:2:0:0:
89,237,193690,1,0,1:2:0:0:
41,263,193761,1,10,1:2:0:0:
17,312,193832,1,0,1:2:0:0:
26,366,193902,1,2,1:1:0:0:
50,357,193973,1,0,1:2:0:0:
67,338,194044,2,0,P|80:283|87:247,1,63.6,10|0,1:2|1:2,0:0:0:0:
51,136,194185,5,0,1:2:0:0:
51,136,194256,1,0,1:2:0:0:
51,136,194327,2,0,P|21:106|-10:108,1,63.6,10|0,1:2|1:2,0:0:0:0:
96,66,194468,5,0,1:2:0:0:
96,66,194539,1,0,1:2:0:0:
96,66,194610,2,0,P|95:24|71:3,1,63.6,10|0,1:2|1:2,0:0:0:0:
177,49,194751,5,0,1:2:0:0:
177,49,194822,1,0,1:2:0:0:
177,49,194893,2,0,P|206:19|204:-12,1,63.6,10|0,1:2|1:2,0:0:0:0:
156,157,195034,5,4,1:3:0:0:
164,166,195105,1,0,1:2:0:0:
169,177,195176,2,0,L|150:223,2,31.8,10|0|0,1:2|1:0|1:2,0:0:0:0:
231,238,195317,5,0,1:2:0:0:
230,250,195388,1,0,1:2:0:0:
226,261,195459,2,0,L|180:280,2,31.8,10|0|0,1:2|1:0|1:2,0:0:0:0:
226,348,195601,5,0,1:2:0:0:
217,356,195671,1,0,1:2:0:0:
206,361,195742,1,10,1:2:0:0:
176,367,195813,1,0,1:2:0:0:
134,347,195884,1,0,1:2:0:0:
127,293,195954,1,0,1:2:0:0:
178,245,196025,1,10,1:2:0:0:
250,257,196096,1,0,1:2:0:0:
300,314,196167,6,0,P|378:326|477:352,1,127.2,4|2,1:1|1:2,0:0:0:0:
433,346,196379,1,8,1:2:0:0:
441,355,196450,2,0,P|473:310|499:292,1,63.6,2|8,1:2|1:2,0:0:0:0:
397,248,196591,2,0,P|377:196|357:172,1,63.6,2|8,1:2|1:2,0:0:0:0:
411,0,196733,5,2,1:2:0:0:
481,29,196803,1,8,1:2:0:0:
482,93,196874,1,2,1:2:0:0:
451,125,196945,1,8,1:2:0:0:
406,121,197016,1,2,1:2:0:0:
380,100,197086,1,8,1:2:0:0:
351,97,197157,1,2,1:2:0:0:
327,108,197228,1,8,1:2:0:0:
280,164,197299,5,8,1:3:0:0:
213,193,197369,1,8,1:2:0:0:
156,146,197440,1,2,1:2:0:0:
158,89,197511,1,8,1:2:0:0:
196,59,197582,1,2,1:2:0:0:
238,62,197652,1,8,1:2:0:0:
261,86,197723,1,2,1:2:0:0:
263,109,197794,1,8,1:2:0:0:
256,120,197865,6,0,P|231:166|230:200,3,63.6,2|8|2|8,1:2|1:2|1:2|1:2,0:0:0:0:
140,230,198148,2,0,P|165:276|166:310,3,63.6,2|8|2|8,1:2|1:2|1:2|1:2,0:0:0:0:
231,334,198431,5,4,1:3:0:0:
243,310,198501,1,8,1:2:0:0:
271,293,198572,1,2,1:2:0:0:
315,296,198643,1,8,1:2:0:0:
360,328,198714,1,2,1:2:0:0:
397,381,198784,1,8,1:2:0:0:
470,374,198855,1,2,1:2:0:0:
496,300,198926,1,8,1:2:0:0:
441,246,198997,1,2,1:2:0:0:
374,281,199067,1,8,1:2:0:0:
330,343,199138,1,2,1:2:0:0:
257,319,199209,1,8,1:2:0:0:
238,264,199280,1,2,1:2:0:0:
261,225,199351,1,8,1:2:0:0:
298,218,199421,2,0,P|343:201|346:158,1,63.6,2|8,1:2|1:2,0:0:0:0:
484,38,199563,5,8,1:3:0:0:
435,7,199634,1,8,1:2:0:0:
381,24,199704,1,2,1:2:0:0:
360,78,199775,1,8,1:2:0:0:
390,127,199846,1,2,1:2:0:0:
446,136,199917,1,8,1:2:0:0:
488,95,199987,2,0,P|481:50|440:38,1,63.6,2|8,1:2|1:2,0:0:0:0:
251,73,200129,5,2,1:2:0:0:
217,80,200200,1,8,1:2:0:0:
201,110,200270,1,2,1:2:0:0:
215,142,200341,1,8,1:2:0:0:
248,150,200412,1,2,1:2:0:0:
276,130,200483,1,8,1:2:0:0:
276,95,200553,2,0,P|248:87|227:138,1,63.6,2|8,1:2|1:2,0:0:0:0:
141,201,200695,5,2,1:1:0:0:
125,211,200766,1,8,1:2:0:0:
112,224,200836,2,0,P|98:270|109:315,1,63.6,2|8,1:2|1:2,0:0:0:0:
34,322,200978,2,0,P|56:364|96:388,1,63.6,2|8,1:2|1:2,0:0:0:0:
188,358,201119,5,2,1:2:0:0:
256,323,201190,1,8,1:2:0:0:
295,261,201261,1,2,1:2:0:0:
295,202,201332,1,8,1:2:0:0:
270,162,201402,1,2,1:2:0:0:
241,154,201473,1,8,1:2:0:0:
218,164,201544,1,2,1:2:0:0:
209,187,201615,1,8,1:2:0:0:
212,204,201685,6,0,P|235:229|261:247,1,63.6,2|8,1:2|1:2,0:0:0:0:
373,374,201827,5,8,1:3:0:0:
373,374,201898,1,8,1:2:0:0:
373,374,201968,2,0,P|405:344|375:285,1,63.6,2|8,1:2|1:2,0:0:0:0:
478,288,202110,5,2,1:2:0:0:
478,288,202181,1,8,1:2:0:0:
478,288,202251,2,0,P|479:244|416:223,1,63.6,2|8,1:2|1:2,0:0:0:0:
491,152,202393,5,2,1:2:0:0:
491,152,202464,1,8,1:2:0:0:
491,152,202534,2,0,P|461:120|401:150,1,63.6,2|8,1:2|1:2,0:0:0:0:
405,47,202676,5,2,1:2:0:0:
405,47,202747,1,8,1:2:0:0:
405,47,202817,2,0,P|361:45|340:108,1,63.6,2|8,1:2|1:2,0:0:0:0:
314,122,202959,5,4,1:2:0:0:
272,178,203030,1,8,1:2:0:0:
201,179,203101,1,2,1:2:0:0:
173,115,203171,1,8,1:2:0:0:
106,92,203242,1,2,1:2:0:0:
58,144,203313,1,8,1:2:0:0:
85,208,203384,1,2,1:2:0:0:
132,232,203454,1,8,1:2:0:0:
155,263,203525,1,2,1:2:0:0:
147,293,203596,1,8,1:2:0:0:
132,303,203667,1,2,1:2:0:0:
103,300,203737,1,8,1:2:0:0:
82,264,203808,1,2,1:2:0:0:
100,211,203879,1,8,1:2:0:0:
163,181,203950,1,2,1:2:0:0:
223,214,204020,1,8,1:2:0:0:
236,282,204091,5,8,1:3:0:0:
248,296,204162,1,8,1:2:0:0:
260,310,204233,2,0,L|349:328,1,63.6,2|8,1:2|1:2,0:0:0:0:
461,210,204374,5,2,1:2:0:0:
449,196,204445,1,8,1:2:0:0:
437,182,204516,2,0,L|348:164,1,63.6,2|8,1:2|1:2,0:0:0:0:
220,298,204657,5,4,1:3:0:0:
232,312,204728,1,8,1:2:0:0:
244,326,204799,2,0,L|333:344,1,63.6,2|8,1:2|1:2,0:0:0:0:
477,194,204940,5,2,1:2:0:0:
465,180,205011,1,8,1:2:0:0:
453,166,205082,2,0,L|364:148,1,63.6,2|8,1:2|1:2,0:0:0:0:
349,246,205223,5,4,1:0:0:0:
256,85,205506,6,0,P|224:46|252:15,3,58.3
288,7,205789,2,0,P|320:46|292:77,3,53
327,169,206072,6,0,P|331:118|373:116,3,53
405,129,206355,2,0,P|400:179|358:181,3,53
358,239,206638,5,0,0:0:0:0:
354,251,206709,1,0,0:0:0:0:
351,264,206780,1,0,0:0:0:0:
348,277,206851,1,0,0:0:0:0:
345,290,206921,2,0,L|381:348,3,53
308,378,207204,2,0,P|256:318|125:190,1,206.7,2|0,1:0|0:0,0:0:0:0:
91,214,207487,6,0,P|59:159|86:145,3,63.6,4|0|0|0,1:0|0:0|0:0|0:0,0:0:0:0:
97,112,207770,2,0,P|113:50|142:59,3,58.3
173,44,208053,2,0,P|183:14|212:5,3,53
267,49,208336,2,0,P|294:35|322:49,3,53
200,158,208619,5,0,0:0:0:0:
194,156,208690,1,0,0:0:0:0:
192,151,208761,1,0,0:0:0:0:
192,146,208832,1,0,0:0:0:0:
196,143,208902,1,0,0:0:0:0:
202,142,208973,1,0,0:0:0:0:
206,146,209044,1,0,0:0:0:0:
207,151,209115,1,0,0:0:0:0:
204,156,209185,6,0,P|230:167|250:191,3,53
312,227,209468,2,0,P|342:160|417:65,1,159,2|0,1:0|0:0,0:0:0:0:
458,61,209751,1,0,0:0:0:0:
316,321,210034,5,4,1:0:0:0:
494,367,212016,6,0,P|471:312|443:164,1,174.9,12|0,1:2|3:0,0:0:0:0:
390,156,212299,2,0,P|411:84|412:51,1,58.3,2|0,1:2|3:0,0:0:0:0:
501,54,212440,1,10,1:2:0:0:
344,0,212582,5,0,3:0:0:0:
229,94,212723,2,0,P|225:124|248:144,1,63.6,10|0,1:2|3:0,0:0:0:0:
319,224,212865,1,8,3:2:0:0:
288,168,212935,1,0,3:0:0:0:
257,112,213006,1,0,3:0:0:0:
226,58,213077,1,0,3:0:0:0:
194,4,213148,6,0,P|145:1|124:86,1,137.8,10|0,1:3|3:0,0:0:0:0:
139,112,213360,1,0,3:0:0:0:
171,137,213431,2,0,P|170:187|137:200,1,68.9,2|0,1:2|0:0,0:0:0:0:
179,333,213572,2,0,P|135:307|140:271,1,68.9,0|0,3:0|3:0,0:0:0:0:
5,241,213714,1,6,1:3:0:0:
5,241,213784,1,0,0:0:0:0:
5,241,213855,2,0,P|48:216|77:238,1,68.9,0|0,3:0|3:0,0:0:0:0:
263,284,213997,5,2,1:2:0:0:
319,315,214067,1,0,1:0:0:0:
357,362,214138,1,0,1:0:0:0:
395,384,214209,1,0,1:0:0:0:
428,372,214280,6,0,L|460:163,1,206.7,2|0,1:1|3:0,0:0:0:0:
424,171,214563,2,0,P|356:189|369:243,1,137.8,2|0,1:3|3:0,0:0:0:0:
182,102,214846,5,2,1:3:0:0:
155,93,214917,1,0,0:0:0:0:
140,68,214987,2,0,P|145:34|173:16,1,68.9,0|0,3:0|3:0,0:0:0:0:
312,0,215129,2,0,P|290:65|272:131,1,137.8,2|0,1:3|3:0,0:0:0:0:
84,372,215412,6,0,L|52:163,1,206.7,2|0,1:3|3:0,0:0:0:0:
88,171,215695,2,0,P|156:189|143:243,1,137.8,2|0,1:3|3:0,0:0:0:0:
330,102,215978,5,2,1:3:0:0:
357,93,216049,1,0,0:0:0:0:
372,68,216119,2,0,P|366:34|338:16,1,68.9,0|0,3:0|3:0,0:0:0:0:
200,0,216261,2,0,P|221:65|239:131,1,137.8,2|0,1:3|3:0,0:0:0:0:
266,332,216544,5,10,1:3:0:0:
318,384,216615,1,0,0:0:0:0:
372,365,216685,1,2,1:3:0:0:
389,318,216756,1,0,0:0:0:0:
372,282,216827,1,2,1:3:0:0:
338,275,216898,1,0,0:0:0:0:
315,260,216968,1,2,1:3:0:0:
311,243,217039,1,0,0:0:0:0:
316,232,217110,6,0,P|353:200|378:241,1,68.9,2|0,1:3|0:0,0:0:0:0:
504,290,217251,2,0,P|466:321|441:280,1,68.9,2|0,1:3|0:0,0:0:0:0:
337,165,217393,6,0,P|369:156|392:181,1,68.9,2|0,1:3|0:0,0:0:0:0:
482,356,217534,2,0,P|450:364|427:339,1,68.9,2|0,1:3|0:0,0:0:0:0:
462,73,217676,5,6,1:3:0:0:
423,16,217747,1,0,1:3:0:0:
367,5,217817,1,2,1:3:0:0:
331,39,217888,1,0,1:3:0:0:
317,86,217959,1,2,1:3:0:0:
282,106,218030,1,0,1:3:0:0:
251,93,218101,1,2,1:3:0:0:
238,72,218171,1,0,1:3:0:0:
243,52,218242,6,0,P|271:23|312:45,1,68.9,2|0,1:3|1:3,0:0:0:0:
391,141,218384,6,0,P|362:169|321:147,1,68.9,2|0,1:3|1:3,0:0:0:0:
154,81,218525,5,2,1:3:0:0:
102,40,218596,1,0,1:3:0:0:
40,63,218667,1,2,1:3:0:0:
28,128,218737,1,0,1:3:0:0:
77,172,218808,2,0,P|121:228|175:373,1,206.7
155,379,219091,5,4,1:1:0:0:
29,349,219233,5,0,3:0:0:0:
8,342,219303,1,0,3:0:0:0:
0,322,219374,2,0,P|9:285|43:277,1,68.9,2|0,1:2|0:0,0:0:0:0:
235,147,219516,5,0,3:0:0:0:
256,154,219586,1,0,3:0:0:0:
264,174,219657,2,0,P|254:210|220:218,1,68.9,8|0,1:2|0:0,0:0:0:0:
167,282,219799,2,0,P|144:229|110:191,1,68.9,0|0,3:0|3:0,0:0:0:0:
0,123,219940,6,0,B|56:131|84:83|84:83|114:25|190:46,1,206.7,2|0,1:2|3:0,0:0:0:0:
197,17,220223,2,0,P|276:25|257:96,1,137.8,8|0,1:2|3:0,0:0:0:0:
246,103,220435,1,0,3:0:0:0:
235,147,220506,2,0,P|255:207|318:199,1,137.8,2|0,1:2|3:0,0:0:0:0:
486,107,220789,5,8,1:2:0:0:
494,95,220860,1,0,0:0:0:0:
499,82,220931,1,0,3:0:0:0:
503,69,221001,1,0,3:0:0:0:
500,55,221072,6,0,P|439:25|425:139,1,206.7,14|0,1:2|3:0,0:0:0:0:
394,151,221355,2,0,P|438:174|445:222,1,68.9,2|0,1:2|3:0,0:0:0:0:
395,349,221497,1,10,1:2:0:0:
248,303,221638,6,0,P|191:248|243:194,1,137.8,0|10,0:0|1:2,0:0:0:0:
243,189,221851,1,0,0:0:0:0:
276,191,221921,2,0,P|306:223|295:262,1,68.9,0|0,3:2|3:0,0:0:0:0:
172,384,222063,5,0,3:0:0:0:
172,384,222134,1,0,3:0:0:0:
172,384,222204,2,0,P|124:319|15:244,1,206.7,10|0,1:3|3:0,0:0:0:0:
49,216,222487,1,2,1:2:0:0:
63,201,222558,1,0,0:0:0:0:
81,192,222629,2,0,P|120:165|108:113,1,68.9,0|0,3:0|3:0,0:0:0:0:
16,15,222770,6,0,P|-4:75|59:120,1,137.8,6|0,1:3|3:0,0:0:0:0:
211,42,223053,1,2,1:2:0:0:
226,27,223124,1,0,1:0:0:0:
246,22,223195,2,0,L|224:114,1,68.9,0|0,1:0|1:0,0:0:0:0:
199,199,223336,6,0,P|148:289|107:384,1,206.7,2|0,1:1|3:0,0:0:0:0:
89,347,223619,2,0,P|71:301|24:221,1,137.8,2|0,1:3|3:0,0:0:0:0:
118,81,223902,5,2,1:3:0:0:
157,68,223973,1,0,0:0:0:0:
194,85,224044,2,0,P|229:116|284:106,1,68.9,0|0,3:0|3:0,0:0:0:0:
307,79,224185,2,0,P|300:11|218:17,1,137.8,2|0,1:3|3:0,0:0:0:0:
313,199,224468,6,0,P|363:289|404:384,1,206.7,2|0,1:3|3:0,0:0:0:0:
423,347,224751,2,0,P|441:301|488:221,1,137.8,2|0,1:3|3:0,0:0:0:0:
394,81,225034,5,2,1:3:0:0:
355,68,225105,1,0,0:0:0:0:
318,85,225176,2,0,P|283:116|228:106,1,68.9,0|0,3:0|3:0,0:0:0:0:
205,79,225317,2,0,P|212:11|294:17,1,137.8,2|0,1:3|3:0,0:0:0:0:
255,268,225601,5,10,1:3:0:0:
204,326,225671,1,0,0:0:0:0:
144,336,225742,1,2,1:3:0:0:
115,306,225813,1,0,0:0:0:0:
112,263,225884,1,2,1:3:0:0:
141,240,225954,1,0,0:0:0:0:
154,212,226025,1,2,1:3:0:0:
144,193,226096,1,0,0:0:0:0:
132,187,226167,6,0,P|93:221|50:199,1,68.9,2|0,1:3|0:0,0:0:0:0:
17,77,226308,2,0,P|56:43|99:65,1,68.9,2|0,1:3|0:0,0:0:0:0:
60,194,226450,6,0,P|8:190|-6:144,1,68.9,2|0,1:3|0:0,0:0:0:0:
89,70,226591,2,0,P|140:73|155:119,1,68.9,2|0,1:3|0:0,0:0:0:0:
255,268,226733,5,6,1:3:0:0:
323,291,226803,1,0,1:3:0:0:
387,272,226874,1,2,1:3:0:0:
410,227,226945,1,0,1:3:0:0:
405,184,227016,1,2,1:3:0:0:
382,158,227086,1,0,1:3:0:0:
353,153,227157,1,2,1:3:0:0:
333,160,227228,1,0,1:3:0:0:
325,177,227299,5,2,1:3:0:0:
328,183,227369,1,0,1:3:0:0:
330,189,227440,2,0,L|356:275,1,68.9,2|0,1:3|1:3,0:0:0:0:
446,367,227582,5,2,1:3:0:0:
449,361,227652,1,0,1:3:0:0:
451,355,227723,2,0,L|470:289,1,68.9,2|0,1:3|1:3,0:0:0:0:
512,90,227865,5,6,1:2:0:0:
477,69,227935,1,0,1:3:0:0:
461,31,228006,2,0,L|420:13,2,34.45,2|0|0,1:3|0:0|1:3,0:0:0:0:
404,94,228148,5,2,1:3:0:0:
369,115,228218,1,0,1:3:0:0:
353,153,228289,2,0,L|312:171,2,34.45,2|0|0,1:3|0:0|1:3,0:0:0:0:
260,124,228431,5,2,1:3:0:0:
220,133,228501,1,0,1:3:0:0:
182,118,228572,2,0,L|140:134,2,34.45,2|0|0,1:3|0:0|1:3,0:0:0:0:
186,203,228714,5,2,1:3:0:0:
176,242,228784,1,0,1:3:0:0:
192,281,228855,2,0,L|175:322,2,34.45,2|0|0,1:3|0:0|1:3,0:0:0:0:
55,362,228997,5,4,1:2:0:0:
59,355,229067,1,0,0:0:0:0:
62,347,229138,1,0,0:0:0:0:
62,340,229209,1,0,0:0:0:0:
64,333,229280,6,0,P|26:331|0:364,3,68.9
117,281,229563,2,0,P|91:253|49:258,3,68.9,0|0|0|0,0:0|0:0|2:0|2:0,0:0:0:0:
192,281,229846,2,0,P|193:243|160:217,3,68.9,0|0|0|0,2:0|2:0|2:0|2:0,0:0:0:0:
162,375,230129,5,2,2:1:0:0:
162,375,230200,1,0,0:0:0:0:
168,378,230270,1,0,0:0:0:0:
176,382,230341,1,0,0:0:0:0:
183,382,230412,2,0,L|274:353,3,68.8999968460084
288,288,230695,5,0,3:0:0:0:
307,294,230766,1,0,3:0:0:0:
345,307,230836,1,0,3:0:0:0:
403,328,230907,1,0,3:0:0:0:
473,366,230978,2,0,P|428:256|389:143,1,238.5,8|0,3:2|2:0,0:0:0:0:
436,82,231261,5,4,1:1:0:0:
301,17,231402,5,2,3:2:0:0:
301,17,231473,1,0,3:2:0:0:
301,17,231544,1,0,1:2:0:0:
163,88,231685,5,2,3:2:0:0:
163,88,231756,1,0,3:2:0:0:
163,88,231827,2,0,P|154:27|232:14,1,127.2,0|2,1:2|3:2,0:0:0:0:
287,107,232110,2,0,P|295:167|217:180,1,127.2,0|2,1:2|3:2,0:0:0:0:
229,205,232322,1,0,3:2:0:0:
215,218,232393,1,0,1:2:0:0:
44,165,232534,5,2,3:2:0:0:
44,165,232605,1,0,3:2:0:0:
44,165,232676,1,0,1:1:0:0:
84,340,232817,5,2,3:2:0:0:
84,340,232888,1,0,3:2:0:0:
84,340,232959,2,0,P|149:295|129:250,1,127.2,0|2,1:2|3:2,0:0:0:0:
118,245,233171,1,0,3:2:0:0:
94,234,233242,2,0,P|36:271|-31:323,1,127.2,0|2,1:2|3:2,0:0:0:0:
218,384,233525,5,0,1:2:0:0:
318,188,233667,1,2,3:2:0:0:
318,188,233737,1,0,3:2:0:0:
318,188,233808,2,0,P|257:169|195:154,1,127.2,0|2,1:2|3:2,0:0:0:0:
203,171,234020,1,0,3:2:0:0:
211,188,234091,1,0,1:1:0:0:
382,294,234233,5,2,3:2:0:0:
382,294,234303,1,0,3:2:0:0:
382,294,234374,1,0,1:2:0:0:
389,93,234516,5,2,3:2:0:0:
389,93,234586,1,0,3:2:0:0:
389,93,234657,2,0,P|449:74|511:59,1,127.2,0|2,1:2|3:2,0:0:0:0:
507,91,234869,1,0,3:2:0:0:
502,122,234940,2,0,P|469:177|405:172,1,127.2,0|2,1:2|3:2,0:0:0:0:
175,80,235223,6,0,P|139:43|158:21,3,63.6,0|0|2|0,1:2|0:0|3:2|3:2,0:0:0:0:
176,46,235506,1,0,1:1:0:0:
232,21,235577,1,0,3:2:0:0:
284,53,235648,1,0,1:2:0:0:
288,114,235718,1,0,1:2:0:0:
241,152,235789,6,0,P|215:214|172:358,1,190.8,0|0,1:2|3:2,0:0:0:0:
152,352,236072,1,0,1:2:0:0:
73,246,236214,1,2,3:2:0:0:
73,246,236284,1,0,3:2:0:0:
73,246,236355,2,0,P|19:199|50:149,1,127.2,0|2,1:2|3:2,0:0:0:0:
64,140,236567,1,0,3:2:0:0:
91,123,236638,1,0,1:2:0:0:
181,241,236780,5,2,3:2:0:0:
181,241,236851,1,0,3:2:0:0:
181,241,236921,1,0,1:2:0:0:
328,283,237063,5,2,3:2:0:0:
328,283,237134,1,0,3:2:0:0:
328,283,237204,2,0,P|372:241|350:183,1,127.2,0|2,1:2|3:2,0:0:0:0:
202,26,237487,5,0,1:2:0:0:
196,36,237558,1,0,0:0:0:0:
191,48,237629,1,2,3:2:0:0:
187,59,237700,1,0,3:2:0:0:
182,71,237770,2,0,P|252:90|332:123,1,127.2,0|2,1:2|3:2,0:0:0:0:
337,92,237983,1,0,3:2:0:0:
370,74,238053,6,0,P|440:63|412:182,1,190.8,0|0,1:2|3:2,0:0:0:0:
430,156,238336,1,0,1:1:0:0:
262,218,238478,5,2,3:2:0:0:
262,218,238549,1,0,3:2:0:0:
262,218,238619,1,0,1:2:0:0:
323,324,238761,6,0,P|352:344|400:356,1,63.6,2|0,3:2|3:2,0:0:0:0:
411,359,238902,2,0,P|389:281|351:211,1,127.2,0|2,1:2|3:2,0:0:0:0:
211,100,239185,5,0,1:2:0:0:
116,280,239327,1,2,3:2:0:0:
95,134,239468,5,0,1:2:0:0:
137,269,239610,1,2,3:2:0:0:
36,239,239751,5,0,1:2:0:0:
143,246,239893,1,2,3:2:0:0:
67,354,240034,5,0,1:2:0:0:
130,225,240176,2,0,P|115:173|91:131,1,63.6,2|0,1:2|3:2,0:0:0:0:
16,25,240317,6,0,P|100:55|226:88,1,190.8,2|0,1:1|3:2,0:0:0:0:
228,58,240601,1,0,1:2:0:0:
435,129,240742,1,2,3:2:0:0:
435,129,240813,1,0,3:2:0:0:
435,129,240884,1,0,1:2:0:0:
347,0,241025,5,2,3:2:0:0:
329,18,241096,1,0,3:2:0:0:
317,40,241167,2,0,P|342:132|353:188,1,127.2,0|2,1:2|3:2,0:0:0:0:
467,305,241450,5,0,1:2:0:0:
495,292,241520,1,0,0:0:0:0:
512,266,241591,1,2,3:2:0:0:
509,235,241662,1,0,3:2:0:0:
489,211,241733,2,0,P|427:231|382:300,1,127.2,0|2,1:1|3:2,0:0:0:0:
369,374,242016,5,0,1:2:0:0:
435,129,242157,1,2,3:2:0:0:
454,112,242228,1,0,3:2:0:0:
470,92,242299,2,0,P|482:33|427:9,1,127.2,0|2,1:2|3:2,0:0:0:0:
339,177,242582,6,0,B|294:175|270:233|270:233|250:293|187:295,1,190.8,0|0,1:2|3:2,0:0:0:0:
193,269,242865,2,0,P|140:235|180:180,1,127.2,0|2,1:2|3:2,0:0:0:0:
294,81,243148,5,0,1:1:0:0:
209,9,243289,1,2,3:2:0:0:
209,9,243360,1,0,3:2:0:0:
209,9,243431,1,0,1:2:0:0:
43,122,243572,6,0,P|5:107|36:53,1,63.6,2|0,3:2|3:2,0:0:0:0:
36,18,243714,5,0,1:2:0:0:
110,42,243784,1,0,0:0:0:0:
131,90,243855,1,2,3:2:0:0:
124,136,243926,1,0,3:2:0:0:
138,169,243997,1,0,1:2:0:0:
167,176,244067,1,0,0:0:0:0:
186,170,244138,1,2,3:2:0:0:
194,155,244209,1,0,3:2:0:0:
192,146,244280,2,0,P|127:171|52:228,1,127.2,0|2,1:2|3:2,0:0:0:0:
0,270,244563,5,0,1:1:0:0:
68,284,244634,1,0,3:2:0:0:
123,325,244704,1,0,1:2:0:0:
176,370,244775,1,0,1:2:0:0:
244,384,244846,6,0,P|259:310|286:238,1,127.2,4|2,1:2|3:2,0:0:0:0:
304,246,245058,1,0,3:2:0:0:
332,231,245129,2,0,P|361:327|341:336,1,127.2,0|2,1:2|3:2,0:0:0:0:
288,146,245412,5,0,1:2:0:0:
331,0,245553,1,2,3:2:0:0:
236,51,245695,5,0,1:2:0:0:
382,94,245836,2,0,P|413:131|434:162,1,63.6,2|0,3:2|3:2,0:0:0:0:
468,255,245978,5,0,1:2:0:0:
476,271,246049,1,0,0:0:0:0:
476,290,246119,2,0,P|444:324|397:297,1,63.6,2|0,3:2|3:2,0:0:0:0:
347,384,246261,5,0,1:2:0:0:
327,383,246332,1,0,0:0:0:0:
312,373,246402,2,0,P|298:328|344:301,1,63.6,2|0,3:2|3:2,0:0:0:0:
294,215,246544,5,0,1:2:0:0:
304,198,246615,1,0,0:0:0:0:
321,190,246685,2,0,P|366:200|366:254,1,63.6,2|0,3:2|3:2,0:0:0:0:
369,284,246827,1,0,1:2:0:0:
369,284,246968,1,2,3:2:0:0:
210,314,247110,6,0,P|159:326|14:376,1,190.8,8|0,1:3|3:2,0:0:0:0:
1,333,247393,1,0,1:1:0:0:
9,289,247464,1,0,0:0:0:0:
44,262,247534,1,2,3:2:0:0:
64,226,247605,1,0,3:2:0:0:
54,200,247676,1,0,1:2:0:0:
41,196,247747,1,0,0:0:0:0:
29,199,247817,1,2,3:2:0:0:
20,208,247888,1,0,3:2:0:0:
17,220,247959,2,0,P|57:225|167:250,1,127.2,0|2,1:2|3:2,0:0:0:0:
201,17,248242,6,0,P|138:30|76:40,1,127.2,4|2,1:3|3:2,0:0:0:0:
192,145,248525,5,0,1:2:0:0:
192,145,248596,1,0,0:0:0:0:
192,145,248667,1,2,3:2:0:0:
192,145,248737,1,0,3:2:0:0:
192,145,248808,1,0,1:2:0:0:
200,126,248879,1,0,0:0:0:0:
230,104,248950,1,2,3:2:0:0:
271,111,249020,1,0,3:2:0:0:
297,148,249091,1,0,1:2:0:0:
344,181,249162,1,0,0:0:0:0:
407,167,249233,1,2,1:2:0:0:
438,99,249303,1,0,3:2:0:0:
392,41,249374,6,0,P|329:101|296:251,1,206.7,4|0,1:1|3:2,0:0:0:0:
312,250,249657,1,8,1:2:0:0:
404,360,249799,1,2,3:2:0:0:
404,360,249869,1,0,3:2:0:0:
404,360,249940,2,0,P|452:318|421:249,1,137.8,0|2,1:2|3:2,0:0:0:0:
314,346,250223,5,8,1:2:0:0:
503,182,250365,1,2,3:2:0:0:
302,332,250506,6,0,P|230:342|167:375,1,137.8,0|2,1:1|3:2,0:0:0:0:
32,212,250789,1,8,1:2:0:0:
22,120,250931,2,0,P|55:118|81:139,1,68.9,2|0,3:2|3:2,0:0:0:0:
102,258,251072,5,0,1:2:0:0:
87,327,251143,1,0,0:0:0:0:
52,362,251214,1,2,3:2:0:0:
24,363,251284,1,0,3:2:0:0:
17,342,251355,1,8,1:2:0:0:
43,309,251426,1,0,0:0:0:0:
98,292,251497,1,2,3:2:0:0:
167,293,251567,1,0,3:2:0:0:
222,243,251638,6,0,L|247:96,1,137.8,0|2,1:1|3:2,0:0:0:0:
223,88,251851,1,0,3:2:0:0:
202,70,251921,2,0,L|148:140,1,68.9,8|0,1:2|0:0,0:0:0:0:
81,139,252063,1,2,3:2:0:0:
283,25,252204,6,0,P|331:10|372:99,1,137.8,0|2,1:2|3:2,0:0:0:0:
363,82,252417,1,0,3:2:0:0:
346,94,252487,1,8,1:2:0:0:
457,227,252629,6,0,P|509:210|497:156,1,68.9,2|0,3:2|3:2,0:0:0:0:
506,124,252770,2,0,P|427:144|358:211,1,137.8,0|2,1:1|3:2,0:0:0:0:
368,209,252983,1,0,3:2:0:0:
354,240,253053,2,0,P|369:300|444:298,1,137.8,8|2,1:2|3:2,0:0:0:0:
467,30,253336,5,0,1:2:0:0:
272,183,253478,1,2,3:2:0:0:
250,165,253549,1,0,3:2:0:0:
228,148,253619,2,0,L|256:282,1,137.8,8|2,1:2|1:2,0:0:0:0:
241,298,253832,1,0,1:2:0:0:
227,313,253902,2,0,P|151:292|173:234,1,137.8,0|2,1:1|3:2,0:0:0:0:
164,53,254185,6,0,P|185:10|216:16,3,68.9,8|0|2|0,1:2|0:0|3:2|3:2,0:0:0:0:
87,68,254468,2,0,P|72:22|98:4,3,68.9,0|0|2|0,1:2|0:0|3:2|3:2,0:0:0:0:
43,132,254751,2,0,P|0:110|6:79,3,68.9,8|0|2|0,1:2|0:0|3:2|3:2,0:0:0:0:
143,152,255034,6,0,L|114:286,1,137.8,0|2,1:1|3:2,0:0:0:0:
95,294,255247,1,0,3:2:0:0:
76,301,255317,2,0,L|39:242,1,68.9,8|0,1:2|0:0,0:0:0:0:
50,212,255459,1,2,3:2:0:0:
200,302,255601,5,0,1:2:0:0:
237,319,255671,1,0,0:0:0:0:
253,356,255742,2,0,P|212:380|167:384,1,68.9,2|0,3:2|3:2,0:0:0:0:
265,173,255884,1,8,1:2:0:0:
433,274,256025,5,2,3:2:0:0:
439,277,256096,1,0,3:2:0:0:
443,281,256167,2,0,P|461:194|493:112,1,137.8,0|2,1:1|3:2,0:0:0:0:
368,0,256450,5,8,1:2:0:0:
298,22,256520,1,0,0:0:0:0:
286,62,256591,1,2,3:2:0:0:
301,93,256662,1,0,3:2:0:0:
331,102,256733,1,0,1:2:0:0:
350,95,256803,1,0,0:0:0:0:
370,98,256874,1,2,3:2:0:0:
385,111,256945,1,0,3:2:0:0:
391,130,257016,6,0,P|328:156|266:200,1,137.8,8|2,1:2|3:2,0:0:0:0:
44,103,257299,5,0,1:1:0:0:
27,101,257369,1,0,0:0:0:0:
13,91,257440,1,2,3:2:0:0:
6,65,257511,1,0,3:2:0:0:
18,37,257582,1,8,1:2:0:0:
74,23,257652,1,0,0:0:0:0:
134,69,257723,1,2,3:2:0:0:
136,131,257794,1,0,3:2:0:0:
165,182,257865,1,0,1:2:0:0:
201,190,257935,1,0,0:0:0:0:
228,176,258006,1,2,3:2:0:0:
234,154,258077,1,0,3:2:0:0:
222,140,258148,2,0,P|148:160|66:214,1,137.8,8|2,1:2|1:2,0:0:0:0:
0,373,258431,6,0,B|63:382|83:328|79:322|76:313|107:260|162:275,1,206.7,4|0,1:1|3:2,0:0:0:0:
174,292,258714,1,0,1:2:0:0:
365,384,258855,5,2,3:2:0:0:
410,352,258926,1,0,3:2:0:0:
407,296,258997,1,0,1:2:0:0:
283,232,259138,5,2,3:2:0:0:
283,232,259209,1,0,3:2:0:0:
283,232,259280,1,0,1:2:0:0:
484,271,259421,5,2,3:2:0:0:
491,227,259492,1,0,3:2:0:0:
457,197,259563,1,2,1:1:0:0:
302,213,259704,5,2,3:2:0:0:
302,213,259775,1,0,3:2:0:0:
302,213,259846,1,0,1:2:0:0:
488,106,259987,5,2,3:2:0:0:
468,79,260058,1,0,3:2:0:0:
435,80,260129,1,0,1:1:0:0:
302,186,260270,5,2,3:2:0:0:
229,45,260412,1,0,1:2:0:0:
336,79,260553,5,2,3:2:0:0:
195,152,260695,2,0,P|136:125|0:77,1,206.7,8|0,1:3|3:2,0:0:0:0:
24,58,260978,1,0,1:2:0:0:
37,204,261119,5,2,3:2:0:0:
80,236,261190,1,0,3:2:0:0:
102,286,261261,1,0,1:2:0:0:
208,341,261402,5,2,3:2:0:0:
206,362,261473,1,0,3:2:0:0:
193,378,261544,1,0,1:2:0:0:
302,186,261685,5,2,3:2:0:0:
308,228,261756,1,0,3:2:0:0:
292,269,261827,1,4,1:3:0:0:
188,359,261968,5,2,3:2:0:0:
171,372,262039,1,0,3:2:0:0:
107,330,262110,5,0,1:2:0:0:
142,270,262181,1,0,0:0:0:0:
208,257,262251,1,2,3:2:0:0:
269,289,262322,1,0,3:2:0:0:
303,348,262393,1,0,1:2:0:0:
366,375,262464,1,0,0:0:0:0:
411,354,262534,1,2,3:2:0:0:
428,318,262605,1,0,3:2:0:0:
418,281,262676,1,0,1:2:0:0:
402,268,262747,1,0,0:0:0:0:
389,267,262817,1,2,3:2:0:0:
376,273,262888,1,0,3:2:0:0:
365,282,262959,6,0,P|357:198|317:83,1,206.7,4|0,1:1|3:2,0:0:0:0:
279,65,263242,1,0,1:2:0:0:
447,13,263384,2,0,P|410:43|409:76,2,68.9,2|0|0,3:2|3:2|1:2,0:0:0:0:
228,138,263667,5,2,3:2:0:0:
209,157,263737,1,0,3:2:0:0:
190,177,263808,2,0,P|135:143|162:85,1,137.8,0|2,1:2|3:2,0:0:0:0:
387,190,264091,5,4,1:1:0:0:
387,190,264185,2,0,P|355:258|326:297,1,91.8666666666667
339,373,264374,5,0,1:2:0:0:
339,373,264468,2,0,P|370:304|399:265,1,91.8666666666667
454,305,264657,5,4,1:2:0:0:
454,305,264751,2,0,P|385:273|346:245,1,91.8666666666667
271,257,264940,5,0,1:2:0:0:
271,257,265034,2,0,P|340:289|379:317,1,91.8666666666667
361,283,265223,6,0,P|278:305|107:363,1,206.7,4|0,1:1|3:2,0:0:0:0:
91,318,265506,1,0,1:2:0:0:
40,269,265577,1,0,0:0:0:0:
47,216,265648,1,2,3:2:0:0:
76,188,265718,1,0,3:2:0:0:
107,187,265789,1,4,1:1:0:0:
123,200,265860,1,0,0:0:0:0:
131,217,265931,1,2,3:2:0:0:
126,232,266001,1,0,3:2:0:0:
117,238,266072,6,0,P|76:284|68:312,3,68.9,0|0|2|0,1:2|0:0|3:2|3:2,0:0:0:0:
11,323,266355,1,4,1:1:0:0:
129,117,266497,5,2,3:2:0:0:
129,117,266567,1,0,3:2:0:0:
129,117,266638,2,0,P|169:73|160:40,3,68.9,0|0|2|0,3:1|3:0|3:2|3:2,0:0:0:0:
91,4,266921,5,4,3:2:0:0:
21,35,266992,1,0,3:0:0:0:
15,98,267063,1,2,3:2:0:0:
52,141,267134,1,0,3:2:0:0:
104,151,267204,1,0,3:1:0:0:
145,126,267275,1,0,3:0:0:0:
190,125,267346,1,0,3:1:0:0:
211,156,267417,1,0,3:2:0:0:
204,184,267487,6,0,P|179:220|133:222,3,68.9,8|0|0|0,1:3|0:0|0:0|0:0,0:0:0:0:
234,270,267770,2,0,P|241:313|210:347,3,68.9
316,309,268053,2,0,P|352:333|353:380,3,68.9
402,279,268336,2,0,P|445:271|479:302,3,68.9
322,199,268619,5,0,0:0:0:0:
318,179,268690,1,0,0:0:0:0:
314,160,268761,1,0,0:0:0:0:
310,141,268832,1,0,0:0:0:0:
305,121,268902,1,0,0:0:0:0:
300,102,268973,1,0,0:0:0:0:
294,84,269044,1,0,0:0:0:0:
288,65,269115,1,0,0:0:0:0:
252,46,269185,6,0,P|221:44|207:102,3,68.9
96,162,269468,2,0,P|129:163|149:136,3,68.9
203,0,269751,6,0,P|147:86|54:363,1,371
0,199,270601,1,8,3:2:0:0:
383,50,271167,5,4,1:0:0:0:
256,192,271237,12,0,279940,0:0:0:0:
