osu file format v14

[General]
AudioFilename: audio.mp3
AudioLeadIn: 0
PreviewTime:143808
Countdown: 0
SampleSet: Soft
StackLeniency: 0.7
Mode: 0
LetterboxInBreaks: 0
WidescreenStoryboard: 1

[Editor]
Bookmarks: 9374,18431,27487,36544,38808,56921,75034,84091,103336,121450,143808,164468,184846,205223,210034,213148
DistanceSpacing: 1
BeatDivisor: 3
GridSize: 32
TimelineZoom: 3.499999

[Metadata]
Title:Longinus
TitleUnicode:Longinus
Artist:xi
ArtistUnicode:xi
Creator:Anxient
Version:Spear of Destiny
Source:
Tags:FA Featured Artist techstreams Diverse System AD:PIANO V Noir electronic instrumental anime girl anime_girl jungkyuyoung natsume shiki natsume_shiki scub domino [keqing] 8972308 house techno trance Japan
BeatmapID:4377067
BeatmapSetID:1902907

[Difficulty]
HPDrainRate:3.6
CircleSize:4.3
OverallDifficulty:9.8
ApproachRate:9.8
SliderMultiplier:2.12
SliderTickRate:1

[Events]
//Background and Video events
0,0,"BG.jpg",0,0
//Break Periods
2,82027,83329
//Storyboard Layer 0 (Background)
//Storyboard Layer 1 (Fail)
//Storyboard Layer 2 (Pass)
//Storyboard Layer 3 (Foreground)
//Storyboard Layer 4 (Overlay)
//Storyboard Sound Samples

[TimingPoints]
318,283.018867924528,4,2,1,70,1,0
9374,-133.333333333333,4,2,1,70,0,0
13902,-117.647058823529,4,2,1,70,0,0
18431,-100,4,2,1,80,0,0
27487,-90.9090909090909,4,2,1,80,0,0
35553,-76.9230769230769,4,2,1,80,0,0
36261,-83.3333333333333,4,2,1,80,0,0
38808,-90.9090909090909,4,2,1,80,0,0
38879,-90.9090909090909,4,2,1,70,0,0
75034,-90.9090909090909,4,2,1,60,0,0
84091,-125,4,2,1,60,0,0
90459,-111.111111111111,4,2,1,60,0,0
90884,-100,4,2,1,60,0,0
92016,-100,4,2,1,65,0,0
93148,-90.9090909090909,4,2,1,70,0,0
98808,-83.3333333333333,4,2,1,70,0,0
103336,-83.3333333333333,4,2,1,80,0,0
103407,-83.3333333333333,4,2,1,70,0,0
121450,-83.3333333333333,4,2,1,75,0,1
139563,-83.3333333333333,4,2,1,75,0,0
143808,-66.6666666666667,4,2,1,75,0,0
144374,-66.6666666666667,4,2,1,80,0,1
144657,-76.9230769230769,4,2,1,80,0,1
153148,-142.857142857143,4,2,1,80,0,0
153431,-142.857142857143,4,2,1,80,0,1
153714,-76.9230769230769,4,2,1,80,0,1
164468,-76.9230769230769,4,2,1,70,0,0
166591,-83.3333333333333,4,2,1,70,0,0
173525,-83.3333333333333,4,2,1,75,0,0
182582,-83.3333333333333,4,2,1,65,0,0
184846,-333.333333333333,4,2,1,65,0,0
186827,-333.333333333333,4,2,1,75,0,0
187110,-333.333333333333,4,2,1,85,0,1
188101,-83.3333333333333,4,2,1,85,0,1
205223,-83.3333333333333,4,2,1,85,0,0
205293,-83.3333333333333,4,2,1,75,0,0
205506,-90.9090909090909,4,2,1,75,0,0
205789,-100,4,2,1,75,0,0
207204,-76.9230769230769,4,2,1,85,0,0
207487,-83.3333333333333,4,2,1,85,0,0
207557,-83.3333333333333,4,2,1,75,0,0
207770,-90.9090909090909,4,2,1,75,0,0
208053,-100,4,2,1,75,0,0
210034,-100,4,2,1,55,0,0
210317,-100,4,2,1,60,0,0
210601,-100,4,2,1,65,0,0
210884,-100,4,2,1,70,0,0
211167,-100,4,2,1,75,0,0
211450,-100,4,2,1,80,0,0
212016,-90.9090909090909,4,2,1,80,0,0
212440,-83.3333333333333,4,2,1,80,0,0
213148,-76.9230769230769,4,2,1,85,0,1
218808,-76.9230769230769,4,2,1,85,0,0
219091,-76.9230769230769,4,2,1,85,0,1
228997,-76.9230769230769,4,2,1,75,0,1
230978,-66.6666666666667,4,2,1,75,0,1
231261,-66.6666666666667,4,2,1,75,0,0
231402,-83.3333333333333,4,2,1,75,0,0
249374,-76.9230769230769,4,2,1,75,0,0
267487,-76.9230769230769,4,2,1,70,0,0
269751,-142.857142857143,4,2,1,70,0,0
270601,-76.9230769230769,4,2,1,85,0,0

[Colours]
Combo1 : 71,201,152
Combo2 : 250,245,218
Combo3 : 251,192,55
Combo4 : 192,211,226

[HitObjects]
120,144,9374,6,0,L|103:61,2,79.5000000000002,0|0|0,2:0|2:0|2:0,2:0:0:0:
64,201,9799,1,0,2:0:0:0:
58,194,10082,5,0,2:0:0:0:
146,159,10223,1,0,2:0:0:0:
224,213,10365,1,0,2:0:0:0:
206,306,10506,6,0,L|190:383,2,79.5000000000002,0|0|0,2:0|2:0|2:0,2:0:0:0:
223,301,10931,1,0,2:0:0:0:
133,253,11072,6,0,P|113:290|35:366,1,119.25,0|0,2:0|2:0,2:0:0:0:
53,345,11355,2,0,P|16:308|43:264,1,79.5000000000002,0|0,2:0|2:0,2:0:0:0:
252,129,11638,6,0,L|235:212,2,79.5000000000002,0|0|0,2:0|2:0|2:0,2:0:0:0:
196,72,12063,1,0,2:0:0:0:
203,65,12346,5,0,2:0:0:0:
291,100,12487,1,0,2:0:0:0:
369,46,12629,1,0,2:0:0:0:
460,19,12770,1,0,2:0:0:0:
470,24,12841,1,0,2:0:0:0:
477,32,12912,1,0,2:0:0:0:
482,42,12983,1,0,2:0:0:0:
483,53,13053,2,0,L|426:120,1,79.5000000000002,0|0,2:0|2:0,2:0:0:0:
289,165,13336,6,0,P|320:153|336:159,1,39.7500000000001,0|0,2:0|2:0,2:0:0:0:
481,193,13478,2,0,P|449:204|433:198,1,39.7500000000001,0|0,2:0|2:0,2:0:0:0:
288,116,13619,6,0,P|322:111|356:149,1,79.5000000000002,0|0,2:0|2:0,2:0:0:0:
505,281,13902,6,0,P|520:310|414:323,1,180.200000000001,0|0,2:0|2:0,2:0:0:0:
349,316,14327,1,0,2:0:0:0:
353,298,14610,5,0,2:0:0:0:
265,280,14751,1,0,2:0:0:0:
197,340,14893,1,0,2:0:0:0:
112,368,15034,6,0,P|92:358|109:321,2,60.0666666666669,0|0|0,2:0|2:0|2:0,2:0:0:0:
19,303,15317,2,0,P|11:282|50:267,2,60.0666666666669,0|0|0,2:0|2:0|2:0,2:0:0:0:
0,192,15601,2,0,P|9:172|47:188,2,60.0666666666669,0|0|0,2:0|2:0|2:0,2:0:0:0:
117,222,15884,5,0,2:0:0:0:
127,224,15954,1,0,2:0:0:0:
135,232,16025,1,0,2:0:0:0:
138,242,16096,1,0,2:0:0:0:
135,253,16167,2,0,L|108:91,1,135.15,0|0,2:0|2:0,2:0:0:0:
142,108,16450,6,0,L|155:27,3,45.0500000000002,0|0|0|0,2:0|2:0|2:0|2:0,2:0:0:0:
124,43,16733,2,0,L|110:-37,1,45.0500000000002,0|0,2:0|2:0,2:0:0:0:
233,111,16874,6,0,P|288:171|351:186,1,135.15,0|0,2:0|2:0,2:0:0:0:
337,158,17157,2,0,P|365:129|342:103,1,45.0500000000002,0|0,2:0|2:0,2:0:0:0:
313,6,17299,1,0,2:0:0:0:
465,27,17440,6,0,L|496:14,8,30.0333333333334,0|0|0|0|0|0|0|0|0,2:0|2:0|2:0|2:0|2:0|2:0|2:0|2:0|2:0,2:0:0:0:
479,33,17865,5,0,2:0:0:0:
454,110,17935,1,0,2:0:0:0:
395,158,18006,1,0,2:0:0:0:
322,176,18077,1,0,2:0:0:0:
266,152,18148,1,0,2:0:0:0:
253,115,18218,1,0,2:0:0:0:
263,90,18289,2,0,P|286:73|313:92,1,45.0500000000002,0|0,2:0|2:0,2:0:0:0:
512,222,18431,6,0,L|485:335,1,106,4|0,1:0|2:0,2:0:0:0:
343,351,18714,5,2,2:3:0:0:
327,341,18784,1,0,2:0:0:0:
320,314,18855,1,0,2:0:0:0:
335,275,18926,1,0,2:0:0:0:
400,240,18997,1,2,2:3:0:0:
407,161,19067,1,0,2:0:0:0:
347,108,19138,1,0,2:0:0:0:
271,134,19209,1,0,2:0:0:0:
248,205,19280,1,2,2:3:0:0:
273,251,19351,1,0,2:0:0:0:
311,262,19421,1,0,2:0:0:0:
334,252,19492,1,0,2:0:0:0:
340,236,19563,5,2,2:3:0:0:
337,231,19634,1,0,2:0:0:0:
334,226,19704,1,0,2:0:0:0:
331,221,19775,1,0,2:0:0:0:
305,227,19846,5,2,2:3:0:0:
299,225,19917,1,0,2:0:0:0:
294,224,19987,1,0,2:0:0:0:
288,222,20058,1,0,2:0:0:0:
267,243,20129,5,2,2:3:0:0:
262,246,20200,1,0,2:0:0:0:
257,249,20270,1,0,2:0:0:0:
252,251,20341,1,0,2:0:0:0:
251,281,20412,5,2,2:3:0:0:
250,286,20483,1,0,2:0:0:0:
248,292,20553,2,0,L|235:348,1,53,0|0,2:0|2:0,2:0:0:0:
36,384,20695,6,0,L|8:281,1,106,0|0,1:0|2:0,2:0:0:0:
73,210,20978,5,2,2:3:0:0:
65,191,21049,1,0,2:0:0:0:
76,159,21119,1,0,2:0:0:0:
120,128,21190,1,0,2:0:0:0:
189,130,21261,1,2,2:3:0:0:
236,71,21332,1,0,2:0:0:0:
199,0,21402,1,0,2:0:0:0:
123,3,21473,1,0,2:0:0:0:
91,55,21544,1,2,2:3:0:0:
108,100,21615,1,0,2:0:0:0:
140,116,21685,1,0,2:0:0:0:
165,114,21756,1,0,2:0:0:0:
182,102,21827,5,2,2:3:0:0:
183,91,21898,1,0,2:0:0:0:
180,80,21968,1,0,2:0:0:0:
172,72,22039,1,0,2:0:0:0:
99,55,22110,5,2,2:3:0:0:
47,109,22181,1,0,2:0:0:0:
56,171,22251,1,0,2:0:0:0:
96,205,22322,1,0,2:0:0:0:
138,201,22393,1,2,2:3:0:0:
169,220,22464,1,0,2:0:0:0:
176,250,22534,5,0,2:0:0:0:
174,255,22605,1,0,2:0:0:0:
172,260,22676,1,2,2:3:0:0:
170,265,22747,1,0,2:0:0:0:
168,270,22817,2,0,L|96:296,1,53,0|0,2:0|2:0,2:0:0:0:
0,342,22959,6,0,L|119:385,1,106,0|0,1:0|2:0,2:0:0:0:
259,337,23242,5,2,2:3:0:0:
269,349,23313,1,0,2:0:0:0:
298,361,23384,1,0,2:0:0:0:
342,342,23454,1,0,2:0:0:0:
379,287,23525,1,2,2:3:0:0:
386,212,23596,1,0,2:0:0:0:
447,160,23667,1,0,2:0:0:0:
499,176,23737,1,0,2:0:0:0:
512,214,23808,5,2,2:3:0:0:
507,223,23879,1,0,2:0:0:0:
500,231,23950,2,0,L|429:272,1,53,0|0,2:0|2:0,2:0:0:0:
287,215,24091,6,0,L|316:88,1,106,2|0,2:3|2:0,2:0:0:0:
218,39,24374,6,0,L|242:99,1,53,2|0,2:3|2:0,2:0:0:0:
379,287,24516,2,0,L|355:227,1,53,0|0,2:0|2:0,2:0:0:0:
354,72,24657,6,0,L|330:132,1,53,2|0,2:3|2:0,2:0:0:0:
243,254,24799,2,0,L|267:194,1,53,0|0,2:0|2:0,2:0:0:0:
354,156,24940,5,2,2:3:0:0:
354,156,25011,1,0,2:0:0:0:
354,156,25082,1,0,2:0:0:0:
140,256,25223,5,0,1:0:0:0:
44,44,25365,5,0,2:0:0:0:
1,109,25435,1,0,2:0:0:0:
24,155,25506,1,2,2:3:0:0:
63,170,25577,1,0,2:0:0:0:
100,157,25648,1,0,2:0:0:0:
118,134,25718,1,0,2:0:0:0:
141,122,25789,1,2,2:3:0:0:
158,122,25860,1,0,2:0:0:0:
171,130,25931,2,0,P|190:162|174:195,1,53,0|0,2:0|2:0,2:0:0:0:
131,274,26072,5,2,2:3:0:0:
111,210,26143,1,0,2:0:0:0:
91,147,26214,1,0,2:0:0:0:
71,84,26284,1,0,2:0:0:0:
51,22,26355,5,2,1:3:0:0:
58,14,26426,1,0,2:0:0:0:
66,7,26497,2,0,L|129:22,1,53,0|0,2:0|2:0,2:0:0:0:
288,18,26638,5,2,2:3:0:0:
291,28,26709,1,0,2:0:0:0:
293,38,26780,2,0,L|248:85,1,53,0|0,2:0|2:0,2:0:0:0:
152,219,26921,2,0,L|133:156,1,53,2|0,2:3|2:0,2:0:0:0:
74,0,27063,2,0,L|137:15,1,53,0|0,2:0|2:0,2:0:0:0:
302,41,27204,1,2,2:3:0:0:
378,45,27275,1,0,2:0:0:0:
439,83,27346,1,0,2:0:0:0:
456,123,27417,1,0,2:0:0:0:
450,137,27487,6,0,L|331:159,1,116.6,4|0,1:0|3:0,2:0:0:0:
262,342,27770,5,2,3:0:0:0:
288,346,27841,1,0,2:0:0:0:
322,320,27912,1,0,3:0:0:0:
344,259,27983,1,0,2:0:0:0:
411,226,28053,1,2,3:0:0:0:
448,248,28124,1,0,2:0:0:0:
465,278,28195,2,0,P|458:319|422:333,1,58.3,0|0,3:0|2:0,2:0:0:0:
177,383,28336,5,2,3:0:0:0:
159,347,28407,1,0,2:0:0:0:
163,308,28478,1,0,3:0:0:0:
187,276,28549,1,0,2:0:0:0:
224,263,28619,5,2,3:0:0:0:
230,253,28690,1,0,2:0:0:0:
236,243,28761,1,0,3:0:0:0:
242,233,28832,1,0,2:0:0:0:
276,228,28902,5,2,3:0:0:0:
273,217,28973,1,0,2:0:0:0:
271,206,29044,1,0,3:0:0:0:
268,194,29115,1,0,2:0:0:0:
288,167,29185,5,2,3:0:0:0:
278,161,29256,1,0,2:0:0:0:
269,155,29327,1,0,3:0:0:0:
258,148,29398,1,0,2:0:0:0:
254,115,29468,5,2,3:0:0:0:
232,106,29539,1,0,2:0:0:0:
209,113,29610,2,0,P|185:143|198:187,1,58.3,0|0,3:0|2:0,2:0:0:0:
262,342,29751,5,4,1:0:0:0:
338,77,29893,1,0,3:0:0:0:
281,19,30034,5,2,3:0:0:0:
259,41,30105,1,0,2:0:0:0:
250,86,30176,1,0,3:0:0:0:
286,142,30247,1,0,2:0:0:0:
359,160,30317,1,2,3:0:0:0:
418,109,30388,1,0,2:0:0:0:
493,128,30459,1,0,3:0:0:0:
507,191,30530,1,0,2:0:0:0:
484,226,30601,2,0,P|446:237|424:188,1,58.3,2|0,3:0|2:0,2:0:0:0:
274,149,30742,5,0,3:0:0:0:
296,76,30813,1,0,2:0:0:0:
307,0,30884,1,2,3:0:0:0:
223,248,31025,6,0,P|199:199|167:172,1,58.3,0|0,3:0|2:0,2:0:0:0:
123,37,31167,5,2,3:0:0:0:
51,18,31237,1,0,2:0:0:0:
11,72,31308,1,0,3:0:0:0:
22,117,31379,1,0,3:0:0:0:
55,133,31450,1,2,3:0:0:0:
85,125,31520,1,0,2:0:0:0:
110,129,31591,1,0,3:0:0:0:
118,140,31662,1,0,2:0:0:0:
119,149,31733,1,2,3:0:0:0:
108,170,31803,1,0,3:0:0:0:
90,207,31874,1,0,3:0:0:0:
65,259,31945,1,0,3:0:0:0:
32,328,32016,6,0,L|93:350,1,58.3,4|0,1:0|3:0,2:0:0:0:
224,195,32157,2,0,L|278:175,1,58.3,0|0,3:0|3:0,2:0:0:0:
364,121,32299,5,2,3:0:0:0:
386,69,32369,1,0,3:0:0:0:
355,23,32440,1,0,3:0:0:0:
299,26,32511,1,0,3:0:0:0:
273,75,32582,1,2,3:0:0:0:
240,95,32652,1,0,3:0:0:0:
205,77,32723,1,0,3:0:0:0:
202,39,32794,1,0,3:0:0:0:
233,15,32865,6,0,L|298:54,1,58.3,2|0,3:0|3:0,2:0:0:0:
364,145,33006,2,0,L|382:218,1,58.3,0|0,3:0|3:0,2:0:0:0:
375,334,33148,5,4,1:0:0:0:
364,338,33218,1,0,3:0:0:0:
353,342,33289,1,0,3:0:0:0:
342,346,33360,1,0,3:0:0:0:
331,351,33431,6,0,P|287:320|290:290,1,58.3,2|0,3:0|3:0,2:0:0:0:
170,98,33572,2,0,P|195:113|205:140,1,58.3,0|0,3:0|3:0,2:0:0:0:
198,353,33714,6,0,P|173:338|163:311,1,58.3,2|0,3:0|3:0,2:0:0:0:
263,208,33855,2,0,P|291:216|308:239,1,58.3,0|0,3:0|3:0,2:0:0:0:
175,231,33997,5,2,3:0:0:0:
125,180,34067,1,0,3:0:0:0:
82,124,34138,1,0,3:0:0:0:
45,66,34209,1,0,3:0:0:0:
13,5,34280,1,4,1:0:0:0:
0,111,34421,5,0,3:0:0:0:
41,147,34492,1,0,3:0:0:0:
85,180,34563,1,2,3:0:0:0:
133,209,34634,1,0,3:0:0:0:
185,232,34704,2,0,P|226:243|286:256,1,58.3,0|0,3:0|3:0,2:0:0:0:
283,334,34846,5,2,1:3:0:0:
316,313,34917,1,0,3:0:0:0:
353,297,34987,2,0,P|381:289|423:280,1,58.3,0|0,3:0|3:0,2:0:0:0:
451,370,35129,5,2,3:0:0:0:
465,373,35200,1,0,3:0:0:0:
479,377,35270,1,0,3:0:0:0:
493,380,35341,1,0,3:0:0:0:
507,384,35412,5,4,1:0:0:0:
488,310,35483,1,0,3:0:0:0:
459,240,35553,2,0,P|426:186|388:150,1,68.9,0|0,3:0|3:0,2:0:0:0:
262,120,35695,5,2,1:3:0:0:
213,126,35766,1,0,3:0:0:0:
197,170,35836,2,0,P|218:211|268:201,1,68.9,0|0,3:0|3:0,2:0:0:0:
492,112,35978,6,0,L|382:82,1,68.9,2|0,1:3|3:0,2:0:0:0:
145,24,36119,2,0,L|255:54,1,68.9,0|0,1:0|3:0,2:0:0:0:
512,98,36261,6,0,L|416:81,1,63.6,2|0,1:3|3:0,2:0:0:0:
164,9,36402,2,0,L|260:26,1,63.6,0|0,1:0|3:0,2:0:0:0:
387,0,36544,5,0,2:0:0:0:
398,32,36615,1,0,2:0:0:0:
407,64,36685,1,0,2:0:0:0:
414,97,36756,1,0,2:0:0:0:
417,131,36827,1,0,2:0:0:0:
412,136,36898,1,0,2:0:0:0:
407,141,36968,1,0,2:0:0:0:
401,145,37039,1,0,2:0:0:0:
395,179,37110,5,0,2:0:0:0:
362,173,37181,1,0,2:0:0:0:
330,164,37251,1,0,2:0:0:0:
298,154,37322,1,0,2:0:0:0:
267,140,37393,1,0,2:0:0:0:
265,133,37464,1,0,2:0:0:0:
263,126,37534,1,0,2:0:0:0:
262,119,37605,1,0,2:0:0:0:
314,63,37676,5,0,3:1:0:0:
373,110,37747,1,0,2:1:0:0:
373,184,37817,1,0,3:1:0:0:
328,227,37888,1,0,3:1:0:0:
280,235,37959,1,0,3:1:0:0:
248,221,38030,1,0,3:1:0:0:
220,224,38101,1,0,3:1:0:0:
205,238,38171,1,0,3:1:0:0:
203,251,38242,1,0,3:1:0:0:
211,261,38313,1,0,3:1:0:0:
231,264,38384,1,0,3:1:0:0:
251,237,38454,1,0,3:1:0:0:
256,195,38525,1,0,3:1:0:0:
228,155,38596,1,0,3:1:0:0:
169,135,38667,1,0,3:1:0:0:
102,169,38737,1,0,3:1:0:0:
86,243,38808,6,0,L|118:377,1,116.6,4|2,1:0|3:2,2:0:0:0:
133,367,39020,1,0,3:2:0:0:
153,377,39091,1,0,1:2:0:0:
0,327,39233,5,2,3:2:0:0:
0,327,39303,1,0,3:2:0:0:
0,327,39374,1,0,1:2:0:0:
186,235,39516,5,2,3:2:0:0:
186,235,39586,1,0,3:2:0:0:
186,235,39657,1,0,1:2:0:0:
14,120,39799,5,2,3:2:0:0:
18,109,39869,1,0,3:2:0:0:
22,98,39940,2,0,L|132:27,1,116.6,0|2,1:2|3:2,2:0:0:0:
123,23,40152,1,0,3:2:0:0:
127,12,40223,1,0,1:0:0:0:
315,77,40365,6,0,P|335:96|331:124,1,58.3,2|0,3:2|3:2,2:0:0:0:
266,180,40506,2,0,P|238:129|200:85,1,116.6,0|2,1:2|3:2,2:0:0:0:
356,263,40789,2,0,P|392:202|441:253,1,116.6,0|2,1:2|3:2,2:0:0:0:
436,223,41001,1,0,3:2:0:0:
445,237,41072,6,0,L|413:371,1,116.6,0|2,1:2|3:2,2:0:0:0:
431,361,41284,1,0,3:2:0:0:
444,372,41355,1,0,1:2:0:0:
264,297,41497,5,2,3:2:0:0:
264,297,41567,1,0,3:2:0:0:
264,297,41638,1,0,1:0:0:0:
140,147,41780,5,2,3:2:0:0:
140,147,41851,1,0,3:2:0:0:
140,147,41921,2,0,P|141:83|218:90,1,116.6,0|2,1:2|3:2,2:0:0:0:
197,55,42134,1,0,3:2:0:0:
209,43,42204,1,0,1:2:0:0:
174,249,42346,5,2,3:2:0:0:
145,277,42417,1,0,3:2:0:0:
104,276,42487,2,0,L|-12:218,1,116.6,0|2,1:2|3:2,2:0:0:0:
4,234,42700,1,0,3:2:0:0:
9,244,42770,1,0,1:2:0:0:
62,56,42912,6,0,P|34:61|28:88,1,58.3,2|0,3:2|3:2,2:0:0:0:
28,114,43053,5,0,1:0:0:0:
65,176,43124,1,0,3:2:0:0:
109,234,43195,1,0,1:2:0:0:
157,289,43266,1,0,1:2:0:0:
211,338,43336,1,0,1:2:0:0:
370,371,43478,5,2,3:2:0:0:
370,371,43549,1,0,3:2:0:0:
370,371,43619,1,0,1:2:0:0:
483,306,43761,5,2,3:2:0:0:
483,306,43832,1,0,3:2:0:0:
483,306,43902,1,0,1:2:0:0:
438,186,44044,5,2,3:2:0:0:
438,186,44115,1,0,3:2:0:0:
438,186,44185,2,0,P|382:202|374:276,1,116.6,0|2,1:2|3:2,2:0:0:0:
374,261,44398,1,0,3:2:0:0:
382,268,44468,1,0,1:2:0:0:
327,136,44610,6,0,P|318:93|287:84,1,58.3,2|0,3:2|3:2,2:0:0:0:
235,83,44751,2,0,P|211:132|271:174,1,116.6,0|2,1:2|3:2,2:0:0:0:
255,182,44964,1,0,3:2:0:0:
262,191,45034,1,0,1:2:0:0:
207,297,45176,5,2,3:2:0:0:
207,297,45247,1,0,3:2:0:0:
207,297,45317,1,0,1:2:0:0:
105,346,45459,5,2,3:2:0:0:
105,346,45530,1,0,3:2:0:0:
105,346,45601,2,0,L|83:221,1,116.6,0|2,1:2|3:2,2:0:0:0:
58,218,45813,1,0,3:2:0:0:
31,206,45884,2,0,L|53:81,1,116.6,0|2,1:0|3:2,2:0:0:0:
61,86,46096,1,0,3:2:0:0:
71,81,46167,1,0,1:2:0:0:
273,14,46308,6,0,P|290:48|263:63,1,58.3,2|0,3:2|3:2,2:0:0:0:
211,92,46450,2,0,P|168:51|121:14,1,116.6,0|2,1:2|3:2,2:0:0:0:
281,187,46733,5,0,1:2:0:0:
472,105,46874,2,0,P|512:70|490:46,1,58.3,2|0,3:2|3:2,2:0:0:0:
474,10,47016,6,0,P|424:37|381:95,1,116.6,0|2,1:2|3:2,2:0:0:0:
383,105,47228,1,0,3:2:0:0:
381,128,47299,1,0,1:2:0:0:
441,345,47440,6,0,P|469:310|450:271,1,58.3,2|0,3:2|3:2,2:0:0:0:
265,176,47582,1,0,1:2:0:0:
174,95,47723,6,0,P|177:132|226:139,1,58.3,2|0,1:2|3:2,2:0:0:0:
281,187,47865,6,0,P|211:214|133:262,1,116.6,2|2,1:0|3:2,2:0:0:0:
169,250,48077,1,0,3:2:0:0:
163,266,48148,1,0,1:2:0:0:
77,384,48289,5,2,3:2:0:0:
77,384,48360,1,0,3:2:0:0:
77,384,48431,1,0,1:2:0:0:
259,302,48572,5,2,3:2:0:0:
259,302,48643,1,0,3:2:0:0:
259,302,48714,1,0,1:2:0:0:
97,186,48855,5,2,3:2:0:0:
97,186,48926,1,0,3:2:0:0:
97,186,48997,2,0,P|46:213|61:279,1,116.6,0|2,1:2|3:2,2:0:0:0:
66,280,49209,1,0,3:2:0:0:
84,294,49280,1,0,1:0:0:0:
157,112,49421,6,0,L|176:38,1,58.3,2|0,3:2|3:2,2:0:0:0:
114,5,49563,2,0,P|64:37|-1:62,1,116.6,0|2,1:2|3:2,2:0:0:0:
247,105,49846,6,0,P|301:126|351:156,1,116.6,0|2,1:2|3:2,2:0:0:0:
375,139,50058,1,0,3:2:0:0:
398,121,50129,2,0,P|427:70|369:29,1,116.6,0|2,1:2|3:2,2:0:0:0:
384,36,50341,1,0,3:2:0:0:
373,41,50412,1,0,1:2:0:0:
471,200,50553,5,2,3:2:0:0:
471,200,50624,1,0,3:2:0:0:
471,200,50695,2,0,L|496:325,1,116.6,0|2,1:0|3:2,2:0:0:0:
503,320,50907,1,0,3:2:0:0:
512,326,50978,1,0,1:2:0:0:
370,255,51119,5,2,3:2:0:0:
370,255,51190,1,0,3:2:0:0:
370,255,51261,2,0,L|329:375,1,116.6,0|2,1:2|3:2,2:0:0:0:
337,374,51473,1,0,3:2:0:0:
342,384,51544,1,0,1:2:0:0:
255,252,51685,5,2,3:2:0:0:
255,252,51756,1,0,3:2:0:0:
255,252,51827,1,0,1:2:0:0:
226,346,51968,6,0,L|178:388,1,58.3,2|0,3:2|3:2,2:0:0:0:
117,343,52110,5,0,1:0:0:0:
105,270,52181,1,0,3:2:0:0:
87,198,52251,1,0,1:2:0:0:
55,131,52322,1,0,1:2:0:0:
19,67,52393,1,4,1:2:0:0:
153,8,52534,5,2,3:2:0:0:
153,8,52605,1,0,3:2:0:0:
153,8,52676,1,0,1:2:0:0:
261,60,52817,5,2,3:2:0:0:
261,60,52888,1,0,3:2:0:0:
261,60,52959,1,0,1:2:0:0:
289,154,53101,5,2,3:2:0:0:
289,154,53171,1,0,3:2:0:0:
289,154,53242,1,0,1:2:0:0:
69,259,53384,6,0,P|73:213|125:209,1,58.3,2|0,3:2|3:2,2:0:0:0:
170,106,53525,2,0,L|192:239,1,116.6,0|2,1:2|3:2,2:0:0:0:
209,232,53737,1,0,3:2:0:0:
229,243,53808,1,0,1:2:0:0:
343,335,53950,6,0,L|380:287,1,58.3,2|0,3:2|3:2,2:0:0:0:
475,255,54091,2,0,L|440:368,1,116.6,0|2,1:2|3:2,2:0:0:0:
448,375,54303,1,0,3:2:0:0:
455,384,54374,1,0,1:2:0:0:
422,183,54516,6,0,L|402:101,1,58.3,2|0,3:2|3:2,2:0:0:0:
343,79,54657,6,0,L|444:9,1,116.6,8|2,1:3|3:2,2:0:0:0:
447,20,54869,1,0,3:2:0:0:
455,27,54940,1,0,1:0:0:0:
326,172,55082,5,2,3:2:0:0:
326,172,55152,1,0,3:2:0:0:
326,172,55223,1,0,1:2:0:0:
186,138,55365,5,2,3:2:0:0:
186,138,55435,1,0,3:2:0:0:
186,138,55506,1,0,1:2:0:0:
156,34,55648,5,2,3:2:0:0:
156,34,55718,1,0,3:2:0:0:
156,34,55789,2,0,P|214:22|255:87,1,116.6,4|2,1:3|3:2,2:0:0:0:
167,233,56072,5,0,1:2:0:0:
107,284,56143,1,0,2:0:0:0:
43,283,56214,1,2,3:2:0:0:
11,261,56284,1,0,3:2:0:0:
3,238,56355,1,0,1:2:0:0:
14,221,56426,1,0,2:0:0:0:
34,218,56497,1,2,3:2:0:0:
46,224,56567,1,0,3:2:0:0:
62,241,56638,1,0,1:2:0:0:
81,269,56709,1,0,2:0:0:0:
123,308,56780,1,2,1:2:0:0:
186,349,56851,1,0,3:2:0:0:
256,382,56921,6,0,P|211:299|143:202,1,174.9,4|0,1:0|3:2,2:0:0:0:
184,209,57204,1,8,1:2:0:0:
205,105,57346,1,2,3:2:0:0:
280,254,57487,5,0,1:2:0:0:
358,144,57629,1,2,3:2:0:0:
361,322,57770,5,8,1:2:0:0:
508,221,57912,1,2,3:2:0:0:
508,221,57983,1,0,3:2:0:0:
508,221,58053,2,0,L|470:89,1,116.6,0|2,1:0|3:2,2:0:0:0:
486,95,58266,1,0,3:2:0:0:
498,82,58336,1,8,1:2:0:0:
309,2,58478,6,0,L|292:58,1,58.3,2|0,3:2|3:2,2:0:0:0:
393,232,58619,1,0,1:2:0:0:
465,375,58761,6,0,P|485:332|452:303,1,58.3,2|0,3:2|3:2,2:0:0:0:
364,220,58902,1,8,1:2:0:0:
268,298,59044,5,2,3:2:0:0:
228,309,59115,1,0,3:2:0:0:
197,335,59185,2,0,P|140:289|169:238,1,116.6,0|2,1:0|3:2,2:0:0:0:
164,247,59398,1,0,3:2:0:0:
171,231,59468,1,8,1:2:0:0:
96,17,59610,5,2,3:2:0:0:
69,29,59681,1,0,3:2:0:0:
60,56,59751,1,0,1:2:0:0:
234,151,59893,6,0,P|263:106|236:79,1,58.3,2|0,3:2|3:2,2:0:0:0:
226,24,60034,2,0,P|177:67|138:138,1,116.6,8|2,1:2|3:2,2:0:0:0:
125,129,60247,1,0,3:2:0:0:
102,147,60317,1,0,1:0:0:0:
41,369,60459,5,2,3:2:0:0:
14,369,60530,1,0,3:2:0:0:
0,349,60601,2,0,P|18:288|88:325,1,116.6,8|2,1:2|3:2,2:0:0:0:
66,292,60813,1,0,3:2:0:0:
69,296,60884,1,0,1:2:0:0:
193,316,61025,6,0,P|223:355|258:344,1,58.3,2|0,3:2|3:2,2:0:0:0:
243,379,61167,5,8,1:2:0:0:
313,358,61237,1,0,1:0:0:0:
382,333,61308,1,2,1:2:0:0:
448,303,61379,1,0,1:2:0:0:
512,268,61450,1,0,1:0:0:0:
512,128,61591,5,2,3:2:0:0:
512,128,61662,1,0,3:2:0:0:
512,128,61733,2,0,P|488:73|428:87,1,116.6,8|2,1:2|3:2,2:0:0:0:
426,102,61945,1,0,3:2:0:0:
413,127,62016,5,0,1:2:0:0:
284,239,62157,1,2,3:2:0:0:
264,100,62299,5,8,1:2:0:0:
89,171,62440,1,2,3:2:0:0:
89,171,62511,1,0,3:2:0:0:
89,171,62582,6,0,P|46:143|69:108,1,58.3,0|0,1:0|2:0,2:0:0:0:
32,44,62723,2,0,P|74:71|51:106,1,58.3,2|0,3:2|3:2,2:0:0:0:
189,138,62865,6,0,P|178:88|219:79,1,58.3,8|0,1:2|2:0,2:0:0:0:
237,9,63006,2,0,P|247:58|206:67,1,58.3,2|0,3:2|3:2,2:0:0:0:
173,231,63148,1,0,1:2:0:0:
97,325,63289,6,0,P|75:290|101:266,1,58.3,2|0,3:2|3:2,2:0:0:0:
162,222,63431,1,8,1:2:0:0:
326,139,63572,6,0,P|348:174|322:198,1,58.3,2|0,3:2|3:2,2:0:0:0:
235,326,63714,5,0,1:0:0:0:
230,329,63784,1,0,2:0:0:0:
225,332,63855,1,2,3:2:0:0:
220,335,63926,1,0,3:2:0:0:
214,335,63997,2,0,P|162:305|193:240,1,116.6,8|2,1:2|3:2,2:0:0:0:
412,337,64280,5,0,1:2:0:0:
423,344,64351,1,0,2:0:0:0:
428,358,64421,1,2,3:2:0:0:
428,372,64492,1,0,3:2:0:0:
421,384,64563,2,0,L|316:367,1,58.3,8|0,1:2|2:0,2:0:0:0:
339,301,64704,1,2,3:2:0:0:
395,88,64846,5,0,1:0:0:0:
249,163,64987,6,0,L|329:144,1,58.3,2|0,3:2|3:2,2:0:0:0:
385,79,65129,1,8,1:2:0:0:
485,208,65270,6,0,L|405:189,1,58.3,2|0,3:2|3:2,2:0:0:0:
383,69,65412,2,0,P|400:5|453:5,1,116.6,0|2,1:2|3:2,2:0:0:0:
512,299,65695,5,8,1:2:0:0:
482,78,65836,6,0,P|511:91|503:123,1,58.3,2|0,1:2|3:2,2:0:0:0:
408,218,65978,6,0,P|344:178|216:114,1,174.9,4|0,1:0|3:2,2:0:0:0:
262,113,66261,1,0,1:2:0:0:
251,245,66402,1,2,3:2:0:0:
201,66,66544,5,0,1:2:0:0:
100,248,66685,1,2,3:2:0:0:
154,4,66827,5,0,1:2:0:0:
0,149,66968,2,0,P|43:133|82:131,1,58.3,2|0,3:2|3:2,2:0:0:0:
176,200,67110,5,2,1:0:0:0:
114,363,67251,1,2,3:2:0:0:
63,250,67393,5,0,1:2:0:0:
226,312,67534,2,0,P|246:319|275:343,1,58.3,2|0,3:2|3:2,2:0:0:0:
430,364,67676,1,0,1:0:0:0:
263,170,67817,6,0,P|280:182|302:212,1,58.3,2|0,3:2|3:2,2:0:0:0:
442,332,67959,1,0,1:2:0:0:
335,42,68101,6,0,P|349:58|361:93,1,58.3,2|0,3:2|3:2,2:0:0:0:
454,300,68242,2,0,P|473:215|495:148,1,116.6,8|2,1:3|3:2,2:0:0:0:
490,179,68454,1,0,3:2:0:0:
499,172,68525,1,0,1:2:0:0:
235,56,68667,5,2,3:2:0:0:
235,56,68737,1,0,3:2:0:0:
235,56,68808,2,0,P|250:112|262:169,1,116.6,0|2,1:2|3:2,2:0:0:0:
348,290,69091,5,0,1:2:0:0:
138,127,69233,1,2,3:2:0:0:
384,26,69374,1,4,1:3:0:0:
231,151,69516,5,2,3:2:0:0:
378,181,69657,1,0,1:2:0:0:
164,218,69799,5,2,3:2:0:0:
164,218,69869,1,0,3:2:0:0:
164,218,69940,2,0,P|210:287|231:346,1,116.6,0|2,1:2|3:2,2:0:0:0:
1,121,70223,5,0,1:2:0:0:
41,180,70294,1,0,2:0:0:0:
75,244,70365,1,2,3:2:0:0:
100,313,70435,1,0,3:2:0:0:
117,384,70506,1,4,1:0:0:0:
248,291,70648,5,2,3:2:0:0:
248,291,70718,1,0,3:2:0:0:
248,291,70789,1,0,1:2:0:0:
282,173,70931,5,2,3:2:0:0:
282,173,71001,1,0,3:2:0:0:
282,173,71072,1,0,1:2:0:0:
219,97,71214,5,2,3:2:0:0:
219,97,71284,1,0,3:2:0:0:
219,97,71355,2,0,P|178:50|210:0,1,116.6,0|2,1:2|3:2,2:0:0:0:
413,180,71638,5,4,1:0:0:0:
384,38,71780,1,2,3:2:0:0:
378,20,71851,1,0,3:2:0:0:
393,6,71921,2,0,P|430:39|469:105,1,116.6,0|2,1:2|3:2,2:0:0:0:
402,331,72204,5,0,1:2:0:0:
245,384,72346,6,0,P|248:333|292:333,1,58.3,2|0,3:2|3:2,2:0:0:0:
332,224,72487,2,0,P|363:303|374:370,1,116.6,0|2,1:2|3:2,2:0:0:0:
113,384,72770,5,4,1:0:0:0:
53,166,72912,1,2,3:2:0:0:
32,154,72983,1,0,3:2:0:0:
8,148,73053,1,0,1:2:0:0:
187,207,73195,5,2,3:2:0:0:
163,166,73266,1,0,3:2:0:0:
130,132,73336,1,4,1:0:0:0:
138,116,73407,1,0,2:0:0:0:
147,101,73478,1,2,3:2:0:0:
160,89,73549,1,0,3:2:0:0:
174,79,73619,5,0,1:2:0:0:
236,122,73690,1,0,2:0:0:0:
273,187,73761,1,2,3:2:0:0:
297,259,73832,1,0,3:2:0:0:
303,333,73902,5,4,1:0:0:0:
289,343,73973,1,0,2:0:0:0:
273,350,74044,1,2,3:2:0:0:
256,356,74115,1,0,3:2:0:0:
239,359,74185,1,0,1:0:0:0:
211,288,74256,1,0,2:0:0:0:
258,228,74327,1,2,3:2:0:0:
334,225,74398,1,0,3:2:0:0:
382,282,74468,1,0,1:0:0:0:
403,348,74539,1,0,2:0:0:0:
454,376,74610,1,2,3:2:0:0:
499,363,74681,1,0,3:2:0:0:
512,331,74751,1,0,1:0:0:0:
507,302,74822,1,0,2:0:0:0:
489,286,74893,1,2,1:0:0:0:
477,282,74964,1,0,3:2:0:0:
466,285,75034,5,8,1:3:0:0:
256,192,75105,12,0,77228,2:0:0:0:
256,192,77299,12,0,79492,2:0:0:0:
256,192,79563,12,4,81827,2:0:0:0:
134,29,83808,5,8,3:2:0:0:
5,333,84091,6,0,P|43:345|59:388,1,84.8,4|0,2:0|2:0,2:0:0:0:
93,277,84374,1,0,2:0:0:0:
93,277,84445,1,0,2:0:0:0:
93,277,84516,2,0,B|90:224|138:211|138:211|189:194|186:131,1,169.6,2|0,2:3|2:0,2:0:0:0:
157,10,84940,5,0,2:0:0:0:
138,0,85011,1,0,2:0:0:0:
118,3,85082,1,0,2:0:0:0:
104,19,85152,1,0,2:0:0:0:
102,40,85223,2,0,P|162:52|266:94,1,169.6,2|0,2:3|2:0,2:0:0:0:
346,172,85648,5,0,2:0:0:0:
368,141,85718,1,0,2:0:0:0:
401,121,85789,2,0,L|444:-12,1,127.2,2|0,2:3|2:0,2:0:0:0:
417,19,86072,2,0,L|372:32,2,42.4,0|0|0,2:0|2:0|2:0,2:0:0:0:
470,184,86355,6,0,P|503:221|482:265,1,84.8,2|0,2:3|2:0,2:0:0:0:
446,360,86638,5,0,2:0:0:0:
446,360,86709,1,0,2:0:0:0:
446,360,86780,2,0,P|378:352|396:247,1,169.6,2|0,2:3|2:0,2:0:0:0:
357,135,87204,5,2,2:3:0:0:
333,156,87275,1,0,2:0:0:0:
309,176,87346,2,0,P|275:192|252:202,1,42.4,0|0,2:0|2:0,2:0:0:0:
218,355,87487,1,2,2:3:0:0:
197,157,87629,6,0,P|184:192|175:215,1,42.4,0|0,2:0|2:0,2:0:0:0:
206,360,87770,1,2,2:3:0:0:
104,222,87912,6,0,P|120:255|130:279,1,42.4,0|0,2:0|2:0,2:0:0:0:
197,370,88053,1,2,2:3:0:0:
84,333,88195,6,0,P|119:345|142:354,1,42.4,0|0,2:0|2:0,2:0:0:0:
196,384,88336,2,0,P|209:336|240:279,1,84.8,2|0,2:3|2:0,2:0:0:0:
215,10,88619,6,0,P|225:51|243:90,1,84.8,2|0,2:3|2:0,2:0:0:0:
403,180,88902,2,0,P|416:149|447:139,1,42.4,0|0,2:0|2:0,2:0:0:0:
473,88,89044,2,0,P|483:47|383:44,1,169.6,2|0,2:3|2:0,2:0:0:0:
373,42,89398,1,0,2:0:0:0:
353,48,89468,5,0,2:0:0:0:
334,86,89539,1,0,2:0:0:0:
321,125,89610,1,0,2:0:0:0:
312,167,89681,1,0,2:0:0:0:
308,210,89751,2,0,P|321:281|332:312,1,84.8,2|0,2:3|2:0,2:0:0:0:
332,296,89964,1,0,2:0:0:0:
339,299,90034,1,0,2:0:0:0:
512,384,90176,1,2,2:3:0:0:
460,255,90317,5,0,2:0:0:0:
460,255,90388,1,0,2:0:0:0:
460,255,90459,2,0,P|433:288|388:303,1,47.7,0|0,2:0|2:0,2:0:0:0:
292,384,90601,2,0,P|253:353|195:331,1,95.4000000000001,2|0,2:3|2:0,2:0:0:0:
173,327,90813,1,0,2:0:0:0:
134,326,90884,6,0,P|93:285|131:231,1,106,2|0,2:3|2:0,2:0:0:0:
159,1,91167,1,0,2:0:0:0:
180,42,91237,1,0,2:0:0:0:
159,75,91308,2,0,P|107:82|-11:127,1,159,2|0,2:3|2:0,2:0:0:0:
0,137,91591,1,0,2:0:0:0:
150,168,91733,5,0,2:0:0:0:
159,171,91803,1,0,2:0:0:0:
167,177,91874,1,0,2:0:0:0:
173,185,91945,1,0,2:0:0:0:
178,194,92016,5,2,2:3:0:0:
221,137,92086,1,0,2:0:0:0:
293,136,92157,1,0,2:0:0:0:
338,191,92228,1,0,2:0:0:0:
322,261,92299,1,0,2:0:0:0:
270,296,92369,1,0,2:0:0:0:
221,283,92440,1,0,2:0:0:0:
187,295,92511,1,0,2:0:0:0:
181,315,92582,1,0,3:0:0:0:
189,327,92652,1,0,3:0:0:0:
210,329,92723,1,0,3:0:0:0:
227,313,92794,1,0,3:0:0:0:
244,268,92865,1,0,3:0:0:0:
297,211,92935,1,0,3:0:0:0:
371,231,93006,1,0,3:0:0:0:
388,306,93077,1,0,3:0:0:0:
333,361,93148,6,0,P|392:340|463:332,1,116.6,4|2,1:0|3:0,2:0:0:0:
512,144,93431,1,0,3:0:0:0:
512,144,93501,1,0,2:0:0:0:
512,144,93572,2,0,P|449:138|398:118,1,116.6,2|0,1:3|3:0,2:0:0:0:
512,273,93855,6,0,P|471:225|465:206,1,58.3,2|0,3:0|3:0,2:0:0:0:
355,41,93997,1,0,3:0:0:0:
200,114,94138,6,0,P|241:66|247:47,1,58.3,2|0,3:0|3:0,2:0:0:0:
340,16,94280,6,0,P|322:79|296:218,1,174.9,0|0,1:0|3:0,2:0:0:0:
312,212,94563,1,0,3:0:0:0:
324,238,94634,1,0,2:0:0:0:
336,264,94704,2,0,P|304:282|277:320,1,58.3,2|0,3:0|3:0,2:0:0:0:
113,356,94846,6,0,P|48:370|44:261,1,174.9,0|0,1:0|3:0,2:0:0:0:
15,265,95129,1,0,1:0:0:0:
32,243,95200,1,0,2:0:0:0:
60,237,95270,2,0,P|90:258|75:302,1,58.3,2|0,3:0|3:0,2:0:0:0:
210,384,95412,5,0,1:0:0:0:
269,117,95553,1,2,3:0:0:0:
234,283,95695,6,0,P|222:237|196:200,1,58.3,0|0,3:0|2:0,2:0:0:0:
149,4,95836,6,0,B|101:-7|75:37|81:44|89:50|71:103|20:92,1,174.9,2|0,1:3|2:0,2:0:0:0:
0,73,96119,1,2,3:0:0:0:
112,167,96261,5,0,3:0:0:0:
123,154,96332,1,0,2:0:0:0:
137,143,96402,2,0,P|178:126|220:120,1,58.3,2|0,3:0|3:0,2:0:0:0:
443,172,96544,5,2,1:3:0:0:
226,53,96685,6,0,P|270:58|309:74,1,58.3,2|0,3:0|3:0,2:0:0:0:
437,181,96827,1,2,1:3:0:0:
348,19,96968,6,0,P|383:46|409:79,1,58.3,2|0,3:0|3:0,2:0:0:0:
427,188,97110,1,2,1:3:0:0:
470,50,97251,6,0,P|487:91|493:133,1,58.3,2|0,3:0|3:0,2:0:0:0:
411,324,97393,1,2,1:3:0:0:
397,330,97464,1,0,2:0:0:0:
384,326,97534,2,0,P|366:284|361:242,1,58.3,2|0,3:0|3:0,2:0:0:0:
512,206,97676,6,0,P|451:195|306:143,1,174.9,4|0,1:0|3:0,2:0:0:0:
326,175,97959,2,0,P|296:135|329:106,1,58.3,0|0,3:0|2:0,2:0:0:0:
240,78,98101,6,0,P|172:71|181:166,1,174.9,2|0,1:3|2:0,2:0:0:0:
189,148,98384,1,2,3:0:0:0:
385,22,98525,5,0,3:0:0:0:
385,22,98596,1,0,2:0:0:0:
385,22,98667,2,0,P|360:73|350:107,1,58.3,2|0,3:0|3:0,2:0:0:0:
243,229,98808,6,0,P|182:261|108:308,1,127.2,4|2,1:3|3:0,2:0:0:0:
248,381,99091,6,0,P|194:362|163:345,1,63.6,0|0,3:0|2:0,2:0:0:0:
79,213,99233,6,0,P|-14:189|63:136,1,190.8,0|0,1:0|2:0,2:0:0:0:
21,108,99516,2,0,P|78:119|72:160,1,63.6,2|0,3:0|3:0,2:0:0:0:
268,242,99657,1,0,1:0:0:0:
181,344,99799,6,0,P|161:307|195:277,1,63.6,2|0,3:0|3:0,2:0:0:0:
292,226,99940,6,0,L|311:83,1,127.2,4|2,1:2|3:0,2:0:0:0:
321,96,100152,1,0,3:0:0:0:
333,92,100223,1,0,3:0:0:0:
140,0,100365,6,0,P|171:78|199:201,1,190.8,0|0,1:0|2:0,2:0:0:0:
172,203,100648,1,2,3:0:0:0:
370,281,100789,1,0,3:0:0:0:
370,281,100860,1,0,2:0:0:0:
370,281,100931,2,0,P|345:339|328:399,1,63.6,2|0,3:0|3:0,2:0:0:0:
281,379,101072,5,8,1:3:0:0:
209,356,101143,1,0,2:0:0:0:
182,290,101214,1,2,3:0:0:0:
206,239,101284,1,0,3:0:0:0:
255,223,101355,1,0,3:0:0:0:
291,232,101426,1,0,2:0:0:0:
315,212,101497,1,2,3:0:0:0:
312,195,101567,1,0,3:0:0:0:
303,187,101638,5,0,1:0:0:0:
297,190,101709,1,0,2:0:0:0:
292,194,101780,1,2,3:0:0:0:
288,199,101851,1,0,3:0:0:0:
285,204,101921,1,0,3:0:0:0:
283,210,101992,1,0,2:0:0:0:
282,216,102063,1,2,3:0:0:0:
283,222,102134,1,0,3:0:0:0:
324,285,102204,5,2,1:0:0:0:
391,270,102275,1,0,2:0:0:0:
415,205,102346,1,2,3:0:0:0:
377,148,102417,1,0,2:0:0:0:
341,125,102487,1,0,1:0:0:0:
316,96,102558,1,0,2:0:0:0:
319,63,102629,1,2,3:0:0:0:
342,45,102700,1,0,2:0:0:0:
417,32,102770,5,0,1:0:0:0:
406,114,102841,1,0,1:0:0:0:
368,188,102912,1,0,1:0:0:0:
375,379,103053,5,0,1:0:0:0:
220,109,103195,1,0,1:0:0:0:
39,215,103336,5,4,1:0:0:0:
23,205,103407,1,0,2:0:0:0:
21,164,103478,1,2,2:3:0:0:
62,130,103549,1,0,2:0:0:0:
124,146,103619,1,0,2:0:0:0:
145,210,103690,1,0,2:0:0:0:
125,276,103761,1,2,2:3:0:0:
143,342,103832,1,0,2:0:0:0:
196,384,103902,1,0,2:0:0:0:
256,363,103973,1,0,2:0:0:0:
273,312,104044,1,2,2:3:0:0:
249,278,104115,1,0,2:0:0:0:
227,274,104185,1,0,2:0:0:0:
215,280,104256,1,0,2:0:0:0:
208,291,104327,1,2,2:3:0:0:
209,303,104398,1,0,2:0:0:0:
241,374,104468,5,0,2:0:0:0:
313,348,104539,1,0,2:0:0:0:
344,285,104610,1,2,2:3:0:0:
329,229,104681,1,0,2:0:0:0:
301,207,104751,1,0,2:0:0:0:
295,172,104822,1,0,2:0:0:0:
313,153,104893,1,2,2:3:0:0:
332,152,104964,1,0,2:0:0:0:
393,209,105034,5,0,2:0:0:0:
346,269,105105,1,0,2:0:0:0:
276,279,105176,1,2,2:3:0:0:
227,247,105247,1,0,2:0:0:0:
215,214,105317,1,0,2:0:0:0:
184,197,105388,1,0,2:0:0:0:
160,209,105459,1,2,2:3:0:0:
153,226,105530,1,0,2:0:0:0:
143,263,105601,5,0,2:0:0:0:
131,242,105671,1,0,2:0:0:0:
110,230,105742,1,2,2:3:0:0:
87,231,105813,1,0,2:0:0:0:
67,243,105884,1,0,2:0:0:0:
56,264,105954,1,0,2:0:0:0:
57,288,106025,1,2,2:3:0:0:
70,307,106096,1,0,2:0:0:0:
91,318,106167,5,0,2:0:0:0:
102,297,106237,1,0,2:0:0:0:
123,285,106308,1,2,2:3:0:0:
146,286,106379,1,0,2:0:0:0:
166,298,106450,1,0,2:0:0:0:
177,319,106520,1,0,2:0:0:0:
176,343,106591,1,2,2:3:0:0:
163,362,106662,1,0,2:0:0:0:
142,373,106733,6,0,P|105:304|82:224,1,127.2,0|2,2:0|2:3,2:0:0:0:
102,236,106945,1,0,2:0:0:0:
115,214,107016,2,0,P|152:145|175:65,1,127.2,0|2,2:0|2:3,2:0:0:0:
211,302,107299,6,0,P|226:253|177:216,1,84.8,0|0,2:0|2:0,2:0:0:0:
321,192,107487,2,0,P|298:157|257:153,1,84.8,0|0,2:0|1:3,2:0:0:0:
95,23,107676,1,0,2:0:0:0:
296,73,107865,5,8,1:3:0:0:
359,121,107935,1,0,2:0:0:0:
422,119,108006,1,2,3:0:0:0:
451,91,108077,1,0,2:0:0:0:
452,59,108148,1,0,3:0:0:0:
437,37,108218,1,0,2:0:0:0:
418,30,108289,1,2,3:0:0:0:
403,34,108360,1,0,2:0:0:0:
391,43,108431,6,0,L|365:175,1,127.2,0|2,1:0|3:0,2:0:0:0:
394,193,108643,1,0,2:0:0:0:
422,219,108714,2,0,L|437:288,1,63.6,0|0,1:0|2:0,2:0:0:0:
512,384,108855,5,2,1:3:0:0:
438,363,108926,1,0,1:0:0:0:
367,333,108997,1,4,1:3:0:0:
311,304,109067,1,0,2:0:0:0:
260,301,109138,1,2,3:0:0:0:
228,322,109209,1,0,2:0:0:0:
222,346,109280,1,0,3:0:0:0:
233,361,109351,1,0,2:0:0:0:
244,365,109421,1,2,1:3:0:0:
255,359,109492,1,0,2:0:0:0:
291,301,109563,5,0,1:0:0:0:
260,249,109634,1,0,2:0:0:0:
216,238,109704,1,2,3:0:0:0:
178,252,109775,1,0,2:0:0:0:
166,274,109846,2,0,P|170:313|212:315,1,63.6,0|0,1:0|2:0,2:0:0:0:
280,171,109987,2,0,L|298:87,1,63.6,2|0,1:3|1:0,2:0:0:0:
173,2,110129,5,8,1:3:0:0:
108,48,110200,1,0,2:0:0:0:
82,105,110270,1,2,3:0:0:0:
84,152,110341,1,0,2:0:0:0:
60,186,110412,1,0,3:0:0:0:
27,194,110483,1,0,2:0:0:0:
4,179,110553,1,2,1:3:0:0:
0,159,110624,1,0,2:0:0:0:
48,102,110695,5,6,1:2:0:0:
112,98,110766,1,0,2:0:0:0:
156,120,110836,1,2,3:0:0:0:
178,151,110907,1,0,2:0:0:0:
210,160,110978,1,0,3:0:0:0:
235,148,111049,1,0,2:0:0:0:
242,127,111119,1,2,1:3:0:0:
234,113,111190,1,0,1:0:0:0:
204,77,111261,6,0,P|179:167|178:240,1,127.2,4|2,1:2|3:0,2:0:0:0:
59,2,111544,5,0,1:0:0:0:
106,81,111638,5,0,2:0:0:0:
77,171,111733,5,0,2:0:0:0:
152,225,111827,5,4,1:2:0:0:
85,373,111968,5,2,3:0:0:0:
85,373,112039,1,0,2:0:0:0:
85,373,112110,2,0,P|22:325|75:279,1,127.2,0|0,1:0|1:0,2:0:0:0:
314,259,112393,5,4,1:0:0:0:
319,244,112464,1,0,2:0:0:0:
342,235,112534,1,0,3:0:0:0:
382,243,112605,1,0,2:0:0:0:
404,288,112676,1,0,3:0:0:0:
381,358,112747,1,0,2:0:0:0:
313,387,112817,1,0,3:0:0:0:
247,353,112888,1,0,2:0:0:0:
229,281,112959,1,0,3:0:0:0:
272,221,113030,1,0,2:0:0:0:
312,173,113101,1,0,3:0:0:0:
298,124,113171,1,0,2:0:0:0:
262,110,113242,1,0,3:0:0:0:
241,116,113313,1,0,2:0:0:0:
231,128,113384,1,0,3:0:0:0:
230,140,113454,1,0,2:0:0:0:
279,199,113525,5,0,3:0:0:0:
347,165,113596,1,0,2:0:0:0:
363,103,113667,1,0,3:0:0:0:
340,50,113737,1,0,2:0:0:0:
302,35,113808,1,0,3:0:0:0:
266,48,113879,1,0,2:0:0:0:
244,71,113950,1,0,3:0:0:0:
222,83,114020,1,0,2:0:0:0:
155,45,114091,5,0,3:0:0:0:
87,79,114162,1,0,2:0:0:0:
71,141,114233,1,0,3:0:0:0:
94,194,114303,1,0,2:0:0:0:
132,209,114374,1,0,3:0:0:0:
168,196,114445,1,0,2:0:0:0:
190,173,114516,2,0,P|231:166|245:223,1,63.6,0|0,3:0|2:0,2:0:0:0:
348,233,114657,5,8,1:3:0:0:
390,293,114728,1,0,2:0:0:0:
461,287,114799,1,0,3:0:0:0:
499,253,114869,1,0,2:0:0:0:
512,211,114940,1,0,3:0:0:0:
502,185,115011,1,0,2:0:0:0:
477,172,115082,1,0,3:0:0:0:
453,178,115152,1,0,2:0:0:0:
442,192,115223,5,0,3:0:0:0:
431,213,115294,1,0,2:0:0:0:
410,225,115365,1,0,3:0:0:0:
387,224,115435,1,0,2:0:0:0:
367,212,115506,1,0,3:0:0:0:
356,191,115577,1,0,2:0:0:0:
357,167,115648,1,0,3:0:0:0:
370,148,115718,1,0,2:0:0:0:
425,94,115789,6,0,P|462:163|485:243,1,127.2,4|0,1:3|3:0,2:0:0:0:
465,231,116001,1,0,2:0:0:0:
452,253,116072,2,0,P|415:322|392:402,1,127.2,0|0,3:0|3:0,2:0:0:0:
171,338,116355,6,0,P|134:324|97:347,1,84.8,0|0,1:0|2:0,2:0:0:0:
226,267,116544,2,0,P|209:231|167:221,1,84.8,0|0,2:0|3:0,2:0:0:0:
329,281,116733,2,0,P|342:244|319:207,1,84.8,0|0,2:0|2:0,2:0:0:0:
209,44,116921,5,8,1:3:0:0:
148,0,116992,1,0,3:0:0:0:
98,25,117063,1,0,3:0:0:0:
85,64,117134,1,0,3:0:0:0:
92,96,117204,1,0,3:0:0:0:
79,119,117275,1,0,3:0:0:0:
58,131,117346,1,0,3:0:0:0:
41,130,117417,1,0,3:0:0:0:
28,117,117487,5,0,1:0:0:0:
24,111,117558,1,0,3:0:0:0:
24,104,117629,2,0,P|33:66|85:70,1,63.6,0|0,3:0|3:0,2:0:0:0:
309,131,117770,1,0,1:0:0:0:
224,221,117912,6,0,P|200:170|231:145,1,63.6,0|0,1:0|1:0,2:0:0:0:
394,0,118053,6,0,P|434:76|449:136,1,127.2,8|0,1:3|3:0,2:0:0:0:
479,134,118266,1,0,3:0:0:0:
512,152,118336,2,0,P|489:193|476:228,1,63.6,0|0,3:0|3:0,2:0:0:0:
411,245,118478,2,0,P|399:290|395:327,1,63.6,0|0,1:0|3:0,2:0:0:0:
442,383,118619,5,0,1:0:0:0:
454,384,118690,1,0,3:0:0:0:
465,379,118761,2,0,P|488:348|453:310,1,63.6,0|0,3:0|3:0,2:0:0:0:
375,138,118902,5,0,1:0:0:0:
363,137,118973,1,0,3:0:0:0:
352,142,119044,2,0,P|328:172|363:210,1,63.6,0|0,1:0|1:0,2:0:0:0:
239,295,119185,6,0,P|196:258|105:221,1,127.2,4|0,1:3|3:0,2:0:0:0:
94,236,119398,1,0,3:0:0:0:
57,245,119468,2,0,P|32:268|40:312,1,63.6,0|0,3:0|3:0,2:0:0:0:
97,384,119610,2,0,P|122:361|114:317,1,63.6,0|0,1:0|3:0,2:0:0:0:
142,109,119751,5,0,1:0:0:0:
115,39,119822,1,0,3:0:0:0:
55,15,119893,1,0,3:0:0:0:
7,38,119964,1,0,3:0:0:0:
0,72,120034,1,0,3:0:0:0:
19,96,120105,1,0,3:0:0:0:
36,102,120176,2,0,P|100:81|133:61,1,63.6,0|0,1:0|3:0,2:0:0:0:
330,7,120317,5,4,1:2:0:0:
394,10,120388,1,0,3:0:0:0:
421,40,120459,2,0,P|437:80|416:105,1,63.6,0|0,3:0|3:0,2:0:0:0:
309,102,120601,5,4,3:2:0:0:
358,170,120695,5,0,2:0:0:0:
441,180,120789,5,0,2:0:0:0:
483,253,120884,6,0,P|511:306|477:349,1,63.6,0|0,3:2|3:0,2:0:0:0:
445,374,121025,2,0,P|416:320|450:277,1,63.6,0|0,3:0|3:0,2:0:0:0:
208,171,121167,6,0,P|193:198|197:229,1,63.6,4|0,3:2|3:0,2:0:0:0:
314,338,121308,2,0,P|328:310|324:279,1,63.6,0|0,3:0|3:0,2:0:0:0:
106,280,121450,5,4,1:0:0:0:
99,270,121520,1,0,2:0:0:0:
80,262,121591,1,2,3:0:0:0:
48,274,121662,1,0,3:0:0:0:
34,329,121733,1,10,1:2:0:0:
80,384,121803,1,0,2:0:0:0:
155,374,121874,1,2,3:0:0:0:
198,309,121945,1,0,3:0:0:0:
197,232,122016,5,2,1:2:0:0:
241,168,122086,1,0,2:0:0:0:
316,158,122157,1,2,3:0:0:0:
362,213,122228,1,0,3:0:0:0:
348,267,122299,1,10,1:2:0:0:
316,279,122369,1,0,2:0:0:0:
297,272,122440,1,2,3:0:0:0:
290,262,122511,1,0,3:0:0:0:
301,186,122582,5,2,1:2:0:0:
355,133,122652,1,0,2:0:0:0:
369,64,122723,1,2,3:0:0:0:
333,20,122794,1,0,3:0:0:0:
292,23,122865,1,10,1:2:0:0:
270,46,122935,1,0,2:0:0:0:
269,74,123006,1,2,3:0:0:0:
281,87,123077,1,0,3:0:0:0:
354,109,123148,5,2,1:2:0:0:
408,162,123218,1,0,2:0:0:0:
422,231,123289,1,2,3:0:0:0:
386,275,123360,1,0,3:0:0:0:
345,272,123431,1,10,1:2:0:0:
323,249,123501,1,0,2:0:0:0:
322,221,123572,1,2,3:0:0:0:
334,208,123643,1,0,3:0:0:0:
410,239,123714,5,2,1:2:0:0:
410,308,123784,1,0,2:0:0:0:
366,345,123855,1,2,3:0:0:0:
321,348,123926,1,0,3:0:0:0:
289,329,123997,1,10,1:2:0:0:
263,302,124067,1,0,2:0:0:0:
218,293,124138,1,2,3:0:0:0:
166,317,124209,1,0,3:0:0:0:
148,384,124280,5,2,1:2:0:0:
224,376,124351,1,0,2:0:0:0:
267,329,124421,1,2,3:0:0:0:
263,280,124492,1,0,3:0:0:0:
239,252,124563,1,10,1:2:0:0:
203,249,124634,1,0,2:0:0:0:
183,224,124704,1,2,3:0:0:0:
188,199,124775,1,0,3:0:0:0:
208,184,124846,5,2,1:2:0:0:
238,194,124917,1,0,2:0:0:0:
256,232,124987,1,2,3:0:0:0:
237,276,125058,1,0,3:0:0:0:
180,297,125129,1,10,1:2:0:0:
120,266,125200,1,0,2:0:0:0:
107,196,125270,1,2,3:0:0:0:
142,130,125341,1,0,3:0:0:0:
214,108,125412,6,0,P|255:119|298:122,1,84.8,2|0,1:2|2:0,2:0:0:0:
472,310,125601,2,0,P|431:299|388:296,1,84.8,0|10,2:0|1:2,2:0:0:0:
336,238,125789,2,0,P|355:201|374:162,1,84.8,0|0,2:0|2:0,2:0:0:0:
512,106,125978,5,4,1:3:0:0:
483,0,126119,5,2,3:0:0:0:
439,62,126190,1,0,3:0:0:0:
414,114,126261,1,10,1:2:0:0:
401,156,126332,1,0,2:0:0:0:
392,192,126402,1,2,3:0:0:0:
387,223,126473,1,0,3:0:0:0:
384,248,126544,5,2,1:2:0:0:
403,245,126615,1,0,2:0:0:0:
425,222,126685,2,0,P|420:178|366:184,1,63.6,2|0,3:0|3:0,2:0:0:0:
303,89,126827,5,10,1:2:0:0:
284,92,126898,1,0,2:0:0:0:
273,107,126968,2,0,P|278:151|332:145,1,63.6,2|0,3:0|3:0,2:0:0:0:
250,297,127110,5,2,1:2:0:0:
201,240,127181,1,0,2:0:0:0:
139,240,127251,1,2,3:0:0:0:
99,280,127322,1,0,3:0:0:0:
99,324,127393,1,10,1:2:0:0:
128,353,127464,1,0,2:0:0:0:
160,365,127534,1,2,3:0:0:0:
185,354,127605,1,0,3:0:0:0:
230,296,127676,5,2,1:2:0:0:
225,269,127747,1,0,2:0:0:0:
207,251,127817,2,0,P|159:263|160:307,1,63.6,2|0,3:0|3:0,2:0:0:0:
299,365,127959,5,10,1:2:0:0:
324,374,128030,1,0,2:0:0:0:
349,367,128101,2,0,P|362:319|322:298,1,63.6,2|0,3:0|3:0,2:0:0:0:
295,136,128242,5,8,1:3:0:0:
246,75,128313,1,0,2:0:0:0:
176,73,128384,1,2,3:0:0:0:
144,111,128454,1,0,3:0:0:0:
148,148,128525,1,10,1:2:0:0:
170,170,128596,1,0,2:0:0:0:
195,170,128667,1,2,3:0:0:0:
212,159,128737,1,0,3:0:0:0:
213,138,128808,6,0,P|211:201|197:263,1,127.2,2|2,1:2|3:0,2:0:0:0:
114,384,129091,5,10,1:2:0:0:
359,265,129233,1,2,3:0:0:0:
134,113,129374,2,0,P|90:51|181:54,1,190.8,2|0,1:0|3:0,2:0:0:0:
196,18,129657,5,10,1:2:0:0:
257,98,129751,5,0,2:0:0:0:
212,190,129846,5,0,2:0:0:0:
251,283,129940,6,0,P|302:243|358:215,1,127.2,2|2,1:2|3:0,2:0:0:0:
377,233,130152,1,0,3:0:0:0:
395,250,130223,2,0,P|403:288|365:321,1,63.6,10|0,1:2|2:0,2:0:0:0:
297,346,130365,2,0,P|289:308|327:275,1,63.6,2|0,3:0|3:0,2:0:0:0:
486,106,130506,5,4,1:0:0:0:
487,84,130577,1,0,2:0:0:0:
465,59,130648,1,2,3:0:0:0:
409,55,130718,1,0,3:0:0:0:
370,107,130789,1,8,1:2:0:0:
376,181,130860,1,0,2:0:0:0:
321,238,130931,1,2,3:0:0:0:
246,224,131001,1,0,3:0:0:0:
231,144,131072,5,8,1:2:0:0:
280,84,131143,1,0,2:0:0:0:
353,105,131214,1,2,3:0:0:0:
376,181,131284,1,0,3:0:0:0:
337,245,131355,1,8,1:2:0:0:
349,308,131426,1,0,2:0:0:0:
400,331,131497,1,2,3:0:0:0:
431,318,131567,1,0,3:0:0:0:
441,299,131638,5,8,1:2:0:0:
377,254,131709,1,0,2:0:0:0:
313,272,131780,1,2,3:0:0:0:
276,315,131851,1,0,3:0:0:0:
260,360,131921,1,8,1:2:0:0:
223,384,131992,1,0,2:0:0:0:
184,378,132063,1,2,3:0:0:0:
170,353,132134,1,0,3:0:0:0:
193,281,132204,5,8,1:2:0:0:
157,212,132275,1,0,2:0:0:0:
101,196,132346,1,2,3:0:0:0:
61,216,132417,1,0,3:0:0:0:
48,251,132487,2,0,P|78:268|87:299,1,63.6,8|0,1:2|2:0,2:0:0:0:
51,363,132629,2,0,P|21:346|12:315,1,63.6,2|0,3:0|3:0,2:0:0:0:
64,123,132770,5,8,1:3:0:0:
107,59,132841,1,0,2:0:0:0:
159,47,132912,1,2,3:0:0:0:
200,65,132983,1,0,3:0:0:0:
217,93,133053,1,8,1:2:0:0:
245,109,133124,1,0,2:0:0:0:
270,104,133195,1,2,3:0:0:0:
312,61,133266,1,0,3:0:0:0:
274,0,133336,5,8,1:2:0:0:
209,47,133407,1,0,2:0:0:0:
197,115,133478,1,2,3:0:0:0:
227,170,133549,1,0,3:0:0:0:
257,184,133619,1,8,1:2:0:0:
290,197,133690,1,0,2:0:0:0:
310,214,133761,1,2,3:0:0:0:
316,229,133832,1,0,3:0:0:0:
312,241,133902,6,0,L|181:269,1,127.2,4|2,1:3|3:0,2:0:0:0:
176,291,134115,1,0,3:0:0:0:
165,313,134185,2,0,L|263:350,1,63.6,8|0,1:2|2:0,2:0:0:0:
284,384,134327,1,2,3:0:0:0:
379,147,134468,6,0,P|400:114|432:135,1,84.8,8|0,1:2|2:0,2:0:0:0:
501,374,134657,2,0,P|469:353|489:321,1,84.8,0|8,2:0|1:2,2:0:0:0:
422,251,134846,2,0,P|481:214|527:179,1,84.8,0|0,2:0|2:0,2:0:0:0:
512,62,135034,5,4,1:0:0:0:
374,0,135176,5,2,3:0:0:0:
307,8,135247,1,0,3:0:0:0:
280,45,135317,1,8,1:2:0:0:
281,83,135388,1,0,2:0:0:0:
270,111,135459,1,2,3:0:0:0:
248,117,135530,1,0,3:0:0:0:
228,109,135601,1,8,1:2:0:0:
221,98,135671,1,0,2:0:0:0:
221,85,135742,6,0,P|255:50|278:78,1,63.6,2|0,3:0|3:0,2:0:0:0:
512,95,135884,5,8,1:2:0:0:
310,256,136025,2,0,P|263:215|290:181,1,63.6,2|0,3:0|3:0,2:0:0:0:
367,171,136167,5,12,1:2:0:0:
424,221,136237,1,0,3:0:0:0:
470,282,136308,1,2,3:0:0:0:
477,336,136379,1,0,3:0:0:0:
452,374,136450,1,8,1:2:0:0:
421,380,136520,1,0,3:0:0:0:
399,363,136591,2,0,P|379:339|383:308,1,63.6,2|0,3:0|3:0,2:0:0:0:
482,156,136733,5,8,1:2:0:0:
482,156,136803,1,0,3:0:0:0:
482,156,136874,2,0,P|507:173|510:204,1,63.6,2|0,3:0|3:0,2:0:0:0:
282,347,137016,1,8,1:2:0:0:
154,351,137157,6,0,P|159:321|189:315,1,63.6,2|0,3:0|3:0,2:0:0:0:
288,330,137299,2,0,P|264:271|233:215,1,127.2,12|2,1:2|1:2,2:0:0:0:
203,204,137511,1,0,3:0:0:0:
173,193,137582,2,0,P|149:142|199:117,1,63.6,8|0,1:2|3:0,2:0:0:0:
354,96,137723,2,0,P|378:45|328:20,1,63.6,2|0,1:2|3:0,2:0:0:0:
291,0,137865,6,0,P|260:55|236:114,1,127.2,8|2,1:2|1:2,2:0:0:0:
294,164,138077,1,0,3:0:0:0:
366,187,138148,1,8,1:2:0:0:
378,198,138218,1,0,3:0:0:0:
391,213,138289,2,0,P|417:259|434:298,1,63.6,2|0,1:2|3:0,2:0:0:0:
180,367,138431,5,12,1:2:0:0:
106,348,138501,1,0,3:0:0:0:
82,275,138572,1,10,1:2:0:0:
127,213,138643,1,0,3:0:0:0:
179,155,138714,1,8,1:2:0:0:
176,92,138784,1,0,3:0:0:0:
135,60,138855,1,10,1:2:0:0:
90,63,138926,1,0,3:0:0:0:
70,96,138997,5,8,1:2:0:0:
73,108,139067,1,0,3:0:0:0:
80,118,139138,2,0,P|111:125|167:146,1,63.6,10|0,1:2|3:0,2:0:0:0:
229,268,139280,5,8,1:2:0:0:
296,249,139351,1,0,3:0:0:0:
363,230,139421,1,10,1:2:0:0:
430,210,139492,1,0,3:0:0:0:
498,192,139563,1,4,1:0:0:0:
507,277,141827,5,2,2:1:0:0:
476,206,141898,1,0,2:0:0:0:
402,189,141968,1,0,2:0:0:0:
361,216,142039,1,0,2:0:0:0:
353,254,142110,1,0,2:0:0:0:
371,282,142181,1,0,2:0:0:0:
399,294,142251,1,0,2:0:0:0:
415,306,142322,1,0,2:0:0:0:
419,322,142393,1,0,2:0:0:0:
413,343,142464,1,0,2:0:0:0:
380,362,142534,1,0,2:0:0:0:
333,347,142605,1,0,2:0:0:0:
311,299,142676,1,0,2:0:0:0:
334,249,142747,1,0,2:0:0:0:
404,228,142817,1,0,2:0:0:0:
448,172,142888,1,0,2:0:0:0:
425,99,142959,5,0,2:0:0:0:
377,76,143030,1,0,2:0:0:0:
338,95,143101,2,0,P|324:142|357:164,1,63.6,0|0,2:0|2:0,2:0:0:0:
452,305,143242,5,0,2:0:0:0:
485,321,143313,1,0,2:0:0:0:
512,307,143384,2,0,P|521:274|498:258,1,63.6,0|0,2:0|2:0,2:0:0:0:
436,212,143525,5,0,2:0:0:0:
362,194,143596,1,0,2:0:0:0:
290,178,143667,1,0,2:0:0:0:
217,163,143737,1,0,2:0:0:0:
145,150,143808,2,0,P|99:208|36:371,1,238.5,2|0,1:0|2:0,2:0:0:0:
15,370,144091,1,0,2:0:0:0:
79,313,144374,5,4,1:0:0:0:
50,31,144516,5,0,3:0:0:0:
16,39,144586,1,0,3:0:0:0:
0,70,144657,2,0,P|8:101|58:112,1,68.9,2|0,1:2|2:0,2:0:0:0:
104,215,144799,5,0,3:0:0:0:
104,215,144869,1,0,3:0:0:0:
104,215,144940,1,8,1:2:0:0:
148,195,145011,1,0,2:0:0:0:
194,183,145082,1,0,3:0:0:0:
241,175,145152,1,0,3:0:0:0:
289,168,145223,2,0,P|315:91|354:16,1,137.8,2|0,1:2|3:0,2:0:0:0:
136,110,145506,5,8,1:2:0:0:
167,101,145577,1,0,2:0:0:0:
206,142,145648,1,0,3:0:0:0:
216,210,145718,1,0,3:0:0:0:
276,256,145789,2,0,L|412:227,1,137.8,2|0,1:2|3:0,2:0:0:0:
425,241,146001,1,0,3:0:0:0:
440,255,146072,2,0,P|438:294|403:314,1,68.9,8|0,1:2|2:0,2:0:0:0:
360,381,146214,2,0,P|335:357|336:324,1,68.9,0|0,3:0|3:0,2:0:0:0:
438,50,146355,5,14,1:2:0:0:
488,182,146497,5,0,3:2:0:0:
488,182,146567,1,0,3:0:0:0:
488,182,146638,2,0,P|512:158|511:125,1,68.9,2|0,1:2|3:0,2:0:0:0:
451,35,146780,6,0,P|401:30|406:130,1,137.8,10|0,1:2|2:0,2:0:0:0:
442,344,147063,1,10,1:2:0:0:
290,165,147204,5,0,3:2:0:0:
290,165,147275,1,0,3:0:0:0:
290,165,147346,2,0,P|338:201|320:242,1,68.9,0|0,3:0|3:0,2:0:0:0:
270,262,147487,6,0,L|125:230,1,137.8,10|0,1:3|3:0,2:0:0:0:
120,208,147700,1,0,3:0:0:0:
105,184,147770,2,0,L|32:220,1,68.9,2|0,1:2|2:0,2:0:0:0:
0,341,147912,5,0,3:0:0:0:
19,346,147983,1,0,3:0:0:0:
31,362,148053,2,0,L|165:332,1,137.8,6|0,1:3|3:0,2:0:0:0:
194,149,148336,5,2,1:2:0:0:
225,90,148407,1,0,1:0:0:0:
197,30,148478,1,0,1:0:0:0:
132,17,148549,1,0,1:0:0:0:
83,62,148619,6,0,P|145:94|207:138,1,137.8,2|0,1:0|3:0,2:0:0:0:
213,157,148832,1,0,3:0:0:0:
226,180,148902,2,0,L|319:153,1,68.9,2|0,1:3|2:0,2:0:0:0:
322,88,149044,2,0,L|415:115,1,68.9,0|0,3:0|3:0,2:0:0:0:
486,182,149185,5,2,1:3:0:0:
484,0,149327,1,0,3:0:0:0:
469,0,149398,1,0,3:0:0:0:
459,8,149468,2,0,P|422:66|400:162,1,137.8,2|0,1:3|3:0,2:0:0:0:
402,203,149681,1,0,3:0:0:0:
450,260,149751,6,0,P|457:328|376:330,1,137.8,2|0,1:3|3:0,2:0:0:0:
378,333,149964,1,0,3:0:0:0:
363,310,150034,2,0,P|307:299|311:366,1,137.8,2|0,1:3|3:0,2:0:0:0:
512,384,150317,5,2,1:3:0:0:
193,329,150459,1,0,3:0:0:0:
177,306,150530,1,0,3:0:0:0:
161,283,150601,1,2,1:3:0:0:
54,384,150742,6,0,P|58:333|108:323,1,68.9,0|0,3:0|3:0,2:0:0:0:
237,212,150884,5,10,1:3:0:0:
276,148,150954,1,0,2:0:0:0:
265,86,151025,1,2,1:3:0:0:
224,59,151096,1,0,2:0:0:0:
153,87,151167,5,2,1:3:0:0:
188,152,151237,1,0,2:0:0:0:
248,174,151308,1,2,1:3:0:0:
292,152,151379,1,0,2:0:0:0:
303,76,151450,5,2,1:3:0:0:
229,74,151520,1,0,2:0:0:0:
180,115,151591,1,2,1:3:0:0:
177,164,151662,1,0,2:0:0:0:
231,130,151733,5,2,1:3:0:0:
235,121,151803,1,0,2:0:0:0:
229,124,151874,1,2,1:3:0:0:
237,128,151945,1,0,2:0:0:0:
249,67,152016,5,6,1:3:0:0:
244,52,152086,1,0,1:3:0:0:
223,35,152157,1,2,1:3:0:0:
180,32,152228,1,0,1:3:0:0:
143,69,152299,1,2,1:3:0:0:
152,129,152369,1,0,1:3:0:0:
211,166,152440,1,2,1:3:0:0:
283,143,152511,1,0,1:3:0:0:
329,83,152582,1,2,1:3:0:0:
401,60,152652,1,0,1:3:0:0:
460,97,152723,1,2,1:3:0:0:
469,157,152794,1,0,1:3:0:0:
432,194,152865,1,2,1:3:0:0:
389,191,152935,1,0,1:3:0:0:
368,174,153006,1,2,1:3:0:0:
363,159,153077,1,0,1:3:0:0:
367,147,153148,6,0,P|413:151|480:211,1,111.3,0|0,2:0|2:0,2:0:0:0:
512,309,153431,5,4,1:0:0:0:
302,382,153572,5,0,3:0:0:0:
265,384,153643,1,0,3:0:0:0:
239,365,153714,2,0,P|235:323|261:297,1,68.9,2|0,1:2|2:0,2:0:0:0:
305,242,153855,6,0,P|375:294|451:332,1,137.8,0|8,3:0|1:2,2:0:0:0:
423,323,154067,1,0,2:0:0:0:
428,328,154138,2,0,P|480:297|529:283,1,68.9,0|0,3:0|3:0,2:0:0:0:
401,97,154280,6,0,P|374:32|297:65,1,137.8,2|0,1:2|3:0,2:0:0:0:
291,62,154492,1,0,3:0:0:0:
267,86,154563,1,8,1:2:0:0:
495,25,154704,5,0,3:0:0:0:
425,43,154775,1,0,3:0:0:0:
358,67,154846,1,2,1:2:0:0:
291,94,154917,1,0,2:0:0:0:
227,124,154987,1,0,3:0:0:0:
179,134,155058,1,0,3:0:0:0:
147,119,155129,1,8,1:2:0:0:
137,100,155200,1,0,2:0:0:0:
142,82,155270,2,0,P|181:52|207:92,1,68.9,0|0,3:0|3:0,2:0:0:0:
368,174,155412,5,12,1:2:0:0:
351,376,155553,1,0,3:2:0:0:
316,372,155624,1,0,3:0:0:0:
292,346,155695,2,0,P|280:300|319:277,1,68.9,2|0,1:2|3:0,2:0:0:0:
347,95,155836,6,0,P|414:95|436:184,1,137.8,10|0,1:2|3:0,2:0:0:0:
457,160,156049,1,0,3:0:0:0:
468,167,156119,1,10,1:2:0:0:
472,330,156261,5,0,3:2:0:0:
468,316,156332,1,0,3:0:0:0:
457,306,156402,2,0,P|424:294|394:278,1,68.9,0|0,3:0|3:0,2:0:0:0:
247,183,156544,6,0,P|216:166|94:146,1,137.8,10|0,1:3|3:0,2:0:0:0:
82,170,156756,1,0,3:0:0:0:
44,189,156827,2,0,P|5:162|16:116,1,68.9,2|0,1:2|2:0,2:0:0:0:
133,26,156968,5,0,3:0:0:0:
133,26,157039,1,0,3:0:0:0:
133,26,157110,2,0,P|195:67|168:126,1,137.8,6|0,1:3|3:0,2:0:0:0:
121,248,157393,5,2,1:2:0:0:
189,251,157464,1,0,1:0:0:0:
243,291,157534,1,0,1:0:0:0:
279,350,157605,1,0,1:0:0:0:
338,384,157676,6,0,P|404:351|383:271,1,137.8,2|0,1:0|3:0,2:0:0:0:
376,263,157888,1,0,3:0:0:0:
341,258,157959,2,0,P|307:226|320:193,1,68.9,2|0,1:3|2:0,2:0:0:0:
342,141,158101,2,0,P|386:127|408:155,1,68.9,0|0,3:0|3:0,2:0:0:0:
503,257,158242,5,2,1:3:0:0:
466,33,158384,1,0,3:0:0:0:
444,15,158454,1,0,3:0:0:0:
418,3,158525,2,0,P|352:36|266:65,1,137.8,2|0,1:3|3:0,2:0:0:0:
224,42,158737,1,0,3:0:0:0:
165,5,158808,6,0,P|114:24|145:96,1,137.8,2|0,1:3|3:0,2:0:0:0:
170,107,159020,1,0,3:0:0:0:
193,140,159091,2,0,P|210:196|133:182,1,137.8,2|0,1:3|3:0,2:0:0:0:
0,50,159374,5,2,1:3:0:0:
67,166,159516,1,0,3:0:0:0:
48,194,159586,1,0,3:0:0:0:
24,219,159657,1,2,1:3:0:0:
0,375,159799,6,0,P|45:350|108:336,1,68.9,0|0,3:0|3:0,2:0:0:0:
296,349,159940,5,10,1:3:0:0:
309,275,160011,1,0,2:0:0:0:
276,221,160082,1,2,1:3:0:0:
229,210,160152,1,0,2:0:0:0:
172,262,160223,5,2,1:3:0:0:
228,310,160294,1,0,2:0:0:0:
292,309,160365,1,2,1:3:0:0:
325,273,160435,1,0,2:0:0:0:
308,198,160506,5,2,1:3:0:0:
239,223,160577,1,0,2:0:0:0:
208,278,160648,1,2,1:3:0:0:
222,325,160718,1,0,2:0:0:0:
261,274,160789,5,2,1:3:0:0:
261,264,160860,1,0,2:0:0:0:
256,269,160931,1,2,1:3:0:0:
265,270,161001,1,0,2:0:0:0:
251,201,161072,5,6,1:3:0:0:
186,177,161143,1,0,1:3:0:0:
127,213,161214,1,2,1:3:0:0:
63,188,161284,1,0,1:3:0:0:
50,119,161355,1,2,1:3:0:0:
96,67,161426,1,0,1:3:0:0:
164,77,161497,2,0,P|189:131|143:162,1,68.9,2|0,1:3|1:3,2:0:0:0:
93,344,161638,5,2,1:3:0:0:
93,344,161709,1,0,1:3:0:0:
93,344,161780,2,0,P|34:319|46:268,1,68.9,2|0,1:3|1:3,2:0:0:0:
70,253,161921,1,2,1:3:0:0:
136,233,161992,1,0,1:3:0:0:
202,215,162063,1,2,1:3:0:0:
269,198,162134,1,0,1:3:0:0:
336,183,162204,5,6,1:2:0:0:
369,207,162275,1,0,1:3:0:0:
391,241,162346,2,0,P|405:230|420:222,2,34.45,2|0|0,1:3|2:0|1:3,2:0:0:0:
349,32,162487,5,2,1:3:0:0:
312,48,162558,1,0,1:3:0:0:
270,50,162629,2,0,P|271:84|265:117,2,34.45,2|0|0,1:3|2:0|1:3,2:0:0:0:
473,118,162770,5,2,1:3:0:0:
478,78,162841,1,0,1:3:0:0:
497,40,162912,2,0,P|466:24|441:2,2,34.45,2|0|0,1:3|2:0|1:3,2:0:0:0:
382,119,163053,5,2,1:3:0:0:
379,112,163124,1,0,1:3:0:0:
386,110,163195,1,2,1:3:0:0:
387,116,163266,1,0,1:3:0:0:
422,124,163336,5,4,1:2:0:0:
351,152,163407,1,0,2:0:0:0:
307,214,163478,1,0,2:0:0:0:
288,287,163549,1,0,2:0:0:0:
235,330,163619,1,0,2:0:0:0:
179,328,163690,1,0,2:0:0:0:
152,296,163761,1,0,2:0:0:0:
148,261,163832,1,0,2:0:0:0:
163,238,163902,1,0,2:0:0:0:
192,219,163973,1,0,2:0:0:0:
237,225,164044,1,0,2:0:0:0:
269,276,164115,1,0,2:0:0:0:
257,350,164185,1,0,3:0:0:0:
188,382,164256,1,0,3:0:0:0:
114,364,164327,2,0,P|82:345|22:332,1,68.9,0|0,3:0|3:0,2:0:0:0:
24,81,164468,5,4,1:0:0:0:
89,34,164610,5,0,2:0:0:0:
98,17,164681,1,0,2:0:0:0:
124,9,164751,1,2,2:3:0:0:
166,29,164822,1,0,2:0:0:0:
186,80,164893,1,0,2:0:0:0:
151,145,164964,1,0,2:0:0:0:
163,222,165034,1,2,2:3:0:0:
225,265,165105,1,0,2:0:0:0:
284,236,165176,1,0,2:0:0:0:
302,192,165247,1,0,2:0:0:0:
288,153,165317,1,2,2:3:0:0:
261,136,165388,1,0,2:0:0:0:
233,144,165459,1,0,2:0:0:0:
222,168,165530,1,0,2:0:0:0:
225,181,165601,5,2,2:3:0:0:
233,191,165671,1,0,2:0:0:0:
241,202,165742,1,0,2:0:0:0:
249,213,165813,1,0,2:0:0:0:
248,240,165884,5,2,2:3:0:0:
260,241,165954,1,0,2:0:0:0:
274,244,166025,1,0,2:0:0:0:
287,246,166096,1,0,2:0:0:0:
305,265,166167,5,2,2:3:0:0:
315,257,166237,1,0,2:0:0:0:
327,249,166308,1,0,2:0:0:0:
337,242,166379,1,0,2:0:0:0:
364,242,166450,5,2,2:3:0:0:
365,230,166520,1,0,2:0:0:0:
368,216,166591,2,0,L|334:132,1,63.6,0|0,2:0|2:0,2:0:0:0:
512,16,166733,6,0,L|484:161,1,127.2,0|0,1:0|2:0,2:0:0:0:
487,349,167016,5,2,2:3:0:0:
478,330,167086,1,0,2:0:0:0:
454,313,167157,1,0,2:0:0:0:
414,308,167228,1,0,2:0:0:0:
361,331,167299,1,2,2:3:0:0:
308,377,167369,1,0,2:0:0:0:
237,358,167440,1,0,2:0:0:0:
212,290,167511,1,0,2:0:0:0:
236,241,167582,1,2,2:3:0:0:
271,229,167652,1,0,2:0:0:0:
296,238,167723,1,0,2:0:0:0:
304,252,167794,1,0,2:0:0:0:
302,263,167865,5,2,2:3:0:0:
286,283,167935,1,0,2:0:0:0:
239,305,168006,1,0,2:0:0:0:
175,271,168077,1,0,2:0:0:0:
154,199,168148,1,2,2:3:0:0:
83,170,168218,1,0,2:0:0:0:
16,214,168289,1,0,2:0:0:0:
19,284,168360,1,0,2:0:0:0:
58,312,168431,1,2,2:3:0:0:
104,301,168501,1,0,2:0:0:0:
120,274,168572,1,0,2:0:0:0:
118,254,168643,1,0,2:0:0:0:
104,243,168714,1,2,2:3:0:0:
91,245,168784,1,0,2:0:0:0:
82,249,168855,2,0,P|76:291|133:297,1,63.6,0|0,2:0|2:0,2:0:0:0:
273,349,168997,6,0,P|267:289|248:224,1,127.2,0|0,1:0|2:0,2:0:0:0:
249,128,169280,5,2,2:3:0:0:
276,105,169351,1,0,2:0:0:0:
282,69,169421,1,0,2:0:0:0:
251,31,169492,1,0,2:0:0:0:
188,27,169563,1,2,2:3:0:0:
144,81,169634,1,0,2:0:0:0:
138,155,169704,5,0,2:0:0:0:
94,209,169775,1,0,2:0:0:0:
31,205,169846,1,2,2:3:0:0:
0,166,169917,1,0,2:0:0:0:
6,130,169987,1,0,2:0:0:0:
33,108,170058,1,0,2:0:0:0:
67,112,170129,5,2,2:3:0:0:
81,124,170200,1,0,2:0:0:0:
88,141,170270,2,0,P|112:196|135:228,1,63.6,0|0,2:0|2:0,2:0:0:0:
180,248,170412,6,0,L|239:271,1,63.6,2|0,2:3|2:0,2:0:0:0:
395,360,170553,2,0,L|335:336,1,63.6,0|0,2:0|2:0,2:0:0:0:
147,384,170695,6,0,L|206:360,1,63.6,2|0,2:3|2:0,2:0:0:0:
428,224,170836,2,0,L|368:247,1,63.6,0|0,2:0|2:0,2:0:0:0:
248,376,170978,5,2,2:3:0:0:
248,376,171049,1,0,2:0:0:0:
248,376,171119,1,0,2:0:0:0:
408,136,171261,5,0,1:0:0:0:
339,19,171402,5,0,2:0:0:0:
267,45,171473,1,0,2:0:0:0:
256,102,171544,1,2,2:3:0:0:
286,150,171615,1,0,2:0:0:0:
326,163,171685,1,0,2:0:0:0:
362,154,171756,1,0,2:0:0:0:
381,130,171827,1,2,2:3:0:0:
403,118,171898,1,0,2:0:0:0:
422,118,171968,1,0,2:0:0:0:
451,132,172039,1,0,2:0:0:0:
469,177,172110,1,2,2:3:0:0:
439,229,172181,1,0,2:0:0:0:
380,237,172251,1,0,2:0:0:0:
326,179,172322,1,0,2:0:0:0:
349,104,172393,5,2,1:3:0:0:
380,64,172464,1,0,2:0:0:0:
371,14,172534,2,0,P|319:18|316:60,1,63.6,0|0,2:0|2:0,2:0:0:0:
92,106,172676,5,2,2:3:0:0:
72,152,172747,1,0,2:0:0:0:
94,198,172817,2,0,P|142:180|134:139,1,63.6,0|0,2:0|2:0,2:0:0:0:
197,67,172959,5,2,2:3:0:0:
184,57,173030,1,0,2:0:0:0:
176,44,173101,1,0,2:0:0:0:
175,28,173171,1,0,2:0:0:0:
180,13,173242,1,2,2:3:0:0:
228,64,173313,1,0,2:0:0:0:
261,125,173384,1,0,2:0:0:0:
284,189,173454,1,0,2:0:0:0:
298,251,173525,5,4,1:0:0:0:
351,378,173667,5,0,3:0:0:0:
351,361,173737,1,0,2:0:0:0:
367,334,173808,1,2,3:0:0:0:
415,308,173879,1,0,2:0:0:0:
473,267,173950,1,0,3:0:0:0:
476,190,174020,1,0,2:0:0:0:
419,134,174091,1,2,3:0:0:0:
346,161,174162,1,0,2:0:0:0:
321,224,174233,1,0,3:0:0:0:
279,267,174303,1,0,2:0:0:0:
233,259,174374,1,2,3:0:0:0:
216,225,174445,1,0,2:0:0:0:
225,204,174516,1,0,3:0:0:0:
238,197,174586,1,0,2:0:0:0:
249,199,174657,5,2,3:0:0:0:
252,203,174728,1,0,2:0:0:0:
255,208,174799,1,0,3:0:0:0:
258,213,174869,1,0,2:0:0:0:
286,227,174940,5,2,3:0:0:0:
285,232,175011,1,0,2:0:0:0:
284,238,175082,1,0,3:0:0:0:
283,244,175152,1,0,2:0:0:0:
291,277,175223,5,2,3:0:0:0:
287,280,175294,1,0,2:0:0:0:
282,284,175365,1,0,3:0:0:0:
277,287,175435,1,0,2:0:0:0:
259,315,175506,5,2,3:0:0:0:
254,315,175577,1,0,2:0:0:0:
248,314,175648,2,0,L|159:291,1,63.6,0|0,3:0|2:0,2:0:0:0:
122,251,175789,6,0,L|-35:293,1,127.2,4|0,1:0|3:0,2:0:0:0:
44,97,176072,5,2,3:0:0:0:
54,85,176143,1,0,2:0:0:0:
86,78,176214,1,0,3:0:0:0:
129,102,176284,1,0,2:0:0:0:
158,160,176355,1,2,3:0:0:0:
213,215,176426,1,0,2:0:0:0:
282,200,176497,1,0,3:0:0:0:
311,164,176567,1,0,2:0:0:0:
305,135,176638,2,0,P|265:120|232:153,1,63.6,2|0,3:0|2:0,2:0:0:0:
134,235,176780,5,0,3:0:0:0:
87,294,176851,1,0,2:0:0:0:
50,362,176921,1,2,3:0:0:0:
49,110,177063,6,0,P|101:93|132:66,1,63.6,0|0,3:0|2:0,2:0:0:0:
297,46,177204,5,2,3:0:0:0:
354,0,177275,1,0,2:0:0:0:
413,31,177346,1,0,3:0:0:0:
421,77,177417,1,0,3:0:0:0:
397,105,177487,1,2,3:0:0:0:
367,110,177558,1,0,2:0:0:0:
345,124,177629,1,0,3:0:0:0:
342,137,177700,1,0,2:0:0:0:
345,146,177770,1,2,3:0:0:0:
363,160,177841,1,0,3:0:0:0:
395,187,177912,1,0,3:0:0:0:
442,239,177983,1,0,3:0:0:0:
473,307,178053,6,0,L|413:330,1,63.6,4|0,1:0|3:0,2:0:0:0:
267,384,178195,2,0,L|207:361,1,63.6,0|0,3:0|3:0,2:0:0:0:
64,243,178336,5,2,3:0:0:0:
48,228,178407,1,0,3:0:0:0:
63,184,178478,1,0,3:0:0:0:
117,169,178549,1,0,3:0:0:0:
169,206,178619,1,2,3:0:0:0:
188,269,178690,1,0,3:0:0:0:
258,291,178761,1,0,3:0:0:0:
307,231,178832,1,0,3:0:0:0:
267,166,178902,1,2,3:0:0:0:
249,158,178973,1,0,3:0:0:0:
232,148,179044,2,0,P|200:109|221:79,1,63.6,0|0,3:0|3:0,2:0:0:0:
340,97,179185,5,4,1:0:0:0:
332,78,179256,1,0,3:0:0:0:
327,59,179327,2,0,P|332:9|367:3,1,63.6,0|0,3:0|3:0,2:0:0:0:
504,33,179468,6,0,P|473:37|457:63,1,63.6,2|0,3:0|3:0,2:0:0:0:
458,137,179610,2,0,P|441:163|410:167,1,63.6,0|0,3:0|3:0,2:0:0:0:
338,199,179751,6,0,P|309:210|299:239,1,63.6,2|0,3:0|3:0,2:0:0:0:
300,344,179893,2,0,P|290:373|261:384,1,63.6,0|0,3:0|3:0,2:0:0:0:
136,347,180034,5,2,3:0:0:0:
113,280,180105,1,0,3:0:0:0:
90,214,180176,1,0,3:0:0:0:
67,148,180247,1,0,3:0:0:0:
43,83,180317,1,4,1:0:0:0:
273,38,180459,5,0,3:0:0:0:
254,91,180530,1,0,3:0:0:0:
236,144,180601,1,2,3:0:0:0:
217,197,180671,1,0,3:0:0:0:
198,249,180742,2,0,P|160:254|119:286,1,63.6,0|0,3:0|3:0,2:0:0:0:
22,95,180884,5,2,1:3:0:0:
20,57,180954,1,0,3:0:0:0:
50,33,181025,2,0,P|97:41|95:98,1,63.6,0|0,3:0|3:0,2:0:0:0:
149,117,181167,5,2,3:0:0:0:
147,147,181237,1,0,3:0:0:0:
171,166,181308,2,0,P|208:159|207:114,1,63.6,0|0,3:0|3:0,2:0:0:0:
328,82,181450,5,4,1:0:0:0:
364,38,181520,1,0,3:0:0:0:
415,14,181591,2,0,P|459:6|511:17,1,63.6,0|0,3:0|3:0,2:0:0:0:
433,179,181733,5,2,1:3:0:0:
377,168,181803,1,0,3:0:0:0:
330,137,181874,2,0,P|301:102|285:51,1,63.6,0|0,3:0|3:0,2:0:0:0:
480,150,182016,6,0,P|464:192|428:231,1,63.6,2|0,1:3|3:0,2:0:0:0:
327,304,182157,2,0,P|287:325|234:330,1,63.6,0|0,1:0|3:0,2:0:0:0:
485,235,182299,6,0,P|459:271|414:300,1,63.6,2|0,1:3|3:0,2:0:0:0:
297,344,182440,2,0,P|253:354|200:345,1,63.6,0|0,1:0|3:0,2:0:0:0:
133,220,182582,5,0,2:0:0:0:
100,204,182652,1,0,2:0:0:0:
84,172,182723,1,0,2:0:0:0:
89,137,182794,1,0,2:0:0:0:
114,112,182865,1,0,2:0:0:0:
150,107,182935,1,0,2:0:0:0:
181,123,183006,1,0,2:0:0:0:
197,155,183077,1,0,2:0:0:0:
172,200,183148,5,0,2:0:0:0:
152,210,183218,1,0,2:0:0:0:
142,229,183289,1,0,2:0:0:0:
146,250,183360,1,0,2:0:0:0:
161,265,183431,1,0,2:0:0:0:
182,268,183501,1,0,2:0:0:0:
201,258,183572,1,0,2:0:0:0:
210,239,183643,1,0,2:0:0:0:
196,167,183714,5,0,3:1:0:0:
150,107,183784,1,0,2:1:0:0:
160,39,183855,1,0,3:1:0:0:
199,7,183926,1,0,3:1:0:0:
243,9,183997,1,0,3:1:0:0:
270,37,184067,1,0,3:1:0:0:
274,70,184138,1,0,3:1:0:0:
264,88,184209,1,0,3:1:0:0:
246,94,184280,1,0,3:1:0:0:
235,91,184351,1,0,3:1:0:0:
228,85,184421,1,0,3:1:0:0:
224,79,184492,1,0,3:1:0:0:
222,72,184563,1,0,3:1:0:0:
224,66,184634,1,0,3:1:0:0:
228,61,184704,1,0,3:1:0:0:
233,58,184775,1,0,3:1:0:0:
233,57,184846,6,0,P|301:201|185:96,1,429.3,4|0,3:0|2:0,2:0:0:0:
255,135,186827,5,8,3:2:0:0:
74,232,187110,5,8,1:3:0:0:
40,219,187181,1,0,1:2:0:0:
4,243,187251,1,10,1:2:0:0:
1,305,187322,1,0,1:2:0:0:
53,351,187393,1,0,1:2:0:0:
119,324,187464,1,0,1:2:0:0:
153,257,187534,1,10,1:2:0:0:
133,186,187605,1,0,1:2:0:0:
96,121,187676,1,0,1:2:0:0:
116,49,187747,1,0,1:2:0:0:
179,11,187817,1,10,1:2:0:0:
236,43,187888,1,0,1:2:0:0:
247,104,187959,1,0,1:2:0:0:
217,135,188030,1,0,1:2:0:0:
182,129,188101,2,0,P|191:104|232:98,1,63.6,10|0,1:2|1:2,2:0:0:0:
490,59,188242,5,0,1:3:0:0:
418,83,188313,1,0,1:2:0:0:
355,124,188384,2,0,P|313:164|284:205,1,63.6,10|0,1:2|1:2,2:0:0:0:
479,25,188525,5,0,1:2:0:0:
419,71,188596,1,0,1:2:0:0:
371,129,188667,2,0,P|344:180|329:228,1,63.6,10|0,1:2|1:2,2:0:0:0:
432,282,188808,5,0,1:2:0:0:
449,274,188879,1,0,1:2:0:0:
466,266,188950,1,10,1:2:0:0:
483,258,189020,1,0,1:2:0:0:
512,209,189091,5,0,1:2:0:0:
446,249,189162,1,0,1:2:0:0:
380,289,189233,1,10,1:2:0:0:
315,328,189303,1,0,1:2:0:0:
249,368,189374,5,4,1:3:0:0:
226,355,189445,1,0,1:2:0:0:
206,313,189516,1,10,1:2:0:0:
218,265,189586,1,0,1:2:0:0:
270,233,189657,1,0,1:2:0:0:
340,253,189728,1,0,1:2:0:0:
415,238,189799,1,10,1:2:0:0:
439,166,189869,1,0,1:2:0:0:
412,94,189940,2,0,P|372:68|331:88,1,63.6,0|0,1:2|1:2,2:0:0:0:
306,238,190082,5,10,1:2:0:0:
270,171,190152,1,0,1:2:0:0:
216,117,190223,1,0,1:2:0:0:
154,72,190294,1,0,1:2:0:0:
89,32,190365,2,0,P|45:9|13:0,1,63.6,10|0,1:2|1:2,2:0:0:0:
28,186,190506,5,0,1:3:0:0:
45,204,190577,1,0,1:2:0:0:
58,225,190648,1,10,1:2:0:0:
68,247,190718,1,0,1:2:0:0:
75,271,190789,1,0,1:2:0:0:
78,296,190860,1,0,1:2:0:0:
78,321,190931,1,10,1:2:0:0:
70,345,191001,1,0,1:2:0:0:
58,367,191072,5,0,1:2:0:0:
7,313,191143,1,0,1:2:0:0:
19,241,191214,1,10,1:2:0:0:
84,207,191284,1,0,1:2:0:0:
150,240,191355,1,0,1:2:0:0:
164,312,191426,1,0,1:2:0:0:
229,344,191497,1,10,1:2:0:0:
294,311,191567,1,0,1:2:0:0:
306,238,191638,6,0,L|286:169,1,63.6,8|0,1:3|1:2,2:0:0:0:
175,126,191780,1,10,1:2:0:0:
175,126,191851,1,0,1:2:0:0:
175,126,191921,2,0,L|195:57,1,63.6,0|0,1:2|1:2,2:0:0:0:
376,0,192063,5,10,1:2:0:0:
416,63,192134,1,0,1:2:0:0:
454,129,192204,1,0,1:2:0:0:
486,198,192275,1,0,1:2:0:0:
512,269,192346,2,0,P|458:268|411:232,1,63.6,10|0,1:2|1:2,2:0:0:0:
272,376,192487,2,0,P|288:348|313:329,1,63.6,0|0,1:2|1:2,2:0:0:0:
332,179,192629,5,10,1:2:0:0:
332,179,192700,1,0,1:2:0:0:
332,179,192770,5,0,1:3:0:0:
318,106,192841,1,0,1:2:0:0:
252,74,192912,1,10,1:2:0:0:
186,107,192983,1,0,1:2:0:0:
173,180,193053,1,0,1:2:0:0:
135,154,193124,1,0,1:2:0:0:
94,169,193195,1,10,1:2:0:0:
79,211,193266,1,0,1:2:0:0:
105,247,193336,5,0,1:2:0:0:
137,252,193407,1,0,1:2:0:0:
150,295,193478,1,10,1:2:0:0:
118,345,193549,1,0,1:2:0:0:
47,343,193619,1,0,1:2:0:0:
83,275,193690,1,0,1:2:0:0:
131,216,193761,1,10,1:2:0:0:
190,167,193832,1,0,1:2:0:0:
252,124,193902,6,0,P|288:146|324:169,1,63.6,2|0,1:0|1:2,2:0:0:0:
512,203,194044,2,0,P|476:225|440:248,1,63.6,10|0,1:2|1:2,2:0:0:0:
396,384,194185,5,0,1:2:0:0:
367,377,194256,1,0,1:2:0:0:
320,322,194327,1,10,1:2:0:0:
320,245,194398,1,0,1:2:0:0:
381,203,194468,5,0,1:2:0:0:
389,231,194539,1,0,1:2:0:0:
365,299,194610,1,10,1:2:0:0:
298,338,194681,1,0,1:2:0:0:
231,306,194751,5,0,1:2:0:0:
251,285,194822,1,0,1:2:0:0:
322,271,194893,1,10,1:2:0:0:
389,310,194964,1,0,1:2:0:0:
395,383,195034,5,4,1:3:0:0:
320,364,195105,1,0,1:2:0:0:
280,297,195176,2,0,L|266:248,2,31.8,10|0|0,1:2|1:0|1:2,2:0:0:0:
141,213,195317,5,0,1:2:0:0:
196,198,195388,1,0,1:2:0:0:
226,149,195459,2,0,L|240:100,2,31.8,10|0|0,1:2|1:0|1:2,2:0:0:0:
206,32,195601,5,0,1:2:0:0:
189,41,195671,1,0,1:2:0:0:
175,54,195742,1,10,1:2:0:0:
163,69,195813,1,0,1:2:0:0:
105,120,195884,2,0,P|80:67|116:26,1,63.6,0|0,1:2|1:2,2:0:0:0:
279,1,196025,2,0,P|303:53|267:94,1,63.6,10|0,1:2|1:2,2:0:0:0:
288,340,196167,5,4,1:0:0:0:
13,268,196308,5,2,1:2:0:0:
0,298,196379,1,8,1:2:0:0:
26,340,196450,1,2,1:2:0:0:
95,343,196520,1,8,1:2:0:0:
135,282,196591,1,2,1:2:0:0:
122,202,196662,1,8,1:2:0:0:
167,132,196733,5,2,1:2:0:0:
247,118,196803,1,8,1:2:0:0:
301,180,196874,1,2,1:2:0:0:
333,249,196945,1,8,1:2:0:0:
370,270,197016,1,2,1:2:0:0:
408,257,197086,1,8,1:2:0:0:
423,239,197157,1,2,1:2:0:0:
420,222,197228,1,8,1:2:0:0:
391,158,197299,5,8,1:3:0:0:
319,120,197369,1,8,1:2:0:0:
248,161,197440,1,2,1:2:0:0:
196,217,197511,1,8,1:2:0:0:
154,225,197582,1,2,1:2:0:0:
123,205,197652,1,8,1:2:0:0:
117,175,197723,1,2,1:2:0:0:
135,149,197794,1,8,1:2:0:0:
167,132,197865,5,2,1:2:0:0:
189,56,197935,1,8,1:2:0:0:
266,41,198006,1,2,1:2:0:0:
313,101,198077,1,8,1:2:0:0:
312,167,198148,1,2,1:2:0:0:
348,205,198218,1,8,1:2:0:0:
400,197,198289,1,2,1:2:0:0:
417,170,198360,1,8,1:2:0:0:
401,141,198431,5,4,1:3:0:0:
381,134,198501,1,8,1:2:0:0:
353,150,198572,1,2,1:2:0:0:
345,193,198643,1,8,1:2:0:0:
370,259,198714,1,2,1:2:0:0:
345,328,198784,1,8,1:2:0:0:
275,355,198855,2,0,P|240:334|209:306,1,63.6,2|8,1:2|1:2,2:0:0:0:
57,365,198997,5,2,1:2:0:0:
21,298,199067,1,8,1:2:0:0:
59,231,199138,1,2,1:2:0:0:
135,227,199209,1,8,1:2:0:0:
193,177,199280,2,0,P|217:136|182:81,1,63.6,2|8,1:2|1:2,2:0:0:0:
0,0,199421,5,2,1:2:0:0:
77,25,199492,1,8,1:2:0:0:
138,81,199563,1,8,1:3:0:0:
178,153,199634,1,8,1:2:0:0:
252,186,199704,1,2,1:2:0:0:
266,170,199775,1,8,1:2:0:0:
279,153,199846,1,2,1:2:0:0:
289,135,199917,1,8,1:2:0:0:
298,115,199987,1,2,1:2:0:0:
304,95,200058,1,8,1:2:0:0:
307,74,200129,5,2,1:2:0:0:
245,32,200200,1,8,1:2:0:0:
171,44,200270,1,2,1:2:0:0:
125,103,200341,1,8,1:2:0:0:
132,177,200412,1,2,1:2:0:0:
188,227,200483,1,8,1:2:0:0:
219,272,200553,1,2,1:2:0:0:
215,313,200624,1,8,1:2:0:0:
196,332,200695,5,2,1:0:0:0:
150,333,200766,1,8,1:2:0:0:
122,268,200836,1,2,1:2:0:0:
158,200,200907,1,8,1:2:0:0:
237,175,200978,2,0,P|298:204|301:241,1,63.6,2|8,1:2|1:2,2:0:0:0:
452,162,201119,5,2,1:2:0:0:
510,103,201190,1,8,1:2:0:0:
489,24,201261,1,2,1:2:0:0:
409,2,201332,1,8,1:2:0:0:
350,61,201402,1,2,1:2:0:0:
372,140,201473,1,8,1:2:0:0:
444,182,201544,2,0,P|481:222|479:262,1,63.6,2|8,1:2|1:2,2:0:0:0:
493,362,201685,5,2,1:2:0:0:
452,336,201756,1,8,1:2:0:0:
411,313,201827,1,8,1:3:0:0:
368,290,201898,1,8,1:2:0:0:
325,270,201968,2,0,P|274:257|230:263,1,63.6,2|8,1:2|1:2,2:0:0:0:
22,264,202110,5,2,1:2:0:0:
54,273,202181,1,8,1:2:0:0:
85,285,202251,2,0,P|116:303|135:328,1,63.6,2|8,1:2|1:2,2:0:0:0:
238,363,202393,5,2,1:2:0:0:
254,344,202464,1,8,1:2:0:0:
256,303,202534,1,2,1:2:0:0:
218,250,202605,1,8,1:2:0:0:
146,229,202676,1,2,1:2:0:0:
110,159,202747,1,8,1:2:0:0:
146,86,202817,1,2,1:2:0:0:
228,82,202888,1,8,1:2:0:0:
276,149,202959,5,4,1:2:0:0:
325,120,203030,1,8,1:2:0:0:
378,98,203101,1,2,1:2:0:0:
433,86,203171,1,8,1:2:0:0:
490,84,203242,5,2,1:2:0:0:
434,98,203313,1,8,1:2:0:0:
381,120,203384,1,2,1:2:0:0:
334,150,203454,1,8,1:2:0:0:
292,189,203525,5,2,1:2:0:0:
341,160,203596,1,8,1:2:0:0:
394,138,203667,1,2,1:2:0:0:
449,126,203737,1,8,1:2:0:0:
506,124,203808,2,0,P|488:177|464:211,1,63.6,2|8,1:2|1:2,2:0:0:0:
439,339,203950,2,0,P|425:310|417:279,1,63.6,2|8,1:2|1:2,2:0:0:0:
450,0,204091,5,8,1:3:0:0:
228,50,204233,6,0,P|191:52|175:45,2,31.8,2|0|8,1:2|2:0|1:2,2:0:0:0:
135,0,204374,1,2,1:2:0:0:
167,214,204516,6,0,P|139:189|133:173,2,31.8,2|0|8,1:2|2:0|1:2,2:0:0:0:
136,113,204657,5,4,1:3:0:0:
216,136,204728,1,8,1:2:0:0:
279,188,204799,1,2,1:2:0:0:
332,249,204869,1,8,1:2:0:0:
374,320,204940,1,2,1:2:0:0:
363,336,205011,1,8,1:2:0:0:
350,350,205082,2,0,P|298:374|264:377,1,63.6,2|8,1:2|1:2,2:0:0:0:
66,369,205223,6,0,P|25:362|17:316,3,63.6,4|0|0|0,1:0|2:0|2:0|2:0,2:0:0:0:
70,291,205506,2,0,P|46:258|73:220,3,58.3,0|0|0|0,2:0|2:0|2:0|2:0,2:0:0:0:
128,240,205789,2,0,P|134:199|180:191,3,53,0|0|0|0,2:0|2:0|2:0|2:0,2:0:0:0:
204,244,206072,2,0,P|236:220|275:247,3,53,0|0|0|0,2:0|2:0|2:0|2:0,2:0:0:0:
192,372,206355,5,0,2:0:0:0:
161,381,206426,1,0,2:0:0:0:
142,355,206497,1,0,2:0:0:0:
161,329,206567,1,0,2:0:0:0:
192,340,206638,2,0,P|229:358|248:375,3,53,0|0|0|0,2:0|2:0|2:0|2:0,2:0:0:0:
418,314,206921,2,0,P|455:296|474:279,3,53,0|0|0|0,2:0|2:0|2:0|2:0,2:0:0:0:
321,384,207204,6,0,P|339:282|362:181,1,206.7,2|0,1:0|2:0,2:0:0:0:
461,204,207487,6,0,P|502:197|510:151,3,63.6,4|0|0|0,1:0|2:0|2:0|2:0,2:0:0:0:
457,126,207770,2,0,P|481:93|454:55,3,58.3,0|0|0|0,2:0|2:0|2:0|2:0,2:0:0:0:
399,75,208053,2,0,P|393:34|347:26,3,53,0|0|0|0,2:0|2:0|2:0|2:0,2:0:0:0:
323,79,208336,2,0,P|291:55|252:82,3,53,0|0|0|0,2:0|2:0|2:0|2:0,2:0:0:0:
237,117,208619,5,0,2:0:0:0:
233,122,208690,1,0,2:0:0:0:
221,130,208761,1,0,2:0:0:0:
195,132,208832,1,0,2:0:0:0:
161,107,208902,1,0,2:0:0:0:
143,53,208973,1,0,2:0:0:0:
76,29,209044,1,0,2:0:0:0:
18,74,209115,1,0,2:0:0:0:
18,127,209185,1,0,2:0:0:0:
48,162,209256,1,0,2:0:0:0:
96,167,209327,1,0,2:0:0:0:
125,179,209398,1,0,2:0:0:0:
142,201,209468,6,0,P|152:112|181:1,1,159,2|0,1:0|2:0,2:0:0:0:
197,32,209751,2,0,P|269:85|350:165,1,159,0|0,2:0|2:0,2:0:0:0:
304,160,210034,1,4,1:0:0:0:
497,194,210176,6,0,P|433:174|405:130,1,106,0|0,3:0|3:0,2:0:0:0:
372,344,210459,1,0,3:0:0:0:
372,344,210601,2,0,P|421:298|473:296,1,106,0|0,3:2|3:0,2:0:0:0:
304,160,210884,2,0,P|318:225|237:272,1,159,0|0,3:0|3:0,2:0:0:0:
262,249,211167,2,0,P|210:243|197:192,1,106,2|0,3:2|3:0,2:0:0:0:
222,101,211450,5,0,3:0:0:0:
91,68,211591,1,0,3:0:0:0:
222,101,211733,1,2,3:2:0:0:
72,77,211874,6,0,L|91:139,1,53,0|0,3:0|3:0,2:0:0:0:
47,191,212016,6,0,L|19:374,1,174.9,12|0,1:2|3:0,2:0:0:0:
46,350,212299,2,0,L|65:288,1,58.3,2|0,1:2|3:0,2:0:0:0:
196,197,212440,6,0,P|247:170|267:289,1,190.8,10|0,1:2|3:0,2:0:0:0:
296,270,212723,2,0,P|248:272|243:223,1,63.6,10|0,1:2|3:0,2:0:0:0:
160,18,212865,5,8,3:2:0:0:
233,0,212935,1,0,3:0:0:0:
299,38,213006,1,0,3:0:0:0:
334,105,213077,1,0,3:0:0:0:
406,134,213148,2,0,L|449:-1,1,137.8,10|0,1:3|3:0,2:0:0:0:
512,227,213431,5,2,1:2:0:0:
475,208,213501,1,0,2:0:0:0:
439,228,213572,2,0,P|429:265|483:296,1,68.9,0|0,3:0|3:0,2:0:0:0:
420,358,213714,2,0,P|352:371|284:384,1,137.8,6|0,1:3|3:0,2:0:0:0:
130,260,213997,5,2,1:2:0:0:
75,223,214067,1,0,1:0:0:0:
16,252,214138,1,0,1:0:0:0:
12,317,214209,1,0,1:0:0:0:
67,353,214280,2,0,P|132:306|227:262,1,137.8,2|0,1:0|3:0,2:0:0:0:
203,283,214492,1,0,3:0:0:0:
220,293,214563,2,0,P|251:253|224:211,1,68.9,2|0,1:3|2:0,2:0:0:0:
145,146,214704,2,0,P|114:106|141:64,1,68.9,0|0,3:0|3:0,2:0:0:0:
179,52,214846,5,2,1:3:0:0:
353,25,214987,1,0,3:0:0:0:
353,25,215058,1,0,3:0:0:0:
353,25,215129,2,0,P|319:79|289:164,1,137.8,2|0,1:3|3:0,2:0:0:0:
318,219,215341,1,0,3:0:0:0:
335,292,215412,6,0,P|283:330|203:369,1,137.8,2|0,1:3|3:0,2:0:0:0:
184,357,215624,1,0,3:0:0:0:
155,337,215695,2,0,P|136:290|203:284,1,137.8,2|0,1:3|3:0,2:0:0:0:
392,384,215978,5,2,1:3:0:0:
483,190,216119,1,0,3:0:0:0:
474,156,216190,1,0,3:0:0:0:
464,122,216261,1,2,1:3:0:0:
466,313,216402,6,0,P|437:275|394:218,1,68.9,0|0,3:0|3:0,2:0:0:0:
313,88,216544,5,10,1:3:0:0:
249,49,216615,1,0,2:0:0:0:
187,60,216685,1,2,1:3:0:0:
160,101,216756,1,0,2:0:0:0:
188,172,216827,5,2,1:3:0:0:
253,137,216898,1,0,2:0:0:0:
275,77,216968,1,2,1:3:0:0:
253,33,217039,1,0,2:0:0:0:
177,22,217110,5,2,1:3:0:0:
175,96,217181,1,0,2:0:0:0:
216,145,217251,1,2,1:3:0:0:
265,148,217322,1,0,2:0:0:0:
231,94,217393,5,2,1:3:0:0:
222,90,217464,1,0,2:0:0:0:
225,96,217534,1,2,1:3:0:0:
229,88,217605,1,0,2:0:0:0:
175,66,217676,5,6,1:3:0:0:
100,79,217747,1,0,1:3:0:0:
76,151,217817,1,2,1:3:0:0:
113,216,217888,1,0,1:3:0:0:
188,222,217959,1,2,1:3:0:0:
247,174,218030,1,0,1:3:0:0:
318,186,218101,1,2,1:3:0:0:
342,256,218171,1,0,1:3:0:0:
306,323,218242,1,2,1:3:0:0:
229,320,218313,1,0,1:3:0:0:
196,274,218384,1,2,1:3:0:0:
161,247,218454,1,0,1:3:0:0:
127,253,218525,1,2,1:3:0:0:
112,272,218596,1,0,1:3:0:0:
112,292,218667,1,2,1:3:0:0:
123,301,218737,1,0,1:3:0:0:
133,304,218808,6,0,P|171:238|253:81,1,206.7,0|0,2:0|2:0,2:0:0:0:
229,88,219091,1,4,1:0:0:0:
106,14,219233,5,0,3:0:0:0:
106,14,219303,1,0,3:0:0:0:
106,14,219374,2,0,P|127:67|177:32,1,68.9,2|0,1:2|2:0,2:0:0:0:
247,174,219516,1,0,3:0:0:0:
401,78,219657,5,8,1:2:0:0:
416,54,219728,1,0,2:0:0:0:
405,28,219799,2,0,P|364:31|362:81,1,68.9,0|0,3:0|3:0,2:0:0:0:
329,152,219940,6,0,P|389:184|444:226,1,137.8,2|0,1:2|3:0,2:0:0:0:
452,253,220152,1,0,3:0:0:0:
460,279,220223,1,8,1:2:0:0:
510,78,220365,6,0,P|483:128|472:165,1,68.9,0|0,3:0|3:0,2:0:0:0:
365,296,220506,5,2,1:2:0:0:
311,338,220577,1,0,2:0:0:0:
244,327,220648,1,0,3:0:0:0:
214,281,220718,1,0,3:0:0:0:
168,256,220789,1,8,1:2:0:0:
133,271,220860,1,0,2:0:0:0:
121,296,220931,1,0,3:0:0:0:
130,316,221001,1,0,3:0:0:0:
175,381,221072,6,0,P|188:293|244:129,1,206.7,14|0,1:2|3:0,2:0:0:0:
165,129,221355,2,0,P|156:84|108:78,1,68.9,2|0,1:2|3:0,2:0:0:0:
18,24,221497,6,0,P|34:125|62:222,1,137.8,10|0,1:2|2:0,2:0:0:0:
61,179,221709,1,0,3:0:0:0:
86,189,221780,1,10,1:2:0:0:
290,66,221921,5,0,3:2:0:0:
290,66,221992,1,0,3:0:0:0:
290,66,222063,2,0,P|251:40|213:70,1,68.9,0|0,3:0|3:0,2:0:0:0:
152,114,222204,6,0,P|226:138|328:196,1,137.8,10|0,1:3|3:0,2:0:0:0:
300,192,222417,1,0,3:0:0:0:
320,218,222487,2,0,P|332:268|295:288,1,68.9,2|0,1:2|2:0,2:0:0:0:
218,340,222629,6,0,P|206:290|243:270,1,68.9,0|0,3:0|3:0,2:0:0:0:
415,145,222770,1,6,1:3:0:0:
442,23,222912,6,0,P|487:59|465:93,1,68.9,0|0,3:0|3:0,2:0:0:0:
410,124,223053,1,2,1:2:0:0:
344,96,223124,1,0,1:0:0:0:
281,71,223195,1,0,1:0:0:0:
216,47,223266,1,0,1:0:0:0:
152,23,223336,6,0,P|72:42|77:103,1,137.8,2|0,1:0|3:0,2:0:0:0:
102,109,223549,1,0,3:0:0:0:
135,132,223619,2,0,P|153:167|124:189,1,68.9,2|0,1:3|2:0,2:0:0:0:
4,282,223761,2,0,P|-5:313|19:333,1,68.9,0|0,3:0|3:0,2:0:0:0:
181,384,223902,6,0,P|150:317|102:237,1,137.8,2|0,1:3|3:0,2:0:0:0:
97,256,224115,1,0,3:0:0:0:
77,251,224185,1,2,1:3:0:0:
264,160,224327,6,0,P|243:212|235:249,1,68.9,0|0,3:0|3:0,2:0:0:0:
283,295,224468,6,0,P|324:356|382:301,1,137.8,2|0,1:3|3:0,2:0:0:0:
408,314,224681,1,0,3:0:0:0:
444,293,224751,2,0,P|496:310|452:375,1,137.8,2|0,1:3|3:0,2:0:0:0:
385,201,225034,5,2,1:3:0:0:
453,47,225176,1,0,3:0:0:0:
470,35,225247,1,0,3:0:0:0:
487,23,225317,1,2,1:3:0:0:
508,221,225459,6,0,P|483:172|443:126,1,68.9,0|0,3:0|3:0,2:0:0:0:
240,3,225601,5,10,1:3:0:0:
227,77,225671,1,0,2:0:0:0:
260,131,225742,1,2,1:3:0:0:
307,142,225813,1,0,2:0:0:0:
364,90,225884,5,2,1:3:0:0:
308,42,225954,1,0,2:0:0:0:
244,43,226025,1,2,1:3:0:0:
211,79,226096,1,0,2:0:0:0:
228,154,226167,5,2,1:3:0:0:
297,129,226237,1,0,2:0:0:0:
328,74,226308,1,2,1:3:0:0:
314,27,226379,1,0,2:0:0:0:
275,78,226450,5,2,1:3:0:0:
275,88,226520,1,0,2:0:0:0:
280,83,226591,1,2,1:3:0:0:
271,82,226662,1,0,2:0:0:0:
292,145,226733,5,6,1:3:0:0:
303,158,226803,1,0,1:3:0:0:
339,171,226874,1,2,1:3:0:0:
394,157,226945,1,0,1:3:0:0:
459,189,227016,1,2,1:3:0:0:
459,263,227086,1,0,1:3:0:0:
393,305,227157,2,0,L|318:273,1,68.9,2|0,1:3|1:3,2:0:0:0:
210,197,227299,5,2,1:3:0:0:
141,203,227369,1,0,1:3:0:0:
79,231,227440,1,2,1:3:0:0:
30,279,227511,1,0,1:3:0:0:
0,340,227582,1,2,1:3:0:0:
32,364,227652,1,0,1:3:0:0:
72,355,227723,2,0,P|86:314|46:286,1,68.9,2|0,1:3|1:3,2:0:0:0:
24,125,227865,5,6,1:2:0:0:
52,70,227935,1,0,1:3:0:0:
115,67,228006,2,0,L|149:99,2,34.45,2|0|0,1:3|2:0|1:3,2:0:0:0:
244,267,228148,5,2,1:3:0:0:
182,266,228218,1,0,1:3:0:0:
148,214,228289,2,0,L|158:167,2,34.45,2|0|0,1:3|2:0|1:3,2:0:0:0:
259,6,228431,5,2,1:3:0:0:
288,58,228501,1,0,1:3:0:0:
262,112,228572,2,0,L|216:125,2,34.45,2|0|0,1:3|2:0|1:3,2:0:0:0:
364,228,228714,5,2,1:3:0:0:
364,228,228784,1,0,1:3:0:0:
364,228,228855,2,0,P|375:166|397:117,1,68.9,2|0,1:3|1:3,2:0:0:0:
480,8,228997,5,4,1:2:0:0:
469,14,229067,1,0,2:0:0:0:
457,20,229138,1,0,2:0:0:0:
445,26,229209,1,0,2:0:0:0:
423,40,229280,5,0,2:0:0:0:
434,46,229351,1,0,2:0:0:0:
446,52,229421,1,0,2:0:0:0:
458,58,229492,1,0,2:0:0:0:
496,49,229563,5,0,2:0:0:0:
493,60,229634,1,0,2:0:0:0:
489,73,229704,1,0,2:0:0:0:
484,85,229775,1,0,2:0:0:0:
464,101,229846,5,0,2:0:0:0:
467,112,229917,1,0,2:0:0:0:
471,125,229987,1,0,2:0:0:0:
476,137,230058,1,0,2:0:0:0:
466,160,230129,5,2,2:1:0:0:
454,156,230200,1,0,2:0:0:0:
441,152,230270,1,0,2:0:0:0:
428,148,230341,1,0,2:0:0:0:
403,142,230412,5,0,2:0:0:0:
406,154,230483,1,0,2:0:0:0:
411,167,230553,1,0,2:0:0:0:
414,179,230624,1,0,2:0:0:0:
448,200,230695,5,0,3:0:0:0:
419,214,230766,1,0,3:0:0:0:
373,236,230836,1,0,3:0:0:0:
310,267,230907,1,0,3:0:0:0:
241,302,230978,2,0,P|306:281|497:254,1,238.5,8|0,3:2|2:0,2:0:0:0:
457,328,231261,5,4,1:0:0:0:
292,150,231402,2,0,P|262:107|258:73,1,63.6,2|0,3:2|3:2,2:0:0:0:
295,35,231544,1,0,1:2:0:0:
165,230,231685,6,0,P|195:187|199:153,1,63.6,2|0,3:2|3:2,2:0:0:0:
162,115,231827,2,0,P|107:139|67:198,1,127.2,0|2,1:2|3:2,2:0:0:0:
51,211,232039,1,0,3:2:0:0:
34,230,232110,1,0,1:2:0:0:
0,38,232251,6,0,P|41:75|44:111,1,63.6,2|0,3:2|3:2,2:0:0:0:
13,302,232393,1,0,1:2:0:0:
165,230,232534,6,0,P|158:255|94:278,1,63.6,2|0,3:2|3:2,2:0:0:0:
0,325,232676,2,0,P|81:359|124:401,1,127.2,0|2,1:0|3:2,2:0:0:0:
125,372,232888,1,0,3:2:0:0:
140,360,232959,1,0,1:2:0:0:
237,167,233101,5,2,3:2:0:0:
244,184,233171,1,0,3:2:0:0:
251,201,233242,2,0,L|315:228,1,63.6,0|0,1:2|2:0,2:0:0:0:
356,287,233384,1,2,3:2:0:0:
497,48,233525,5,0,1:2:0:0:
460,59,233596,1,0,2:0:0:0:
437,89,233667,1,2,3:2:0:0:
428,125,233737,1,0,3:2:0:0:
401,152,233808,2,0,L|276:99,1,127.2,0|2,1:2|3:2,2:0:0:0:
270,73,234020,1,0,3:2:0:0:
256,43,234091,1,0,1:0:0:0:
27,128,234233,6,0,P|36:158|64:174,1,63.6,2|0,3:2|3:2,2:0:0:0:
130,150,234374,2,0,P|133:91|77:74,1,127.2,0|2,1:2|3:2,2:0:0:0:
52,53,234586,1,0,3:2:0:0:
27,32,234657,5,0,1:2:0:0:
123,236,234799,1,2,3:2:0:0:
255,176,234940,5,0,1:2:0:0:
70,331,235082,2,0,P|129:382|130:389,1,63.6,2|0,3:2|3:2,2:0:0:0:
190,384,235223,2,0,L|213:255,1,127.2,0|2,1:2|3:2,2:0:0:0:
233,282,235435,1,0,3:2:0:0:
254,305,235506,2,0,L|308:251,1,63.6,0|0,1:0|3:2,2:0:0:0:
369,292,235648,1,0,1:2:0:0:
256,43,235789,6,0,P|191:32|162:97,1,127.2,0|2,1:2|3:2,2:0:0:0:
152,102,236001,1,0,3:2:0:0:
143,125,236072,1,0,1:2:0:0:
34,28,236214,5,2,3:2:0:0:
41,51,236284,1,0,3:2:0:0:
48,75,236355,1,0,1:2:0:0:
238,175,236497,5,2,3:2:0:0:
231,198,236567,1,0,3:2:0:0:
224,222,236638,2,0,L|157:260,1,63.6,0|0,1:2|2:0,2:0:0:0:
55,297,236780,2,0,L|71:235,1,63.6,2|0,3:2|3:2,2:0:0:0:
264,95,236921,6,0,P|317:128|309:204,1,127.2,0|2,1:2|3:2,2:0:0:0:
335,208,237134,1,0,3:2:0:0:
350,227,237204,2,0,P|387:251|395:292,1,63.6,0|0,1:2|2:0,2:0:0:0:
367,338,237346,2,0,P|330:314|322:273,1,63.6,2|0,3:2|3:2,2:0:0:0:
409,156,237487,6,0,P|465:127|486:233,1,190.8,0|0,1:2|3:2,2:0:0:0:
469,218,237770,1,0,1:2:0:0:
496,370,237912,2,0,P|474:329|433:336,1,63.6,2|0,3:2|3:2,2:0:0:0:
247,257,238053,6,0,B|200:258|171:309|171:309|140:356|79:351,1,190.8,0|0,1:2|3:2,2:0:0:0:
68,373,238336,2,0,P|16:325|69:269,1,127.2,0|2,1:0|3:2,2:0:0:0:
62,264,238549,1,0,3:2:0:0:
88,247,238619,1,0,1:2:0:0:
147,31,238761,6,0,L|81:79,1,63.6,2|0,3:2|3:2,2:0:0:0:
14,162,238902,5,0,1:2:0:0:
84,163,238973,1,0,2:0:0:0:
151,142,239044,1,2,3:2:0:0:
207,100,239115,1,0,3:2:0:0:
275,88,239185,1,0,1:2:0:0:
333,310,239327,5,2,3:2:0:0:
371,151,239468,2,0,P|312:183|304:211,1,63.6,0|0,1:2|2:0,2:0:0:0:
239,201,239610,2,0,P|260:264|247:290,1,63.6,2|0,3:2|3:2,2:0:0:0:
428,360,239751,5,0,1:2:0:0:
436,329,239822,1,0,2:0:0:0:
449,279,239893,1,2,3:2:0:0:
468,211,239964,1,0,3:2:0:0:
490,134,240034,1,0,1:2:0:0:
333,0,240176,6,0,L|362:81,1,63.6,2|0,1:2|3:2,2:0:0:0:
443,197,240317,6,0,P|374:162|234:123,1,190.8,2|0,1:0|3:2,2:0:0:0:
249,93,240601,1,0,1:2:0:0:
156,295,240742,6,0,P|161:343|211:362,1,63.6,2|0,3:2|3:2,2:0:0:0:
236,381,240884,2,0,P|253:312|262:246,1,127.2,0|2,1:2|3:2,2:0:0:0:
7,290,241167,5,0,1:2:0:0:
38,290,241237,1,0,2:0:0:0:
81,258,241308,1,2,3:2:0:0:
93,195,241379,1,0,3:2:0:0:
160,163,241450,1,0,1:2:0:0:
378,253,241591,5,2,3:2:0:0:
391,274,241662,1,0,3:2:0:0:
404,295,241733,1,0,1:0:0:0:
231,102,241874,5,2,3:2:0:0:
251,141,241945,1,0,3:2:0:0:
271,180,242016,2,0,L|308:314,1,127.2,0|2,1:2|3:2,2:0:0:0:
293,325,242228,1,0,3:2:0:0:
282,348,242299,1,0,1:2:0:0:
52,232,242440,6,0,P|105:279|98:325,1,63.6,2|0,3:2|3:2,2:0:0:0:
201,310,242582,6,0,P|128:335|83:390,1,127.2,0|2,1:2|3:2,2:0:0:0:
73,355,242794,1,0,3:2:0:0:
52,340,242865,1,0,1:2:0:0:
150,172,243006,1,2,3:2:0:0:
150,172,243077,1,0,3:2:0:0:
150,172,243148,1,0,1:0:0:0:
10,26,243289,6,0,P|10:82|54:97,1,63.6,2|0,3:2|3:2,2:0:0:0:
81,109,243431,2,0,P|120:53|185:33,1,127.2,0|2,1:2|3:2,2:0:0:0:
466,12,243714,5,0,1:2:0:0:
443,84,243784,1,0,2:0:0:0:
386,125,243855,1,2,3:2:0:0:
321,127,243926,1,0,3:2:0:0:
289,87,243997,1,0,1:2:0:0:
251,78,244067,1,0,2:0:0:0:
226,98,244138,1,2,3:2:0:0:
222,122,244209,1,0,3:2:0:0:
234,144,244280,5,0,1:2:0:0:
237,149,244351,1,0,2:0:0:0:
240,153,244421,2,0,P|286:139|323:111,1,63.6,2|0,3:2|3:2,2:0:0:0:
477,37,244563,5,0,1:0:0:0:
474,32,244634,1,0,3:2:0:0:
471,28,244704,2,0,P|425:42|388:70,1,63.6,0|0,1:2|1:2,2:0:0:0:
396,160,244846,6,0,P|367:224|355:334,1,127.2,4|2,1:2|3:2,2:0:0:0:
372,306,245058,1,0,3:2:0:0:
388,333,245129,1,0,1:2:0:0:
503,214,245270,2,0,P|453:245|446:281,1,63.6,2|0,3:2|3:2,2:0:0:0:
292,384,245412,6,0,P|234:349|100:326,1,190.8,0|0,1:2|3:2,2:0:0:0:
103,334,245695,2,0,P|101:365|129:381,1,63.6,0|0,1:2|2:0,2:0:0:0:
242,267,245836,2,0,P|216:210|164:193,1,63.6,2|0,3:2|3:2,2:0:0:0:
86,59,245978,5,0,1:2:0:0:
64,86,246049,1,0,2:0:0:0:
66,135,246119,2,0,P|113:172|161:180,1,63.6,2|0,3:2|3:2,2:0:0:0:
401,73,246261,5,0,1:2:0:0:
374,50,246332,1,0,2:0:0:0:
325,52,246402,2,0,P|287:99|279:147,1,63.6,2|0,3:2|3:2,2:0:0:0:
247,0,246544,5,0,1:2:0:0:
211,3,246615,1,0,2:0:0:0:
178,39,246685,2,0,P|184:99|212:138,1,63.6,2|0,3:2|3:2,2:0:0:0:
208,184,246827,5,0,1:2:0:0:
220,187,246898,1,0,2:0:0:0:
231,191,246968,2,0,P|266:214|318:256,1,63.6,2|0,3:2|3:2,2:0:0:0:
104,172,247110,6,0,P|88:110|66:50,1,127.2,8|2,1:3|3:2,2:0:0:0:
0,197,247393,5,0,1:0:0:0:
34,265,247464,1,0,2:0:0:0:
45,319,247534,1,2,3:2:0:0:
42,357,247605,1,0,3:2:0:0:
31,384,247676,2,0,P|0:332|108:350,1,190.8,0|0,1:2|3:2,2:0:0:0:
119,332,247959,1,0,1:2:0:0:
275,384,248101,6,0,P|290:335|320:320,1,63.6,2|0,3:2|3:2,2:0:0:0:
471,268,248242,2,0,P|398:244|287:192,1,190.8,4|0,1:3|3:2,2:0:0:0:
283,166,248525,5,0,1:2:0:0:
290,155,248596,1,0,2:0:0:0:
297,144,248667,1,2,3:2:0:0:
304,134,248737,1,0,3:2:0:0:
311,123,248808,6,0,L|294:61,1,63.6,0|0,1:2|2:0,2:0:0:0:
396,14,248950,2,0,L|379:76,1,63.6,2|0,3:2|3:2,2:0:0:0:
211,105,249091,5,0,1:2:0:0:
192,178,249162,1,0,2:0:0:0:
158,247,249233,1,2,1:2:0:0:
111,306,249303,1,0,3:2:0:0:
48,351,249374,6,0,P|28:279|18:185,1,137.8,4|2,1:0|3:2,2:0:0:0:
39,197,249586,1,0,3:2:0:0:
58,177,249657,1,8,1:2:0:0:
278,288,249799,1,2,3:2:0:0:
156,361,249940,6,0,P|146:310|122:277,1,68.9,0|0,1:2|2:0,2:0:0:0:
178,232,250082,2,0,P|166:182|174:141,1,68.9,2|0,3:2|3:2,2:0:0:0:
223,108,250223,1,8,1:2:0:0:
7,39,250365,1,2,3:2:0:0:
256,37,250506,6,0,P|309:96|265:166,1,137.8,0|2,1:0|3:2,2:0:0:0:
74,276,250789,1,8,1:2:0:0:
49,263,250860,1,0,2:0:0:0:
40,236,250931,2,0,P|50:204|103:203,1,68.9,2|0,3:2|3:2,2:0:0:0:
129,91,251072,5,0,1:2:0:0:
186,143,251143,1,0,2:0:0:0:
220,201,251214,1,2,3:2:0:0:
234,250,251284,1,0,3:2:0:0:
256,284,251355,1,8,1:2:0:0:
276,289,251426,1,0,2:0:0:0:
296,293,251497,2,0,P|330:323|343:361,1,68.9,2|0,3:2|3:2,2:0:0:0:
409,373,251638,6,0,P|428:283|471:187,1,137.8,0|2,1:0|3:2,2:0:0:0:
376,31,251921,1,8,1:2:0:0:
512,202,252063,6,0,P|479:166|429:172,1,68.9,2|0,3:2|3:2,2:0:0:0:
399,118,252204,1,0,1:2:0:0:
192,55,252346,5,2,3:2:0:0:
172,35,252417,1,0,3:2:0:0:
162,9,252487,2,0,P|222:22|241:61,1,68.9,8|0,1:2|2:0,2:0:0:0:
276,83,252629,2,0,P|294:141|270:177,1,68.9,2|0,3:2|3:2,2:0:0:0:
120,327,252770,5,0,1:0:0:0:
69,79,252912,2,0,P|99:134|96:184,1,68.9,2|0,3:2|3:2,2:0:0:0:
43,350,253053,5,8,1:2:0:0:
182,140,253195,2,0,P|164:200|126:234,1,68.9,2|0,3:2|3:2,2:0:0:0:
0,281,253336,5,0,1:2:0:0:
282,286,253478,2,0,L|257:223,1,68.9,2|0,3:2|3:2,2:0:0:0:
314,93,253619,5,8,1:2:0:0:
298,160,253690,1,0,1:0:0:0:
282,227,253761,1,2,1:2:0:0:
266,294,253832,1,0,1:2:0:0:
251,362,253902,1,0,1:0:0:0:
486,216,254044,6,0,P|422:185|397:137,1,68.9,2|0,3:2|3:2,2:0:0:0:
373,16,254185,5,8,1:2:0:0:
442,0,254256,1,0,2:0:0:0:
489,28,254327,1,2,3:2:0:0:
509,56,254398,1,0,3:2:0:0:
509,80,254468,1,0,1:2:0:0:
494,101,254539,1,0,2:0:0:0:
477,111,254610,6,0,P|432:97|427:64,1,68.9,2|0,3:2|3:2,2:0:0:0:
229,4,254751,1,8,1:2:0:0:
163,97,254893,6,0,P|139:52|166:26,1,68.9,2|0,3:2|3:2,2:0:0:0:
255,17,255034,2,0,P|244:93|190:245,1,206.7,0|0,1:0|3:2,2:0:0:0:
175,235,255317,1,8,1:2:0:0:
35,200,255459,5,2,3:2:0:0:
24,166,255530,1,0,3:2:0:0:
14,132,255601,2,0,P|62:167|99:173,1,68.9,0|0,1:2|2:0,2:0:0:0:
91,300,255742,2,0,P|139:264|176:258,1,68.9,2|0,3:2|3:2,2:0:0:0:
246,181,255884,6,0,P|281:181|313:169,1,68.9,8|0,1:2|2:0,2:0:0:0:
420,246,256025,2,0,P|420:211|432:179,1,68.9,2|0,3:2|3:2,2:0:0:0:
452,29,256167,5,0,1:0:0:0:
431,23,256237,1,0,2:0:0:0:
412,31,256308,2,0,P|382:69|393:124,1,68.9,2|0,3:2|3:2,2:0:0:0:
246,181,256450,5,8,1:2:0:0:
297,227,256520,1,0,2:0:0:0:
335,270,256591,1,2,3:2:0:0:
355,307,256662,1,0,3:2:0:0:
366,337,256733,1,0,1:2:0:0:
50,306,256874,6,0,P|1:266|5:223,1,68.9,2|0,3:2|3:2,2:0:0:0:
74,74,257016,1,8,1:2:0:0:
186,112,257157,6,0,P|157:157|105:163,1,68.9,2|0,3:2|3:2,2:0:0:0:
62,67,257299,2,0,P|114:34|283:0,1,206.7,0|0,1:0|3:2,2:0:0:0:
326,19,257582,5,8,1:2:0:0:
355,64,257652,1,0,2:0:0:0:
379,113,257723,1,2,3:2:0:0:
396,165,257794,1,0,3:2:0:0:
377,185,257865,1,0,1:2:0:0:
365,209,257935,1,0,2:0:0:0:
360,236,258006,6,0,P|374:288|405:308,1,68.9,2|0,3:2|3:2,2:0:0:0:
503,316,258148,2,0,P|489:264|458:244,1,68.9,8|0,1:2|2:0,2:0:0:0:
286,148,258289,2,0,P|259:169|247:200,1,68.9,2|0,1:2|3:2,2:0:0:0:
143,384,258431,5,4,1:0:0:0:
0,180,258572,5,2,3:2:0:0:
18,189,258643,1,0,3:2:0:0:
36,198,258714,1,0,1:2:0:0:
52,2,258855,5,2,3:2:0:0:
81,40,258926,1,0,3:2:0:0:
110,78,258997,1,0,1:2:0:0:
113,187,259138,5,2,3:2:0:0:
119,206,259209,1,0,3:2:0:0:
125,225,259280,1,0,1:2:0:0:
275,97,259421,5,2,3:2:0:0:
269,145,259492,1,0,3:2:0:0:
262,192,259563,1,2,1:0:0:0:
187,271,259704,5,2,3:2:0:0:
178,289,259775,1,0,3:2:0:0:
169,307,259846,1,0,1:2:0:0:
366,322,259987,5,2,3:2:0:0:
327,352,260058,1,0,3:2:0:0:
289,380,260129,1,0,1:0:0:0:
184,156,260270,1,2,3:2:0:0:
352,225,260412,5,0,1:2:0:0:
404,113,260553,1,2,3:2:0:0:
512,384,260695,6,0,P|430:355|266:330,1,206.7,8|0,1:3|3:2,2:0:0:0:
289,298,260978,1,0,1:2:0:0:
27,115,261119,5,2,3:2:0:0:
7,55,261190,1,0,3:2:0:0:
48,9,261261,1,0,1:2:0:0:
125,225,261402,5,2,3:2:0:0:
108,247,261473,1,0,3:2:0:0:
82,257,261544,1,0,1:2:0:0:
268,114,261685,5,2,3:2:0:0:
296,57,261756,1,0,3:2:0:0:
357,53,261827,1,4,1:3:0:0:
259,261,261968,5,2,3:2:0:0:
231,264,262039,1,0,3:2:0:0:
206,253,262110,1,0,1:2:0:0:
240,193,262181,1,0,2:0:0:0:
308,195,262251,1,2,3:2:0:0:
339,256,262322,1,0,3:2:0:0:
310,318,262393,5,0,1:2:0:0:
290,326,262464,1,0,2:0:0:0:
275,341,262534,1,2,3:2:0:0:
266,361,262605,1,0,3:2:0:0:
264,382,262676,1,0,1:2:0:0:
257,313,262747,1,0,2:0:0:0:
226,252,262817,1,2,3:2:0:0:
179,200,262888,1,0,3:2:0:0:
117,168,262959,5,4,1:0:0:0:
40,330,263101,6,0,P|13:279|47:234,1,68.9,2|0,3:2|3:2,2:0:0:0:
126,149,263242,1,0,1:2:0:0:
161,25,263384,6,0,P|190:73|157:107,1,68.9,2|0,3:2|3:2,2:0:0:0:
101,155,263525,2,0,P|196:113|307:82,1,206.7,0|0,1:2|3:2,2:0:0:0:
315,112,263808,1,0,1:2:0:0:
512,216,263950,2,0,P|477:162|474:112,1,68.9,2|0,3:2|3:2,2:0:0:0:
481,0,264091,5,4,1:0:0:0:
438,17,264185,2,0,P|419:58|408:103,1,91.8666666666667,0|0,2:0|2:0,2:0:0:0:
403,201,264374,5,0,1:2:0:0:
360,182,264468,2,0,P|317:198|277:221,1,91.8666666666667,0|0,2:0|2:0,2:0:0:0:
205,287,264657,5,4,1:2:0:0:
188,244,264751,2,0,P|146:225|101:214,1,91.8666666666667,0|0,2:0|2:0,2:0:0:0:
22,161,264940,5,0,1:2:0:0:
0,125,265034,2,0,P|28:91|55:158,1,91.8666666666667,0|0,2:0|2:0,2:0:0:0:
5,285,265223,6,0,B|67:278|93:330|92:337|88:341|119:386|176:377,1,206.7,4|0,1:0|3:2,2:0:0:0:
241,326,265506,5,0,1:2:0:0:
301,292,265577,1,0,2:0:0:0:
351,286,265648,1,2,3:2:0:0:
388,297,265718,1,0,3:2:0:0:
413,322,265789,5,4,1:0:0:0:
424,328,265860,1,0,2:0:0:0:
435,334,265931,1,2,3:2:0:0:
446,340,266001,1,0,3:2:0:0:
457,347,266072,1,0,1:2:0:0:
447,313,266143,1,0,2:0:0:0:
433,266,266214,1,2,3:2:0:0:
412,193,266284,1,0,3:2:0:0:
391,119,266355,5,4,1:0:0:0:
153,57,266497,5,2,3:2:0:0:
137,43,266567,1,0,3:2:0:0:
145,60,266638,1,0,3:1:0:0:
144,39,266709,1,0,3:0:0:0:
138,57,266780,1,2,3:2:0:0:
152,42,266851,1,0,3:2:0:0:
142,49,266921,5,4,3:2:0:0:
202,101,266992,1,0,3:0:0:0:
255,160,267063,1,2,3:2:0:0:
306,222,267134,1,0,3:2:0:0:
351,286,267204,1,0,3:1:0:0:
329,301,267275,1,0,3:0:0:0:
308,317,267346,2,0,P|256:283|214:271,1,68.9,0|0,3:1|3:2,2:0:0:0:
0,188,267487,5,8,1:3:0:0:
6,191,267558,1,0,2:0:0:0:
11,194,267629,1,0,2:0:0:0:
16,198,267700,1,0,2:0:0:0:
32,228,267770,5,0,2:0:0:0:
38,226,267841,1,0,2:0:0:0:
44,224,267912,1,0,2:0:0:0:
50,224,267983,1,0,2:0:0:0:
82,234,268053,5,0,2:0:0:0:
85,229,268124,1,0,2:0:0:0:
88,223,268195,1,0,2:0:0:0:
92,219,268266,1,0,2:0:0:0:
122,202,268336,5,0,2:0:0:0:
120,196,268407,1,0,2:0:0:0:
118,190,268478,1,0,2:0:0:0:
118,184,268549,1,0,2:0:0:0:
67,183,268619,5,0,2:0:0:0:
59,173,268690,1,0,2:0:0:0:
51,151,268761,1,0,2:0:0:0:
59,124,268832,1,0,2:0:0:0:
97,94,268902,1,0,2:0:0:0:
145,99,268973,1,0,2:0:0:0:
180,141,269044,2,0,P|233:173|281:147,1,68.9,0|0,2:0|2:0,2:0:0:0:
281,269,269185,5,0,2:0:0:0:
281,269,269256,1,0,2:0:0:0:
281,269,269327,2,0,P|341:254|356:201,1,68.9,0|0,2:0|2:0,2:0:0:0:
442,288,269468,5,0,2:0:0:0:
442,288,269539,1,0,2:0:0:0:
442,288,269610,2,0,P|474:235|448:187,1,68.9,0|0,2:0|2:0,2:0:0:0:
438,162,269751,6,0,P|397:177|80:368,1,408.1,0|0,2:0|2:0,2:0:0:0:
33,288,270601,6,0,P|134:143|98:314,1,482.3,8|0,3:2|2:0,2:0:0:0:
96,224,271167,5,4,1:0:0:0:
256,192,271237,12,0,279940,2:0:0:0:
