osu file format v14

[General]
AudioFilename: audio.mp3
AudioLeadIn: 0
PreviewTime:143808
Countdown: 0
SampleSet: Soft
StackLeniency: 0.7
Mode: 0
LetterboxInBreaks: 0
WidescreenStoryboard: 1

[Editor]
Bookmarks: 9374,18431,27487,36544,38808,56921,75034,84091,103336,121450,143808,164468,184846,205223,210034,213148,255105
DistanceSpacing: 0.5
BeatDivisor: 3
GridSize: 32
TimelineZoom: 3.499999

[Metadata]
Title:Longinus
TitleUnicode:Longinus
Artist:xi
ArtistUnicode:xi
Creator:Anxient
Version:Insane
Source:
Tags:FA Featured Artist techstreams Diverse System AD:PIANO V Noir electronic instrumental anime girl anime_girl jungkyuyoung natsume shiki natsume_shiki scub domino [keqing] 8972308 house techno trance Japan
BeatmapID:4379484
BeatmapSetID:1902907

[Difficulty]
HPDrainRate:5
CircleSize:3.5
OverallDifficulty:8
ApproachRate:9
SliderMultiplier:1.62
SliderTickRate:1

[Events]
//Background and Video events
0,0,"BG.jpg",0,0
//Break Periods
2,79763,83208
2,210234,211416
//Storyboard Layer 0 (Background)
//Storyboard Layer 1 (Fail)
//Storyboard Layer 2 (Pass)
//Storyboard Layer 3 (Foreground)
//Storyboard Layer 4 (Overlay)
//Storyboard Sound Samples

[TimingPoints]
318,283.018867924528,4,2,1,70,1,0
9374,-133.333333333333,4,2,1,70,0,0
13902,-117.647058823529,4,2,1,70,0,0
18431,-100,4,2,1,80,0,0
27487,-90.9090909090909,4,2,1,80,0,0
35695,-76.9230769230769,4,2,1,80,0,0
36544,-83.3333333333333,4,2,1,80,0,0
38808,-90.9090909090909,4,2,1,80,0,0
38879,-90.9090909090909,4,2,1,70,0,0
75034,-90.9090909090909,4,2,1,60,0,0
84091,-125,4,2,1,60,0,0
90601,-111.111111111111,4,2,1,60,0,0
91308,-100,4,2,1,60,0,0
92016,-100,4,2,1,65,0,0
93148,-90.9090909090909,4,2,1,70,0,0
98808,-83.3333333333333,4,2,1,70,0,0
103336,-83.3333333333333,4,2,1,80,0,0
103407,-83.3333333333333,4,2,1,70,0,0
121450,-83.3333333333333,4,2,1,75,0,0
121733,-83.3333333333333,4,2,1,75,0,1
139563,-83.3333333333333,4,2,1,75,0,0
143808,-66.6666666666667,4,2,1,75,0,0
144374,-66.6666666666667,4,2,1,80,0,1
144516,-76.9230769230769,4,2,1,80,0,1
153148,-142.857142857143,4,2,1,80,0,0
153431,-142.857142857143,4,2,1,80,0,1
153572,-76.9230769230769,4,2,1,80,0,1
164468,-83.3333333333333,4,2,1,70,0,0
173525,-83.3333333333333,4,2,1,75,0,0
182582,-83.3333333333333,4,2,1,65,0,0
186827,-83.3333333333333,4,2,1,75,0,0
187110,-83.3333333333333,4,2,1,85,0,1
205223,-83.3333333333333,4,2,1,85,0,0
205506,-90.9090909090909,4,2,1,75,0,0
205789,-100,4,2,1,75,0,0
207204,-100,4,2,1,85,0,0
207487,-83.3333333333333,4,2,1,85,0,0
207557,-83.3333333333333,4,2,1,75,0,0
207770,-90.9090909090909,4,2,1,75,0,0
208053,-100,4,2,1,75,0,0
210034,-100,4,2,1,55,0,0
212016,-90.9090909090909,4,2,1,80,0,0
212440,-83.3333333333333,4,2,1,80,0,0
213148,-76.9230769230769,4,2,1,85,0,1
218808,-76.9230769230769,4,2,1,85,0,0
219091,-76.9230769230769,4,2,1,85,0,1
228997,-76.9230769230769,4,2,1,75,0,1
230978,-66.6666666666667,4,2,1,75,0,1
231261,-66.6666666666667,4,2,1,75,0,0
231685,-83.3333333333333,4,2,1,75,0,0
249374,-76.9230769230769,4,2,1,75,0,0
267487,-76.9230769230769,4,2,1,70,0,0
269751,-142.857142857143,4,2,1,70,0,0
270600,-142.857142857143,4,2,1,85,0,0

[Colours]
Combo1 : 71,201,152
Combo2 : 250,245,218
Combo3 : 251,192,55
Combo4 : 192,211,226

[HitObjects]
4,304,9374,6,0,P|54:320|134:366,1,121.5,0|0,2:0|2:0,2:0:0:0:
129,379,9799,1,0,2:0:0:0:
199,308,10082,2,0,L|216:247,2,60.7500000000002,0|0|0,2:0|2:0|2:0,2:0:0:0:
116,245,10506,6,0,L|99:184,2,60.7500000000002,0|0|0,2:0|2:0|2:0,2:0:0:0:
186,162,10931,2,0,P|197:119|231:27,2,121.5,0|0|0,2:0|2:0|2:0,2:0:0:0:
233,247,11638,6,0,P|277:275|342:340,1,121.5,0|0,2:0|2:0,2:0:0:0:
334,351,12063,1,0,2:0:0:0:
420,301,12346,2,0,L|452:246,2,60.7500000000002,0|0|0,2:0|2:0|2:0,2:0:0:0:
356,218,12770,6,0,L|355:154,2,60.7500000000002,0|0|0,2:0|2:0|2:0,2:0:0:0:
445,156,13195,2,0,P|466:117|523:37,2,121.5,0|0|0,2:0|2:0|2:0,2:0:0:0:
401,24,13902,6,0,P|359:29|264:91,1,137.700000000001,0|0,2:0|2:0,2:0:0:0:
260,106,14327,1,0,2:0:0:0:
66,175,14610,2,0,L|-6:155,2,68.8500000000003,0|0|0,2:0|2:0|2:0,2:0:0:0:
117,247,15034,6,0,L|189:227,2,68.8500000000003,0|0|0,2:0|2:0|2:0,2:0:0:0:
148,138,15459,2,0,P|161:70|202:3,2,137.700000000001,0|0|0,2:0|2:0|2:0,2:0:0:0:
196,325,16167,5,0,2:0:0:0:
196,325,16450,2,0,P|142:334|56:374,2,137.700000000001,0|0|0,2:0|2:0|2:0,2:0:0:0:
267,378,17157,1,0,2:0:0:0:
337,179,17299,1,0,2:0:0:0:
271,122,17582,6,0,P|262:107|247:100,3,34.4250000000001,0|0|0|0,2:0|2:0|2:0|2:0,2:0:0:0:
417,150,17865,2,0,P|434:149|447:139,3,34.4250000000001,0|0|0|0,2:0|2:0|2:0|2:0,2:0:0:0:
320,261,18148,2,0,P|310:276|312:292,3,34.4250000000001,0|0|0|0,2:0|2:0|2:0|2:0,2:0:0:0:
337,179,18431,6,0,P|312:117|298:44,1,121.5,4|0,1:0|2:0,2:0:0:0:
321,28,18714,2,0,P|362:27|386:73,1,81,2|0,2:3|2:0,2:0:0:0:
230,139,18997,5,2,2:3:0:0:
220,141,19067,1,0,2:0:0:0:
211,146,19138,1,0,2:0:0:0:
203,152,19209,1,0,2:0:0:0:
198,161,19280,2,0,L|219:262,1,81,2|0,2:3|2:0,2:0:0:0:
166,359,19563,6,0,P|158:332|137:309,3,40.5,2|0|0|0,2:3|2:0|2:0|2:0,2:0:0:0:
291,304,19846,2,0,P|298:277|319:254,3,40.5,2|0|0|0,2:3|2:0|2:0|2:0,2:0:0:0:
131,348,20129,6,0,P|106:334|75:333,3,40.5,2|0|0|0,2:3|2:0|2:0|2:0,2:0:0:0:
326,293,20412,2,0,P|350:279|381:278,3,40.5,2|0|0|0,2:3|2:0|2:0|2:0,2:0:0:0:
207,263,20695,6,0,P|190:214|127:126,1,121.5,0|0,1:0|2:0,2:0:0:0:
121,158,20978,2,0,P|80:142|41:182,1,81,2|0,2:3|2:0,2:0:0:0:
230,113,21261,5,2,2:3:0:0:
239,110,21332,1,0,2:0:0:0:
248,105,21402,1,0,2:0:0:0:
256,99,21473,1,0,2:0:0:0:
261,90,21544,2,0,L|240:-10,1,81,2|0,2:3|2:0,2:0:0:0:
364,31,21827,6,0,P|400:55|404:71,3,40.5,2|0|0|0,2:3|2:0|2:0|2:0,2:0:0:0:
512,127,22110,2,0,P|501:144|500:164,3,40.5,2|0|0|0,2:3|2:0|2:0|2:0,2:0:0:0:
390,149,22393,6,0,P|398:192|389:205,3,40.5,2|0|0|0,2:3|2:0|2:0|2:0,2:0:0:0:
421,268,22676,2,0,P|401:272|386:286,3,40.5,2|0|0|0,2:3|2:0|2:0|2:0,2:0:0:0:
345,359,22959,6,0,P|291:337|223:320,1,121.5,0|0,1:0|2:0,2:0:0:0:
206,298,23242,2,0,P|166:328|176:374,1,81,2|0,2:3|2:0,2:0:0:0:
94,264,23525,5,2,2:3:0:0:
95,243,23596,1,0,2:0:0:0:
87,225,23667,1,0,2:0:0:0:
72,212,23737,1,0,2:0:0:0:
53,206,23808,2,0,P|4:227|5:277,1,81,2|0,2:3|2:0,2:0:0:0:
180,195,24091,6,0,P|234:173|302:156,1,121.5,2|0,2:3|2:0,2:0:0:0:
306,126,24374,1,2,2:3:0:0:
470,180,24516,1,0,2:0:0:0:
415,71,24657,1,2,2:3:0:0:
361,235,24799,1,0,2:0:0:0:
382,66,24940,2,0,L|366:1,3,40.5,2|0|0|0,2:3|2:0|2:0|2:0,2:0:0:0:
258,1,25223,6,0,L|240:80,1,81,0|0,1:0|2:0,2:0:0:0:
235,93,25435,1,0,2:0:0:0:
231,107,25506,1,2,2:3:0:0:
227,120,25577,1,0,2:0:0:0:
223,134,25648,2,0,P|200:152|173:159,5,40.5,0|0|2|0|0|0,2:0|2:0|2:3|2:0|2:0|2:0,2:0:0:0:
118,126,26072,2,0,P|97:88|147:46,1,81,2|0,2:3|2:0,2:0:0:0:
107,225,26355,6,0,B|41:225|65:346|-16:329,2,162,2|2|2,1:3|2:3|2:3,2:0:0:0:
143,333,27063,1,0,2:0:0:0:
173,320,27134,1,0,2:0:0:0:
196,298,27204,2,0,P|245:318|286:361,1,81,2|0,2:3|2:0,2:0:0:0:
407,384,27487,6,0,P|415:316|441:230,1,133.65,4|0,1:0|2:0,2:0:0:0:
462,247,27770,2,0,P|491:206|477:165,1,89.1,2|0,3:0|3:0,2:0:0:0:
461,161,27983,1,0,2:0:0:0:
441,151,28053,1,2,3:0:0:0:
296,199,28195,2,0,P|324:255|332:322,2,89.1,0|2|0,3:0|3:0|3:0,2:0:0:0:
275,64,28619,5,2,3:0:0:0:
274,50,28690,1,0,2:0:0:0:
277,40,28761,1,0,3:0:0:0:
282,31,28832,1,0,2:0:0:0:
289,22,28902,2,0,P|345:2|366:93,2,178.2,2|2|2,3:0|3:0|3:0,2:0:0:0:
222,132,29610,5,0,3:0:0:0:
212,152,29681,1,0,2:0:0:0:
203,172,29751,2,0,L|105:191,1,89.1,4|0,1:0|3:0,2:0:0:0:
27,0,30034,6,0,L|114:16,1,89.1,2|0,3:0|3:0,2:0:0:0:
27,136,30317,1,2,3:0:0:0:
112,101,30459,1,0,3:0:0:0:
27,136,30601,2,0,P|-4:185|17:225,1,89.1,2|0,3:0|3:0,2:0:0:0:
77,363,30884,6,0,L|117:180,1,178.2,2|2,3:0|3:0,2:0:0:0:
204,286,31308,1,0,3:0:0:0:
204,286,31379,1,0,3:0:0:0:
204,286,31450,2,0,L|231:377,1,89.1,2|0,3:0|3:0,2:0:0:0:
309,280,31733,1,2,3:0:0:0:
327,291,31803,1,0,3:0:0:0:
346,303,31874,1,0,3:0:0:0:
365,315,31945,1,0,3:0:0:0:
384,327,32016,6,0,P|414:303|409:275,3,44.55,4|0|0|0,1:0|3:0|3:0|3:0,2:0:0:0:
474,248,32299,2,0,P|477:209|454:193,3,44.55,2|0|0|0,3:0|3:0|3:0|3:0,2:0:0:0:
481,128,32582,2,0,P|456:98|428:103,3,44.55,2|0|0|0,3:0|3:0|3:0|3:0,2:0:0:0:
407,32,32865,5,2,3:0:0:0:
386,40,32935,1,0,3:0:0:0:
369,54,33006,1,0,3:0:0:0:
356,72,33077,1,0,3:0:0:0:
350,93,33148,2,0,L|378:240,1,133.65,4|0,1:0|3:0,2:0:0:0:
359,245,33431,5,2,3:0:0:0:
257,354,33572,1,0,3:0:0:0:
213,211,33714,1,2,3:0:0:0:
378,266,33855,5,0,3:0:0:0:
228,360,33997,1,2,3:0:0:0:
221,183,34138,1,0,3:0:0:0:
279,273,34280,6,0,P|235:303|147:356,1,133.65,4|0,1:0|3:0,2:0:0:0:
154,322,34563,2,0,P|113:293|123:267,3,44.55,2|0|0|0,3:0|3:0|3:0|3:0,2:0:0:0:
59,215,34846,6,0,P|102:184|190:131,1,133.65,2|0,1:3|3:0,2:0:0:0:
184,166,35129,2,0,P|225:195|215:221,3,44.55,2|0|0|0,3:0|3:0|3:0|3:0,2:0:0:0:
301,117,35412,5,4,1:0:0:0:
314,102,35483,1,0,3:0:0:0:
324,84,35553,1,0,3:0:0:0:
331,66,35624,1,0,3:0:0:0:
334,46,35695,2,0,P|333:21|307:-1,3,52.65,2|0|0|0,1:3|3:0|3:0|3:0,2:0:0:0:
249,45,35978,5,2,1:3:0:0:
417,111,36119,1,0,1:0:0:0:
249,45,36261,5,2,1:3:0:0:
417,111,36402,1,0,1:0:0:0:
301,160,36544,6,0,P|285:191|298:210,7,48.6,0|0|0|0|0|0|0|0,2:0|2:0|2:0|2:0|2:0|2:0|2:0|2:0,2:0:0:0:
324,230,37110,2,0,P|334:263|357:267,7,48.6,0|0|0|0|0|0|0|0,2:0|2:0|2:0|2:0|2:0|2:0|2:0|2:0,2:0:0:0:
415,329,37676,6,0,P|446:314|465:326,7,48.6,0|0|0|0|0|0|0|0,3:1|2:1|3:1|3:1|3:1|3:1|3:1|3:1,2:0:0:0:
509,253,38242,5,0,3:1:0:0:
512,235,38313,1,0,3:1:0:0:
510,217,38384,1,0,3:1:0:0:
501,201,38454,1,0,3:1:0:0:
487,189,38525,1,0,3:1:0:0:
470,183,38596,1,0,3:1:0:0:
452,184,38667,1,0,3:1:0:0:
435,191,38737,1,0,3:1:0:0:
422,203,38808,6,0,L|458:10,2,178.2,4|0|0,1:0|1:2|1:2,2:0:0:0:
348,253,39516,1,2,3:2:0:0:
268,295,39657,2,0,P|253:238|291:193,1,89.1,0|2,1:2|3:2,2:0:0:0:
424,300,39940,6,0,P|382:341|324:331,1,89.1,0|2,1:2|3:2,2:0:0:0:
350,163,40223,2,0,P|407:178|427:233,1,89.1,0|2,1:0|3:2,2:0:0:0:
347,252,40506,2,0,P|265:219|178:200,1,178.2,0|0,1:2|1:2,2:0:0:0:
128,127,40931,1,2,3:2:0:0:
117,107,41001,1,0,3:2:0:0:
105,87,41072,6,0,P|119:31|227:67,2,178.2,0|0|0,1:2|1:2|1:0,2:0:0:0:
46,165,41780,2,0,P|37:210|-11:217,2,89.1,2|0|2,3:2|1:2|3:2,2:0:0:0:
198,183,42204,6,0,P|167:233|149:343,1,133.65,0|0,1:2|3:2,2:0:0:0:
158,329,42487,2,0,P|209:330|226:285,1,89.1,0|2,1:2|3:2,2:0:0:0:
286,226,42770,6,0,P|328:204|347:277,1,133.65,0|0,1:2|3:2,2:0:0:0:
358,294,43053,1,0,1:0:0:0:
350,315,43124,1,0,3:2:0:0:
342,335,43195,1,0,1:2:0:0:
331,355,43266,1,0,1:2:0:0:
318,373,43336,6,0,L|501:334,2,178.2,0|0|0,1:2|1:2|1:2,2:0:0:0:
455,252,44044,1,2,3:2:0:0:
455,252,44115,1,0,3:2:0:0:
455,252,44185,2,0,L|485:162,1,89.1,0|2,1:2|3:2,2:0:0:0:
299,118,44468,6,0,L|361:188,1,89.1,0|2,1:2|3:2,2:0:0:0:
493,49,44751,2,0,L|400:68,1,89.1,0|2,1:2|3:2,2:0:0:0:
231,168,45034,2,0,P|206:140|221:116,3,44.55,0|0|2|0,1:2|2:0|3:2|3:2,2:0:0:0:
189,115,45317,2,0,P|200:51|239:38,1,89.1,0|2,1:2|3:2,2:0:0:0:
366,166,45601,6,0,P|345:223|314:358,2,178.2,0|0|0,1:2|1:0|1:2,2:0:0:0:
366,166,46308,1,2,3:2:0:0:
459,258,46450,2,0,P|448:303|393:306,1,89.1,0|2,1:2|3:2,2:0:0:0:
232,384,46733,6,0,P|195:340|108:299,1,133.65,0|0,1:2|3:2,2:0:0:0:
144,271,47016,2,0,P|113:237|141:191,1,89.1,0|2,1:2|3:2,2:0:0:0:
230,111,47299,2,0,P|261:145|233:191,1,89.1,0|2,1:2|3:2,2:0:0:0:
124,99,47582,1,0,1:2:0:0:
116,87,47652,1,0,2:0:0:0:
105,78,47723,1,2,1:2:0:0:
93,70,47794,1,0,3:2:0:0:
80,64,47865,6,0,P|39:106|-9:242,2,178.2,2|0|0,1:0|1:2|1:2,2:0:0:0:
230,111,48572,1,2,3:2:0:0:
315,61,48714,2,0,P|263:25|251:-10,1,89.1,0|2,1:2|3:2,2:0:0:0:
230,209,48997,6,0,P|287:181|323:189,1,89.1,0|2,1:2|3:2,2:0:0:0:
144,62,49280,2,0,P|138:125|114:152,1,89.1,0|2,1:0|3:2,2:0:0:0:
230,111,49563,2,0,P|282:94|404:39,1,178.2,0|0,1:2|1:2,2:0:0:0:
481,127,49987,5,2,3:2:0:0:
481,127,50058,1,0,3:2:0:0:
481,127,50129,2,0,P|437:146|417:228,1,133.65,0|0,1:2|3:2,2:0:0:0:
442,246,50412,2,0,P|468:295|421:322,1,89.1,0|2,1:2|3:2,2:0:0:0:
334,202,50695,6,0,P|286:208|246:282,1,133.65,0|0,1:0|3:2,2:0:0:0:
265,306,50978,2,0,P|277:360|225:373,1,89.1,0|2,1:2|3:2,2:0:0:0:
172,235,51261,6,0,P|124:229|66:290,1,133.65,0|0,1:2|3:2,2:0:0:0:
78,318,51544,2,0,P|76:373|21:373,1,89.1,0|2,1:2|3:2,2:0:0:0:
0,215,51827,2,0,P|1:159|56:159,1,89.1,0|2,1:2|3:2,2:0:0:0:
113,86,52110,1,0,1:0:0:0:
130,81,52181,1,0,3:2:0:0:
147,76,52251,1,0,1:2:0:0:
164,71,52322,1,0,1:2:0:0:
181,66,52393,6,0,P|251:49|384:27,2,178.2,4|0|0,1:2|1:2|1:2,2:0:0:0:
72,0,53101,1,2,3:2:0:0:
72,0,53171,1,0,3:2:0:0:
72,0,53242,2,0,P|24:37|-15:23,1,89.1,0|2,1:2|3:2,2:0:0:0:
108,109,53525,6,0,P|162:113|188:202,1,133.65,0|0,1:2|3:2,2:0:0:0:
172,192,53808,2,0,P|141:227|96:194,1,89.1,0|2,1:2|3:2,2:0:0:0:
208,296,54091,2,0,P|272:312|367:357,1,133.65,0|0,1:2|3:2,2:0:0:0:
350,359,54374,1,0,1:2:0:0:
466,352,54516,5,2,3:2:0:0:
466,352,54586,1,0,3:2:0:0:
466,352,54657,2,0,P|481:282|523:151,2,178.2,8|0|0,1:3|1:0|1:2,2:0:0:0:
379,250,55365,5,2,3:2:0:0:
379,250,55435,1,0,3:2:0:0:
379,250,55506,2,0,P|367:198|337:146,1,89.1,0|2,1:2|3:2,2:0:0:0:
468,40,55789,2,0,P|449:80|440:123,1,89.1,4|2,1:3|3:2,2:0:0:0:
256,192,56072,5,0,1:2:0:0:
246,197,56143,1,0,2:0:0:0:
236,203,56214,1,2,3:2:0:0:
227,209,56284,1,0,3:2:0:0:
217,215,56355,1,0,1:2:0:0:
208,221,56426,1,0,2:0:0:0:
199,227,56497,1,2,3:2:0:0:
190,234,56567,1,0,3:2:0:0:
182,241,56638,2,0,L|159:343,1,89.1,0|2,1:2|1:2,2:0:0:0:
81,371,56921,6,0,P|66:315|20:212,1,133.65,4|0,1:0|3:2,2:0:0:0:
14,231,57204,2,0,P|54:183|53:139,1,89.1,8|2,1:2|3:2,2:0:0:0:
21,29,57487,5,0,1:2:0:0:
21,29,57629,1,2,3:2:0:0:
124,80,57770,1,8,1:2:0:0:
124,80,57912,1,2,3:2:0:0:
213,40,58053,1,0,1:0:0:0:
213,40,58195,1,2,3:2:0:0:
201,137,58336,1,8,1:2:0:0:
201,137,58478,1,2,3:2:0:0:
291,99,58619,6,0,P|345:74|428:36,1,133.65,0|0,1:2|3:2,2:0:0:0:
422,13,58902,2,0,P|475:16|496:65,1,89.1,8|2,1:2|3:2,2:0:0:0:
439,150,59185,5,0,1:0:0:0:
439,150,59327,1,2,3:2:0:0:
391,245,59468,1,8,1:2:0:0:
391,245,59610,1,2,3:2:0:0:
296,269,59751,1,0,1:2:0:0:
296,269,59893,1,2,3:2:0:0:
262,351,60034,1,8,1:2:0:0:
262,351,60176,1,2,3:2:0:0:
376,382,60317,6,0,P|418:345|496:298,1,133.65,0|0,1:0|3:2,2:0:0:0:
469,270,60601,2,0,P|498:223|519:162,1,89.1,8|2,1:2|3:2,2:0:0:0:
425,61,60884,6,0,P|351:85|367:147,1,133.65,0|0,1:2|3:2,2:0:0:0:
379,152,61167,1,8,1:2:0:0:
376,164,61237,1,0,1:0:0:0:
373,177,61308,1,2,1:2:0:0:
370,190,61379,1,0,1:2:0:0:
367,203,61450,6,0,P|318:217|185:274,2,178.2,0|8|0,1:0|1:2|1:2,2:0:0:0:
263,147,62157,1,2,3:2:0:0:
263,147,62299,2,0,L|241:46,1,89.1,8|2,1:2|3:2,2:0:0:0:
226,46,62511,1,0,3:2:0:0:
207,32,62582,1,0,1:0:0:0:
119,68,62723,1,2,3:2:0:0:
78,147,62865,1,8,1:2:0:0:
0,167,63006,1,2,3:2:0:0:
0,77,63148,6,0,P|51:88|172:142,1,178.2,0|8,1:2|1:2,2:0:0:0:
133,272,63572,5,2,3:2:0:0:
122,291,63643,1,0,3:2:0:0:
111,310,63714,2,0,P|67:338|0:279,1,133.65,0|0,1:0|3:2,2:0:0:0:
22,280,63997,2,0,P|13:231|71:202,1,89.1,8|2,1:2|3:2,2:0:0:0:
174,117,64280,6,0,P|218:89|285:148,1,133.65,0|0,1:2|3:2,2:0:0:0:
263,147,64563,2,0,P|272:196|214:225,1,89.1,8|2,1:2|3:2,2:0:0:0:
207,356,64846,6,0,P|191:309|129:197,2,178.2,0|8|0,1:0|1:2|1:2,2:0:0:0:
328,291,65553,1,2,3:2:0:0:
328,291,65695,1,8,1:2:0:0:
450,350,65836,5,2,1:2:0:0:
450,350,65907,1,0,3:2:0:0:
450,350,65978,2,0,P|491:308|457:214,1,133.65,4|0,1:0|3:2,2:0:0:0:
465,217,66261,2,0,P|420:182|432:141,1,89.1,0|2,1:2|3:2,2:0:0:0:
512,16,66544,5,0,1:2:0:0:
512,16,66685,1,2,3:2:0:0:
426,63,66827,1,0,1:2:0:0:
426,63,66968,1,2,3:2:0:0:
337,34,67110,1,2,1:0:0:0:
337,34,67251,1,2,3:2:0:0:
315,110,67393,1,0,1:2:0:0:
315,110,67534,1,2,3:2:0:0:
239,209,67676,6,0,P|228:157|173:48,1,133.65,0|0,1:0|3:2,2:0:0:0:
166,73,67959,2,0,P|148:26|188:-5,1,89.1,0|2,1:2|3:2,2:0:0:0:
24,100,68242,6,0,P|90:136|136:207,1,133.65,8|0,1:3|3:2,2:0:0:0:
103,196,68525,2,0,P|91:243|43:248,1,89.1,0|2,1:2|3:2,2:0:0:0:
12,341,68808,5,0,1:2:0:0:
96,370,68950,1,2,3:2:0:0:
164,313,69091,1,0,1:2:0:0:
246,278,69233,1,2,3:2:0:0:
255,263,69303,1,0,3:2:0:0:
264,247,69374,6,0,L|355:215,1,89.1,4|2,1:3|3:2,2:0:0:0:
428,384,69657,2,0,L|343:354,1,89.1,0|2,1:2|3:2,2:0:0:0:
428,278,69940,2,0,L|519:246,1,89.1,0|2,1:2|3:2,2:0:0:0:
438,135,70223,5,0,1:2:0:0:
415,137,70294,1,0,2:0:0:0:
395,130,70365,1,2,3:2:0:0:
379,114,70435,1,0,3:2:0:0:
372,92,70506,2,0,P|409:37|523:0,2,178.2,4|0|0,1:0|1:2|1:2,2:0:0:0:
280,182,71214,5,2,3:2:0:0:
280,182,71284,1,0,3:2:0:0:
280,182,71355,2,0,P|263:116|239:88,1,89.1,0|2,1:2|3:2,2:0:0:0:
218,86,71567,1,0,3:2:0:0:
185,72,71638,1,4,1:0:0:0:
75,32,71780,6,0,P|51:4|48:-20,2,44.55,2|0|0,3:2|3:2|1:2,2:0:0:0:
78,119,72063,2,0,P|41:118|22:103,2,44.55,2|0|0,3:2|3:2|1:2,2:0:0:0:
142,180,72346,1,2,3:2:0:0:
128,197,72417,1,0,3:2:0:0:
108,207,72487,2,0,P|79:244|65:357,1,133.65,0|0,1:2|3:2,2:0:0:0:
85,351,72770,6,0,L|129:383,3,44.55,4|0|2|0,1:0|2:0|3:2|3:2,2:0:0:0:
180,297,73053,2,0,L|224:265,3,44.55,0|0|2|0,1:2|2:0|3:2|3:2,2:0:0:0:
297,315,73336,6,0,L|350:306,3,44.55,4|0|2|0,1:0|2:0|3:2|3:2,2:0:0:0:
325,209,73619,2,0,L|333:155,3,44.55,0|0|2|0,1:2|2:0|3:2|3:2,2:0:0:0:
404,110,73902,6,0,P|429:155|469:272,1,133.65,4|0,1:0|3:2,2:0:0:0:
491,245,74185,5,0,1:0:0:0:
486,255,74256,1,0,2:0:0:0:
481,265,74327,1,2,3:2:0:0:
477,275,74398,1,0,3:2:0:0:
473,285,74468,1,0,1:0:0:0:
469,296,74539,1,0,2:0:0:0:
466,307,74610,1,2,3:2:0:0:
463,317,74681,1,0,3:2:0:0:
460,328,74751,2,0,L|410:351,3,44.55,0|0|2|0,1:0|2:0|1:0|3:2,2:0:0:0:
402,377,75034,5,8,1:3:0:0:
256,192,75105,12,4,79563,2:3:0:0:
257,0,83808,5,8,3:2:0:0:
190,136,84091,6,0,L|102:161,1,64.8,4|0,2:0|2:0,2:0:0:0:
64,86,84374,1,0,2:0:0:0:
47,76,84445,1,0,2:0:0:0:
30,66,84516,1,2,2:3:0:0:
29,65,84799,6,0,P|4:47|3:20,3,32.4,0|0|0|0,2:0|2:0|2:0|2:0,2:0:0:0:
61,60,85082,1,0,2:0:0:0:
113,172,85223,6,0,P|149:192|151:283,2,129.6,2|0|2,2:3|2:0|2:3,2:0:0:0:
59,228,85931,2,0,L|14:246,4,32.4,0|0|0|0|0,2:0|2:0|2:0|2:0|2:0,2:0:0:0:
135,367,86355,6,0,L|197:384,1,64.8,2|0,2:3|2:0,2:0:0:0:
261,317,86638,1,0,2:0:0:0:
278,307,86709,1,0,2:0:0:0:
295,297,86780,1,2,2:3:0:0:
295,296,87063,6,0,P|310:284|313:266,4,32.4,0|0|2|0|0,2:0|2:0|2:3|2:0|2:0,2:0:0:0:
382,348,87487,6,0,L|523:389,3,129.6,2|2|2|2,2:3|2:3|2:3|2:3,2:0:0:0:
496,158,88619,6,0,P|443:155|425:239,1,129.6,2|0,2:3|2:0,2:0:0:0:
471,266,89044,1,2,2:3:0:0:
463,280,89327,6,0,L|477:334,4,32.4,0|0|0|0|0,2:0|2:0|2:0|2:0|2:0,2:0:0:0:
341,268,89751,6,0,P|305:228|233:275,1,129.6,2|0,2:3|2:0,2:0:0:0:
178,326,90176,2,0,P|213:365|285:318,1,129.6,2|0,2:3|2:0,2:0:0:0:
287,192,90601,6,0,P|275:141|236:65,1,109.35,2|0,2:3|2:0,2:0:0:0:
227,74,90884,1,2,2:3:0:0:
227,74,91308,6,0,P|286:96|400:111,1,162,2|0,2:3|2:0,2:0:0:0:
452,67,91733,2,0,P|455:23|412:2,1,81,0|0,2:0|2:0,2:0:0:0:
331,21,92016,6,0,P|331:57|343:64,3,40.5,2|0|0|0,2:3|2:0|2:0|2:0,2:0:0:0:
306,89,92299,2,0,P|331:114|344:110,3,40.5,0|0|0|0,2:0|2:0|2:0|2:0,2:0:0:0:
343,153,92582,5,0,3:0:0:0:
353,164,92652,1,0,3:0:0:0:
362,175,92723,1,0,3:0:0:0:
371,188,92794,1,0,3:0:0:0:
379,201,92865,1,0,3:0:0:0:
387,214,92935,1,0,3:0:0:0:
393,228,93006,1,0,3:0:0:0:
399,242,93077,1,0,3:0:0:0:
404,256,93148,6,0,P|387:307|290:303,1,133.65,4|0,1:0|3:0,2:0:0:0:
299,294,93431,1,0,3:0:0:0:
205,241,93572,6,0,B|193:272|158:284|158:284|112:297|110:346,1,133.65,2|0,1:3|2:0,2:0:0:0:
127,352,93855,2,0,L|232:376,2,89.1,2|0|2,3:0|3:0|3:0,2:0:0:0:
118,203,94280,6,0,P|77:174|88:132,1,89.1,0|2,1:0|3:0,2:0:0:0:
209,0,94563,2,0,P|250:29|239:71,1,89.1,0|2,3:0|3:0,2:0:0:0:
196,148,94846,2,0,P|156:91|88:19,1,133.65,0|0,1:0|3:0,2:0:0:0:
88,34,95129,1,0,1:0:0:0:
282,178,95412,6,0,P|302:127|335:101,2,89.1,0|2|0,1:0|3:0|3:0,2:0:0:0:
300,202,95766,1,0,2:0:0:0:
318,226,95836,2,0,P|390:233|471:280,1,133.65,2|0,1:3|2:0,2:0:0:0:
462,284,96119,2,0,L|495:382,2,89.1,2|0|2,3:0|3:0|3:0,2:0:0:0:
512,139,96544,5,2,1:3:0:0:
358,320,96827,1,2,1:3:0:0:
195,200,97110,5,2,1:3:0:0:
332,311,97393,1,2,1:3:0:0:
224,372,97676,6,0,P|179:344|94:314,1,133.65,4|0,1:0|3:0,2:0:0:0:
89,338,97959,1,0,3:0:0:0:
20,252,98101,1,2,1:3:0:0:
32,236,98384,6,0,P|21:184|-3:132,2,89.1,2|0|2,3:0|3:0|3:0,2:0:0:0:
155,221,98808,6,0,P|204:190|298:157,1,145.8,4|0,1:3|3:0,2:0:0:0:
314,178,99091,1,0,3:0:0:0:
461,163,99233,6,0,P|409:135|334:71,1,145.8,0|0,1:0|2:0,2:0:0:0:
344,46,99516,1,2,3:0:0:0:
210,6,99657,2,0,P|249:45|239:88,1,97.2,0|2,1:0|3:0,2:0:0:0:
114,142,99940,6,0,P|52:116|108:51,1,145.8,4|0,1:2|3:0,2:0:0:0:
102,56,100223,1,0,3:0:0:0:
208,177,100365,6,0,P|269:202|213:267,1,145.8,0|0,1:0|2:0,2:0:0:0:
238,291,100648,2,0,P|181:315|141:340,2,97.2,2|0|2,3:0|3:0|3:0,2:0:0:0:
417,220,101072,6,0,P|443:192|465:175,7,48.6,8|0|2|0|0|0|2|0,1:3|2:0|3:0|3:0|3:0|2:0|3:0|3:0,2:0:0:0:
423,109,101638,2,0,P|386:99|359:89,7,48.6,0|0|2|0|0|0|2|0,1:0|2:0|3:0|3:0|3:0|2:0|3:0|3:0,2:0:0:0:
318,32,102204,5,2,1:0:0:0:
318,32,102275,1,0,2:0:0:0:
318,32,102346,2,0,P|281:42|253:46,1,48.6,2|0,3:0|2:0,2:0:0:0:
207,96,102487,6,0,P|187:164|169:209,1,97.2,0|2,1:0|3:0,2:0:0:0:
86,245,102770,2,0,P|65:199|54:187,2,48.6,0|0|0,1:0|1:0|1:0,2:0:0:0:
86,350,103053,2,0,P|130:330|173:305,1,97.2,0|0,1:0|1:0,2:0:0:0:
435,343,103336,6,0,P|472:306|373:262,1,194.4,4|0,1:0|2:0,2:0:0:0:
316,304,103761,1,2,2:3:0:0:
316,304,103832,1,0,2:0:0:0:
316,304,103902,2,0,P|255:316|155:357,1,145.8,0|0,2:0|2:0,2:0:0:0:
173,306,104185,2,0,P|206:249|221:203,1,97.2,0|2,2:0|2:3,2:0:0:0:
227,95,104468,6,0,P|252:70|240:38,3,48.6,0|0|2|0,2:0|2:0|2:3|2:0,2:0:0:0:
216,71,104751,2,0,P|204:24|139:34,1,97.2,0|2,2:0|2:3,2:0:0:0:
132,143,105034,6,0,P|132:107|100:93,3,48.6,0|0|2|0,2:0|2:0|2:3|2:0,2:0:0:0:
105,136,105317,2,0,P|63:111|24:164,1,97.2,0|2,2:0|2:3,2:0:0:0:
24,240,105601,6,0,P|114:272|176:345,1,194.4,0|0,2:0|2:0,2:0:0:0:
252,237,106025,1,2,2:3:0:0:
252,237,106096,1,0,2:0:0:0:
252,237,106167,2,0,P|283:291|259:334,1,97.2,0|2,2:0|2:3,2:0:0:0:
341,384,106450,5,0,2:0:0:0:
389,311,106591,1,2,2:3:0:0:
473,288,106733,2,0,P|482:222|511:111,1,145.8,0|0,2:0|2:0,2:0:0:0:
512,127,107016,2,0,P|486:65|472:8,1,97.2,0|2,2:0|2:3,2:0:0:0:
311,130,107299,5,0,2:0:0:0:
380,178,107487,5,0,2:0:0:0:
386,94,107676,5,0,2:0:0:0:
302,20,107865,6,0,P|234:45|122:80,1,145.8,8|0,1:3|2:0,2:0:0:0:
130,87,108148,2,0,P|105:57|70:39,3,48.6,0|0|2|0,3:0|2:0|3:0|2:0,2:0:0:0:
59,40,108431,2,0,P|0:67|26:150,1,145.8,0|0,1:0|2:0,2:0:0:0:
14,176,108714,2,0,P|67:164|121:175,1,97.2,0|2,1:0|1:3,2:0:0:0:
200,228,108997,6,0,P|268:253|380:288,1,145.8,4|0,1:3|2:0,2:0:0:0:
372,295,109280,2,0,P|397:265|432:247,3,48.6,0|0|2|0,3:0|2:0|1:3|2:0,2:0:0:0:
443,248,109563,2,0,P|502:275|476:358,1,145.8,0|0,1:0|2:0,2:0:0:0:
488,384,109846,2,0,P|435:372|381:383,1,97.2,0|2,1:0|1:3,2:0:0:0:
255,284,110129,6,0,P|224:210|213:106,1,145.8,8|0,1:3|2:0,2:0:0:0:
191,125,110412,2,0,P|194:75|243:47,1,97.2,0|2,3:0|1:3,2:0:0:0:
321,89,110695,6,0,P|357:103|354:128,3,48.6,6|0|2|0,1:2|2:0|3:0|2:0,2:0:0:0:
368,134,110978,2,0,P|365:172|297:177,1,97.2,0|2,3:0|1:3,2:0:0:0:
200,228,111261,6,0,P|128:241|15:318,2,194.4,4|0|4,1:2|1:0|1:2,2:0:0:0:
279,264,111968,1,2,3:0:0:0:
290,279,112039,1,0,2:0:0:0:
301,294,112110,2,0,P|323:344|339:403,1,97.2,0|0,1:0|1:0,2:0:0:0:
458,259,112393,6,0,P|483:224|502:217,3,48.6,4|0|0|0,1:0|2:0|3:0|2:0,2:0:0:0:
481,202,112676,2,0,P|505:165|478:105,1,97.2,0|0,3:0|3:0,2:0:0:0:
394,0,112959,6,0,P|368:34|349:41,3,48.6,0|0|0|0,3:0|2:0|3:0|2:0,2:0:0:0:
371,57,113242,2,0,P|346:93|373:153,1,97.2,0|0,3:0|3:0,2:0:0:0:
364,239,113525,5,0,3:0:0:0:
341,248,113596,1,0,2:0:0:0:
321,262,113667,1,0,3:0:0:0:
303,278,113737,1,0,2:0:0:0:
289,298,113808,2,0,P|274:346|277:375,3,48.6,0|0|0|0,3:0|2:0|3:0|2:0,2:0:0:0:
209,279,114091,6,0,P|164:302|146:324,3,48.6,0|0|0|0,3:0|2:0|3:0|2:0,2:0:0:0:
91,268,114374,2,0,L|43:360,1,97.2,0|0,3:0|3:0,2:0:0:0:
0,135,114657,6,0,P|34:160|41:179,3,48.6,8|0|0|0,1:3|2:0|3:0|2:0,2:0:0:0:
57,158,114940,2,0,P|93:182|153:155,1,97.2,0|0,3:0|3:0,2:0:0:0:
212,64,115223,6,0,P|177:38|170:19,3,48.6,0|0|0|0,3:0|2:0|3:0|2:0,2:0:0:0:
155,41,115506,2,0,P|118:16|58:43,1,97.2,0|0,3:0|3:0,2:0:0:0:
232,161,115789,5,4,1:3:0:0:
243,164,115860,1,0,2:0:0:0:
255,168,115931,1,0,3:0:0:0:
266,172,116001,1,0,2:0:0:0:
278,175,116072,2,0,P|331:143|326:83,1,97.2,0|0,3:0|3:0,2:0:0:0:
483,12,116355,5,0,1:0:0:0:
477,96,116544,5,0,2:0:0:0:
408,48,116733,5,0,2:0:0:0:
451,230,116921,6,0,P|420:258|425:289,7,48.6,8|0|0|0|0|0|0|0,1:3|3:0|3:0|3:0|3:0|3:0|3:0|3:0,2:0:0:0:
396,341,117487,2,0,P|442:355|526:398,1,97.2,0|0,1:0|3:0,2:0:0:0:
341,235,117770,2,0,P|296:254|250:268,1,97.2,0|0,1:0|1:0,2:0:0:0:
182,212,118053,5,8,1:3:0:0:
182,212,118124,1,0,3:0:0:0:
182,212,118195,1,0,3:0:0:0:
182,212,118266,1,0,3:0:0:0:
182,212,118336,2,0,P|140:209|121:235,3,48.6,0|0|0|0,3:0|3:0|1:0|3:0,2:0:0:0:
60,247,118619,2,0,P|82:289|111:379,1,97.2,0|0,1:0|3:0,2:0:0:0:
100,137,118902,2,0,P|54:119|11:96,1,97.2,0|0,1:0|1:0,2:0:0:0:
136,17,119185,5,4,1:3:0:0:
153,13,119256,1,0,3:0:0:0:
171,14,119327,1,0,3:0:0:0:
189,20,119398,1,0,3:0:0:0:
203,31,119468,1,0,3:0:0:0:
215,45,119539,1,0,3:0:0:0:
222,61,119610,1,0,1:0:0:0:
224,79,119681,1,0,3:0:0:0:
222,97,119751,6,0,P|200:133|216:169,7,48.6,0|0|0|0|0|0|0|0,1:0|3:0|3:0|3:0|3:0|3:0|1:0|3:0,2:0:0:0:
200,218,120317,6,0,B|248:204|259:233|268:265|330:249,1,129.6,4|0,1:2|2:0,2:0:0:0:
390,297,120601,2,0,P|409:339|377:380,2,64.8,4|0|0,3:2|2:0|2:0,2:0:0:0:
393,212,120884,2,0,P|442:186|482:143,2,97.2,0|0|4,3:2|3:0|3:2,2:0:0:0:
512,58,121450,5,4,1:0:0:0:
510,34,121520,1,0,2:0:0:0:
495,15,121591,1,2,3:0:0:0:
473,7,121662,1,0,3:0:0:0:
450,13,121733,2,0,P|425:51|436:72,3,48.6,10|0|2|0,1:2|2:0|3:0|3:0,2:0:0:0:
352,76,122016,2,0,P|360:120|383:127,3,48.6,2|0|2|0,1:2|2:0|3:0|3:0,2:0:0:0:
326,189,122299,2,0,P|363:214|384:203,3,48.6,10|0|2|0,1:2|2:0|3:0|3:0,2:0:0:0:
457,240,122582,6,0,P|472:181|503:120,1,97.2,2|2,1:2|3:0,2:0:0:0:
275,292,122865,2,0,P|293:336|304:384,1,97.2,10|2,1:2|3:0,2:0:0:0:
401,329,123148,5,2,1:2:0:0:
401,329,123218,1,0,2:0:0:0:
401,329,123289,1,2,3:0:0:0:
401,329,123360,1,0,3:0:0:0:
401,329,123431,2,0,L|470:351,2,48.6,10|0|2,1:2|2:0|3:0,2:0:0:0:
169,338,123714,5,2,1:2:0:0:
145,336,123784,1,0,2:0:0:0:
126,321,123855,1,2,3:0:0:0:
118,299,123926,1,0,3:0:0:0:
124,276,123997,2,0,P|161:250|182:261,3,48.6,10|0|2|0,1:2|2:0|3:0|3:0,2:0:0:0:
187,178,124280,2,0,P|231:186|238:209,3,48.6,2|0|2|0,1:2|2:0|3:0|3:0,2:0:0:0:
300,152,124563,2,0,P|325:189|314:210,3,48.6,10|0|2|0,1:2|2:0|3:0|3:0,2:0:0:0:
401,254,124846,6,0,P|334:275|263:327,1,145.8,2|0,1:2|3:0,2:0:0:0:
287,329,125129,2,0,P|341:349|383:372,1,97.2,10|2,1:2|3:0,2:0:0:0:
488,286,125412,6,0,L|517:167,1,64.8,2|0,1:2|2:0,2:0:0:0:
482,183,125601,2,0,L|453:64,1,64.8,0|0,3:0|2:0,2:0:0:0:
431,79,125789,1,2,3:0:0:0:
345,10,125978,6,0,B|287:-10|257:38|257:38|221:100|163:80,1,194.4,4|10,1:3|1:2,2:0:0:0:
70,120,126402,1,2,3:0:0:0:
70,120,126473,1,0,3:0:0:0:
70,120,126544,2,0,P|63:68|131:57,1,97.2,2|2,1:2|3:0,2:0:0:0:
113,216,126827,2,0,P|145:175|200:215,1,97.2,10|2,1:2|3:0,2:0:0:0:
179,297,127110,6,0,B|236:317|266:268|266:268|302:206|360:226,1,194.4,2|10,1:2|1:2,2:0:0:0:
454,187,127534,1,2,3:0:0:0:
454,187,127605,1,0,3:0:0:0:
454,187,127676,2,0,P|460:238|392:249,1,97.2,2|2,1:2|3:0,2:0:0:0:
399,72,127959,2,0,P|366:112|311:72,1,97.2,10|2,1:2|3:0,2:0:0:0:
259,13,128242,6,0,P|234:84|220:207,1,194.4,8|10,1:3|1:2,2:0:0:0:
219,201,128667,1,2,3:0:0:0:
115,251,128808,2,0,P|150:278|157:313,3,48.6,2|0|2|0,1:2|2:0|3:0|3:0,2:0:0:0:
134,304,129091,2,0,P|120:344|52:355,1,97.2,10|2,1:2|3:0,2:0:0:0:
17,198,129374,6,0,P|31:158|99:147,1,97.2,2|2,1:0|3:0,2:0:0:0:
124,68,129657,2,0,P|162:49|218:89,1,97.2,10|2,1:2|3:0,2:0:0:0:
291,51,129940,2,0,P|331:65|342:133,1,97.2,2|2,1:2|3:0,2:0:0:0:
303,190,130223,1,10,1:2:0:0:
418,371,130506,6,0,P|426:301|465:191,1,145.8,4|0,1:0|3:0,2:0:0:0:
473,215,130789,2,0,P|505:161|473:127,1,97.2,8|2,1:2|3:0,2:0:0:0:
345,257,131072,1,8,1:2:0:0:
345,257,131143,1,0,2:0:0:0:
345,257,131214,1,2,3:0:0:0:
345,257,131284,1,0,3:0:0:0:
345,257,131355,2,0,P|329:196|282:194,1,97.2,8|2,1:2|3:0,2:0:0:0:
284,377,131638,6,0,P|230:345|196:377,1,97.2,8|2,1:2|3:0,2:0:0:0:
187,262,131921,1,8,1:2:0:0:
187,262,132063,1,2,3:0:0:0:
56,223,132204,2,0,P|96:304|107:400,1,145.8,8|0,1:2|3:0,2:0:0:0:
85,365,132487,2,0,P|23:355|28:300,1,97.2,8|2,1:2|3:0,2:0:0:0:
160,176,132770,6,0,P|210:177|227:201,3,48.6,8|0|2|0,1:3|2:0|3:0|3:0,2:0:0:0:
226,153,133053,2,0,L|202:40,1,97.2,8|2,1:2|3:0,2:0:0:0:
0,49,133336,6,0,P|33:10|25:-18,3,48.6,8|0|2|0,1:2|2:0|3:0|3:0,2:0:0:0:
61,14,133619,2,0,L|128:106,1,97.2,8|2,1:2|3:0,2:0:0:0:
318,125,133902,6,0,P|378:104|493:73,1,145.8,4|0,1:3|3:0,2:0:0:0:
471,56,134185,2,0,P|464:7|402:20,1,97.2,8|2,1:2|3:0,2:0:0:0:
228,40,134468,6,0,L|199:159,1,64.8,8|0,1:2|2:0,2:0:0:0:
234,143,134657,2,0,L|263:262,1,64.8,0|8,2:0|1:2,2:0:0:0:
285,247,134846,1,0,2:0:0:0:
436,366,135034,6,0,P|485:335|463:285,1,97.2,4|2,1:0|3:0,2:0:0:0:
433,212,135317,1,8,1:2:0:0:
433,212,135388,1,0,2:0:0:0:
433,212,135459,1,2,3:0:0:0:
433,212,135530,1,0,3:0:0:0:
433,212,135601,2,0,P|384:243|406:293,1,97.2,8|2,1:2|3:0,2:0:0:0:
326,355,135884,2,0,P|260:333|205:324,1,97.2,8|2,1:2|3:0,2:0:0:0:
54,275,136167,6,0,P|5:244|27:194,1,97.2,12|2,1:2|3:0,2:0:0:0:
57,121,136450,1,8,1:2:0:0:
57,121,136520,1,0,3:0:0:0:
57,121,136591,1,2,3:0:0:0:
57,121,136662,1,0,3:0:0:0:
57,121,136733,2,0,P|106:152|84:202,1,97.2,8|2,1:2|3:0,2:0:0:0:
164,264,137016,2,0,P|230:242|285:233,1,97.2,8|2,1:2|3:0,2:0:0:0:
361,76,137299,6,0,P|383:26|370:14,3,48.6,12|0|2|0,1:2|3:0|1:2|3:0,2:0:0:0:
358,50,137582,2,0,P|333:3|265:26,1,97.2,8|2,1:2|1:2,2:0:0:0:
224,70,137865,2,0,P|202:120|215:132,3,48.6,8|0|2|0,1:2|3:0|1:2|3:0,2:0:0:0:
227,96,138148,2,0,P|252:143|320:120,1,97.2,8|2,1:2|1:2,2:0:0:0:
491,83,138431,6,0,P|456:163|431:243,1,145.8,12|0,1:2|3:0,2:0:0:0:
408,223,138714,2,0,P|382:245|370:267,3,48.6,8|0|10|0,1:2|3:0|1:2|3:0,2:0:0:0:
289,305,138997,5,8,1:2:0:0:
261,297,139067,1,0,3:0:0:0:
234,285,139138,1,10,1:2:0:0:
209,269,139209,1,0,3:0:0:0:
188,248,139280,2,0,L|86:231,1,97.2,8|10,1:2|1:2,2:0:0:0:
160,384,139563,1,4,1:0:0:0:
399,229,141827,6,0,P|437:195|424:178,3,48.6,2|0|0|0,2:1|2:0|2:0|2:0,2:0:0:0:
360,158,142110,2,0,P|362:107|341:104,3,48.6,0|0|0|0,2:0|2:0|2:0|2:0,2:0:0:0:
283,135,142393,2,0,P|249:97|232:110,3,48.6,0|0|0|0,2:0|2:0|2:0|2:0,2:0:0:0:
212,174,142676,2,0,P|161:171|158:192,3,48.6,0|0|0|0,2:0|2:0|2:0|2:0,2:0:0:0:
189,251,142959,2,0,P|151:285|164:302,3,48.6,0|0|0|0,2:0|2:0|2:0|2:0,2:0:0:0:
228,322,143242,2,0,P|225:372|246:375,3,48.6,0|0|0|0,2:0|2:0|2:0|2:0,2:0:0:0:
305,345,143525,2,0,P|339:383|356:370,3,48.6,0|0|0|0,2:0|2:0|2:0|2:0,2:0:0:0:
278,252,143808,6,0,P|307:194|343:77,1,182.25,2|0,1:0|2:0,2:0:0:0:
323,60,144091,1,0,2:0:0:0:
121,0,144374,5,4,1:0:0:0:
29,25,144516,2,0,P|55:79|112:82,1,105.3,0|2,3:0|1:2,2:0:0:0:
209,177,144799,5,0,3:0:0:0:
209,177,144869,1,0,3:0:0:0:
209,177,144940,2,0,L|141:198,1,52.65,8|0,1:2|2:0,2:0:0:0:
85,162,145082,2,0,L|51:224,1,52.65,0|0,3:0|3:0,2:0:0:0:
0,261,145223,2,0,L|37:374,1,105.3,2|0,1:2|3:0,2:0:0:0:
32,361,145435,1,0,3:0:0:0:
32,361,145506,1,8,1:2:0:0:
127,293,145648,5,0,3:0:0:0:
147,296,145718,1,0,3:0:0:0:
163,309,145789,2,0,P|217:330|265:363,1,105.3,2|0,1:2|3:0,2:0:0:0:
331,297,146072,2,0,P|388:280|392:236,1,105.3,8|0,1:2|3:0,2:0:0:0:
283,65,146355,6,0,P|258:108|227:235,1,157.95,14|0,1:2|3:0,2:0:0:0:
253,239,146638,1,2,1:2:0:0:
386,136,146780,6,0,B|435:139|446:99|446:92|446:88|460:52|507:52,1,157.95,10|0,1:2|3:0,2:0:0:0:
512,59,147063,2,0,B|464:58|450:94|450:98|450:105|439:145|390:142,1,157.95,10|0,1:2|3:0,2:0:0:0:
364,116,147346,1,0,3:0:0:0:
277,43,147487,6,0,P|248:0|188:8,1,105.3,10|0,1:3|3:0,2:0:0:0:
42,82,147770,2,0,P|70:124|130:116,1,105.3,2|0,1:2|3:0,2:0:0:0:
225,137,148053,6,0,P|245:199|256:262,1,105.3,6|0,1:3|3:0,2:0:0:0:
236,252,148266,1,0,3:0:0:0:
220,265,148336,1,2,1:2:0:0:
56,360,148478,1,0,1:0:0:0:
29,241,148619,6,0,P|94:274|187:370,1,157.95,2|0,1:0|3:0,2:0:0:0:
170,365,148902,2,0,L|293:340,1,105.3,2|0,1:3|3:0,2:0:0:0:
453,297,149185,6,0,P|494:264|422:198,1,157.95,2|0,1:3|3:0,2:0:0:0:
430,172,149468,2,0,P|375:193|389:250,1,105.3,2|0,1:3|3:0,2:0:0:0:
186,230,149751,6,0,P|144:197|216:131,1,157.95,2|0,1:3|3:0,2:0:0:0:
209,105,150034,2,0,P|263:126|249:183,1,105.3,2|0,1:3|3:0,2:0:0:0:
362,46,150317,5,2,1:3:0:0:
494,86,150459,1,0,3:0:0:0:
362,46,150601,2,0,P|294:19|244:-8,1,105.3,2|0,1:3|3:0,2:0:0:0:
110,56,150884,5,10,1:3:0:0:
75,61,150954,1,0,2:0:0:0:
52,86,151025,1,2,1:3:0:0:
49,120,151096,1,0,2:0:0:0:
67,149,151167,2,0,P|90:180|65:219,3,52.65,2|0|2|0,1:3|2:0|1:3|2:0,2:0:0:0:
165,194,151450,2,0,P|158:232|113:242,3,52.65,2|0|2|0,1:3|2:0|1:3|2:0,2:0:0:0:
203,296,151733,2,0,P|171:319|132:294,3,52.65,2|0|2|0,1:3|2:0|1:3|2:0,2:0:0:0:
89,363,152016,5,6,1:3:0:0:
83,350,152086,1,0,1:3:0:0:
78,339,152157,1,2,1:3:0:0:
71,327,152228,1,0,1:3:0:0:
65,316,152299,2,0,L|-2:279,3,52.65,2|0|2|0,1:3|1:3|1:3|1:3,2:0:0:0:
33,274,152582,6,0,L|216:319,1,157.95,2|0,1:3|1:3,2:0:0:0:
203,296,152865,2,0,P|175:250|163:188,1,105.3,2|2,1:3|1:3,2:0:0:0:
60,39,153148,6,0,P|82:67|104:126,1,85.0499999999999,0|0,2:0|2:0,2:0:0:0:
86,124,153431,1,4,1:0:0:0:
196,56,153572,6,0,L|319:37,1,105.3,0|2,3:0|1:2,2:0:0:0:
457,9,153855,5,0,3:0:0:0:
457,9,153926,1,0,3:0:0:0:
456,8,153997,2,0,P|455:34|441:56,1,52.65,8|0,1:2|2:0,2:0:0:0:
446,132,154138,2,0,P|426:149|401:155,1,52.65,0|0,3:0|3:0,2:0:0:0:
352,212,154280,2,0,P|303:197|282:150,1,105.3,2|0,1:2|3:0,2:0:0:0:
286,146,154492,1,0,3:0:0:0:
289,141,154563,1,8,1:2:0:0:
445,245,154704,5,0,3:0:0:0:
442,265,154775,1,0,3:0:0:0:
429,281,154846,2,0,P|408:335|375:383,1,105.3,2|0,1:2|3:0,2:0:0:0:
247,310,155129,2,0,P|226:256|193:208,1,105.3,8|0,1:2|3:0,2:0:0:0:
71,84,155412,6,0,P|19:93|42:187,1,157.95,12|0,1:2|3:0,2:0:0:0:
45,205,155695,1,2,1:2:0:0:
161,123,155836,6,0,B|175:76|217:80|223:82|227:84|265:84|282:38,1,157.95,10|0,1:2|3:0,2:0:0:0:
278,32,156119,2,0,B|261:77|223:77|219:75|212:73|171:69|156:116,1,157.95,10|0,1:2|3:0,2:0:0:0:
175,141,156402,1,0,3:0:0:0:
239,329,156544,6,0,P|221:280|192:236,1,105.3,10|0,1:3|3:0,2:0:0:0:
373,102,156827,2,0,P|344:146|326:195,1,105.3,2|0,1:2|3:0,2:0:0:0:
458,305,157110,6,0,P|396:325|333:336,1,105.3,6|0,1:3|3:0,2:0:0:0:
343,316,157322,1,0,3:0:0:0:
330,300,157393,1,2,1:2:0:0:
141,365,157534,1,0,1:0:0:0:
206,228,157676,6,0,P|188:176|92:211,1,157.95,2|0,1:0|3:0,2:0:0:0:
73,203,157959,2,0,P|76:250|138:266,1,105.3,2|0,1:3|3:0,2:0:0:0:
281,148,158242,6,0,P|290:81|336:-11,1,157.95,2|0,1:3|3:0,2:0:0:0:
297,9,158525,2,0,P|249:37|194:57,1,105.3,2|0,1:3|3:0,2:0:0:0:
369,205,158808,6,0,P|387:153|483:188,1,157.95,2|0,1:3|3:0,2:0:0:0:
502,180,159091,2,0,P|499:227|437:243,1,105.3,2|0,1:3|3:0,2:0:0:0:
231,236,159374,5,2,1:3:0:0:
359,384,159516,1,0,3:0:0:0:
228,347,159657,2,0,P|276:319|331:299,1,105.3,2|0,1:3|3:0,2:0:0:0:
284,164,159940,5,10,1:3:0:0:
267,153,160011,1,0,2:0:0:0:
248,146,160082,1,2,1:3:0:0:
229,146,160152,1,0,2:0:0:0:
210,150,160223,6,0,P|210:198|181:212,3,52.65,2|0|2|0,1:3|2:0|1:3|2:0,2:0:0:0:
132,191,160506,2,0,P|97:225|66:215,3,52.65,2|0|2|0,1:3|2:0|1:3|2:0,2:0:0:0:
48,166,160789,2,0,P|-1:166|-16:137,3,52.65,2|0|2|0,1:3|2:0|1:3|2:0,2:0:0:0:
30,90,161072,6,0,P|6:47|53:-1,1,105.3,6|2,1:3|1:3,2:0:0:0:
175,24,161355,2,0,P|199:67|152:115,1,105.3,2|2,1:3|1:3,2:0:0:0:
308,237,161638,6,0,P|320:189|262:155,1,105.3,2|2,1:3|1:3,2:0:0:0:
150,210,161921,2,0,P|137:257|195:291,1,105.3,2|2,1:3|1:3,2:0:0:0:
201,316,162134,1,0,1:3:0:0:
223,329,162204,6,0,P|266:301|259:266,3,52.65,6|0|2|0,1:2|1:3|1:3|1:3,2:0:0:0:
428,213,162487,2,0,P|385:241|392:276,3,52.65,2|0|2|0,1:3|1:3|1:3|1:3,2:0:0:0:
250,361,162770,6,0,P|280:320|261:290,3,52.65,2|0|2|0,1:3|1:3|1:3|1:3,2:0:0:0:
400,180,163053,2,0,P|370:221|389:251,3,52.65,2|0|2|0,1:3|1:3|1:3|1:3,2:0:0:0:
383,329,163336,5,4,1:2:0:0:
388,331,163407,1,0,2:0:0:0:
394,334,163478,1,0,2:0:0:0:
400,337,163549,1,0,2:0:0:0:
406,340,163619,1,0,2:0:0:0:
412,343,163690,1,0,2:0:0:0:
418,345,163761,1,0,2:0:0:0:
424,348,163832,1,0,2:0:0:0:
430,351,163902,6,0,L|487:335,3,52.65,0|0|0|0,2:0|2:0|2:0|2:0,2:0:0:0:
442,249,164185,5,0,3:0:0:0:
451,202,164256,1,0,3:0:0:0:
460,156,164327,1,0,3:0:0:0:
469,109,164398,1,0,3:0:0:0:
479,63,164468,6,0,P|448:17|377:99,1,194.4,4|2,1:0|2:3,2:0:0:0:
327,167,164893,1,0,2:0:0:0:
327,167,164964,1,0,2:0:0:0:
327,167,165034,2,0,P|258:142|257:125,1,97.2,2|0,2:3|2:0,2:0:0:0:
195,193,165317,2,0,P|163:126|175:113,1,97.2,2|0,2:3|2:0,2:0:0:0:
224,48,165601,6,0,L|271:30,3,48.6,2|0|0|0,2:3|2:0|2:0|2:0,2:0:0:0:
68,93,165884,2,0,L|21:75,3,48.6,2|0|0|0,2:3|2:0|2:0|2:0,2:0:0:0:
209,36,166167,6,0,L|249:6,3,48.6,2|0|0|0,2:3|2:0|2:0|2:0,2:0:0:0:
83,81,166450,2,0,L|42:51,3,48.6,2|0|0|0,2:3|2:0|2:0|2:0,2:0:0:0:
170,117,166733,6,0,P|158:165|133:324,1,194.4,0|2,1:0|2:3,2:0:0:0:
76,384,167157,1,0,2:0:0:0:
76,384,167228,1,0,2:0:0:0:
76,384,167299,2,0,P|44:337|6:309,1,97.2,2|0,2:3|2:0,2:0:0:0:
189,232,167582,2,0,P|164:282|159:329,1,97.2,2|0,2:3|2:0,2:0:0:0:
0,210,167865,6,0,P|56:205|98:186,1,97.2,2|0,2:3|2:0,2:0:0:0:
251,306,168148,1,2,2:3:0:0:
274,299,168218,1,0,2:0:0:0:
297,304,168289,1,0,2:0:0:0:
316,319,168360,1,0,2:0:0:0:
325,341,168431,2,0,L|426:371,1,97.2,2|0,2:3|2:0,2:0:0:0:
487,247,168714,2,0,L|412:266,3,48.6,2|0|0|0,2:3|2:0|2:0|2:0,2:0:0:0:
407,237,168997,6,0,P|381:191|455:129,1,145.8,0|0,1:0|2:0,2:0:0:0:
459,105,169280,1,2,2:3:0:0:
381,14,169421,1,0,2:0:0:0:
381,14,169492,1,0,2:0:0:0:
381,14,169563,2,0,P|349:63|316:88,1,97.2,2|0,2:3|2:0,2:0:0:0:
138,80,169846,5,2,2:3:0:0:
121,48,169917,1,0,2:0:0:0:
132,15,169987,1,0,2:0:0:0:
164,0,170058,1,0,2:0:0:0:
197,13,170129,2,0,P|227:74|266:190,1,145.8,2|0,2:3|2:0,2:0:0:0:
285,157,170412,5,2,2:3:0:0:
231,321,170553,1,0,2:0:0:0:
340,266,170695,1,2,2:3:0:0:
176,212,170836,1,0,2:0:0:0:
345,233,170978,2,0,L|410:217,3,48.6,2|0|0|0,2:3|2:0|2:0|2:0,2:0:0:0:
463,273,171261,6,0,L|368:362,1,97.2,0|0,1:0|2:0,2:0:0:0:
231,321,171544,1,2,2:3:0:0:
219,325,171615,1,0,2:0:0:0:
208,329,171685,1,0,2:0:0:0:
196,333,171756,1,0,2:0:0:0:
185,338,171827,2,0,P|131:305|183:229,1,145.8,2|0,2:3|2:0,2:0:0:0:
176,212,172110,2,0,L|240:240,2,48.6,2|0|0,2:3|2:0|2:0,2:0:0:0:
34,287,172393,6,0,P|8:259|-10:260,3,48.6,2|0|0|0,1:3|2:0|2:0|2:0,2:0:0:0:
66,197,172676,2,0,P|57:159|41:151,3,48.6,2|0|0|0,2:3|2:0|2:0|2:0,2:0:0:0:
138,135,172959,2,0,P|149:98|139:83,3,48.6,2|0|0|0,2:3|2:0|2:0|2:0,2:0:0:0:
38,0,173242,5,2,2:3:0:0:
39,12,173313,1,0,2:0:0:0:
43,23,173384,1,0,2:0:0:0:
49,33,173454,1,0,2:0:0:0:
58,42,173525,2,0,L|252:85,1,194.4,4|2,1:0|3:0,2:0:0:0:
421,90,173950,5,0,3:0:0:0:
427,43,174020,1,0,2:0:0:0:
390,16,174091,2,0,P|344:48|348:76,3,48.6,2|0|0|0,3:0|2:0|3:0|2:0,2:0:0:0:
342,112,174374,2,0,P|333:167|355:183,3,48.6,2|0|0|0,3:0|2:0|3:0|2:0,2:0:0:0:
386,222,174657,5,2,3:0:0:0:
386,222,174728,1,0,2:0:0:0:
386,222,174799,2,0,P|418:267|446:263,1,48.6,0|0,3:0|2:0,2:0:0:0:
504,310,174940,6,0,L|451:91,2,194.4,2|2|2,3:0|3:0|3:0,2:0:0:0:
414,374,175648,5,0,3:0:0:0:
377,363,175718,1,0,2:0:0:0:
339,352,175789,2,0,L|283:261,1,97.2,4|0,1:0|3:0,2:0:0:0:
190,225,176072,5,2,3:0:0:0:
166,219,176143,1,0,2:0:0:0:
142,213,176214,1,0,3:0:0:0:
118,207,176284,1,0,2:0:0:0:
94,202,176355,2,0,P|46:243|73:318,1,145.8,2|0,3:0|2:0,2:0:0:0:
75,337,176638,2,0,P|113:323|123:285,3,48.6,2|0|0|0,3:0|2:0|3:0|2:0,2:0:0:0:
137,331,176921,6,0,L|247:309,1,97.2,2|0,3:0|3:0,2:0:0:0:
309,150,177204,2,0,L|213:130,1,97.2,2|0,3:0|3:0,2:0:0:0:
197,106,177417,1,0,3:0:0:0:
180,81,177487,2,0,P|199:28|261:34,1,97.2,2|0,3:0|3:0,2:0:0:0:
399,97,177770,6,0,P|421:130|413:155,3,48.6,2|0|0|0,3:0|3:0|3:0|3:0,2:0:0:0:
392,127,178053,2,0,P|398:179|273:220,1,194.4,4|2,1:0|3:0,2:0:0:0:
133,279,178478,5,0,3:0:0:0:
133,279,178549,1,0,3:0:0:0:
133,278,178619,2,0,P|145:233|121:203,3,48.6,2|0|0|0,3:0|3:0|3:0|3:0,2:0:0:0:
70,207,178902,2,0,P|47:166|9:162,3,48.6,2|0|0|0,3:0|3:0|3:0|3:0,2:0:0:0:
19,60,179185,6,0,P|66:89|176:114,1,145.8,4|0,1:0|3:0,2:0:0:0:
167,143,179468,5,2,3:0:0:0:
316,140,179610,1,0,3:0:0:0:
239,12,179751,1,2,3:0:0:0:
170,171,179893,5,0,3:0:0:0:
340,123,180034,1,2,3:0:0:0:
213,0,180176,1,0,3:0:0:0:
241,102,180317,5,4,1:0:0:0:
271,217,180459,2,0,P|306:227|331:253,3,48.6,0|0|2|0,3:0|3:0|3:0|3:0,2:0:0:0:
332,269,180742,1,0,3:0:0:0:
404,357,180884,5,2,1:3:0:0:
415,360,180954,1,0,3:0:0:0:
427,363,181025,1,0,3:0:0:0:
439,367,181096,1,0,3:0:0:0:
450,370,181167,2,0,L|423:257,1,97.2,2|0,3:0|3:0,2:0:0:0:
463,165,181450,6,0,P|493:134|514:144,3,48.6,4|0|0|0,1:0|3:0|3:0|3:0,2:0:0:0:
341,232,181733,2,0,P|299:220|286:239,3,48.6,2|0|0|0,1:3|3:0|3:0|3:0,2:0:0:0:
378,150,182016,6,0,L|348:48,1,97.2,2|0,1:3|1:0,2:0:0:0:
231,147,182299,2,0,L|201:249,1,97.2,2|0,1:3|1:0,2:0:0:0:
35,257,182582,6,0,P|10:228|-22:216,7,48.6,0|0|0|0|0|0|0|0,2:0|2:0|2:0|2:0|2:0|2:0|2:0|2:0,2:0:0:0:
76,180,183148,2,0,P|78:142|63:110,7,48.6,0|0|0|0|0|0|0|0,2:0|2:0|2:0|2:0|2:0|2:0|2:0|2:0,2:0:0:0:
144,84,183714,5,0,3:1:0:0:
151,64,183784,1,0,2:1:0:0:
166,49,183855,1,0,3:1:0:0:
184,42,183926,1,0,3:1:0:0:
205,42,183997,1,0,3:1:0:0:
224,48,184067,1,0,3:1:0:0:
239,63,184138,1,0,3:1:0:0:
248,82,184209,1,0,3:1:0:0:
248,102,184280,6,0,L|226:163,7,48.6,0|0|0|0|0|0|0|0,3:1|3:1|3:1|3:1|3:1|3:1|3:1|3:1,2:0:0:0:
244,179,184846,1,4,3:0:0:0:
293,206,186827,5,8,3:2:0:0:
203,166,187110,6,0,P|182:127|204:101,3,48.6,8|0|10|0,1:3|1:2|1:2|1:2,2:0:0:0:
268,113,187393,2,0,P|280:70|314:67,3,48.6,0|0|10|0,1:2|1:2|1:2|1:2,2:0:0:0:
351,121,187676,1,0,1:2:0:0:
368,104,187747,1,0,1:2:0:0:
392,100,187817,1,10,1:2:0:0:
414,109,187888,1,0,1:2:0:0:
427,129,187959,2,0,L|446:191,1,48.6,0|0,1:2|1:2,2:0:0:0:
512,208,188101,2,0,L|492:270,1,48.6,10|0,1:2|1:2,2:0:0:0:
448,316,188242,5,0,1:3:0:0:
424,323,188313,1,0,1:2:0:0:
401,330,188384,1,10,1:2:0:0:
378,337,188454,1,0,1:2:0:0:
355,345,188525,2,0,L|376:234,1,97.2,0|10,1:2|1:2,2:0:0:0:
203,166,188808,6,0,L|214:223,3,48.6,0|0|10|0,1:2|1:2|1:2|1:2,2:0:0:0:
270,266,189091,2,0,L|237:314,3,48.6,0|0|10|0,1:2|1:2|1:2|1:2,2:0:0:0:
199,371,189374,5,4,1:3:0:0:
178,363,189445,1,0,1:2:0:0:
157,356,189516,1,10,1:2:0:0:
136,351,189586,1,0,1:2:0:0:
115,346,189657,2,0,L|102:297,3,48.6,0|0|10|0,1:2|1:2|1:2|1:2,2:0:0:0:
40,248,189940,5,0,1:2:0:0:
58,234,190011,1,0,1:2:0:0:
76,222,190082,1,10,1:2:0:0:
95,212,190152,1,0,1:2:0:0:
114,202,190223,2,0,L|126:153,3,48.6,0|0|10|0,1:2|1:2|1:2|1:2,2:0:0:0:
53,127,190506,6,0,P|15:93|33:39,1,97.2,0|10,1:3|1:2,2:0:0:0:
200,0,190789,2,0,P|238:34|220:88,1,97.2,0|10,1:2|1:2,2:0:0:0:
131,67,191072,5,0,1:2:0:0:
143,87,191143,1,0,1:2:0:0:
155,109,191214,1,10,1:2:0:0:
166,130,191284,1,0,1:2:0:0:
176,152,191355,2,0,P|225:172|237:180,3,48.6,0|0|10|0,1:2|1:2|1:2|1:2,2:0:0:0:
291,228,191638,6,0,P|318:174|333:161,3,48.6,8|0|10|0,1:3|1:2|1:2|1:2,2:0:0:0:
321,108,191921,2,0,P|378:88|398:90,1,48.6,0|0,1:2|1:2,2:0:0:0:
432,41,192063,5,10,1:2:0:0:
467,45,192134,1,0,1:2:0:0:
492,71,192204,1,0,1:2:0:0:
494,107,192275,1,0,1:2:0:0:
475,137,192346,2,0,P|446:167|453:199,3,48.6,10|0|0|0,1:2|1:2|1:2|1:2,2:0:0:0:
455,181,192629,1,10,1:2:0:0:
512,263,192770,6,0,L|409:297,1,97.2,0|10,1:3|1:2,2:0:0:0:
363,383,193053,2,0,L|270:352,1,97.2,0|10,1:2|1:2,2:0:0:0:
291,228,193336,6,0,L|188:262,1,97.2,0|10,1:2|1:2,2:0:0:0:
142,348,193619,2,0,L|49:317,1,97.2,0|10,1:2|1:2,2:0:0:0:
93,217,193902,6,0,P|62:191|36:193,3,48.6,2|0|10|0,1:0|1:2|1:2|1:2,2:0:0:0:
94,121,194185,2,0,P|90:80|70:63,3,48.6,0|0|10|0,1:2|1:2|1:2|1:2,2:0:0:0:
162,53,194468,2,0,P|188:22|186:-4,3,48.6,0|0|10|0,1:2|1:2|1:2|1:2,2:0:0:0:
258,54,194751,2,0,P|298:50|315:30,3,48.6,0|0|10|0,1:2|1:2|1:2|1:2,2:0:0:0:
326,122,195034,2,0,P|357:148|383:146,3,48.6,4|0|10|0,1:3|1:2|1:2|1:2,2:0:0:0:
269,194,195317,6,0,L|153:170,1,97.2,0|10,1:2|1:2,2:0:0:0:
243,338,195601,2,0,L|338:318,1,97.2,0|10,1:2|1:2,2:0:0:0:
406,241,195884,5,0,1:2:0:0:
417,244,195954,1,0,1:2:0:0:
427,251,196025,1,10,1:2:0:0:
434,261,196096,1,0,1:2:0:0:
438,272,196167,2,0,P|456:197|514:91,1,194.4,4|2,1:0|1:2,2:0:0:0:
392,12,196591,5,2,1:2:0:0:
392,12,196662,1,8,1:2:0:0:
392,12,196733,2,0,P|420:65|408:93,3,48.6,2|8|2|8,1:2|1:2|1:2|1:2,2:0:0:0:
350,90,197016,2,0,P|332:147|304:158,3,48.6,2|8|2|8,1:2|1:2|1:2|1:2,2:0:0:0:
281,186,197299,5,8,1:3:0:0:
268,151,197369,1,8,1:2:0:0:
255,117,197440,1,2,1:2:0:0:
242,83,197511,1,8,1:2:0:0:
229,49,197582,2,0,L|162:17,3,48.6,2|8|2|8,1:2|1:2|1:2|1:2,2:0:0:0:
121,76,197865,5,2,1:2:0:0:
112,99,197935,1,8,1:2:0:0:
103,123,198006,1,2,1:2:0:0:
94,147,198077,1,8,1:2:0:0:
85,171,198148,2,0,L|37:193,3,48.6,2|8|2|8,1:2|1:2|1:2|1:2,2:0:0:0:
0,276,198431,5,4,1:3:0:0:
23,273,198501,1,8,1:2:0:0:
45,282,198572,1,2,1:2:0:0:
62,299,198643,1,8,1:2:0:0:
71,321,198714,2,0,P|59:360|22:366,3,48.6,2|8|2|8,1:2|1:2|1:2|1:2,2:0:0:0:
154,301,198997,2,0,P|173:337|151:367,3,48.6,2|8|2|8,1:2|1:2|1:2|1:2,2:0:0:0:
198,228,199280,5,2,1:2:0:0:
198,228,199351,1,8,1:2:0:0:
198,228,199421,2,0,P|237:240|243:277,1,48.6,2|8,1:2|1:2,2:0:0:0:
289,306,199563,6,0,L|409:333,1,97.2,8|2,1:3|1:2,2:0:0:0:
461,136,199846,2,0,L|341:163,1,97.2,2|2,1:2|1:2,2:0:0:0:
307,294,200129,6,0,L|427:321,1,97.2,2|2,1:2|1:2,2:0:0:0:
471,113,200412,2,0,L|351:140,1,97.2,2|2,1:2|1:2,2:0:0:0:
274,93,200695,6,0,P|240:63|256:37,3,48.6,2|8|2|8,1:0|1:2|1:2|1:2,2:0:0:0:
276,60,200978,2,0,P|276:13|335:12,1,97.2,2|2,1:2|1:2,2:0:0:0:
286,179,201261,5,2,1:2:0:0:
281,202,201332,1,8,1:2:0:0:
264,218,201402,1,2,1:2:0:0:
240,221,201473,1,8,1:2:0:0:
220,209,201544,2,0,L|115:177,1,97.2,2|2,1:2|1:2,2:0:0:0:
0,71,201827,5,8,1:3:0:0:
0,71,201898,1,8,1:2:0:0:
0,71,201968,2,0,P|43:88|48:110,1,48.6,2|8,1:2|1:2,2:0:0:0:
123,60,202110,5,2,1:2:0:0:
123,60,202181,1,8,1:2:0:0:
123,60,202251,2,0,P|141:102|129:121,1,48.6,2|8,1:2|1:2,2:0:0:0:
80,153,202393,5,2,1:2:0:0:
74,176,202464,1,8,1:2:0:0:
68,200,202534,1,2,1:2:0:0:
62,223,202605,1,8,1:2:0:0:
56,247,202676,2,0,L|13:270,3,48.6,2|8|2|8,1:2|1:2|1:2|1:2,2:0:0:0:
48,338,202959,6,0,L|199:378,1,145.8,4|8,1:2|1:2,2:0:0:0:
181,337,203242,2,0,P|231:303|205:240,1,97.2,2|2,1:2|1:2,2:0:0:0:
225,128,203525,2,0,P|217:167|242:192,1,48.6,2|8,1:2|1:2,2:0:0:0:
295,187,203667,2,0,P|317:220|352:220,1,48.6,2|8,1:2|1:2,2:0:0:0:
392,190,203808,2,0,P|426:151|401:94,1,97.2,2|2,1:2|1:2,2:0:0:0:
305,9,204091,6,0,L|328:124,1,97.2,8|2,1:3|1:2,2:0:0:0:
110,173,204374,2,0,L|129:78,1,97.2,2|2,1:2|1:2,2:0:0:0:
285,2,204657,6,0,L|308:117,1,97.2,4|2,1:3|1:2,2:0:0:0:
90,166,204940,2,0,L|109:71,1,97.2,2|2,1:2|1:2,2:0:0:0:
89,48,205152,1,8,1:2:0:0:
69,26,205223,1,4,1:0:0:0:
12,207,205506,6,0,P|38:237|59:241,3,44.55,0|0|0|0,2:0|2:0|2:0|2:0,2:0:0:0:
23,311,205789,2,0,P|63:314|80:302,3,40.5,0|0|0|0,2:0|2:0|2:0|2:0,2:0:0:0:
100,377,206072,2,0,P|130:351|134:330,3,40.5,0|0|0|0,2:0|2:0|2:0|2:0,2:0:0:0:
196,305,206355,2,0,L|168:122,2,162,0|0|0,2:0|2:0|2:0,2:0:0:0:
320,209,207204,5,2,1:0:0:0:
500,207,207487,6,0,P|474:237|453:241,3,48.6,4|0|0|0,1:0|2:0|2:0|2:0,2:0:0:0:
489,311,207770,2,0,P|449:314|432:302,3,44.55,0|0|0|0,2:0|2:0|2:0|2:0,2:0:0:0:
409,382,208053,2,0,P|379:356|375:335,3,40.5,0|0|0|0,2:0|2:0|2:0|2:0,2:0:0:0:
302,375,208336,2,0,P|299:335|311:317,3,40.5,0|0|0|0,2:0|2:0|2:0|2:0,2:0:0:0:
359,259,208619,2,0,L|387:76,2,162,0|0|0,2:0|2:0|2:0,2:0:0:0:
289,86,209468,5,2,1:0:0:0:
255,0,209751,1,0,2:0:0:0:
489,47,210034,5,4,1:0:0:0:
430,139,212016,6,0,P|378:110|343:204,1,178.2,12|2,1:2|1:2,2:0:0:0:
408,245,212440,2,0,L|509:269,1,97.2,10|0,1:2|3:0,2:0:0:0:
306,314,212723,1,10,1:2:0:0:
306,314,212865,2,0,L|211:336,1,97.2,8|0,3:2|3:0,2:0:0:0:
63,384,213148,6,0,P|48:321|99:289,1,105.3,10|0,1:3|3:0,2:0:0:0:
103,285,213360,1,0,3:0:0:0:
133,276,213431,2,0,P|181:233|158:178,1,105.3,2|0,1:2|3:0,2:0:0:0:
13,39,213714,2,0,P|-4:77|34:97,3,52.65,6|0|0|0,1:3|2:0|3:0|3:0,2:0:0:0:
25,65,213997,1,2,1:2:0:0:
19,90,214067,1,0,1:0:0:0:
27,115,214138,1,0,1:0:0:0:
45,133,214209,1,0,1:0:0:0:
70,141,214280,6,0,P|147:99|230:71,1,157.95,2|0,1:0|3:0,2:0:0:0:
243,67,214563,2,0,P|262:127|219:154,1,105.3,2|0,1:3|3:0,2:0:0:0:
138,217,214846,6,0,P|103:273|87:376,1,157.95,2|0,1:3|3:0,2:0:0:0:
116,352,215129,2,0,P|160:309|209:282,1,105.3,2|0,1:3|3:0,2:0:0:0:
369,261,215412,6,0,P|429:276|409:367,1,157.95,2|0,1:3|3:0,2:0:0:0:
392,354,215695,2,0,P|332:359|322:297,1,105.3,2|0,1:3|3:0,2:0:0:0:
257,145,215978,5,2,1:3:0:0:
217,277,216119,1,0,3:0:0:0:
257,145,216261,2,0,P|284:77|311:27,1,105.3,2|0,1:3|3:0,2:0:0:0:
420,0,216544,5,10,1:3:0:0:
455,5,216615,1,0,2:0:0:0:
478,30,216685,1,2,1:3:0:0:
481,64,216756,1,0,2:0:0:0:
463,92,216827,2,0,P|443:109|440:135,3,52.65,2|0|2|0,1:3|2:0|1:3|2:0,2:0:0:0:
365,137,217110,2,0,P|364:162|381:182,3,52.65,2|0|2|0,1:3|2:0|1:3|2:0,2:0:0:0:
326,239,217393,2,0,P|343:257|369:261,3,52.65,2|0|2|0,1:3|2:0|1:3|2:0,2:0:0:0:
440,306,217676,5,6,1:3:0:0:
446,293,217747,1,0,1:3:0:0:
451,282,217817,1,2,1:3:0:0:
458,270,217888,1,0,1:3:0:0:
464,259,217959,2,0,L|531:222,3,52.65,2|0|2|0,1:3|1:3|1:3|1:3,2:0:0:0:
496,217,218242,6,0,L|313:262,1,157.95,2|0,1:3|1:3,2:0:0:0:
326,239,218525,2,0,P|354:193|366:131,1,105.3,2|2,1:3|1:3,2:0:0:0:
297,14,218808,6,0,P|238:18|243:122,1,157.95,0|0,2:0|2:0,2:0:0:0:
240,121,219091,1,4,1:0:0:0:
137,161,219233,2,0,P|124:108|88:56,1,105.3,0|2,3:0|1:2,2:0:0:0:
20,173,219516,5,0,3:0:0:0:
20,173,219586,1,0,3:0:0:0:
20,173,219657,2,0,L|63:245,1,52.65,8|0,1:2|2:0,2:0:0:0:
55,291,219799,2,0,L|136:310,1,52.65,0|0,3:0|3:0,2:0:0:0:
163,349,219940,2,0,L|277:279,1,105.3,2|0,1:2|3:0,2:0:0:0:
442,272,220223,5,8,1:2:0:0:
467,271,220294,1,0,2:0:0:0:
489,286,220365,1,0,3:0:0:0:
497,311,220435,1,0,3:0:0:0:
489,335,220506,2,0,P|410:357|363:388,1,105.3,2|0,1:2|3:0,2:0:0:0:
367,339,220718,1,0,3:0:0:0:
344,308,220789,2,0,P|358:227|383:177,1,105.3,8|0,1:2|3:0,2:0:0:0:
431,0,221072,6,0,P|456:43|487:170,1,157.95,14|0,1:2|3:0,2:0:0:0:
461,174,221355,1,2,1:2:0:0:
360,92,221497,6,0,B|335:49|296:61|290:65|287:67|249:75|223:36,1,157.95,10|0,1:2|3:0,2:0:0:0:
226,27,221780,2,0,B|251:67|289:59|292:57|298:53|337:41|362:84,1,157.95,10|0,1:2|3:0,2:0:0:0:
373,116,222063,1,0,3:0:0:0:
258,249,222204,6,0,P|212:208|231:167,1,105.3,10|0,1:3|3:0,2:0:0:0:
106,247,222487,2,0,P|102:186|145:170,1,105.3,2|0,1:2|3:0,2:0:0:0:
0,139,222770,2,0,P|40:93|81:112,1,105.3,6|0,1:3|3:0,2:0:0:0:
101,86,222983,1,0,3:0:0:0:
126,67,223053,1,2,1:2:0:0:
316,33,223195,1,0,1:0:0:0:
194,0,223336,6,0,P|234:84|268:192,1,157.95,2|0,1:0|3:0,2:0:0:0:
290,156,223619,2,0,P|267:224|256:278,1,105.3,2|0,1:3|3:0,2:0:0:0:
50,314,223902,6,0,P|25:258|126:196,1,157.95,2|0,1:3|3:0,2:0:0:0:
99,157,224185,2,0,P|145:206|108:256,1,105.3,2|0,1:3|3:0,2:0:0:0:
193,335,224468,6,0,P|277:295|385:261,1,157.95,2|0,1:3|3:0,2:0:0:0:
338,246,224751,2,0,P|406:269|460:280,1,105.3,2|0,1:3|3:0,2:0:0:0:
458,185,225034,5,2,1:3:0:0:
505,345,225176,1,0,3:0:0:0:
458,185,225317,2,0,P|431:117|404:67,1,105.3,2|0,1:3|3:0,2:0:0:0:
358,5,225601,5,10,1:3:0:0:
338,9,225671,1,0,2:0:0:0:
319,17,225742,1,2,1:3:0:0:
306,31,225813,1,0,2:0:0:0:
295,47,225884,6,0,P|328:80|318:111,3,52.65,2|0|2|0,1:3|2:0|1:3|2:0,2:0:0:0:
269,131,226167,2,0,P|268:179|239:194,3,52.65,2|0|2|0,1:3|2:0|1:3|2:0,2:0:0:0:
192,173,226450,2,0,P|157:207|126:197,3,52.65,2|0|2|0,1:3|2:0|1:3|2:0,2:0:0:0:
92,163,226733,6,0,P|40:188|44:261,1,105.3,6|2,1:3|1:3,2:0:0:0:
0,384,227016,2,0,L|101:357,1,105.3,2|2,1:3|1:3,2:0:0:0:
121,332,227228,1,0,1:3:0:0:
140,306,227299,2,0,L|241:332,1,105.3,2|2,1:3|1:3,2:0:0:0:
321,246,227582,2,0,L|374:336,1,105.3,2|2,1:3|1:3,2:0:0:0:
455,261,227865,6,0,P|427:218|392:225,3,52.65,6|0|2|0,1:2|1:3|1:3|1:3,2:0:0:0:
339,56,228148,2,0,P|367:99|402:92,3,52.65,2|0|2|0,1:3|1:3|1:3|1:3,2:0:0:0:
487,234,228431,6,0,P|446:204|416:223,3,52.65,2|0|2|0,1:3|1:3|1:3|1:3,2:0:0:0:
306,84,228714,2,0,P|347:114|377:95,3,52.65,2|0|2|0,1:3|1:3|1:3|1:3,2:0:0:0:
455,101,228997,5,4,1:2:0:0:
457,96,229067,1,0,2:0:0:0:
460,90,229138,1,0,2:0:0:0:
463,84,229209,1,0,2:0:0:0:
466,78,229280,1,0,2:0:0:0:
469,72,229351,1,0,2:0:0:0:
471,66,229421,1,0,2:0:0:0:
474,60,229492,1,0,2:0:0:0:
474,60,229563,6,0,L|458:3,3,52.65,0|0|0|0,2:0|2:0|2:0|2:0,2:0:0:0:
383,27,229846,2,0,L|331:-1,3,52.65,0|0|0|0,2:0|2:0|2:0|2:0,2:0:0:0:
295,68,230129,2,0,L|238:83,3,52.65,2|0|0|0,2:1|2:0|2:0|2:0,2:0:0:0:
262,159,230412,2,0,L|233:210,3,52.65,0|0|0|0,2:0|2:0|2:0|2:0,2:0:0:0:
303,247,230695,1,0,3:0:0:0:
306,259,230766,1,0,3:0:0:0:
310,272,230836,1,0,3:0:0:0:
313,285,230907,1,0,3:0:0:0:
317,297,230978,6,0,L|436:343,1,121.5,8|0,3:2|2:0,2:0:0:0:
256,384,231261,5,4,1:0:0:0:
198,318,231402,1,2,3:2:0:0:
113,293,231544,1,0,1:2:0:0:
78,213,231685,2,0,P|48:198|18:209,2,48.6,2|0|0,3:2|3:2|1:2,2:0:0:0:
27,298,231968,5,2,3:2:0:0:
27,298,232039,1,0,3:2:0:0:
27,298,232110,2,0,P|38:354|99:368,1,97.2,0|2,1:2|3:2,2:0:0:0:
178,223,232393,6,0,L|199:123,1,97.2,0|2,1:2|3:2,2:0:0:0:
176,119,232605,1,0,3:2:0:0:
156,101,232676,2,0,L|134:1,1,97.2,0|2,1:0|3:2,2:0:0:0:
44,66,232959,5,0,1:2:0:0:
3,164,233101,1,2,3:2:0:0:
44,66,233242,2,0,P|86:32|141:0,1,97.2,0|2,1:2|3:2,2:0:0:0:
267,21,233525,5,0,1:2:0:0:
333,79,233667,1,2,3:2:0:0:
358,164,233808,1,0,1:2:0:0:
438,199,233950,2,0,P|452:228|441:258,2,48.6,2|0|0,3:2|3:2|1:0,2:0:0:0:
353,250,234233,5,2,3:2:0:0:
353,250,234303,1,0,3:2:0:0:
353,250,234374,2,0,P|297:239|283:178,1,97.2,0|2,1:2|3:2,2:0:0:0:
176,119,234657,6,0,L|154:218,1,97.2,0|2,1:2|3:2,2:0:0:0:
178,223,234869,1,0,3:2:0:0:
198,241,234940,2,0,L|219:340,1,97.2,0|2,1:2|3:2,2:0:0:0:
354,384,235223,5,0,1:2:0:0:
356,372,235294,1,0,2:0:0:0:
359,360,235365,1,2,3:2:0:0:
361,348,235435,1,0,3:2:0:0:
364,336,235506,2,0,L|435:317,3,48.6,0|0|0|0,1:0|3:2|1:2|1:2,2:0:0:0:
467,264,235789,6,0,P|504:221|398:174,2,194.4,0|0|0,1:2|1:2|1:2,2:0:0:0:
368,229,236497,1,2,3:2:0:0:
368,229,236567,1,0,3:2:0:0:
368,229,236638,2,0,P|325:189|332:141,1,97.2,0|2,1:2|3:2,2:0:0:0:
402,0,236921,6,0,P|437:10|438:37,3,48.6,0|0|2|0,1:2|2:0|3:2|3:2,2:0:0:0:
410,35,237204,2,0,P|348:55|296:90,1,97.2,0|2,1:2|3:2,2:0:0:0:
169,49,237487,6,0,P|133:59|132:86,3,48.6,0|0|2|0,1:2|2:0|3:2|3:2,2:0:0:0:
161,84,237770,2,0,P|223:104|275:139,1,97.2,0|2,1:2|3:2,2:0:0:0:
264,146,237983,1,0,3:2:0:0:
277,171,238053,6,0,P|251:273|246:391,2,194.4,0|0|0,1:2|1:0|1:2,2:0:0:0:
346,275,238761,1,2,3:2:0:0:
346,275,238832,1,0,3:2:0:0:
346,275,238902,2,0,P|377:320|345:375,1,97.2,0|2,1:2|3:2,2:0:0:0:
165,338,239185,6,0,P|132:290|22:255,1,145.8,0|0,1:2|3:2,2:0:0:0:
21,262,239468,2,0,P|6:314|56:340,1,97.2,0|2,1:2|3:2,2:0:0:0:
139,186,239751,5,0,1:2:0:0:
0,148,239893,1,2,3:2:0:0:
139,186,240034,1,0,1:2:0:0:
0,148,240176,1,2,1:2:0:0:
98,50,240317,6,0,P|166:10|201:46,1,97.2,2|2,1:0|3:2,2:0:0:0:
197,39,240530,1,0,3:2:0:0:
220,63,240601,2,0,P|267:63|296:27,1,97.2,0|2,1:2|3:2,2:0:0:0:
404,8,240884,5,0,1:2:0:0:
388,93,241025,1,2,3:2:0:0:
315,142,241167,1,0,1:2:0:0:
315,142,241237,1,0,2:0:0:0:
315,142,241308,2,0,L|337:217,1,48.6,2|0,3:2|3:2,2:0:0:0:
388,260,241450,6,0,P|416:210|456:168,1,97.2,0|2,1:2|3:2,2:0:0:0:
305,298,241733,2,0,P|334:347|350:402,1,97.2,0|2,1:0|3:2,2:0:0:0:
313,207,242016,2,0,P|255:207|161:144,1,145.8,0|0,1:2|3:2,2:0:0:0:
146,156,242299,2,0,L|170:275,1,97.2,0|2,1:2|3:2,2:0:0:0:
32,349,242582,6,0,P|46:308|51:253,1,97.2,0|2,1:2|3:2,2:0:0:0:
39,233,242794,1,0,3:2:0:0:
27,211,242865,2,0,P|5:143|52:117,1,97.2,0|2,1:2|3:2,2:0:0:0:
146,52,243148,2,0,P|169:11|203:17,3,48.6,0|0|2|0,1:0|2:0|3:2|3:2,2:0:0:0:
174,50,243431,2,0,P|224:66|217:125,1,97.2,0|2,1:2|3:2,2:0:0:0:
156,248,243714,5,0,1:2:0:0:
144,245,243784,1,0,2:0:0:0:
134,238,243855,1,2,3:2:0:0:
129,227,243926,1,0,3:2:0:0:
129,215,243997,2,0,P|188:192|261:185,1,97.2,0|2,1:2|3:2,2:0:0:0:
274,361,244280,2,0,P|226:351|181:332,1,97.2,0|2,1:2|3:2,2:0:0:0:
300,256,244563,5,0,1:0:0:0:
311,252,244634,1,0,3:2:0:0:
323,248,244704,1,0,1:2:0:0:
334,245,244775,1,0,1:2:0:0:
346,241,244846,2,0,P|393:209|329:113,2,194.4,4|0|0,1:2|1:2|1:2,2:0:0:0:
254,168,245553,5,2,3:2:0:0:
254,168,245624,1,0,3:2:0:0:
254,168,245695,2,0,P|218:122|243:75,1,97.2,0|2,1:2|3:2,2:0:0:0:
289,25,245978,6,0,L|350:8,3,48.6,0|0|2|0,1:2|2:0|3:2|3:2,2:0:0:0:
145,64,246261,2,0,L|103:39,3,48.6,0|0|2|0,1:2|2:0|3:2|3:2,2:0:0:0:
307,46,246544,6,0,L|361:13,3,48.6,0|0|2|0,1:2|2:0|3:2|3:2,2:0:0:0:
131,74,246827,2,0,L|84:60,3,48.6,0|0|2|0,1:2|2:0|3:2|3:2,2:0:0:0:
225,98,247110,6,0,P|238:158|252:281,1,145.8,8|0,1:3|3:2,2:0:0:0:
273,266,247393,2,0,P|300:282|328:319,3,48.6,0|0|2|0,1:0|2:0|3:2|3:2,2:0:0:0:
346,290,247676,2,0,P|384:252|368:194,1,97.2,0|2,1:2|3:2,2:0:0:0:
218,124,247959,2,0,P|180:162|196:220,1,97.2,0|2,1:2|3:2,2:0:0:0:
210,351,248242,6,0,P|156:322|103:305,1,97.2,4|2,1:3|3:2,2:0:0:0:
106,285,248454,1,0,3:2:0:0:
91,259,248525,2,0,P|37:288|-16:305,1,97.2,0|2,1:2|3:2,2:0:0:0:
37,163,248808,6,0,P|-1:135|0:114,1,48.6,0|0,1:2|2:0,2:0:0:0:
59,85,248950,2,0,P|51:38|67:25,1,48.6,2|0,3:2|3:2,2:0:0:0:
129,45,249091,1,0,1:2:0:0:
135,22,249162,1,0,2:0:0:0:
154,7,249233,1,2,1:2:0:0:
178,6,249303,1,0,3:2:0:0:
198,19,249374,6,0,P|220:99|241:233,1,210.6,4|8,1:0|1:2,2:0:0:0:
197,298,249799,1,2,3:2:0:0:
136,356,249940,2,0,P|101:301|136:249,1,105.3,0|2,1:2|3:2,2:0:0:0:
243,376,250223,5,8,1:2:0:0:
261,357,250294,1,0,2:0:0:0:
282,341,250365,1,2,3:2:0:0:
306,330,250435,1,0,3:2:0:0:
331,322,250506,2,0,L|439:349,1,105.3,0|2,1:0|3:2,2:0:0:0:
512,192,250789,2,0,L|404:218,1,105.3,8|2,1:2|3:2,2:0:0:0:
389,200,251001,1,0,3:2:0:0:
368,182,251072,2,0,P|349:146|364:124,3,52.65,0|0|2|0,1:2|2:0|3:2|3:2,2:0:0:0:
390,72,251355,2,0,P|454:82|457:149,1,105.3,8|2,1:2|3:2,2:0:0:0:
298,238,251638,6,0,L|79:182,2,210.6,0|8|0,1:0|1:2|1:2,2:0:0:0:
260,139,252346,2,0,P|218:110|241:47,1,105.3,2|8,3:2|1:2,2:0:0:0:
40,51,252629,2,0,P|77:4|81:92,1,210.6,2|2,3:2|3:2,2:0:0:0:
27,152,253053,5,8,1:2:0:0:
69,225,253195,1,2,3:2:0:0:
31,300,253336,2,0,L|151:332,1,105.3,0|2,1:2|3:2,2:0:0:0:
213,301,253619,5,8,1:2:0:0:
237,302,253690,1,0,1:0:0:0:
259,317,253761,1,2,1:2:0:0:
270,341,253832,1,0,1:2:0:0:
267,367,253902,2,0,P|226:311|166:174,2,210.6,0|8|0,1:0|1:2|1:2,2:0:0:0:
336,280,254610,5,2,3:2:0:0:
336,280,254681,1,0,3:2:0:0:
336,280,254751,2,0,P|378:307|439:277,1,105.3,8|2,1:2|3:2,2:0:0:0:
447,259,254964,1,0,3:2:0:0:
466,228,255034,2,0,P|480:164|508:108,1,105.3,0|2,1:0|3:2,2:0:0:0:
348,26,255317,2,0,P|368:74|378:126,1,105.3,8|2,1:2|3:2,2:0:0:0:
361,147,255530,1,0,3:2:0:0:
344,168,255601,6,0,B|283:163|260:215|260:215|227:279|163:271,1,210.6,0|8,1:2|1:2,2:0:0:0:
212,361,256025,1,2,3:2:0:0:
56,328,256167,6,0,P|16:297|36:263,3,52.65,0|0|2|0,1:0|2:0|3:2|3:2,2:0:0:0:
57,290,256450,2,0,P|21:245|46:188,1,105.3,8|2,1:2|3:2,2:0:0:0:
163,133,256733,6,0,P|203:164|183:198,3,52.65,0|0|2|0,1:2|2:0|3:2|3:2,2:0:0:0:
162,171,257016,2,0,P|198:216|173:273,1,105.3,8|2,1:2|3:2,2:0:0:0:
65,117,257299,6,0,P|29:72|54:15,1,105.3,0|2,1:0|3:2,2:0:0:0:
220,0,257582,1,8,1:2:0:0:
216,12,257652,1,0,2:0:0:0:
212,25,257723,1,2,3:2:0:0:
208,37,257794,1,0,3:2:0:0:
204,50,257865,2,0,L|319:21,1,105.3,0|2,1:2|3:2,2:0:0:0:
323,44,258077,1,0,3:2:0:0:
340,63,258148,2,0,L|454:92,1,105.3,8|2,1:2|1:2,2:0:0:0:
512,264,258431,6,0,B|451:269|428:216|428:216|395:152|331:160,1,210.6,4|0,1:0|1:2,2:0:0:0:
319,281,258855,1,2,3:2:0:0:
319,281,258926,1,0,3:2:0:0:
319,281,258997,2,0,P|246:308|179:343,1,105.3,0|2,1:2|3:2,2:0:0:0:
59,245,259280,1,0,1:2:0:0:
124,368,259421,5,2,3:2:0:0:
124,368,259492,1,0,3:2:0:0:
124,368,259563,2,0,P|137:291|140:215,1,105.3,2|2,1:0|3:2,2:0:0:0:
285,160,259846,1,0,1:2:0:0:
146,155,259987,5,2,3:2:0:0:
146,155,260058,1,0,3:2:0:0:
146,155,260129,2,0,P|205:204|269:245,1,105.3,0|2,1:0|3:2,2:0:0:0:
370,136,260412,2,0,P|338:83|259:92,1,105.3,0|2,1:2|3:2,2:0:0:0:
207,35,260695,6,0,P|140:58|-21:88,1,210.6,8|0,1:3|1:2,2:0:0:0:
36,174,261119,5,2,3:2:0:0:
36,174,261190,1,0,3:2:0:0:
36,174,261261,2,0,P|79:199|114:257,1,105.3,0|2,1:2|3:2,2:0:0:0:
200,219,261544,2,0,P|200:168|233:109,1,105.3,0|2,1:2|3:2,2:0:0:0:
90,18,261827,2,0,L|125:134,1,105.3,4|2,1:3|3:2,2:0:0:0:
9,269,262110,5,0,1:2:0:0:
12,289,262181,1,0,2:0:0:0:
26,303,262251,1,2,3:2:0:0:
45,310,262322,1,0,3:2:0:0:
65,306,262393,1,0,1:2:0:0:
86,304,262464,1,0,2:0:0:0:
105,310,262534,1,2,3:2:0:0:
120,324,262605,1,0,3:2:0:0:
128,343,262676,6,0,L|238:370,1,105.3,0|2,1:2|3:2,2:0:0:0:
380,185,262959,6,0,P|322:189|301:285,1,157.95,4|0,1:0|3:2,2:0:0:0:
321,274,263242,2,0,P|337:326|382:346,1,105.3,0|2,1:2|3:2,2:0:0:0:
470,173,263525,6,0,P|454:121|409:101,1,105.3,0|2,1:2|3:2,2:0:0:0:
389,85,263737,1,0,3:2:0:0:
367,69,263808,2,0,P|366:12|428:11,1,105.3,0|2,1:2|3:2,2:0:0:0:
266,96,264091,6,0,P|203:126|136:147,1,140.4,4|0,1:0|2:0,2:0:0:0:
98,166,264374,2,0,P|157:205|208:252,1,140.4,0|0,1:2|2:0,2:0:0:0:
243,276,264657,2,0,P|248:206|264:137,1,140.4,4|0,1:2|2:0,2:0:0:0:
298,131,264940,1,0,1:2:0:0:
35,334,265223,6,0,P|1:298|23:281,3,52.65,4|0|2|0,1:0|2:0|3:2|3:2,2:0:0:0:
36,302,265506,1,0,1:2:0:0:
74,294,265577,1,0,2:0:0:0:
109,310,265648,1,2,3:2:0:0:
126,345,265718,1,0,3:2:0:0:
117,383,265789,2,0,L|233:342,1,105.3,4|2,1:0|3:2,2:0:0:0:
296,274,266072,5,0,1:2:0:0:
320,282,266143,1,0,2:0:0:0:
345,291,266214,1,2,3:2:0:0:
370,300,266284,1,0,3:2:0:0:
395,309,266355,2,0,L|411:366,3,52.65,4|0|2|0,1:0|2:0|3:2|3:2,2:0:0:0:
453,248,266638,2,0,L|504:276,3,52.65,0|0|2|0,3:1|3:0|3:2|3:2,2:0:0:0:
450,163,266921,2,0,L|507:147,3,52.65,4|0|2|0,3:2|3:0|3:2|3:2,2:0:0:0:
389,105,267204,2,0,L|417:53,3,52.65,0|0|0|0,3:1|3:0|3:1|3:2,2:0:0:0:
304,108,267487,6,0,P|280:143|291:167,7,52.65,8|0|0|0|0|0|0|0,1:3|2:0|2:0|2:0|2:0|2:0|2:0|2:0,2:0:0:0:
241,130,268053,2,0,P|248:171|273:180,7,52.65,0|0|0|0|0|0|0|0,2:0|2:0|2:0|2:0|2:0|2:0|2:0|2:0,2:0:0:0:
212,190,268619,6,0,P|246:214|271:203,3,52.65,0|0|0|0,2:0|2:0|2:0|2:0,2:0:0:0:
332,305,268902,2,0,P|297:281|273:292,3,52.65,0|0|0|0,2:0|2:0|2:0|2:0,2:0:0:0:
220,311,269185,1,0,2:0:0:0:
218,324,269256,1,0,2:0:0:0:
216,337,269327,1,0,2:0:0:0:
214,350,269398,1,0,2:0:0:0:
213,363,269468,2,0,L|159:378,3,52.65,0|0|0|0,2:0|2:0|2:0|2:0,2:0:0:0:
141,354,269751,6,0,P|102:308|242:317,1,340.2,0|8,2:0|3:2,2:0:0:0:
174,287,271167,5,4,1:0:0:0:
256,192,271237,12,0,279940,2:0:0:0:
