osu file format v14

[General]
AudioFilename: audio.mp3
AudioLeadIn: 0
PreviewTime: 143808
Countdown: 0
SampleSet: Soft
StackLeniency: 0.7
Mode: 0
LetterboxInBreaks: 0
WidescreenStoryboard: 1

[Editor]
Bookmarks: 9374,18431,27487,36544,38808,56921,75034,84091,103336,121450,143808,162487,164468,184846,205223,210034,213148
DistanceSpacing: 0.5
BeatDivisor: 4
GridSize: 32
TimelineZoom: 3.599999

[Metadata]
Title:Longinus
TitleUnicode:Longinus
Artist:xi
ArtistUnicode:xi
Creator:Anxient
Version:Extra
Source:
Tags:FA Featured Artist techstreams Diverse System AD:PIANO V Noir electronic instrumental anime girl anime_girl jungkyuyoung natsume shiki natsume_shiki scub domino [keqing] 8972308 house techno trance Japan
BeatmapID:4380440
BeatmapSetID:1902907

[Difficulty]
HPDrainRate:4
CircleSize:4
OverallDifficulty:9
ApproachRate:9.3
SliderMultiplier:1.82
SliderTickRate:1

[Events]
//Background and Video events
0,0,"BG.jpg",0,0
//Break Periods
2,82027,83254
2,210234,211462
//Storyboard Layer 0 (Background)
//Storyboard Layer 1 (Fail)
//Storyboard Layer 2 (Pass)
//Storyboard Layer 3 (Foreground)
//Storyboard Layer 4 (Overlay)
//Storyboard Sound Samples

[TimingPoints]
318,283.018867924528,4,2,1,70,1,0
9374,-133.333333333333,4,2,1,70,0,0
14893,-117.647058823529,4,2,1,70,0,0
18431,-100,4,2,1,80,0,0
27487,-90.9090909090909,4,2,1,80,0,0
36544,-83.3333333333333,4,2,1,80,0,0
38808,-90.9090909090909,4,2,1,80,0,0
38879,-90.9090909090909,4,2,1,70,0,0
75034,-90.9090909090909,4,2,1,60,0,0
84091,-125,4,2,1,60,0,0
90601,-111.111111111111,4,2,1,60,0,0
90884,-100,4,2,1,60,0,0
92016,-100,4,2,1,65,0,0
93148,-90.9090909090909,4,2,1,70,0,0
98808,-83.3333333333333,4,2,1,70,0,0
103336,-83.3333333333333,4,2,1,80,0,0
103407,-83.3333333333333,4,2,1,70,0,0
121450,-83.3333333333333,4,2,1,75,0,1
139563,-83.3333333333333,4,2,1,75,0,0
143808,-66.6666666666667,4,2,1,75,0,0
144374,-66.6666666666667,4,2,1,80,0,1
144657,-76.9230769230769,4,2,1,80,0,1
153148,-142.857142857143,4,2,1,80,0,0
153431,-142.857142857143,4,2,1,80,0,1
153714,-76.9230769230769,4,2,1,80,0,1
164468,-83.3333333333333,4,2,1,70,0,0
173525,-83.3333333333333,4,2,1,75,0,0
182582,-83.3333333333333,4,2,1,65,0,0
184846,-333.333333333333,4,2,1,65,0,0
186827,-333.333333333333,4,2,1,75,0,0
187110,-333.333333333333,4,2,1,85,0,1
187959,-83.3333333333333,4,2,1,85,0,1
205223,-83.3333333333333,4,2,1,85,0,0
205506,-90.9090909090909,4,2,1,75,0,0
205789,-100,4,2,1,75,0,0
207204,-76.9230769230769,4,2,1,85,0,0
207558,-76.9230769230769,4,2,1,75,0,0
207770,-90.9090909090909,4,2,1,75,0,0
208053,-100,4,2,1,75,0,0
210034,-100,4,2,1,55,0,0
212016,-90.9090909090909,4,2,1,80,0,0
213148,-76.9230769230769,4,2,1,85,0,1
218808,-76.9230769230769,4,2,1,85,0,0
219091,-76.9230769230769,4,2,1,85,0,1
228997,-76.9230769230769,4,2,1,75,0,1
230978,-66.6666666666667,4,2,1,75,0,1
231261,-66.6666666666667,4,2,1,75,0,0
231968,-83.3333333333333,4,2,1,75,0,0
249374,-76.9230769230769,4,2,1,75,0,0
267487,-76.9230769230769,4,2,1,70,0,0
269751,-142.857142857143,4,2,1,70,0,0
270601,-142.857142857143,4,2,1,85,0,0

[Colours]
Combo1 : 71,201,152
Combo2 : 250,245,218
Combo3 : 251,192,55
Combo4 : 192,211,226

[HitObjects]
29,310,9374,6,0,P|88:321|151:363,1,136.5,0|0,2:0|2:0,2:0:0:0:
150,362,9799,1,0,2:0:0:0:
173,347,10082,5,0,2:0:0:0:
221,281,10223,1,0,2:0:0:0:
185,206,10365,1,0,2:0:0:0:
227,136,10506,2,0,L|217:60,2,68.2500000000002,0|0|0,2:0|2:0|2:0,2:0:0:0:
301,187,10931,2,0,L|336:50,2,136.5,0|0|0,2:0|2:0|2:0,2:0:0:0:
483,310,11638,6,0,P|424:321|361:363,1,136.5,0|0,2:0|2:0,2:0:0:0:
361,362,12063,1,0,2:0:0:0:
339,347,12346,5,0,2:0:0:0:
291,281,12487,1,0,2:0:0:0:
327,206,12629,1,0,2:0:0:0:
285,136,12770,2,0,L|295:60,2,68.2500000000002,0|0|0,2:0|2:0|2:0,2:0:0:0:
211,187,13195,1,0,2:0:0:0:
211,187,13266,1,0,2:0:0:0:
211,187,13336,2,0,L|176:50,1,136.5,0|0,2:0|2:0,2:0:0:0:
101,23,13761,1,0,2:0:0:0:
0,153,13902,6,0,P|59:164|122:206,1,136.5,0|0,2:0|2:0,2:0:0:0:
158,279,14327,2,0,P|159:322|66:323,1,136.5,0|0,2:0|2:0,2:0:0:0:
23,278,14751,1,0,2:0:0:0:
23,278,14822,1,0,2:0:0:0:
23,278,14893,2,0,P|49:240|76:238,1,38.6750000000001,0|0,2:0|2:0,2:0:0:0:
98,169,15034,6,0,L|84:78,1,77.3500000000003,0|0,2:0|2:0,2:0:0:0:
262,21,15317,2,0,L|250:97,1,77.3500000000003,0|0,2:0|2:0,2:0:0:0:
231,217,15601,5,0,2:0:0:0:
231,217,15671,1,0,2:0:0:0:
231,217,15742,2,0,P|224:169|236:159,1,38.6750000000001,0|0,2:0|2:0,2:0:0:0:
338,157,15884,5,0,2:0:0:0:
338,157,15954,1,0,2:0:0:0:
338,157,16025,2,0,P|344:204|332:214,1,38.6750000000001,0|0,2:0|2:0,2:0:0:0:
308,273,16167,6,0,P|356:290|437:342,1,116.025,0|0,2:0|2:0,2:0:0:0:
404,352,16450,1,0,2:0:0:0:
410,359,16520,1,0,2:0:0:0:
416,366,16591,1,0,2:0:0:0:
422,374,16662,1,0,2:0:0:0:
429,381,16733,1,0,2:0:0:0:
512,314,16874,6,0,P|534:275|455:237,1,154.700000000001,0|0,2:0|2:0,2:0:0:0:
387,102,17299,1,0,2:0:0:0:
329,41,17440,6,0,P|326:19|348:6,6,25.7833333333334,0|0|0|0|0|0|0,2:0|2:0|2:0|2:0|2:0|2:0|2:0,2:0:0:0:
300,152,17865,5,0,2:0:0:0:
288,161,17935,1,0,2:0:0:0:
275,170,18006,2,0,L|226:148,1,38.6750000000001,0|0,2:0|2:0,2:0:0:0:
149,121,18148,5,0,2:0:0:0:
118,132,18218,1,0,2:0:0:0:
85,143,18289,1,0,2:0:0:0:
53,154,18360,1,0,2:0:0:0:
20,165,18431,6,0,P|-17:109|89:75,1,182,4|2,1:0|2:3,2:0:0:0:
145,220,18855,5,0,2:0:0:0:
145,220,18926,1,0,2:0:0:0:
145,220,18997,2,0,P|180:240|180:269,1,45.5,2|0,2:3|2:0,2:0:0:0:
119,293,19138,2,0,P|129:331|109:352,1,45.5,0|0,2:0|2:0,2:0:0:0:
48,326,19280,1,2,2:3:0:0:
48,326,19351,1,0,2:0:0:0:
48,326,19421,2,0,P|28:361|-1:361,1,45.5,0|0,2:0|2:0,2:0:0:0:
53,225,19563,5,2,2:3:0:0:
49,202,19634,1,0,2:0:0:0:
52,180,19704,1,0,2:0:0:0:
60,159,19775,1,0,2:0:0:0:
74,141,19846,1,2,2:3:0:0:
93,128,19917,1,0,2:0:0:0:
114,120,19987,1,0,2:0:0:0:
137,118,20058,1,0,2:0:0:0:
159,123,20129,6,0,L|227:148,3,45.5,2|0|0|0,2:3|2:0|2:0|2:0,2:0:0:0:
267,94,20412,2,0,L|224:6,1,91,2|0,2:3|2:0,2:0:0:0:
145,220,20695,6,0,B|206:229|220:274|220:274|238:324|319:329,1,182,0|2,1:0|2:3,2:0:0:0:
396,239,21119,5,0,2:0:0:0:
396,239,21190,1,0,2:0:0:0:
396,239,21261,2,0,P|422:208|451:214,1,45.5,2|0,2:3|2:0,2:0:0:0:
461,279,21402,2,0,P|500:277|516:301,1,45.5,0|0,2:0|2:0,2:0:0:0:
479,355,21544,1,2,2:3:0:0:
479,355,21615,1,0,2:0:0:0:
479,355,21685,2,0,P|509:381|503:410,1,45.5,0|0,2:0|2:0,2:0:0:0:
378,329,21827,5,2,2:3:0:0:
356,336,21898,1,0,2:0:0:0:
334,343,21968,2,0,L|264:365,1,45.5,0|0,2:0|2:0,2:0:0:0:
225,305,22110,5,2,2:3:0:0:
193,274,22181,1,0,2:0:0:0:
194,230,22251,1,0,2:0:0:0:
228,201,22322,1,0,2:0:0:0:
271,208,22393,2,0,P|304:249|308:267,3,45.5,2|0|0|0,2:3|2:0|2:0|2:0,2:0:0:0:
346,151,22676,6,0,L|361:95,3,45.5,2|0|0|0,2:3|2:0|2:0|2:0,2:0:0:0:
397,3,22959,6,0,P|426:57|503:161,1,182,0|2,1:0|2:3,2:0:0:0:
452,315,23384,1,0,2:0:0:0:
452,315,23454,1,0,2:0:0:0:
452,315,23525,2,0,L|398:278,1,45.5,2|0,2:3|2:0,2:0:0:0:
346,324,23667,2,0,L|283:342,1,45.5,0|0,2:0|2:0,2:0:0:0:
271,208,23808,1,2,2:3:0:0:
271,208,23879,1,0,2:0:0:0:
271,208,23950,2,0,L|217:171,1,45.5,0|0,2:0|2:0,2:0:0:0:
223,90,24091,5,2,2:3:0:0:
200,89,24162,1,0,2:0:0:0:
180,78,24233,1,0,2:0:0:0:
169,59,24303,1,0,2:0:0:0:
168,37,24374,5,2,2:3:0:0:
80,166,24516,1,0,2:0:0:0:
8,111,24657,2,0,P|36:76|80:72,1,91,2|0,2:3|2:0,2:0:0:0:
69,252,24940,2,0,P|25:244|0:208,1,91,2|0,2:3|2:0,2:0:0:0:
176,171,25223,5,0,1:0:0:0:
177,188,25294,1,0,2:0:0:0:
179,204,25365,1,0,2:0:0:0:
182,221,25435,1,0,2:0:0:0:
186,238,25506,1,2,2:3:0:0:
191,254,25577,1,0,2:0:0:0:
196,270,25648,1,0,2:0:0:0:
203,286,25718,1,0,2:0:0:0:
210,302,25789,6,0,L|157:323,3,45.5,2|0|0|0,2:3|2:0|2:0|2:0,2:0:0:0:
108,370,26072,2,0,P|85:330|105:273,1,91,2|0,2:3|2:0,2:0:0:0:
273,219,26355,5,2,1:3:0:0:
299,195,26426,1,0,2:0:0:0:
334,199,26497,1,0,2:0:0:0:
356,227,26567,1,0,2:0:0:0:
350,262,26638,1,2,2:3:0:0:
357,298,26709,1,0,2:0:0:0:
385,322,26780,1,0,2:0:0:0:
420,318,26851,1,0,2:0:0:0:
441,290,26921,6,0,P|462:267|495:268,1,45.5,2|0,2:3|2:0,2:0:0:0:
437,193,27063,2,0,P|435:161|459:139,1,45.5,0|0,2:0|2:0,2:0:0:0:
365,127,27204,2,0,P|342:105|343:72,3,45.5,2|0|0|0,2:3|2:0|2:0|2:0,2:0:0:0:
383,25,27487,6,0,L|483:47,1,100.1,4|0,1:0|3:0,2:0:0:0:
250,97,27770,2,0,L|152:118,1,100.1,2|0,3:0|3:0,2:0:0:0:
132,94,27983,1,0,2:0:0:0:
113,70,28053,1,2,3:0:0:0:
64,72,28124,1,0,2:0:0:0:
33,110,28195,1,0,3:0:0:0:
39,158,28266,1,0,2:0:0:0:
79,187,28336,2,0,P|102:232|86:250,3,50.05,2|0|0|0,3:0|2:0|3:0|2:0,2:0:0:0:
0,279,28619,5,2,3:0:0:0:
3,292,28690,1,0,2:0:0:0:
11,305,28761,1,0,3:0:0:0:
21,314,28832,1,0,2:0:0:0:
34,322,28902,1,2,3:0:0:0:
48,325,28973,1,0,2:0:0:0:
62,324,29044,1,0,3:0:0:0:
76,321,29115,1,0,2:0:0:0:
88,313,29185,1,2,3:0:0:0:
102,309,29256,1,0,2:0:0:0:
116,308,29327,1,0,3:0:0:0:
130,312,29398,1,0,2:0:0:0:
143,319,29468,1,2,3:0:0:0:
153,329,29539,1,0,2:0:0:0:
161,341,29610,1,0,3:0:0:0:
165,355,29681,1,0,2:0:0:0:
159,369,29751,6,0,P|103:338|144:224,1,200.2,4|2,1:0|3:0,2:0:0:0:
208,152,30176,1,0,3:0:0:0:
208,152,30247,1,0,2:0:0:0:
208,152,30317,2,0,P|243:189|230:244,1,100.1,2|0,3:0|3:0,2:0:0:0:
110,144,30601,2,0,P|75:107|88:52,1,100.1,2|0,3:0|3:0,2:0:0:0:
96,48,30813,1,0,2:0:0:0:
111,35,30884,2,0,L|217:10,1,100.1,2|0,3:0|3:0,2:0:0:0:
339,30,31167,5,2,3:0:0:0:
375,38,31237,1,0,2:0:0:0:
412,47,31308,1,0,3:0:0:0:
448,55,31379,1,0,3:0:0:0:
485,64,31450,2,0,L|525:133,3,50.05,2|0|0|0,3:0|2:0|3:0|2:0,2:0:0:0:
453,165,31733,5,2,3:0:0:0:
424,171,31803,1,0,3:0:0:0:
394,178,31874,2,0,L|340:193,1,50.05,0|0,3:0|3:0,2:0:0:0:
277,136,32016,6,0,P|251:180|273:236,1,100.1,4|0,1:0|3:0,2:0:0:0:
398,376,32299,5,2,3:0:0:0:
415,358,32369,1,0,3:0:0:0:
423,335,32440,1,0,3:0:0:0:
420,310,32511,1,0,3:0:0:0:
407,289,32582,1,2,3:0:0:0:
386,276,32652,1,0,3:0:0:0:
361,274,32723,1,0,3:0:0:0:
338,283,32794,1,0,3:0:0:0:
320,300,32865,6,0,P|278:325|231:314,1,100.1,2|0,3:0|3:0,2:0:0:0:
135,384,33148,1,4,1:0:0:0:
135,384,33218,1,0,3:0:0:0:
135,384,33289,1,0,3:0:0:0:
135,384,33360,1,0,3:0:0:0:
135,384,33431,2,0,L|109:263,1,100.1,2|0,3:0|3:0,2:0:0:0:
193,168,33714,5,2,3:0:0:0:
56,225,33855,1,0,3:0:0:0:
0,89,33997,1,2,3:0:0:0:
135,31,34138,1,0,3:0:0:0:
95,128,34280,5,4,1:0:0:0:
225,82,34421,1,0,3:0:0:0:
231,50,34492,1,0,3:0:0:0:
258,30,34563,1,2,3:0:0:0:
291,32,34634,1,0,3:0:0:0:
313,55,34704,1,0,3:0:0:0:
317,88,34775,1,0,3:0:0:0:
298,114,34846,1,2,1:3:0:0:
287,129,34917,1,0,3:0:0:0:
288,149,34987,1,0,3:0:0:0:
302,163,35058,1,0,3:0:0:0:
322,164,35129,1,2,3:0:0:0:
337,152,35200,1,0,3:0:0:0:
343,133,35270,2,0,P|331:107|306:110,1,50.05,0|0,3:0|3:0,2:0:0:0:
183,165,35412,2,0,L|222:294,1,100.1,4|0,1:0|3:0,2:0:0:0:
314,253,35695,5,2,1:3:0:0:
303,282,35766,1,0,3:0:0:0:
294,314,35836,1,0,3:0:0:0:
285,345,35907,1,0,3:0:0:0:
276,376,35978,1,2,1:3:0:0:
378,354,36119,5,0,1:0:0:0:
157,325,36261,1,2,1:3:0:0:
382,362,36402,5,0,1:0:0:0:
161,333,36544,2,0,P|121:361|125:390,7,54.6,0|0|0|0|0|0|0|0,2:0|2:0|2:0|2:0|2:0|2:0|2:0|2:0,2:0:0:0:
99,264,37110,2,0,P|50:255|34:278,7,54.6,0|0|0|0|0|0|0|0,2:0|2:0|2:0|2:0|2:0|2:0|2:0|2:0,2:0:0:0:
103,171,37676,5,0,3:1:0:0:
83,152,37747,1,0,2:1:0:0:
74,126,37817,1,0,3:1:0:0:
79,100,37888,1,0,3:1:0:0:
96,79,37959,1,0,3:1:0:0:
121,68,38030,1,0,3:1:0:0:
147,71,38101,1,0,3:1:0:0:
170,87,38171,1,0,3:1:0:0:
182,111,38242,6,0,L|206:186,1,54.6,0|0,3:1|3:1,2:0:0:0:
274,135,38384,2,0,L|343:171,1,54.6,0|0,3:1|3:1,2:0:0:0:
355,87,38525,1,0,3:1:0:0:
368,82,38596,1,0,3:1:0:0:
381,78,38667,1,0,3:1:0:0:
394,74,38737,1,0,3:1:0:0:
407,70,38808,6,0,P|447:36|502:131,1,200.2,4|0,1:0|1:2,2:0:0:0:
395,230,39233,1,2,3:2:0:0:
395,230,39303,1,0,3:2:0:0:
395,230,39374,2,0,P|353:182|369:149,1,100.1,0|2,1:2|3:2,2:0:0:0:
505,223,39657,6,0,L|475:329,1,100.1,0|2,1:2|3:2,2:0:0:0:
456,332,39869,1,0,3:2:0:0:
434,345,39940,1,0,1:2:0:0:
309,303,40082,1,2,3:2:0:0:
287,290,40152,1,0,3:2:0:0:
265,277,40223,2,0,L|237:180,1,100.1,0|2,1:0|3:2,2:0:0:0:
201,65,40506,6,0,P|247:48|347:-7,1,150.15,0|0,1:2|3:2,2:0:0:0:
340,20,40789,2,0,P|294:65|248:114,1,100.1,0|2,1:2|3:2,2:0:0:0:
102,59,41072,6,0,P|42:71|51:143,1,100.1,0|2,1:2|3:2,2:0:0:0:
45,122,41284,1,0,3:2:0:0:
60,142,41355,1,0,1:2:0:0:
158,247,41497,5,2,3:2:0:0:
173,267,41567,1,0,3:2:0:0:
187,286,41638,2,0,P|163:327|115:329,1,100.1,0|2,1:0|3:2,2:0:0:0:
115,324,41851,1,0,3:2:0:0:
115,319,41921,1,0,1:2:0:0:
229,133,42063,5,2,3:2:0:0:
261,119,42134,1,0,3:2:0:0:
293,105,42204,2,0,L|424:141,1,100.1,0|2,1:2|3:2,2:0:0:0:
406,119,42417,1,0,3:2:0:0:
422,107,42487,2,0,P|438:60|363:36,1,100.1,0|2,1:2|3:2,2:0:0:0:
271,219,42770,6,0,L|454:269,1,150.15,0|0,1:2|3:2,2:0:0:0:
444,239,43053,1,0,1:0:0:0:
490,254,43124,1,0,3:2:0:0:
512,297,43195,1,0,1:2:0:0:
498,344,43266,1,0,1:2:0:0:
455,368,43336,6,0,L|358:341,1,100.1,0|2,1:2|3:2,2:0:0:0:
233,363,43619,2,0,L|183:276,1,100.1,0|2,1:2|3:2,2:0:0:0:
165,266,43832,1,0,3:2:0:0:
147,257,43902,1,0,1:2:0:0:
79,126,44044,5,2,3:2:0:0:
79,126,44115,1,0,3:2:0:0:
79,126,44185,2,0,L|42:234,1,100.1,0|2,1:2|3:2,2:0:0:0:
28,230,44398,1,0,3:2:0:0:
11,240,44468,1,0,1:2:0:0:
38,36,44610,5,2,3:2:0:0:
38,36,44681,1,0,3:2:0:0:
38,36,44751,2,0,P|82:14|131:33,1,100.1,0|2,1:2|3:2,2:0:0:0:
144,50,44964,1,0,3:2:0:0:
159,69,45034,2,0,P|204:85|248:63,1,100.1,0|2,1:2|3:2,2:0:0:0:
262,42,45247,1,0,3:2:0:0:
275,21,45317,2,0,L|300:131,1,100.1,0|2,1:2|3:2,2:0:0:0:
486,179,45601,6,0,L|508:81,1,100.1,0|2,1:2|3:2,2:0:0:0:
481,58,45813,1,0,3:2:0:0:
453,35,45884,2,0,P|405:56|397:108,1,100.1,0|2,1:0|3:2,2:0:0:0:
394,98,46096,1,0,3:2:0:0:
394,98,46167,1,0,1:2:0:0:
390,222,46308,6,0,L|329:198,1,50.05,2|0,3:2|3:2,2:0:0:0:
311,218,46450,2,0,P|268:276|306:319,1,100.1,0|2,1:2|3:2,2:0:0:0:
338,375,46733,6,0,P|379:337|463:278,1,150.15,0|0,1:2|3:2,2:0:0:0:
484,292,47016,2,0,P|450:338|429:388,1,100.1,0|2,1:2|3:2,2:0:0:0:
253,280,47299,6,0,P|255:224|272:123,1,150.15,0|0,1:2|3:2,2:0:0:0:
297,118,47582,1,0,1:2:0:0:
165,196,47723,5,2,1:2:0:0:
148,214,47794,1,0,3:2:0:0:
131,233,47865,2,0,P|93:201|59:163,1,100.1,2|2,1:0|3:2,2:0:0:0:
64,154,48077,1,0,3:2:0:0:
68,145,48148,1,0,1:2:0:0:
20,268,48289,1,2,3:2:0:0:
0,92,48431,6,0,P|44:54|109:70,1,100.1,0|2,1:2|3:2,2:0:0:0:
105,43,48643,1,0,3:2:0:0:
127,31,48714,2,0,P|182:41|182:106,1,100.1,0|2,1:2|3:2,2:0:0:0:
187,85,48926,1,0,3:2:0:0:
180,92,48997,1,0,1:2:0:0:
142,205,49138,1,2,3:2:0:0:
105,319,49280,2,0,L|9:376,1,100.1,0|2,1:0|3:2,2:0:0:0:
168,243,49563,6,0,P|182:184|258:225,1,150.15,0|0,1:2|3:2,2:0:0:0:
259,226,49846,2,0,P|233:312|211:354,1,100.1,0|2,1:2|3:2,2:0:0:0:
225,345,50058,1,0,3:2:0:0:
244,362,50129,2,0,P|290:319|400:264,1,150.15,0|0,1:2|3:2,2:0:0:0:
394,268,50412,2,0,P|436:301|400:356,1,100.1,0|2,1:2|3:2,2:0:0:0:
512,104,50695,6,0,P|449:76|381:61,1,100.1,0|2,1:0|3:2,2:0:0:0:
409,79,50907,1,0,3:2:0:0:
399,90,50978,2,0,P|423:154|461:213,1,100.1,0|2,1:2|3:2,2:0:0:0:
282,217,51261,6,0,P|236:174|126:119,1,150.15,0|0,1:2|3:2,2:0:0:0:
132,123,51544,2,0,P|90:156|126:211,1,100.1,0|2,1:2|3:2,2:0:0:0:
265,91,51827,2,0,P|304:64|297:17,1,100.1,0|2,1:2|3:2,2:0:0:0:
130,17,52110,5,0,1:0:0:0:
115,12,52181,1,0,3:2:0:0:
100,8,52251,1,0,1:2:0:0:
85,4,52322,1,0,1:2:0:0:
70,0,52393,2,0,P|76:55|104:135,1,100.1,4|2,1:2|3:2,2:0:0:0:
107,113,52605,1,0,3:2:0:0:
132,123,52676,2,0,P|144:171|149:221,1,100.1,0|2,1:2|3:2,2:0:0:0:
118,315,52959,6,0,P|68:287|69:214,1,100.1,0|2,1:2|3:2,2:0:0:0:
239,179,53242,2,0,P|254:226|231:269,1,100.1,0|2,1:2|3:2,2:0:0:0:
219,291,53454,1,0,3:2:0:0:
207,313,53525,2,0,P|261:324|334:365,1,100.1,0|2,1:2|3:2,2:0:0:0:
335,321,53737,1,0,3:2:0:0:
369,299,53808,2,0,P|378:249|398:204,1,100.1,0|2,1:2|3:2,2:0:0:0:
305,71,54091,6,0,P|251:60|178:19,1,100.1,0|2,1:2|3:2,2:0:0:0:
177,63,54303,1,0,3:2:0:0:
143,85,54374,2,0,P|133:134|113:179,1,100.1,0|2,1:2|3:2,2:0:0:0:
256,191,54657,6,0,P|342:141|437:110,1,200.2,8|0,1:3|1:0,2:0:0:0:
488,35,55082,1,2,3:2:0:0:
488,35,55152,1,0,3:2:0:0:
488,35,55223,2,0,P|433:27|400:-1,1,100.1,0|2,1:2|3:2,2:0:0:0:
342,173,55506,2,0,P|397:181|430:209,1,100.1,0|2,1:2|3:2,2:0:0:0:
441,237,55718,1,0,3:2:0:0:
451,265,55789,2,0,L|430:370,1,100.1,4|2,1:3|3:2,2:0:0:0:
307,346,56072,5,0,1:2:0:0:
264,331,56143,1,0,2:0:0:0:
235,296,56214,1,2,3:2:0:0:
221,253,56284,1,0,3:2:0:0:
187,222,56355,1,0,1:2:0:0:
141,221,56426,1,0,2:0:0:0:
104,247,56497,1,2,3:2:0:0:
95,290,56567,1,0,3:2:0:0:
114,330,56638,1,0,1:2:0:0:
123,327,56709,1,0,2:0:0:0:
131,322,56780,1,2,1:2:0:0:
139,316,56851,1,0,3:2:0:0:
143,307,56921,6,0,L|175:103,1,200.2,4|8,1:0|1:2,2:0:0:0:
44,133,57346,1,2,3:2:0:0:
124,35,57487,1,0,1:2:0:0:
261,21,57629,1,2,3:2:0:0:
261,21,57700,1,0,3:2:0:0:
261,21,57770,2,0,P|310:41|313:100,1,100.1,8|2,1:2|3:2,2:0:0:0:
300,106,57983,1,0,3:2:0:0:
281,128,58053,6,0,L|397:96,1,100.1,0|2,1:0|3:2,2:0:0:0:
387,119,58266,1,0,3:2:0:0:
396,136,58336,2,0,L|492:162,1,100.1,8|2,1:2|3:2,2:0:0:0:
425,255,58619,6,0,P|447:313|469:392,1,100.1,0|2,1:2|3:2,2:0:0:0:
439,366,58832,1,0,3:2:0:0:
421,384,58902,2,0,P|371:348|356:340,1,50.05,8|0,1:2|2:0,2:0:0:0:
309,372,59044,1,2,3:2:0:0:
318,241,59185,6,0,L|207:269,1,100.1,0|2,1:0|3:2,2:0:0:0:
205,291,59398,1,0,3:2:0:0:
189,316,59468,2,0,L|78:288,1,100.1,8|2,1:2|3:2,2:0:0:0:
80,263,59681,1,0,3:2:0:0:
69,235,59751,1,0,1:2:0:0:
230,167,59893,5,2,3:2:0:0:
242,139,59964,1,0,3:2:0:0:
253,110,60034,2,0,L|201:24,1,100.1,8|2,1:2|3:2,2:0:0:0:
15,0,60317,6,0,P|84:33|145:107,1,150.15,0|0,1:0|3:2,2:0:0:0:
132,111,60601,2,0,P|87:149|43:97,1,100.1,8|2,1:2|3:2,2:0:0:0:
47,121,60813,1,0,3:2:0:0:
39,107,60884,1,0,1:2:0:0:
228,35,61025,1,2,3:2:0:0:
195,234,61167,5,8,1:2:0:0:
178,258,61237,1,0,1:0:0:0:
161,283,61308,1,2,1:2:0:0:
145,308,61379,1,0,1:2:0:0:
128,332,61450,2,0,P|70:360|38:268,1,150.15,0|0,1:0|3:2,2:0:0:0:
0,282,61733,2,0,P|32:227|86:250,1,100.1,8|2,1:2|3:2,2:0:0:0:
246,329,62016,5,0,1:2:0:0:
260,341,62086,1,0,2:0:0:0:
279,342,62157,1,2,3:2:0:0:
297,332,62228,1,0,3:2:0:0:
308,315,62299,2,0,P|320:266|347:204,1,100.1,8|2,1:2|3:2,2:0:0:0:
368,210,62511,1,0,3:2:0:0:
396,200,62582,5,0,1:0:0:0:
418,305,62723,1,2,3:2:0:0:
266,170,62865,1,8,1:2:0:0:
458,105,63006,1,2,3:2:0:0:
348,38,63148,5,0,1:2:0:0:
334,23,63218,1,0,2:0:0:0:
314,18,63289,2,0,L|278:90,1,50.05,2|0,3:2|3:2,2:0:0:0:
203,101,63431,5,8,1:2:0:0:
176,129,63501,1,0,2:0:0:0:
138,139,63572,2,0,L|103:70,1,50.05,2|0,3:2|3:2,2:0:0:0:
27,65,63714,6,0,P|55:11|116:6,1,100.1,0|2,1:0|3:2,2:0:0:0:
136,248,63997,2,0,L|35:212,1,100.1,8|2,1:2|3:2,2:0:0:0:
37,76,64280,6,0,P|65:22|126:17,1,100.1,0|2,1:2|3:2,2:0:0:0:
135,230,64563,2,0,L|34:194,1,100.1,8|2,1:2|3:2,2:0:0:0:
114,351,64846,5,0,1:0:0:0:
137,342,64917,1,0,2:0:0:0:
161,334,64987,1,2,3:2:0:0:
184,325,65058,1,0,3:2:0:0:
208,317,65129,2,0,P|221:266|270:234,1,100.1,8|2,1:2|3:2,2:0:0:0:
445,357,65412,5,0,1:2:0:0:
430,363,65483,1,0,2:0:0:0:
416,369,65553,1,2,3:2:0:0:
403,376,65624,1,0,3:2:0:0:
389,382,65695,2,0,L|302:323,1,100.1,8|2,1:2|1:2,2:0:0:0:
343,135,65978,6,0,P|360:208|398:273,1,150.15,4|0,1:0|3:2,2:0:0:0:
398,273,66261,1,0,1:2:0:0:
464,173,66402,1,2,3:2:0:0:
464,173,66473,1,0,3:2:0:0:
464,173,66544,1,0,1:2:0:0:
246,107,66685,5,2,3:2:0:0:
235,78,66756,1,0,3:2:0:0:
223,49,66827,2,0,P|251:0|304:9,1,100.1,0|2,1:2|3:2,2:0:0:0:
385,92,67110,5,2,1:0:0:0:
262,235,67251,1,2,3:2:0:0:
178,210,67393,5,0,1:2:0:0:
104,124,67534,1,2,3:2:0:0:
63,228,67676,5,0,1:0:0:0:
38,232,67747,1,0,2:0:0:0:
19,248,67817,1,2,3:2:0:0:
11,271,67888,1,0,3:2:0:0:
16,296,67959,2,0,P|89:320|128:349,1,100.1,0|2,1:2|3:2,2:0:0:0:
317,373,68242,6,0,P|284:308|256:198,1,150.15,8|0,1:3|3:2,2:0:0:0:
287,218,68525,2,0,P|337:254|391:281,1,100.1,0|2,1:2|3:2,2:0:0:0:
388,262,68737,1,0,3:2:0:0:
405,252,68808,1,0,1:2:0:0:
311,102,68950,1,2,3:2:0:0:
441,170,69091,5,0,1:2:0:0:
389,0,69233,1,2,3:2:0:0:
288,122,69374,6,0,P|234:96|180:73,1,100.1,4|2,1:3|3:2,2:0:0:0:
23,60,69657,2,0,P|68:38|113:17,1,100.1,0|2,1:2|3:2,2:0:0:0:
243,203,69940,2,0,P|189:177|135:154,1,100.1,0|2,1:2|3:2,2:0:0:0:
25,168,70223,5,0,1:2:0:0:
28,180,70294,1,0,2:0:0:0:
31,192,70365,1,2,3:2:0:0:
35,204,70435,1,0,3:2:0:0:
38,216,70506,2,0,L|13:324,1,100.1,4|2,1:0|3:2,2:0:0:0:
37,334,70718,1,0,3:2:0:0:
58,354,70789,2,0,P|126:331|113:280,1,100.1,0|2,1:2|3:2,2:0:0:0:
243,203,71072,6,0,P|266:161|313:162,1,100.1,0|2,1:2|3:2,2:0:0:0:
336,188,71284,1,0,3:2:0:0:
359,214,71355,2,0,L|330:329,1,100.1,0|2,1:2|3:2,2:0:0:0:
415,106,71638,5,4,1:0:0:0:
464,282,71780,1,2,3:2:0:0:
464,282,71851,1,0,3:2:0:0:
464,282,71921,2,0,L|488:379,1,100.1,0|2,1:2|3:2,2:0:0:0:
511,171,72204,5,0,1:2:0:0:
508,134,72275,1,0,2:0:0:0:
485,105,72346,1,2,3:2:0:0:
449,95,72417,1,0,3:2:0:0:
414,105,72487,2,0,L|438:7,1,100.1,0|2,1:2|3:2,2:0:0:0:
316,100,72770,5,4,1:0:0:0:
309,124,72841,1,0,2:0:0:0:
313,148,72912,1,2,3:2:0:0:
327,169,72983,1,0,3:2:0:0:
347,183,73053,2,0,P|395:217|384:270,1,100.1,0|2,1:2|3:2,2:0:0:0:
368,279,73266,1,0,3:2:0:0:
343,303,73336,1,4,1:0:0:0:
214,367,73478,5,2,3:2:0:0:
214,367,73549,1,0,3:2:0:0:
214,367,73619,2,0,L|184:243,1,100.1,0|2,1:2|3:2,2:0:0:0:
154,251,73832,1,0,3:2:0:0:
118,233,73902,2,0,L|86:183,3,50.05,4|0|2|0,1:0|2:0|3:2|3:2,2:0:0:0:
8,186,74185,5,0,1:0:0:0:
19,138,74256,1,0,2:0:0:0:
56,106,74327,1,2,3:2:0:0:
105,102,74398,1,0,3:2:0:0:
146,129,74468,1,0,1:0:0:0:
184,140,74539,1,0,2:0:0:0:
220,123,74610,1,2,3:2:0:0:
237,86,74681,1,0,3:2:0:0:
224,48,74751,5,0,1:0:0:0:
209,50,74822,1,0,2:0:0:0:
195,55,74893,1,2,1:0:0:0:
182,62,74964,1,0,3:2:0:0:
170,71,75034,1,8,1:3:0:0:
256,192,75105,12,8,77299,2:3:0:0:
256,192,77369,12,4,79563,2:3:0:0:
256,192,79634,12,4,81827,2:0:0:0:
313,44,83808,5,8,3:2:0:0:
264,264,84091,6,0,P|212:286|201:305,1,72.8,4|0,2:0|2:0,2:0:0:0:
150,366,84374,1,0,2:0:0:0:
150,366,84445,1,0,2:0:0:0:
150,366,84516,2,0,P|100:370|103:272,1,145.6,2|0,2:3|2:0,2:0:0:0:
96,280,84869,1,0,2:0:0:0:
114,269,84940,2,0,P|144:230|139:197,1,72.8,0|0,2:0|2:0,2:0:0:0:
38,163,85223,2,0,P|12:188|8:223,1,72.8,2|0,2:3|2:0,2:0:0:0:
47,70,85506,5,0,2:0:0:0:
47,70,85577,1,0,2:0:0:0:
47,70,85648,1,0,2:0:0:0:
47,70,85718,1,0,2:0:0:0:
47,70,85789,2,0,P|114:42|185:25,1,145.6,2|0,2:3|2:0,2:0:0:0:
203,20,86143,1,0,2:0:0:0:
220,15,86214,1,0,2:0:0:0:
237,10,86284,1,0,2:0:0:0:
254,5,86355,6,0,L|271:98,1,72.8,2|0,2:3|2:0,2:0:0:0:
426,117,86638,1,0,2:0:0:0:
450,109,86709,1,0,2:0:0:0:
465,88,86780,2,0,P|458:46|371:48,1,145.6,2|0,2:3|2:0,2:0:0:0:
330,136,87204,5,2,2:3:0:0:
336,162,87275,1,0,2:0:0:0:
346,188,87346,1,0,2:0:0:0:
358,212,87417,1,0,2:0:0:0:
372,235,87487,2,0,L|464:209,1,72.8,2|0,2:3|2:0,2:0:0:0:
455,222,87700,1,0,2:0:0:0:
468,227,87770,1,2,2:3:0:0:
418,310,87912,5,0,2:0:0:0:
432,312,87983,1,0,2:0:0:0:
445,317,88053,1,2,2:3:0:0:
333,360,88195,5,0,2:0:0:0:
342,372,88266,1,0,2:0:0:0:
348,384,88336,2,0,P|300:369|254:357,1,72.8,2|0,2:3|2:0,2:0:0:0:
180,250,88619,6,0,P|129:237|101:319,1,145.6,2|0,2:3|2:0,2:0:0:0:
108,327,88973,1,0,2:0:0:0:
121,344,89044,1,2,2:3:0:0:
269,241,89327,6,0,P|251:193|208:176,1,72.8,0|0,2:0|2:0,2:0:0:0:
214,172,89539,1,0,2:0:0:0:
194,162,89610,1,0,2:0:0:0:
173,153,89681,1,0,2:0:0:0:
153,144,89751,2,0,L|129:60,1,72.8,2|0,2:3|2:0,2:0:0:0:
269,105,90034,5,0,2:0:0:0:
260,83,90105,1,0,2:0:0:0:
252,63,90176,2,0,L|294:-13,1,72.8,2|0,2:3|2:0,2:0:0:0:
361,117,90459,5,0,2:0:0:0:
370,95,90530,1,0,2:0:0:0:
379,75,90601,2,0,L|462:51,1,81.9000000000001,2|0,2:3|2:0,2:0:0:0:
512,266,90884,6,0,L|425:241,1,91,2|0,2:3|2:0,2:0:0:0:
411,222,91096,1,0,2:0:0:0:
398,203,91167,1,0,2:0:0:0:
298,222,91308,6,0,P|248:242|221:325,1,136.5,2|0,2:3|2:0,2:0:0:0:
229,329,91591,1,0,2:0:0:0:
343,379,91733,5,0,2:0:0:0:
339,368,91803,1,0,2:0:0:0:
336,357,91874,1,0,2:0:0:0:
333,346,91945,1,0,2:0:0:0:
330,335,92016,5,2,2:3:0:0:
296,306,92086,1,0,2:0:0:0:
251,313,92157,1,0,2:0:0:0:
218,345,92228,1,0,2:0:0:0:
172,350,92299,1,0,2:0:0:0:
137,321,92369,1,0,2:0:0:0:
127,276,92440,1,0,2:0:0:0:
153,238,92511,1,0,2:0:0:0:
197,229,92582,5,0,3:0:0:0:
204,207,92652,1,0,3:0:0:0:
211,185,92723,1,0,3:0:0:0:
218,163,92794,1,0,3:0:0:0:
225,141,92865,2,0,L|204:79,3,45.5,0|0|0|0,3:0|3:0|3:0|3:0,2:0:0:0:
190,18,93148,6,0,P|138:51|135:108,1,100.1,4|2,1:0|3:0,2:0:0:0:
64,253,93431,1,0,3:0:0:0:
49,233,93501,1,0,2:0:0:0:
28,218,93572,2,0,P|86:188|225:163,1,200.2,2|2,1:3|3:0,2:0:0:0:
365,290,93997,5,0,3:0:0:0:
380,302,94067,1,0,2:0:0:0:
394,315,94138,1,2,3:0:0:0:
407,329,94209,1,0,3:0:0:0:
420,344,94280,2,0,P|403:381|366:386,3,50.05,0|0|2|0,1:0|2:0|3:0|3:0,2:0:0:0:
288,321,94563,5,0,3:0:0:0:
274,286,94634,1,0,2:0:0:0:
279,250,94704,1,2,3:0:0:0:
301,220,94775,1,0,3:0:0:0:
335,205,94846,2,0,L|442:181,1,100.1,0|2,1:0|3:0,2:0:0:0:
489,66,95129,2,0,L|391:44,1,100.1,0|2,1:0|3:0,2:0:0:0:
379,60,95341,1,0,3:0:0:0:
367,76,95412,5,0,1:0:0:0:
179,113,95553,1,2,3:0:0:0:
179,113,95624,1,0,3:0:0:0:
179,113,95695,1,0,3:0:0:0:
301,0,95836,6,0,P|283:51|260:208,1,200.2,2|2,1:3|3:0,2:0:0:0:
235,212,96190,1,0,3:0:0:0:
210,230,96261,2,0,P|228:268|232:302,3,50.05,0|0|2|0,3:0|2:0|3:0|3:0,2:0:0:0:
162,338,96544,6,0,P|214:358|273:386,1,100.1,2|2,1:3|3:0,2:0:0:0:
102,182,96827,2,0,P|82:234|54:293,1,100.1,2|2,1:3|3:0,2:0:0:0:
258,122,97110,2,0,P|206:102|147:74,1,100.1,2|2,1:3|3:0,2:0:0:0:
318,278,97393,2,0,P|338:226|366:167,1,100.1,2|2,1:3|3:0,2:0:0:0:
512,10,97676,6,0,P|459:35|388:51,1,100.1,4|2,1:0|3:0,2:0:0:0:
405,31,97888,1,0,3:0:0:0:
391,16,97959,1,0,3:0:0:0:
346,165,98101,6,0,P|395:128|449:230,1,200.2,2|2,1:3|3:0,2:0:0:0:
361,260,98525,1,0,3:0:0:0:
369,283,98596,1,0,2:0:0:0:
378,306,98667,1,2,3:0:0:0:
388,329,98737,1,0,3:0:0:0:
399,352,98808,6,0,P|329:336|277:324,1,109.2,4|2,1:3|3:0,2:0:0:0:
136,367,99091,1,0,3:0:0:0:
136,367,99162,1,0,2:0:0:0:
136,367,99233,2,0,P|166:317|222:138,1,218.4,0|2,1:0|3:0,2:0:0:0:
192,137,99586,1,0,3:0:0:0:
166,108,99657,2,0,P|111:118|104:179,1,109.2,0|2,1:0|3:0,2:0:0:0:
222,257,99940,5,4,1:2:0:0:
27,319,100082,1,2,3:0:0:0:
240,241,100223,5,0,3:0:0:0:
256,244,100294,1,0,2:0:0:0:
271,247,100365,2,0,B|327:261|343:313|343:313|361:376|441:373,1,218.4,0|2,1:0|3:0,2:0:0:0:
502,187,100789,5,0,3:0:0:0:
475,181,100860,1,0,2:0:0:0:
449,189,100931,1,2,3:0:0:0:
431,209,101001,1,0,3:0:0:0:
425,235,101072,2,0,L|446:302,7,54.6,8|0|2|0|0|0|2|0,1:3|2:0|3:0|3:0|3:0|2:0|3:0|3:0,2:0:0:0:
345,177,101638,2,0,L|361:124,7,54.6,0|0|2|0|0|0|2|0,1:0|2:0|3:0|3:0|3:0|2:0|3:0|3:0,2:0:0:0:
512,5,102204,5,2,1:0:0:0:
468,12,102275,1,0,2:0:0:0:
425,22,102346,1,2,3:0:0:0:
383,35,102417,1,0,2:0:0:0:
342,51,102487,1,0,1:0:0:0:
302,69,102558,1,0,2:0:0:0:
263,90,102629,2,0,P|216:72|169:61,1,54.6,2|0,3:0|2:0,2:0:0:0:
147,118,102770,5,0,1:0:0:0:
137,131,102841,1,0,1:0:0:0:
127,144,102912,1,0,1:0:0:0:
33,216,103053,5,0,1:0:0:0:
91,11,103195,1,0,1:0:0:0:
41,227,103336,5,4,1:0:0:0:
15,249,103407,1,0,2:0:0:0:
5,281,103478,1,2,2:3:0:0:
11,314,103549,1,0,2:0:0:0:
33,339,103619,1,0,2:0:0:0:
65,351,103690,1,0,2:0:0:0:
98,344,103761,1,2,2:3:0:0:
124,322,103832,1,0,2:0:0:0:
135,291,103902,2,0,P|165:250|206:260,3,54.6,0|0|2|0,2:0|2:0|2:3|2:0,2:0:0:0:
224,182,104185,6,0,L|246:242,1,54.6,0|0,2:0|2:0,2:0:0:0:
409,253,104327,2,0,L|387:313,1,54.6,2|0,2:3|2:0,2:0:0:0:
293,355,104468,5,0,2:0:0:0:
299,328,104539,1,0,2:0:0:0:
306,302,104610,1,2,2:3:0:0:
314,275,104681,1,0,2:0:0:0:
322,249,104751,1,0,2:0:0:0:
330,223,104822,1,0,2:0:0:0:
340,198,104893,1,2,2:3:0:0:
349,172,104964,1,0,2:0:0:0:
360,147,105034,2,0,L|469:125,1,109.2,0|2,2:0|2:3,2:0:0:0:
474,110,105247,1,0,2:0:0:0:
481,95,105317,2,0,P|441:51|386:66,1,109.2,0|2,2:0|2:3,2:0:0:0:
281,54,105601,6,0,P|268:31|246:16,3,54.6,0|0|2|0,2:0|2:0|2:3|2:0,2:0:0:0:
153,88,105884,2,0,P|180:82|206:89,3,54.6,0|0|2|0,2:0|2:0|2:3|2:0,2:0:0:0:
177,167,106167,1,0,2:0:0:0:
165,172,106237,1,0,2:0:0:0:
154,180,106308,1,2,2:3:0:0:
145,190,106379,1,0,2:0:0:0:
138,203,106450,1,0,2:0:0:0:
133,215,106520,1,0,2:0:0:0:
126,227,106591,1,2,2:3:0:0:
116,237,106662,1,0,2:0:0:0:
105,244,106733,6,0,P|46:235|63:142,1,163.8,0|0,2:0|2:0,2:0:0:0:
70,120,107016,1,0,2:0:0:0:
213,253,107157,1,2,2:3:0:0:
224,271,107228,1,0,2:0:0:0:
234,289,107299,6,0,L|155:352,1,72.8,0|0,2:0|2:0,2:0:0:0:
298,228,107487,2,0,L|282:128,1,72.8,0|0,2:0|1:3,2:0:0:0:
318,313,107676,2,0,L|412:349,1,72.8,0|0,2:0|2:0,2:0:0:0:
498,192,107865,5,8,1:3:0:0:
509,174,107935,1,0,2:0:0:0:
512,154,108006,1,2,3:0:0:0:
508,135,108077,1,0,2:0:0:0:
496,118,108148,1,0,3:0:0:0:
479,107,108218,1,0,2:0:0:0:
459,104,108289,1,2,3:0:0:0:
439,109,108360,1,0,2:0:0:0:
423,121,108431,6,0,L|393:231,1,109.2,0|2,1:0|3:0,2:0:0:0:
364,238,108643,1,0,2:0:0:0:
333,249,108714,2,0,L|322:181,1,54.6,0|0,1:0|2:0,2:0:0:0:
268,138,108855,2,0,L|279:70,1,54.6,2|0,1:3|1:0,2:0:0:0:
331,19,108997,5,4,1:3:0:0:
295,0,109067,1,0,2:0:0:0:
254,1,109138,1,2,3:0:0:0:
220,22,109209,1,0,2:0:0:0:
201,58,109280,1,0,3:0:0:0:
185,95,109351,1,0,2:0:0:0:
154,120,109421,1,2,1:3:0:0:
113,125,109492,1,0,2:0:0:0:
75,110,109563,6,0,P|50:54|90:12,1,109.2,0|2,1:0|3:0,2:0:0:0:
83,24,109775,1,0,2:0:0:0:
92,30,109846,1,0,1:0:0:0:
195,198,109987,6,0,L|186:251,1,54.6,2|0,1:3|1:0,2:0:0:0:
132,311,110129,1,8,1:3:0:0:
108,317,110200,1,0,2:0:0:0:
85,326,110270,1,2,3:0:0:0:
63,337,110341,1,0,2:0:0:0:
43,351,110412,1,0,3:0:0:0:
90,170,110553,6,0,L|98:223,1,54.6,2|0,1:3|2:0,2:0:0:0:
202,364,110695,1,6,1:2:0:0:
213,366,110766,1,0,2:0:0:0:
225,371,110836,1,2,3:0:0:0:
236,376,110907,1,0,2:0:0:0:
246,384,110978,2,0,P|260:313|272:239,1,109.2,0|2,3:0|1:3,2:0:0:0:
295,252,111190,1,0,1:0:0:0:
324,227,111261,6,0,P|382:210|391:318,1,163.8,4|0,1:2|2:0,2:0:0:0:
394,319,111544,2,0,L|326:369,2,72.8,0|0|0,1:0|2:0|2:0,2:0:0:0:
487,164,111827,1,4,1:2:0:0:
409,111,111968,2,0,L|373:53,1,54.6,2|0,3:0|2:0,2:0:0:0:
428,0,112110,2,0,L|515:70,1,109.2,0|0,1:0|1:0,2:0:0:0:
304,127,112393,5,4,1:0:0:0:
272,148,112464,1,0,2:0:0:0:
234,140,112534,1,0,3:0:0:0:
213,107,112605,1,0,2:0:0:0:
182,83,112676,1,0,3:0:0:0:
143,84,112747,1,0,2:0:0:0:
112,106,112817,1,0,3:0:0:0:
102,143,112888,1,0,2:0:0:0:
117,178,112959,6,0,P|140:224|125:251,3,54.6,0|0|0|0,3:0|2:0|3:0|2:0,2:0:0:0:
81,277,113242,2,0,P|31:241|63:173,1,109.2,0|0,3:0|3:0,2:0:0:0:
131,348,113525,5,0,3:0:0:0:
143,353,113596,1,0,2:0:0:0:
156,358,113667,1,0,3:0:0:0:
168,364,113737,1,0,2:0:0:0:
180,370,113808,2,0,P|202:298|241:244,1,109.2,0|0,3:0|3:0,2:0:0:0:
303,214,114091,5,0,3:0:0:0:
343,213,114162,1,0,2:0:0:0:
375,237,114233,1,0,3:0:0:0:
387,275,114303,1,0,2:0:0:0:
374,313,114374,1,0,3:0:0:0:
305,384,114516,2,0,L|283:300,1,54.6,0|0,3:0|2:0,2:0:0:0:
195,153,114657,5,8,1:3:0:0:
179,122,114728,1,0,2:0:0:0:
152,103,114799,1,0,3:0:0:0:
118,100,114869,1,0,2:0:0:0:
87,114,114940,1,0,3:0:0:0:
67,141,115011,1,0,2:0:0:0:
63,175,115082,1,0,3:0:0:0:
76,206,115152,1,0,2:0:0:0:
102,227,115223,6,0,P|149:237|173:269,3,54.6,0|0|0|0,3:0|2:0|3:0|2:0,2:0:0:0:
215,188,115506,1,0,3:0:0:0:
228,149,115577,1,0,2:0:0:0:
241,110,115648,1,0,3:0:0:0:
254,71,115718,1,0,2:0:0:0:
267,32,115789,6,0,L|323:12,1,54.6,4|0,1:3|2:0,2:0:0:0:
368,79,115931,2,0,L|424:99,1,54.6,0|0,3:0|2:0,2:0:0:0:
497,116,116072,2,0,P|500:60|441:25,1,109.2,0|0,3:0|3:0,2:0:0:0:
367,176,116355,2,0,P|364:232|423:267,1,109.2,0|0,1:0|3:0,2:0:0:0:
477,317,116638,5,0,3:0:0:0:
487,326,116709,1,0,2:0:0:0:
494,337,116780,1,0,3:0:0:0:
496,351,116851,1,0,2:0:0:0:
494,364,116921,5,8,1:3:0:0:
462,358,116992,1,0,3:0:0:0:
429,351,117063,1,0,3:0:0:0:
396,344,117134,1,0,3:0:0:0:
364,338,117204,1,0,3:0:0:0:
331,332,117275,1,0,3:0:0:0:
298,326,117346,1,0,3:0:0:0:
265,320,117417,1,0,3:0:0:0:
233,314,117487,6,0,L|194:378,3,54.6,0|0|0|0,1:0|3:0|3:0|3:0,2:0:0:0:
130,384,117770,2,0,P|106:323|118:316,1,54.6,0|0,1:0|3:0,2:0:0:0:
19,329,117912,2,0,P|45:268|58:272,1,54.6,0|0,1:0|1:0,2:0:0:0:
32,202,118053,5,8,1:3:0:0:
64,195,118124,1,0,3:0:0:0:
97,188,118195,1,0,3:0:0:0:
130,181,118266,1,0,3:0:0:0:
162,175,118336,1,0,3:0:0:0:
195,169,118407,1,0,3:0:0:0:
228,163,118478,1,0,1:0:0:0:
261,157,118549,1,0,3:0:0:0:
293,151,118619,6,0,L|332:215,3,54.6,0|0|0|0,1:0|3:0|3:0|3:0,2:0:0:0:
396,221,118902,2,0,P|420:160|408:153,1,54.6,0|0,1:0|3:0,2:0:0:0:
507,166,119044,2,0,P|480:105|467:109,1,54.6,0|0,1:0|1:0,2:0:0:0:
429,15,119185,5,4,1:3:0:0:
413,10,119256,1,0,3:0:0:0:
398,14,119327,1,0,3:0:0:0:
386,23,119398,1,0,3:0:0:0:
380,37,119468,1,0,3:0:0:0:
380,52,119539,1,0,3:0:0:0:
387,66,119610,2,0,L|374:131,1,54.6,0|0,1:0|3:0,2:0:0:0:
293,151,119751,5,0,1:0:0:0:
285,136,119822,1,0,3:0:0:0:
271,128,119893,1,0,3:0:0:0:
256,126,119964,1,0,3:0:0:0:
242,131,120034,1,0,3:0:0:0:
232,142,120105,1,0,3:0:0:0:
227,157,120176,2,0,L|171:194,1,54.6,0|0,1:0|3:0,2:0:0:0:
112,160,120317,6,0,L|80:-6,1,163.8,4|0,1:2|3:0,2:0:0:0:
134,74,120601,2,0,L|161:6,2,72.8,4|0|0,3:2|2:0|2:0,2:0:0:0:
71,146,120884,6,0,L|22:115,3,54.6,0|0|0|0,3:2|3:0|3:0|3:0,2:0:0:0:
143,242,121167,2,0,L|192:211,3,54.6,4|0|0|0,3:2|3:0|3:0|3:0,2:0:0:0:
81,316,121450,5,4,1:0:0:0:
110,347,121520,1,0,2:0:0:0:
153,348,121591,1,2,3:0:0:0:
192,329,121662,1,0,3:0:0:0:
223,298,121733,1,10,1:2:0:0:
264,287,121803,1,0,2:0:0:0:
305,299,121874,1,2,3:0:0:0:
328,335,121945,1,0,3:0:0:0:
317,376,122016,6,0,L|255:362,3,54.6,2|0|2|0,1:2|2:0|3:0|3:0,2:0:0:0:
340,202,122299,2,0,P|392:224|441:238,1,109.2,10|2,1:2|3:0,2:0:0:0:
476,122,122582,5,2,1:2:0:0:
497,100,122652,1,0,2:0:0:0:
504,70,122723,1,2,3:0:0:0:
494,41,122794,1,0,3:0:0:0:
469,22,122865,1,10,1:2:0:0:
439,18,122935,1,0,2:0:0:0:
411,32,123006,1,2,3:0:0:0:
395,59,123077,1,0,3:0:0:0:
397,91,123148,5,2,1:2:0:0:
389,77,123218,1,0,2:0:0:0:
375,70,123289,1,2,3:0:0:0:
359,72,123360,1,0,3:0:0:0:
347,82,123431,1,10,1:2:0:0:
342,96,123501,1,0,2:0:0:0:
346,111,123572,1,2,3:0:0:0:
356,122,123643,1,0,3:0:0:0:
370,130,123714,6,0,L|435:146,3,54.6,2|0|2|0,1:2|2:0|3:0|3:0,2:0:0:0:
278,182,123997,2,0,L|213:198,3,54.6,10|0|2|0,1:2|2:0|3:0|3:0,2:0:0:0:
237,278,124280,6,0,L|268:329,3,54.6,2|0|2|0,1:2|2:0|3:0|3:0,2:0:0:0:
156,257,124563,2,0,L|104:225,3,54.6,10|0|2|0,1:2|2:0|3:0|3:0,2:0:0:0:
46,180,124846,6,0,P|15:136|92:64,1,163.8,2|0,1:2|3:0,2:0:0:0:
88,72,125129,1,10,1:2:0:0:
100,83,125200,1,0,2:0:0:0:
111,94,125270,1,2,3:0:0:0:
122,106,125341,1,0,3:0:0:0:
132,118,125412,6,0,P|185:94|244:86,1,72.8,2|0,1:2|2:0,2:0:0:0:
292,206,125601,2,0,P|244:172|208:125,1,72.8,0|10,2:0|1:2,2:0:0:0:
289,23,125789,2,0,P|283:80|260:135,1,72.8,0|0,2:0|2:0,2:0:0:0:
350,280,125978,5,4,1:3:0:0:
366,263,126049,1,0,2:0:0:0:
382,246,126119,1,2,3:0:0:0:
398,229,126190,1,0,3:0:0:0:
413,211,126261,1,10,1:2:0:0:
428,193,126332,1,0,2:0:0:0:
442,174,126402,1,2,3:0:0:0:
455,155,126473,1,0,3:0:0:0:
470,131,126544,6,0,L|487:65,3,54.6,2|0|2|0,1:2|2:0|3:0|3:0,2:0:0:0:
410,52,126827,2,0,L|393:-14,3,54.6,10|0|2|0,1:2|2:0|3:0|3:0,2:0:0:0:
343,100,127110,5,2,1:2:0:0:
348,133,127181,1,0,2:0:0:0:
355,167,127251,1,2,3:0:0:0:
364,199,127322,1,0,3:0:0:0:
375,232,127393,1,10,1:2:0:0:
387,264,127464,1,0,2:0:0:0:
401,295,127534,2,0,P|420:341|439:367,1,54.6,2|0,3:0|3:0,2:0:0:0:
298,272,127676,5,2,1:2:0:0:
283,303,127747,1,0,2:0:0:0:
271,334,127817,2,0,P|251:380|246:411,1,54.6,2|0,3:0|3:0,2:0:0:0:
116,293,127959,2,0,P|163:265|214:244,1,109.2,10|2,1:2|3:0,2:0:0:0:
203,161,128242,5,8,1:3:0:0:
174,148,128313,1,0,2:0:0:0:
146,134,128384,1,2,3:0:0:0:
119,118,128454,1,0,3:0:0:0:
94,99,128525,1,10,1:2:0:0:
70,79,128596,1,0,2:0:0:0:
48,57,128667,2,0,P|25:18|18:-14,1,54.6,2|0,3:0|3:0,2:0:0:0:
141,26,128808,5,2,1:2:0:0:
79,195,128950,1,2,3:0:0:0:
146,32,129091,5,10,1:2:0:0:
84,201,129233,1,2,3:0:0:0:
253,171,129374,6,0,B|306:151|317:111|317:111|328:64|372:58,1,163.8,2|0,1:0|3:0,2:0:0:0:
390,93,129657,2,0,P|417:128|395:165,2,72.8,10|0|0,1:2|2:0|2:0,2:0:0:0:
441,22,129940,5,2,1:2:0:0:
354,211,130082,1,2,3:0:0:0:
363,230,130152,1,0,3:0:0:0:
372,249,130223,2,0,L|486:282,1,109.2,10|2,1:2|3:0,2:0:0:0:
386,347,130506,5,4,1:0:0:0:
352,341,130577,1,0,2:0:0:0:
320,350,130648,1,2,3:0:0:0:
298,374,130718,1,0,3:0:0:0:
267,384,130789,1,8,1:2:0:0:
236,370,130860,1,0,2:0:0:0:
218,342,130931,1,2,3:0:0:0:
222,310,131001,1,0,3:0:0:0:
247,289,131072,2,0,P|257:240|229:219,3,54.6,8|0|2|0,1:2|2:0|3:0|3:0,2:0:0:0:
179,223,131355,2,0,P|152:181|117:186,3,54.6,8|0|2|0,1:2|2:0|3:0|3:0,2:0:0:0:
84,224,131638,5,8,1:2:0:0:
46,211,131709,1,0,2:0:0:0:
10,230,131780,1,2,3:0:0:0:
0,269,131851,1,0,3:0:0:0:
20,303,131921,2,0,P|91:318|145:341,1,109.2,8|2,1:2|3:0,2:0:0:0:
76,129,132204,5,8,1:2:0:0:
76,129,132275,1,0,2:0:0:0:
76,129,132346,2,0,L|48:61,1,54.6,2|0,3:0|3:0,2:0:0:0:
94,8,132487,2,0,L|181:104,1,109.2,8|2,1:2|3:0,2:0:0:0:
362,35,132770,6,0,L|419:0,3,54.6,8|0|2|0,1:3|2:0|3:0|3:0,2:0:0:0:
333,136,133053,2,0,L|298:193,3,54.6,8|0|2|0,1:2|2:0|3:0|3:0,2:0:0:0:
372,233,133336,6,0,L|429:247,3,54.6,8|0|2|0,1:2|2:0|3:0|3:0,2:0:0:0:
300,276,133619,2,0,L|240:290,3,54.6,8|0|2|0,1:2|2:0|3:0|3:0,2:0:0:0:
368,335,133902,6,0,L|466:383,1,109.2,4|2,1:3|3:0,2:0:0:0:
164,312,134185,1,8,1:2:0:0:
154,286,134256,1,0,2:0:0:0:
158,259,134327,1,2,3:0:0:0:
172,236,134398,1,0,3:0:0:0:
196,223,134468,6,0,P|237:181|214:143,1,72.8,8|0,1:2|2:0,2:0:0:0:
286,99,134657,2,0,P|229:84|207:123,1,72.8,0|8,2:0|1:2,2:0:0:0:
134,84,134846,2,0,P|149:140|194:139,1,72.8,0|0,2:0|2:0,2:0:0:0:
331,181,135034,5,4,1:0:0:0:
350,188,135105,1,0,2:0:0:0:
370,196,135176,1,2,3:0:0:0:
389,203,135247,1,0,3:0:0:0:
409,210,135317,2,0,P|436:243|430:269,1,54.6,8|0,1:2|2:0,2:0:0:0:
512,251,135459,2,0,P|507:294|484:308,1,54.6,2|0,3:0|3:0,2:0:0:0:
427,333,135601,6,0,P|367:349|294:376,1,109.2,8|2,1:2|3:0,2:0:0:0:
309,340,135813,1,0,3:0:0:0:
295,316,135884,1,8,1:2:0:0:
181,248,136025,1,2,3:0:0:0:
181,248,136096,1,0,3:0:0:0:
181,248,136167,6,0,L|207:131,1,109.2,12|2,1:2|3:0,2:0:0:0:
184,115,136379,1,0,3:0:0:0:
164,88,136450,1,8,1:2:0:0:
80,0,136591,1,2,3:0:0:0:
60,27,136662,1,0,3:0:0:0:
40,54,136733,2,0,L|63:160,1,109.2,8|2,1:2|3:0,2:0:0:0:
63,160,136945,1,0,3:0:0:0:
63,160,137016,1,8,1:2:0:0:
24,299,137157,6,0,L|75:324,1,54.6,2|0,3:0|3:0,2:0:0:0:
134,372,137299,1,12,1:2:0:0:
152,352,137369,1,0,3:0:0:0:
170,331,137440,1,2,1:2:0:0:
187,310,137511,1,0,3:0:0:0:
202,287,137582,1,8,1:2:0:0:
217,264,137652,1,0,3:0:0:0:
230,240,137723,2,0,P|249:200|256:146,1,54.6,2|0,1:2|3:0,2:0:0:0:
330,156,137865,5,8,1:2:0:0:
330,156,137935,1,0,3:0:0:0:
330,156,138006,2,0,P|311:115|304:61,1,54.6,2|0,1:2|3:0,2:0:0:0:
336,31,138148,2,0,P|380:34|430:55,1,54.6,8|0,1:2|3:0,2:0:0:0:
441,98,138289,2,0,P|415:134|372:167,1,54.6,2|0,1:2|3:0,2:0:0:0:
327,250,138431,5,12,1:2:0:0:
314,285,138501,1,0,3:0:0:0:
331,319,138572,2,0,P|364:337|397:310,1,54.6,10|0,1:2|3:0,2:0:0:0:
453,291,138714,6,0,L|473:192,2,72.8,8|0|0,1:2|2:0|2:0,2:0:0:0:
383,179,138997,5,8,1:2:0:0:
383,179,139067,1,0,3:0:0:0:
383,179,139138,1,10,1:2:0:0:
383,179,139209,1,0,3:0:0:0:
383,179,139280,1,8,1:2:0:0:
332,157,139351,1,0,3:0:0:0:
282,138,139421,1,10,1:2:0:0:
230,121,139492,1,0,3:0:0:0:
177,106,139563,5,4,1:0:0:0:
44,347,141827,5,2,2:1:0:0:
16,331,141898,1,0,2:0:0:0:
3,304,141968,1,0,2:0:0:0:
6,273,142039,1,0,2:0:0:0:
27,250,142110,1,0,2:0:0:0:
56,242,142181,1,0,2:0:0:0:
85,253,142251,1,0,2:0:0:0:
104,278,142322,1,0,2:0:0:0:
100,310,142393,6,0,L|145:357,3,54.6,0|0|0|0,2:0|2:0|2:0|2:0,2:0:0:0:
200,293,142676,2,0,L|265:294,3,54.6,0|0|0|0,2:0|2:0|2:0|2:0,2:0:0:0:
257,210,142959,2,0,L|304:164,3,54.6,0|0|0|0,2:0|2:0|2:0|2:0,2:0:0:0:
160,214,143242,5,0,2:0:0:0:
156,201,143313,1,0,2:0:0:0:
150,189,143384,1,0,2:0:0:0:
145,176,143454,1,0,2:0:0:0:
138,165,143525,1,0,2:0:0:0:
131,153,143596,1,0,2:0:0:0:
122,142,143667,1,0,2:0:0:0:
114,131,143737,1,0,2:0:0:0:
105,122,143808,6,0,P|63:67|163:29,1,204.75,2|0,1:0|2:0,2:0:0:0:
170,55,144091,1,0,2:0:0:0:
110,320,144374,5,4,1:0:0:0:
17,267,144516,5,0,3:0:0:0:
26,241,144586,1,0,3:0:0:0:
49,227,144657,2,0,L|145:202,1,59.15,2|0,1:2|2:0,2:0:0:0:
181,263,144799,5,0,3:0:0:0:
205,250,144869,1,0,3:0:0:0:
231,257,144940,2,0,L|316:307,1,59.15,8|0,1:2|2:0,2:0:0:0:
309,360,145082,1,0,3:0:0:0:
493,286,145223,6,0,P|481:219|375:246,1,177.45,2|0,1:2|3:0,2:0:0:0:
376,242,145506,2,0,P|407:299|430:352,1,118.3,8|0,1:2|3:0,2:0:0:0:
453,116,145789,5,2,1:2:0:0:
453,116,145860,1,0,2:0:0:0:
453,116,145931,2,0,P|469:78|489:41,1,59.15,0|0,3:0|3:0,2:0:0:0:
415,4,146072,2,0,P|384:61|361:114,1,118.3,8|0,1:2|3:0,2:0:0:0:
188,170,146355,5,14,1:2:0:0:
139,1,146497,1,0,3:2:0:0:
139,1,146567,1,0,3:0:0:0:
139,1,146638,1,2,1:2:0:0:
75,121,146780,6,0,P|144:88|267:55,1,177.45,10|0,1:2|3:0,2:0:0:0:
243,68,147063,2,0,P|157:92|77:129,1,177.45,10|0,1:2|3:0,2:0:0:0:
69,151,147346,2,0,P|55:183|78:217,1,59.15,0|0,3:0|3:0,2:0:0:0:
130,370,147487,5,10,1:3:0:0:
130,370,147558,1,0,2:0:0:0:
130,370,147629,1,0,3:0:0:0:
130,370,147700,1,0,3:0:0:0:
130,370,147770,2,0,P|195:348|179:274,1,118.3,2|0,1:2|3:0,2:0:0:0:
176,279,147983,1,0,3:0:0:0:
152,253,148053,2,0,P|82:282|25:338,1,118.3,6|0,1:3|3:0,2:0:0:0:
206,156,148336,5,2,1:2:0:0:
234,164,148407,1,0,1:0:0:0:
261,176,148478,1,0,1:0:0:0:
286,192,148549,1,0,1:0:0:0:
308,211,148619,2,0,L|344:384,1,177.45,2|0,1:0|3:0,2:0:0:0:
366,349,148902,2,0,P|417:302|407:255,1,118.3,2|0,1:3|3:0,2:0:0:0:
400,251,149115,1,0,3:0:0:0:
390,243,149185,1,2,1:3:0:0:
421,54,149327,5,0,3:0:0:0:
451,26,149398,1,0,3:0:0:0:
490,37,149468,2,0,P|508:84|451:118,1,118.3,2|0,1:3|3:0,2:0:0:0:
369,155,149751,6,0,P|324:133|181:107,1,177.45,2|0,1:3|3:0,2:0:0:0:
168,124,150034,2,0,L|208:8,1,118.3,2|0,1:3|3:0,2:0:0:0:
61,99,150317,5,2,1:3:0:0:
287,41,150459,1,0,3:0:0:0:
287,41,150530,1,0,3:0:0:0:
287,41,150601,1,2,1:3:0:0:
58,104,150742,2,0,L|77:159,1,59.15,0|0,3:0|3:0,2:0:0:0:
227,227,150884,5,10,1:3:0:0:
214,254,150954,1,0,2:0:0:0:
203,282,151025,1,2,1:3:0:0:
193,310,151096,1,0,2:0:0:0:
185,338,151167,2,0,L|117:368,1,59.15,2|0,1:3|2:0,2:0:0:0:
97,289,151308,2,0,L|27:262,1,59.15,2|0,1:3|2:0,2:0:0:0:
159,191,151450,5,2,1:3:0:0:
169,163,151520,1,0,2:0:0:0:
191,144,151591,1,2,1:3:0:0:
220,138,151662,1,0,2:0:0:0:
248,145,151733,2,0,L|309:192,1,59.15,2|0,1:3|2:0,2:0:0:0:
326,253,151874,2,0,L|402:243,1,59.15,2|0,1:3|2:0,2:0:0:0:
492,82,152016,5,6,1:3:0:0:
476,57,152086,1,0,1:3:0:0:
451,41,152157,1,2,1:3:0:0:
422,38,152228,1,0,1:3:0:0:
394,48,152299,1,2,1:3:0:0:
374,69,152369,1,0,1:3:0:0:
365,97,152440,2,0,P|371:131|419:164,1,59.15,2|0,1:3|1:3,2:0:0:0:
474,187,152582,5,2,1:3:0:0:
474,187,152652,1,0,1:3:0:0:
474,187,152723,2,0,L|457:279,1,59.15,2|0,1:3|1:3,2:0:0:0:
396,378,152865,6,0,P|383:320|312:209,1,177.45,2|0,1:3|1:3,2:0:0:0:
316,237,153148,2,0,P|274:272|280:316,1,95.5499999999999,0|0,2:0|2:0,2:0:0:0:
290,321,153431,1,4,1:0:0:0:
189,384,153572,5,0,3:0:0:0:
189,384,153643,1,0,3:0:0:0:
189,384,153714,2,0,P|160:324|124:316,1,59.15,2|0,1:2|2:0,2:0:0:0:
95,304,153855,1,0,3:0:0:0:
168,217,153997,5,8,1:2:0:0:
175,173,154067,1,0,2:0:0:0:
183,129,154138,1,0,3:0:0:0:
191,86,154209,1,0,3:0:0:0:
199,42,154280,2,0,P|123:59|104:115,1,118.3,2|0,1:2|3:0,2:0:0:0:
48,223,154563,5,8,1:2:0:0:
42,209,154634,1,0,2:0:0:0:
35,196,154704,1,0,3:0:0:0:
27,184,154775,1,0,3:0:0:0:
16,173,154846,2,0,L|146:204,1,118.3,2|0,1:2|3:0,2:0:0:0:
157,176,155058,1,0,3:0:0:0:
183,152,155129,2,0,L|250:136,1,59.15,8|0,1:2|2:0,2:0:0:0:
316,237,155270,2,0,L|373:250,1,59.15,0|0,3:0|3:0,2:0:0:0:
476,112,155412,6,0,P|507:61|403:42,1,177.45,12|0,1:2|3:0,2:0:0:0:
403,47,155695,1,2,1:2:0:0:
233,2,155836,6,0,P|295:64|344:138,1,177.45,10|0,1:2|3:0,2:0:0:0:
334,147,156119,2,0,P|285:72|222:10,1,177.45,10|0,1:2|3:0,2:0:0:0:
196,23,156402,2,0,P|183:60|204:104,1,59.15,0|0,3:0|3:0,2:0:0:0:
240,138,156544,6,0,L|216:263,1,118.3,10|0,1:3|3:0,2:0:0:0:
193,271,156756,1,0,3:0:0:0:
168,288,156827,2,0,L|118:211,1,59.15,2|0,1:2|2:0,2:0:0:0:
88,142,156968,2,0,L|38:219,1,59.15,0|0,3:0|3:0,2:0:0:0:
0,384,157110,6,0,P|59:329|125:345,1,118.3,6|0,1:3|3:0,2:0:0:0:
320,260,157393,1,2,1:2:0:0:
308,269,157464,1,0,1:0:0:0:
299,281,157534,1,0,1:0:0:0:
293,294,157605,1,0,1:0:0:0:
289,308,157676,6,0,L|238:132,1,177.45,2|0,1:0|3:0,2:0:0:0:
264,153,157959,2,0,L|390:186,1,118.3,2|0,1:3|3:0,2:0:0:0:
400,162,158171,1,0,3:0:0:0:
422,142,158242,1,2,1:3:0:0:
512,257,158384,5,0,3:0:0:0:
512,257,158454,1,0,3:0:0:0:
512,257,158525,2,0,P|435:262|431:329,1,118.3,2|0,1:3|3:0,2:0:0:0:
355,84,158808,6,0,P|327:19|422:45,1,177.45,2|0,1:3|3:0,2:0:0:0:
439,9,159091,2,0,P|469:68|509:104,1,118.3,2|0,1:3|3:0,2:0:0:0:
500,112,159303,1,0,3:0:0:0:
493,122,159374,1,2,1:3:0:0:
242,65,159516,1,0,3:0:0:0:
242,65,159586,1,0,3:0:0:0:
242,65,159657,2,0,P|180:78|175:143,1,118.3,2|0,1:3|3:0,2:0:0:0:
301,250,159940,5,10,1:3:0:0:
314,277,160011,1,0,2:0:0:0:
325,305,160082,1,2,1:3:0:0:
335,333,160152,1,0,2:0:0:0:
343,361,160223,2,0,L|411:391,1,59.15,2|0,1:3|2:0,2:0:0:0:
431,312,160365,2,0,L|501:285,1,59.15,2|0,1:3|2:0,2:0:0:0:
369,214,160506,5,2,1:3:0:0:
359,186,160577,1,0,2:0:0:0:
337,167,160648,1,2,1:3:0:0:
308,161,160718,1,0,2:0:0:0:
280,168,160789,2,0,L|219:215,1,59.15,2|0,1:3|2:0,2:0:0:0:
202,276,160931,2,0,L|126:266,1,59.15,2|0,1:3|2:0,2:0:0:0:
29,106,161072,5,6,1:3:0:0:
3,76,161143,1,0,1:3:0:0:
2,38,161214,1,2,1:3:0:0:
26,8,161284,1,0,1:3:0:0:
63,0,161355,1,2,1:3:0:0:
98,17,161426,1,0,1:3:0:0:
112,53,161497,2,0,L|185:87,1,59.15,2|0,1:3|1:3,2:0:0:0:
90,185,161638,5,2,1:3:0:0:
90,185,161709,1,0,1:3:0:0:
90,185,161780,2,0,L|33:201,1,59.15,2|0,1:3|1:3,2:0:0:0:
4,290,161921,5,2,1:3:0:0:
4,290,161992,1,0,1:3:0:0:
4,290,162063,2,0,L|46:331,1,59.15,2|0,1:3|1:3,2:0:0:0:
139,312,162204,6,0,L|153:254,1,59.15,6|0,1:2|1:3,2:0:0:0:
221,144,162346,5,2,1:3:0:0:
237,150,162417,1,0,1:3:0:0:
253,156,162487,2,0,P|281:189|271:233,1,59.15,2|0,1:3|1:3,2:0:0:0:
357,149,162629,5,2,1:3:0:0:
364,164,162700,1,0,1:3:0:0:
371,180,162770,2,0,P|367:223|329:247,1,59.15,2|0,1:3|1:3,2:0:0:0:
450,249,162912,5,2,1:3:0:0:
444,264,162983,1,0,1:3:0:0:
438,281,163053,2,0,P|405:308|361:299,1,59.15,2|0,1:3|1:3,2:0:0:0:
289,305,163195,1,2,1:3:0:0:
213,384,163336,5,4,1:2:0:0:
198,379,163407,1,0,2:0:0:0:
186,371,163478,1,0,2:0:0:0:
177,360,163549,1,0,2:0:0:0:
171,346,163619,6,0,L|191:278,3,59.15,0|0|0|0,2:0|2:0|2:0|2:0,2:0:0:0:
32,250,163902,2,0,L|47:306,3,59.15,0|0|0|0,2:0|2:0|2:0|2:0,2:0:0:0:
122,226,164185,5,0,3:0:0:0:
140,171,164256,1,0,3:0:0:0:
155,114,164327,1,0,3:0:0:0:
171,57,164398,1,0,3:0:0:0:
187,0,164468,2,0,L|76:52,1,109.2,4|0,1:0|2:0,2:0:0:0:
9,97,164751,6,0,L|31:159,3,54.6,2|0|0|0,2:3|2:0|2:0|2:0,2:0:0:0:
59,154,165034,1,2,2:3:0:0:
88,181,165105,1,0,2:0:0:0:
128,185,165176,1,0,2:0:0:0:
163,165,165247,1,0,2:0:0:0:
179,128,165317,1,2,2:3:0:0:
194,91,165388,1,0,2:0:0:0:
229,70,165459,1,0,2:0:0:0:
269,75,165530,1,0,2:0:0:0:
299,102,165601,6,0,P|297:153|261:168,3,54.6,2|0|0|0,2:3|2:0|2:0|2:0,2:0:0:0:
362,189,165884,2,0,P|324:223|288:208,3,54.6,2|0|0|0,2:3|2:0|2:0|2:0,2:0:0:0:
345,295,166167,2,0,P|294:293|279:257,3,54.6,2|0|0|0,2:3|2:0|2:0|2:0,2:0:0:0:
258,358,166450,2,0,P|223:320|238:284,3,54.6,2|0|0|0,2:3|2:0|2:0|2:0,2:0:0:0:
166,262,166733,6,0,L|218:151,1,109.2,0|0,1:0|2:0,2:0:0:0:
269,75,167016,5,2,2:3:0:0:
291,53,167086,1,0,2:0:0:0:
320,44,167157,1,0,2:0:0:0:
351,48,167228,1,0,2:0:0:0:
377,65,167299,1,2,2:3:0:0:
393,91,167369,1,0,2:0:0:0:
396,122,167440,1,0,2:0:0:0:
385,151,167511,1,0,2:0:0:0:
383,183,167582,1,2,2:3:0:0:
399,211,167652,1,0,2:0:0:0:
428,226,167723,1,0,2:0:0:0:
460,224,167794,1,0,2:0:0:0:
486,205,167865,6,0,L|512:82,1,109.2,2|0,2:3|2:0,2:0:0:0:
321,243,168148,1,2,2:3:0:0:
307,251,168218,1,0,2:0:0:0:
299,265,168289,2,0,L|316:351,1,54.6,0|0,2:0|2:0,2:0:0:0:
382,384,168431,5,2,2:3:0:0:
396,376,168501,1,0,2:0:0:0:
404,362,168572,2,0,L|386:275,1,54.6,0|0,2:0|2:0,2:0:0:0:
238,197,168714,2,0,P|205:247|227:314,1,109.2,2|0,2:3|2:0,2:0:0:0:
106,372,168997,5,0,1:0:0:0:
72,384,169067,1,0,2:0:0:0:
37,377,169138,1,0,2:0:0:0:
10,353,169209,1,0,2:0:0:0:
0,319,169280,1,2,2:3:0:0:
10,284,169351,1,0,2:0:0:0:
36,260,169421,1,0,2:0:0:0:
70,251,169492,1,0,2:0:0:0:
94,225,169563,5,2,2:3:0:0:
84,211,169634,1,0,2:0:0:0:
74,198,169704,2,0,L|61:129,1,54.6,0|0,2:0|2:0,2:0:0:0:
0,34,169846,5,2,2:3:0:0:
17,32,169917,1,0,2:0:0:0:
33,30,169987,2,0,L|99:53,1,54.6,0|0,2:0|2:0,2:0:0:0:
212,48,170129,5,2,2:3:0:0:
205,63,170200,1,0,2:0:0:0:
199,78,170270,2,0,L|145:123,1,54.6,0|0,2:0|2:0,2:0:0:0:
103,102,170412,5,2,2:3:0:0:
321,63,170553,1,0,2:0:0:0:
260,157,170695,5,2,2:3:0:0:
478,196,170836,1,0,2:0:0:0:
465,171,170907,1,0,2:0:0:0:
452,146,170978,2,0,L|478:22,1,109.2,2|0,2:3|2:0,2:0:0:0:
361,226,171261,5,0,1:0:0:0:
313,314,171402,1,0,2:0:0:0:
290,319,171473,1,0,2:0:0:0:
267,326,171544,1,2,2:3:0:0:
245,334,171615,1,0,2:0:0:0:
223,342,171685,1,0,2:0:0:0:
202,351,171756,1,0,2:0:0:0:
181,361,171827,2,0,P|147:325|169:291,3,54.6,2|0|0|0,2:3|2:0|2:0|2:0,2:0:0:0:
72,341,172110,2,0,P|73:292|113:284,3,54.6,2|0|0|0,2:3|2:0|2:0|2:0,2:0:0:0:
9,249,172393,5,2,1:3:0:0:
9,249,172464,1,0,2:0:0:0:
9,249,172534,2,0,P|44:215|78:237,1,54.6,0|0,2:0|2:0,2:0:0:0:
235,156,172676,5,2,2:3:0:0:
235,156,172747,1,0,2:0:0:0:
235,156,172817,2,0,P|199:122|165:144,1,54.6,0|0,2:0|2:0,2:0:0:0:
87,63,172959,5,2,2:3:0:0:
101,115,173030,1,0,2:0:0:0:
120,166,173101,1,0,2:0:0:0:
146,214,173171,1,0,2:0:0:0:
176,260,173242,1,2,2:3:0:0:
184,280,173313,1,0,2:0:0:0:
191,300,173384,1,0,2:0:0:0:
280,351,173525,6,0,P|352:371|415:401,1,109.2,4|0,1:0|3:0,2:0:0:0:
504,334,173808,5,2,3:0:0:0:
512,294,173879,1,0,2:0:0:0:
491,260,173950,1,0,3:0:0:0:
453,249,174020,1,0,2:0:0:0:
417,267,174091,1,2,3:0:0:0:
378,277,174162,1,0,2:0:0:0:
343,258,174233,1,0,3:0:0:0:
329,220,174303,1,0,2:0:0:0:
345,183,174374,1,2,3:0:0:0:
353,190,174445,1,0,2:0:0:0:
360,198,174516,1,0,3:0:0:0:
366,206,174586,1,0,2:0:0:0:
370,216,174657,6,0,L|446:236,3,54.6,2|0|0|0,3:0|2:0|3:0|2:0,2:0:0:0:
465,161,174940,2,0,L|532:121,3,54.6,2|0|0|0,3:0|2:0|3:0|2:0,2:0:0:0:
493,54,175223,2,0,L|513:-21,3,54.6,2|0|0|0,3:0|2:0|3:0|2:0,2:0:0:0:
402,44,175506,5,2,3:0:0:0:
394,55,175577,1,0,2:0:0:0:
386,66,175648,1,0,3:0:0:0:
378,77,175718,1,0,2:0:0:0:
371,89,175789,2,0,L|233:124,1,109.2,4|0,1:0|3:0,2:0:0:0:
194,175,176072,5,2,3:0:0:0:
170,161,176143,1,0,2:0:0:0:
146,148,176214,1,0,3:0:0:0:
122,135,176284,1,0,2:0:0:0:
98,122,176355,1,2,3:0:0:0:
73,110,176426,1,0,2:0:0:0:
49,98,176497,1,0,3:0:0:0:
24,85,176567,1,0,2:0:0:0:
0,73,176638,6,0,P|9:29|55:27,3,54.6,2|0|0|0,3:0|2:0|3:0|2:0,2:0:0:0:
128,15,176921,1,2,3:0:0:0:
128,15,176992,1,0,2:0:0:0:
128,15,177063,2,0,P|161:45|140:86,1,54.6,0|0,3:0|2:0,2:0:0:0:
89,153,177204,5,2,3:0:0:0:
47,180,177275,1,0,2:0:0:0:
44,229,177346,1,0,3:0:0:0:
81,260,177417,1,0,3:0:0:0:
129,255,177487,1,2,3:0:0:0:
173,276,177558,1,0,2:0:0:0:
184,324,177629,1,0,3:0:0:0:
151,361,177700,1,0,2:0:0:0:
103,352,177770,1,2,3:0:0:0:
83,306,177841,1,0,3:0:0:0:
110,264,177912,1,0,3:0:0:0:
159,263,177983,1,0,3:0:0:0:
188,301,178053,6,0,L|323:336,1,109.2,4|0,1:0|3:0,2:0:0:0:
483,197,178336,5,2,3:0:0:0:
456,203,178407,1,0,3:0:0:0:
430,210,178478,1,0,3:0:0:0:
403,217,178549,1,0,3:0:0:0:
377,224,178619,5,2,3:0:0:0:
365,242,178690,1,0,3:0:0:0:
353,260,178761,2,0,P|374:300|427:297,1,54.6,0|0,3:0|3:0,2:0:0:0:
475,368,178902,5,2,3:0:0:0:
487,350,178973,1,0,3:0:0:0:
499,332,179044,2,0,P|478:292|425:295,1,54.6,0|0,3:0|3:0,2:0:0:0:
284,197,179185,5,4,1:0:0:0:
272,179,179256,1,0,3:0:0:0:
260,161,179327,2,0,P|281:121|334:124,1,54.6,0|0,3:0|3:0,2:0:0:0:
333,54,179468,5,2,3:0:0:0:
512,114,179610,1,0,3:0:0:0:
452,0,179751,5,2,3:0:0:0:
392,173,179893,1,0,3:0:0:0:
420,78,180034,5,2,3:0:0:0:
422,83,180105,1,0,3:0:0:0:
424,88,180176,1,0,3:0:0:0:
228,170,180317,5,4,1:0:0:0:
67,85,180459,5,0,3:0:0:0:
64,60,180530,1,0,3:0:0:0:
72,39,180601,1,2,3:0:0:0:
89,22,180671,1,0,3:0:0:0:
110,15,180742,2,0,P|154:22|169:61,1,54.6,0|0,3:0|3:0,2:0:0:0:
149,113,180884,5,2,1:3:0:0:
144,135,180954,1,0,3:0:0:0:
139,158,181025,1,0,3:0:0:0:
133,181,181096,1,0,3:0:0:0:
127,203,181167,1,2,3:0:0:0:
119,226,181237,1,0,3:0:0:0:
111,248,181308,1,0,3:0:0:0:
102,270,181379,1,0,3:0:0:0:
89,294,181450,6,0,L|29:310,3,54.6,4|0|0|0,1:0|3:0|3:0|3:0,2:0:0:0:
137,365,181733,2,0,L|189:379,3,54.6,2|0|0|0,1:3|3:0|3:0|3:0,2:0:0:0:
28,217,182016,6,0,P|-3:178|16:153,1,54.6,2|0,1:3|3:0,2:0:0:0:
201,301,182157,2,0,P|225:288|233:263,1,54.6,0|0,1:0|3:0,2:0:0:0:
75,147,182299,6,0,P|80:97|111:93,1,54.6,2|0,1:3|3:0,2:0:0:0:
154,231,182440,2,0,P|163:205|150:182,1,54.6,0|0,1:0|3:0,2:0:0:0:
169,90,182582,5,0,2:0:0:0:
178,79,182652,1,0,2:0:0:0:
187,70,182723,1,0,2:0:0:0:
197,60,182794,1,0,2:0:0:0:
208,52,182865,1,0,2:0:0:0:
219,44,182935,1,0,2:0:0:0:
231,37,183006,1,0,2:0:0:0:
243,30,183077,1,0,2:0:0:0:
255,24,183148,6,0,L|326:10,7,54.6,0|0|0|0|0|0|0|0,2:0|2:0|2:0|2:0|2:0|2:0|2:0|2:0,2:0:0:0:
394,17,183714,5,0,3:1:0:0:
429,39,183784,1,0,2:1:0:0:
444,79,183855,1,0,3:1:0:0:
430,119,183926,1,0,3:1:0:0:
394,142,183997,1,0,3:1:0:0:
351,137,184067,1,0,3:1:0:0:
308,127,184138,1,0,3:1:0:0:
270,146,184209,1,0,3:1:0:0:
250,184,184280,1,0,3:1:0:0:
261,227,184351,1,0,3:1:0:0:
294,252,184421,5,0,3:1:0:0:
298,262,184492,1,0,3:1:0:0:
301,271,184563,1,0,3:1:0:0:
305,281,184634,1,0,3:1:0:0:
310,290,184704,1,0,3:1:0:0:
314,299,184775,1,0,3:1:0:0:
316,308,184846,6,0,P|461:319|376:214,1,354.9,4|0,3:0|2:0,2:0:0:0:
390,288,186827,1,8,3:2:0:0:
502,21,187110,5,8,1:3:0:0:
457,0,187181,1,0,1:2:0:0:
413,21,187251,1,10,1:2:0:0:
409,70,187322,1,0,1:2:0:0:
438,109,187393,1,0,1:2:0:0:
423,156,187464,1,0,1:2:0:0:
376,168,187534,1,10,1:2:0:0:
338,135,187605,1,0,1:2:0:0:
290,149,187676,1,0,1:2:0:0:
284,164,187747,1,0,1:2:0:0:
278,179,187817,1,10,1:2:0:0:
272,194,187888,1,0,1:2:0:0:
266,209,187959,2,0,L|191:233,3,54.6,0|0|10|0,1:2|1:2|1:2|1:2,2:0:0:0:
118,144,188242,5,0,1:3:0:0:
80,120,188313,1,0,1:2:0:0:
69,77,188384,1,10,1:2:0:0:
91,39,188454,1,0,1:2:0:0:
133,27,188525,1,0,1:2:0:0:
172,48,188596,1,0,1:2:0:0:
185,91,188667,2,0,P|148:131|147:160,1,54.6,10|0,1:2|1:2,2:0:0:0:
75,270,188808,5,0,1:2:0:0:
69,248,188879,1,0,1:2:0:0:
81,229,188950,1,10,1:2:0:0:
102,223,189020,1,0,1:2:0:0:
121,234,189091,1,0,1:2:0:0:
128,255,189162,1,0,1:2:0:0:
117,275,189233,2,0,P|89:276|63:326,1,54.6,10|0,1:2|1:2,2:0:0:0:
39,384,189374,5,4,1:3:0:0:
65,376,189445,1,0,1:2:0:0:
91,369,189516,1,10,1:2:0:0:
118,362,189586,1,0,1:2:0:0:
144,356,189657,1,0,1:2:0:0:
171,350,189728,1,0,1:2:0:0:
198,345,189799,1,10,1:2:0:0:
225,340,189869,1,0,1:2:0:0:
251,336,189940,6,0,L|278:255,1,54.6,0|0,1:2|1:2,2:0:0:0:
308,191,190082,2,0,L|363:254,1,54.6,10|0,1:2|1:2,2:0:0:0:
405,312,190223,1,0,1:2:0:0:
405,312,190294,1,0,1:2:0:0:
405,312,190365,2,0,L|322:328,1,54.6,10|0,1:2|1:2,2:0:0:0:
225,193,190506,5,0,1:3:0:0:
233,140,190577,1,0,1:2:0:0:
273,104,190648,1,10,1:2:0:0:
326,100,190718,1,0,1:2:0:0:
370,130,190789,1,0,1:2:0:0:
386,127,190860,1,0,1:2:0:0:
402,123,190931,2,0,L|422:42,1,54.6,10|0,1:2|1:2,2:0:0:0:
276,2,191072,5,0,1:2:0:0:
279,25,191143,1,0,1:2:0:0:
283,49,191214,1,10,1:2:0:0:
287,72,191284,1,0,1:2:0:0:
291,96,191355,1,0,1:2:0:0:
295,119,191426,1,0,1:2:0:0:
299,143,191497,1,10,1:2:0:0:
303,166,191567,1,0,1:2:0:0:
307,190,191638,6,0,L|379:231,3,54.6,8|0|10|0,1:3|1:2|1:2|1:2,2:0:0:0:
293,275,191921,2,0,L|315:355,1,54.6,0|0,1:2|1:2,2:0:0:0:
223,324,192063,5,10,1:2:0:0:
203,363,192134,1,0,1:2:0:0:
161,380,192204,1,0,1:2:0:0:
119,364,192275,1,0,1:2:0:0:
98,325,192346,1,10,1:2:0:0:
109,282,192417,1,0,1:2:0:0:
145,257,192487,2,0,P|166:210|143:184,1,54.6,0|0,1:2|1:2,2:0:0:0:
86,201,192629,2,0,P|68:153|33:151,1,54.6,10|0,1:2|1:2,2:0:0:0:
7,66,192770,5,0,1:3:0:0:
33,61,192841,1,0,1:2:0:0:
60,56,192912,1,10,1:2:0:0:
87,51,192983,1,0,1:2:0:0:
121,79,193053,1,0,1:2:0:0:
148,84,193124,1,0,1:2:0:0:
174,89,193195,1,10,1:2:0:0:
201,95,193266,1,0,1:2:0:0:
237,70,193336,6,0,L|297:52,1,54.6,0|0,1:2|1:2,2:0:0:0:
295,150,193478,2,0,L|347:165,1,54.6,10|0,1:2|1:2,2:0:0:0:
435,150,193619,6,0,L|490:179,1,54.6,0|0,1:2|1:2,2:0:0:0:
412,234,193761,2,0,L|437:282,1,54.6,10|0,1:2|1:2,2:0:0:0:
508,342,193902,5,2,1:0:0:0:
470,364,193973,1,0,1:2:0:0:
426,362,194044,1,10,1:2:0:0:
383,350,194115,1,0,1:2:0:0:
346,326,194185,1,0,1:2:0:0:
315,294,194256,1,0,1:2:0:0:
274,276,194327,1,10,1:2:0:0:
235,297,194398,1,0,1:2:0:0:
229,339,194468,6,0,P|262:377|288:372,3,54.6,0|0|10|0,1:2|1:2|1:2|1:2,2:0:0:0:
241,205,194751,2,0,P|191:214|182:239,3,54.6,0|0|10|0,1:2|1:2|1:2|1:2,2:0:0:0:
351,282,195034,2,0,P|367:234|350:214,3,54.6,4|0|10|0,1:3|1:2|1:2|1:2,2:0:0:0:
396,209,195317,2,0,P|367:156|388:114,1,109.2,0|10,1:2|1:2,2:0:0:0:
512,0,195601,5,0,1:2:0:0:
464,9,195671,1,0,1:2:0:0:
416,21,195742,1,10,1:2:0:0:
368,34,195813,1,0,1:2:0:0:
321,49,195884,1,0,1:2:0:0:
275,66,195954,1,0,1:2:0:0:
229,85,196025,1,10,1:2:0:0:
185,107,196096,1,0,1:2:0:0:
143,132,196167,6,0,P|108:94|129:67,3,54.6,4|8|2|8,1:0|1:2|1:2|1:2,2:0:0:0:
222,187,196450,2,0,P|272:175|285:207,3,54.6,2|8|2|8,1:2|1:2|1:2|1:2,2:0:0:0:
134,227,196733,5,2,1:2:0:0:
132,240,196803,1,8,1:2:0:0:
129,253,196874,1,2,1:2:0:0:
124,266,196945,1,8,1:2:0:0:
117,278,197016,1,2,1:2:0:0:
108,288,197086,1,8,1:2:0:0:
98,297,197157,1,2,1:2:0:0:
86,304,197228,1,8,1:2:0:0:
73,309,197299,5,8,1:3:0:0:
59,292,197369,1,8,1:2:0:0:
68,272,197440,1,2,1:2:0:0:
89,266,197511,1,8,1:2:0:0:
107,277,197582,1,2,1:2:0:0:
117,295,197652,1,8,1:2:0:0:
134,308,197723,1,2,1:2:0:0:
155,311,197794,1,8,1:2:0:0:
174,301,197865,5,2,1:2:0:0:
195,304,197935,1,8,1:2:0:0:
216,309,198006,1,2,1:2:0:0:
237,314,198077,1,8,1:2:0:0:
257,320,198148,1,2,1:2:0:0:
277,326,198218,1,8,1:2:0:0:
297,333,198289,1,2,1:2:0:0:
317,340,198360,1,8,1:2:0:0:
337,348,198431,6,0,P|370:373|385:385,3,54.6,4|8|2|8,1:3|1:2|1:2|1:2,2:0:0:0:
406,299,198714,2,0,P|447:293|466:291,3,54.6,2|8|2|8,1:2|1:2|1:2|1:2,2:0:0:0:
420,215,198997,2,0,P|445:181|457:167,3,54.6,2|8|2|8,1:2|1:2|1:2|1:2,2:0:0:0:
370,145,199280,2,0,P|364:103|362:84,3,54.6,2|8|2|8,1:2|1:2|1:2|1:2,2:0:0:0:
296,31,199563,5,8,1:3:0:0:
288,50,199634,1,8,1:2:0:0:
282,69,199704,1,2,1:2:0:0:
275,88,199775,1,8,1:2:0:0:
269,108,199846,1,2,1:2:0:0:
263,128,199917,1,8,1:2:0:0:
257,147,199987,1,2,1:2:0:0:
252,167,200058,1,8,1:2:0:0:
247,187,200129,5,2,1:2:0:0:
253,196,200200,1,8,1:2:0:0:
259,204,200270,1,2,1:2:0:0:
265,213,200341,1,8,1:2:0:0:
270,222,200412,1,2,1:2:0:0:
275,231,200483,1,8,1:2:0:0:
280,240,200553,1,2,1:2:0:0:
284,249,200624,1,8,1:2:0:0:
288,259,200695,6,0,P|299:309|301:353,5,54.6,2|8|2|8|2|8,1:0|1:2|1:2|1:2|1:2|1:2,2:0:0:0:
241,361,201119,5,2,1:2:0:0:
223,374,201190,1,8,1:2:0:0:
203,381,201261,1,2,1:2:0:0:
181,381,201332,1,8,1:2:0:0:
160,373,201402,1,2,1:2:0:0:
143,360,201473,1,8,1:2:0:0:
131,342,201544,1,2,1:2:0:0:
126,321,201615,1,8,1:2:0:0:
128,299,201685,1,2,1:2:0:0:
137,279,201756,1,8,1:2:0:0:
151,263,201827,5,8,1:3:0:0:
150,258,201898,1,8,1:2:0:0:
147,253,201968,1,2,1:2:0:0:
143,248,202039,1,8,1:2:0:0:
139,243,202110,1,2,1:2:0:0:
134,239,202181,1,8,1:2:0:0:
129,235,202251,1,2,1:2:0:0:
124,231,202322,1,8,1:2:0:0:
119,228,202393,1,2,1:2:0:0:
114,225,202464,1,8,1:2:0:0:
109,221,202534,1,2,1:2:0:0:
104,217,202605,1,8,1:2:0:0:
99,213,202676,1,2,1:2:0:0:
95,208,202747,1,8,1:2:0:0:
91,203,202817,1,2,1:2:0:0:
88,198,202888,1,8,1:2:0:0:
84,193,202959,6,0,L|65:116,3,54.6,4|8|2|8,1:2|1:2|1:2|1:2,2:0:0:0:
228,100,203242,2,0,L|214:153,3,54.6,2|8|2|8,1:2|1:2|1:2|1:2,2:0:0:0:
141,93,203525,6,0,L|122:16,3,54.6,2|8|2|8,1:2|1:2|1:2|1:2,2:0:0:0:
318,0,203808,2,0,L|304:53,3,54.6,2|8|2|8,1:2|1:2|1:2|1:2,2:0:0:0:
360,114,204091,5,8,1:3:0:0:
378,142,204162,1,8,1:2:0:0:
408,157,204233,1,2,1:2:0:0:
442,157,204303,1,8,1:2:0:0:
471,140,204374,1,2,1:2:0:0:
489,111,204445,1,8,1:2:0:0:
490,77,204516,1,2,1:2:0:0:
475,47,204586,1,8,1:2:0:0:
447,28,204657,5,4,1:3:0:0:
442,54,204728,1,8,1:2:0:0:
437,81,204799,1,2,1:2:0:0:
432,108,204869,1,8,1:2:0:0:
428,135,204940,1,2,1:2:0:0:
425,162,205011,1,8,1:2:0:0:
422,189,205082,1,2,1:2:0:0:
419,217,205152,1,8,1:2:0:0:
418,244,205223,5,4,1:0:0:0:
474,327,205506,6,0,P|501:353|498:379,3,50.05,0|0|0|0,2:0|2:0|2:0|2:0,2:0:0:0:
389,325,205789,2,0,P|389:362|369:379,3,45.5,0|0|0|0,2:0|2:0|2:0|2:0,2:0:0:0:
330,263,206072,2,0,P|303:290|277:287,3,45.5,0|0|0|0,2:0|2:0|2:0|2:0,2:0:0:0:
240,238,206355,5,0,2:0:0:0:
237,226,206426,1,0,2:0:0:0:
234,215,206497,1,0,2:0:0:0:
231,204,206567,1,0,2:0:0:0:
229,193,206638,1,0,2:0:0:0:
226,182,206709,1,0,2:0:0:0:
223,171,206780,1,0,2:0:0:0:
221,160,206851,1,0,2:0:0:0:
218,149,206921,2,0,L|157:110,3,45.5,0|0|0|0,2:0|2:0|2:0|2:0,2:0:0:0:
102,154,207204,6,0,P|97:97|138:57,1,118.3,2|0,1:0|2:0,2:0:0:0:
59,277,207487,5,4,1:0:0:0:
56,290,207558,1,0,2:0:0:0:
52,303,207629,1,0,2:0:0:0:
45,315,207700,1,0,2:0:0:0:
38,327,207770,2,0,P|10:353|13:379,3,50.05,0|0|0|0,2:0|2:0|2:0|2:0,2:0:0:0:
123,325,208053,2,0,P|122:362|142:379,3,45.5,0|0|0|0,2:0|2:0|2:0|2:0,2:0:0:0:
182,263,208336,2,0,P|208:290|234:287,3,45.5,0|0|0|0,2:0|2:0|2:0|2:0,2:0:0:0:
272,238,208619,5,0,2:0:0:0:
274,226,208690,1,0,2:0:0:0:
277,215,208761,1,0,2:0:0:0:
280,204,208832,1,0,2:0:0:0:
282,193,208902,1,0,2:0:0:0:
285,182,208973,1,0,2:0:0:0:
288,171,209044,1,0,2:0:0:0:
290,160,209115,1,0,2:0:0:0:
293,149,209185,2,0,L|355:110,3,45.5,0|0|0|0,2:0|2:0|2:0|2:0,2:0:0:0:
374,57,209468,6,0,P|408:85|418:128,1,91,2|0,1:0|2:0,2:0:0:0:
484,191,209751,2,0,P|458:231|421:347,1,136.5,0|0,2:0|2:0,2:0:0:0:
441,346,210034,1,4,1:0:0:0:
483,309,212016,6,0,P|420:275|425:379,1,200.2,12|2,1:2|1:2,2:0:0:0:
491,203,212440,2,0,P|524:154|491:104,1,100.1,10|0,1:2|3:0,2:0:0:0:
351,46,212723,1,10,1:2:0:0:
495,0,212865,5,8,3:2:0:0:
468,30,212935,1,0,3:0:0:0:
444,64,213006,1,0,3:0:0:0:
423,99,213077,1,0,3:0:0:0:
405,136,213148,2,0,P|349:160|288:202,1,118.3,10|0,1:3|3:0,2:0:0:0:
283,177,213360,1,0,3:0:0:0:
264,161,213431,2,0,P|249:109|270:95,1,59.15,2|0,1:2|2:0,2:0:0:0:
198,50,213572,2,0,P|150:23|155:0,1,59.15,0|0,3:0|3:0,2:0:0:0:
69,98,213714,1,6,1:3:0:0:
69,98,213784,1,0,2:0:0:0:
69,98,213855,1,0,3:0:0:0:
69,98,213926,1,0,3:0:0:0:
69,98,213997,2,0,P|129:130|192:186,1,118.3,2|0,1:2|1:0,2:0:0:0:
136,302,214280,6,0,P|107:356|17:307,1,177.45,2|0,1:0|3:0,2:0:0:0:
0,296,214563,2,0,P|16:241|78:254,1,118.3,2|0,1:3|3:0,2:0:0:0:
86,228,214775,1,0,3:0:0:0:
109,222,214846,1,2,1:3:0:0:
218,344,214987,1,0,3:0:0:0:
241,338,215058,1,0,3:0:0:0:
257,321,215129,2,0,P|311:322|326:269,1,118.3,2|0,1:3|3:0,2:0:0:0:
213,34,215412,6,0,P|227:108|306:207,1,177.45,2|0,1:3|3:0,2:0:0:0:
295,162,215695,2,0,P|355:171|424:206,1,118.3,2|0,1:3|3:0,2:0:0:0:
435,62,215978,5,2,1:3:0:0:
512,233,216119,1,0,3:0:0:0:
512,233,216190,1,0,3:0:0:0:
512,233,216261,1,2,1:3:0:0:
430,59,216402,2,0,L|375:78,1,59.15,0|0,3:0|3:0,2:0:0:0:
199,26,216544,5,10,1:3:0:0:
186,53,216615,1,0,2:0:0:0:
175,81,216685,1,2,1:3:0:0:
165,109,216756,1,0,2:0:0:0:
157,137,216827,2,0,L|89:167,1,59.15,2|0,1:3|2:0,2:0:0:0:
29,138,216968,2,0,L|2:207,1,59.15,2|0,1:3|2:0,2:0:0:0:
35,267,217110,5,2,1:3:0:0:
44,294,217181,1,0,2:0:0:0:
67,312,217251,1,2,1:3:0:0:
96,314,217322,1,0,2:0:0:0:
122,299,217393,1,2,1:3:0:0:
147,285,217464,1,0,2:0:0:0:
176,287,217534,1,2,1:3:0:0:
199,304,217605,1,0,2:0:0:0:
209,332,217676,6,0,P|188:367|187:388,1,59.15,6|0,1:3|1:3,2:0:0:0:
283,291,217817,2,0,P|288:320|305:343,1,59.15,2|0,1:3|1:3,2:0:0:0:
307,208,217959,1,2,1:3:0:0:
307,208,218030,1,0,1:3:0:0:
307,208,218101,2,0,P|330:225|359:230,1,59.15,2|0,1:3|1:3,2:0:0:0:
209,200,218242,5,2,1:3:0:0:
223,157,218313,1,0,1:3:0:0:
235,114,218384,1,2,1:3:0:0:
244,71,218454,1,0,1:3:0:0:
252,28,218525,1,2,1:3:0:0:
229,32,218596,1,0,1:3:0:0:
208,42,218667,1,2,1:3:0:0:
189,54,218737,1,0,1:3:0:0:
171,69,218808,6,0,P|212:123|277:243,1,177.45,0|0,2:0|2:0,2:0:0:0:
294,240,219091,1,4,1:0:0:0:
499,165,219233,5,0,3:0:0:0:
512,132,219303,1,0,3:0:0:0:
496,100,219374,2,0,P|458:82|430:113,1,59.15,2|0,1:2|2:0,2:0:0:0:
392,147,219516,2,0,P|430:219|460:291,1,118.3,0|8,3:0|1:2,2:0:0:0:
455,280,219728,1,0,2:0:0:0:
464,308,219799,1,0,3:0:0:0:
473,335,219869,1,0,3:0:0:0:
481,363,219940,1,2,1:2:0:0:
363,337,220082,5,0,3:0:0:0:
344,314,220152,1,0,3:0:0:0:
319,296,220223,2,0,P|272:263|213:242,1,118.3,8|0,1:2|3:0,2:0:0:0:
205,220,220435,1,0,3:0:0:0:
195,198,220506,1,2,1:2:0:0:
110,242,220648,5,0,3:0:0:0:
76,231,220718,1,0,3:0:0:0:
43,242,220789,1,8,1:2:0:0:
22,269,220860,1,0,2:0:0:0:
21,304,220931,1,0,3:0:0:0:
40,333,221001,1,0,3:0:0:0:
74,345,221072,6,0,P|84:274|122:104,1,236.6,14|2,1:2|1:2,2:0:0:0:
107,29,221497,1,10,1:2:0:0:
66,37,221567,1,0,2:0:0:0:
49,75,221638,1,0,2:0:0:0:
195,198,221780,1,10,1:2:0:0:
258,267,221921,5,0,3:2:0:0:
274,249,221992,1,0,3:0:0:0:
290,231,222063,2,0,L|307:158,1,59.15,0|0,3:0|3:0,2:0:0:0:
289,0,222204,6,0,P|222:-3|245:96,1,177.45,10|0,1:3|3:0,2:0:0:0:
260,102,222487,1,2,1:2:0:0:
300,91,222558,1,0,2:0:0:0:
339,78,222629,1,0,3:0:0:0:
376,61,222700,1,0,3:0:0:0:
412,40,222770,2,0,P|399:97|386:155,1,118.3,6|0,1:3|3:0,2:0:0:0:
487,214,223053,5,2,1:2:0:0:
493,242,223124,1,0,1:0:0:0:
499,271,223195,1,0,1:0:0:0:
506,300,223266,1,0,1:0:0:0:
512,329,223336,2,0,P|456:307|323:264,1,177.45,2|0,1:0|3:0,2:0:0:0:
309,263,223619,2,0,P|260:307|313:372,1,118.3,2|0,1:3|3:0,2:0:0:0:
281,358,223832,1,0,3:0:0:0:
290,364,223902,1,2,1:3:0:0:
358,179,224044,5,0,3:0:0:0:
367,173,224115,1,0,3:0:0:0:
376,166,224185,2,0,P|383:110|338:77,1,118.3,2|0,1:3|3:0,2:0:0:0:
241,133,224468,6,0,P|185:155|52:198,1,177.45,2|0,1:3|3:0,2:0:0:0:
38,199,224751,2,0,P|-11:155|42:90,1,118.3,2|0,1:3|3:0,2:0:0:0:
10,104,224964,1,0,3:0:0:0:
19,98,225034,1,2,1:3:0:0:
87,283,225176,5,0,3:0:0:0:
96,289,225247,1,0,3:0:0:0:
105,296,225317,2,0,P|112:351|67:384,1,118.3,2|0,1:3|3:0,2:0:0:0:
171,235,225601,6,0,P|179:193|208:175,1,59.15,10|0,1:3|2:0,2:0:0:0:
175,110,225742,2,0,P|210:85|243:93,1,59.15,2|0,1:3|2:0,2:0:0:0:
266,24,225884,2,0,P|308:32|326:60,1,59.15,2|0,1:3|2:0,2:0:0:0:
391,28,226025,2,0,P|415:63|407:96,1,59.15,2|0,1:3|2:0,2:0:0:0:
325,135,226167,5,2,1:3:0:0:
315,142,226237,1,0,2:0:0:0:
305,149,226308,2,0,L|289:217,1,59.15,2|0,1:3|2:0,2:0:0:0:
361,244,226450,5,2,1:3:0:0:
371,251,226520,1,0,2:0:0:0:
381,258,226591,2,0,L|397:326,1,59.15,2|0,1:3|2:0,2:0:0:0:
234,348,226733,5,6,1:3:0:0:
204,374,226803,1,0,1:3:0:0:
166,375,226874,1,2,1:3:0:0:
136,351,226945,1,0,1:3:0:0:
128,314,227016,1,2,1:3:0:0:
145,279,227086,1,0,1:3:0:0:
181,265,227157,2,0,L|215:192,1,59.15,2|0,1:3|1:3,2:0:0:0:
145,159,227299,2,0,L|117:83,1,59.15,2|0,1:3|1:3,2:0:0:0:
58,56,227440,5,2,1:3:0:0:
58,56,227511,1,0,1:3:0:0:
58,56,227582,2,0,P|12:75|42:148,1,118.3,2|2,1:3|1:3,2:0:0:0:
143,8,227865,1,6,1:2:0:0:
254,79,228006,5,2,1:3:0:0:
281,101,228077,1,0,1:3:0:0:
307,125,228148,2,0,P|329:171|331:226,1,59.15,2|0,1:3|1:3,2:0:0:0:
512,223,228289,5,2,1:3:0:0:
479,235,228360,1,0,1:3:0:0:
445,245,228431,2,0,P|394:241|345:215,1,59.15,2|0,1:3|1:3,2:0:0:0:
258,374,228572,5,2,1:3:0:0:
264,339,228643,1,0,1:3:0:0:
272,305,228714,2,0,P|300:262|347:233,1,59.15,2|0,1:3|1:3,2:0:0:0:
344,221,228855,1,2,1:3:0:0:
469,60,228997,6,0,P|474:23|449:15,3,59.15,4|0|0|0,1:2|2:0|2:0|2:0,2:0:0:0:
387,56,229280,2,0,P|365:26|342:38,3,59.15,0|0|0|0,2:0|2:0|2:0|2:0,2:0:0:0:
326,111,229563,2,0,P|289:105|281:130,3,59.15,0|0|0|0,2:0|2:0|2:0|2:0,2:0:0:0:
321,192,229846,2,0,P|291:213|303:236,3,59.15,0|0|0|0,2:0|2:0|2:0|2:0,2:0:0:0:
428,158,230129,5,2,2:1:0:0:
431,179,230200,1,0,2:0:0:0:
435,201,230270,1,0,2:0:0:0:
440,223,230341,1,0,2:0:0:0:
445,245,230412,1,0,2:0:0:0:
450,266,230483,1,0,2:0:0:0:
456,287,230553,1,0,2:0:0:0:
462,309,230624,1,0,2:0:0:0:
469,330,230695,5,0,3:0:0:0:
430,358,230766,1,0,3:0:0:0:
384,349,230836,1,0,3:0:0:0:
359,308,230907,1,0,3:0:0:0:
318,287,230978,2,0,P|238:350|141:380,1,204.75,8|0,3:2|2:0,2:0:0:0:
117,384,231261,5,4,1:0:0:0:
0,227,231402,1,2,3:2:0:0:
0,227,231473,1,0,3:2:0:0:
0,227,231544,2,0,P|75:244|65:311,1,136.5,0|2,1:2|3:2,2:0:0:0:
62,306,231756,1,0,3:2:0:0:
50,317,231827,1,0,1:2:0:0:
181,235,231968,6,0,L|203:162,1,54.6,2|0,3:2|3:2,2:0:0:0:
173,151,232110,2,0,L|146:26,1,109.2,0|2,1:2|3:2,2:0:0:0:
166,22,232322,1,0,3:2:0:0:
183,1,232393,1,0,1:2:0:0:
55,125,232534,1,2,3:2:0:0:
55,125,232605,1,0,3:2:0:0:
55,125,232676,1,0,1:0:0:0:
263,61,232817,6,0,L|330:88,1,54.6,2|0,3:2|3:2,2:0:0:0:
384,48,232959,1,0,1:2:0:0:
384,48,233030,1,0,2:0:0:0:
384,48,233101,2,0,L|412:114,1,54.6,2|0,3:2|3:2,2:0:0:0:
478,124,233242,2,0,P|454:178|439:250,1,109.2,0|2,1:2|3:2,2:0:0:0:
456,249,233454,1,0,3:2:0:0:
470,272,233525,1,0,1:2:0:0:
300,224,233667,6,0,P|310:179|361:177,1,54.6,2|0,3:2|3:2,2:0:0:0:
341,172,233808,1,0,1:2:0:0:
385,358,233950,1,2,3:2:0:0:
393,372,234020,1,0,3:2:0:0:
403,384,234091,2,0,L|246:350,1,109.2,0|2,1:0|3:2,2:0:0:0:
277,333,234303,1,0,3:2:0:0:
258,306,234374,2,0,L|101:340,1,109.2,0|2,1:2|3:2,2:0:0:0:
137,346,234586,1,0,3:2:0:0:
128,365,234657,5,0,1:2:0:0:
0,299,234799,1,2,3:2:0:0:
65,172,234940,1,0,1:2:0:0:
193,237,235082,5,2,3:2:0:0:
193,237,235152,1,0,3:2:0:0:
193,237,235223,2,0,L|275:217,1,54.6,0|0,1:2|2:0,2:0:0:0:
290,161,235365,1,2,3:2:0:0:
213,18,235506,5,0,1:0:0:0:
172,10,235577,1,0,3:2:0:0:
140,33,235648,1,0,1:2:0:0:
132,72,235718,1,0,1:2:0:0:
155,105,235789,1,0,1:2:0:0:
170,110,235860,1,0,2:0:0:0:
180,123,235931,2,0,P|226:97|277:88,1,54.6,2|0,3:2|3:2,2:0:0:0:
297,47,236072,6,0,P|367:31|447:9,1,109.2,0|2,1:2|3:2,2:0:0:0:
413,34,236284,1,0,3:2:0:0:
423,46,236355,1,0,1:2:0:0:
511,146,236497,1,2,3:2:0:0:
501,158,236567,1,0,3:2:0:0:
492,170,236638,2,0,P|439:156|385:144,1,109.2,0|2,1:2|3:2,2:0:0:0:
325,299,236921,5,0,1:2:0:0:
308,314,236992,1,0,2:0:0:0:
306,336,237063,2,0,P|333:376|369:363,1,54.6,2|0,3:2|3:2,2:0:0:0:
416,325,237204,5,0,1:2:0:0:
434,310,237275,1,0,2:0:0:0:
436,288,237346,2,0,P|408:247|372:260,1,54.6,2|0,3:2|3:2,2:0:0:0:
319,206,237487,6,0,L|235:242,1,54.6,0|0,1:2|2:0,2:0:0:0:
200,199,237629,2,0,L|166:283,1,54.6,2|0,3:2|3:2,2:0:0:0:
119,334,237770,2,0,L|152:418,1,54.6,0|0,1:2|2:0,2:0:0:0:
50,362,237912,2,0,L|0:341,1,54.6,2|0,3:2|3:2,2:0:0:0:
223,341,238053,6,0,P|172:282|52:182,1,218.4,0|0,1:2|1:0,2:0:0:0:
0,134,238478,1,2,3:2:0:0:
12,115,238549,1,0,3:2:0:0:
30,104,238619,2,0,P|59:38|123:5,1,109.2,0|2,1:2|3:2,2:0:0:0:
108,24,238832,1,0,3:2:0:0:
128,31,238902,1,0,1:2:0:0:
261,135,239044,5,2,3:2:0:0:
234,162,239115,1,0,3:2:0:0:
220,197,239185,2,0,L|181:74,1,109.2,0|2,1:2|3:2,2:0:0:0:
376,11,239468,2,0,L|342:115,1,109.2,0|2,1:2|3:2,2:0:0:0:
307,237,239751,5,0,1:2:0:0:
256,15,239893,1,2,3:2:0:0:
307,237,240034,5,0,1:2:0:0:
256,15,240176,1,2,1:2:0:0:
473,81,240317,6,0,P|446:158|415:284,1,163.8,2|0,1:0|3:2,2:0:0:0:
445,263,240601,1,0,1:2:0:0:
342,352,240742,1,2,3:2:0:0:
310,349,240813,1,0,3:2:0:0:
286,326,240884,2,0,P|272:276|307:237,1,109.2,0|2,1:2|3:2,2:0:0:0:
316,223,241096,1,0,3:2:0:0:
326,210,241167,2,0,L|295:91,1,109.2,0|2,1:2|3:2,2:0:0:0:
225,9,241450,5,0,1:2:0:0:
213,15,241520,1,0,2:0:0:0:
203,24,241591,1,2,3:2:0:0:
197,37,241662,1,0,3:2:0:0:
194,50,241733,2,0,L|70:72,1,109.2,0|2,1:0|3:2,2:0:0:0:
0,125,242016,5,0,1:2:0:0:
11,131,242086,1,0,2:0:0:0:
21,140,242157,1,2,3:2:0:0:
27,153,242228,1,0,3:2:0:0:
30,166,242299,2,0,L|153:188,1,109.2,0|2,1:2|3:2,2:0:0:0:
166,170,242511,1,0,3:2:0:0:
195,155,242582,5,0,1:2:0:0:
139,335,242723,1,2,3:2:0:0:
139,335,242794,1,0,3:2:0:0:
139,335,242865,2,0,P|73:289|96:250,1,109.2,0|2,1:2|3:2,2:0:0:0:
206,267,243148,1,0,1:0:0:0:
17,384,243289,1,2,3:2:0:0:
206,267,243431,2,0,P|258:243|294:257,1,54.6,0|0,1:2|2:0,2:0:0:0:
303,344,243572,2,0,P|322:290|358:274,1,54.6,2|0,3:2|3:2,2:0:0:0:
335,205,243714,5,0,1:2:0:0:
367,180,243784,1,0,2:0:0:0:
399,154,243855,1,2,3:2:0:0:
430,127,243926,1,0,3:2:0:0:
459,97,243997,1,0,1:2:0:0:
329,90,244138,5,2,3:2:0:0:
346,67,244209,1,0,3:2:0:0:
345,38,244280,2,0,P|291:1|253:43,1,109.2,0|2,1:2|3:2,2:0:0:0:
235,104,244563,5,0,1:0:0:0:
266,148,244634,1,0,3:2:0:0:
296,194,244704,1,0,1:2:0:0:
325,240,244775,1,0,1:2:0:0:
352,288,244846,2,0,P|423:313|533:373,1,163.8,4|0,1:2|3:2,2:0:0:0:
501,353,245129,1,0,1:2:0:0:
484,162,245270,5,2,3:2:0:0:
484,162,245341,1,0,3:2:0:0:
484,162,245412,2,0,P|428:158|431:235,1,109.2,0|2,1:2|3:2,2:0:0:0:
279,351,245695,5,0,1:2:0:0:
254,362,245766,1,0,2:0:0:0:
228,357,245836,1,2,3:2:0:0:
208,339,245907,1,0,3:2:0:0:
203,312,245978,2,0,P|223:227|282:119,1,163.8,0|0,1:2|3:2,2:0:0:0:
235,153,246261,2,0,P|200:227|183:307,1,163.8,0|0,1:2|3:2,2:0:0:0:
136,382,246544,5,0,1:2:0:0:
118,368,246615,1,0,2:0:0:0:
108,348,246685,2,0,P|94:298|91:266,1,54.6,2|0,3:2|3:2,2:0:0:0:
67,150,246827,5,0,1:2:0:0:
49,164,246898,1,0,2:0:0:0:
39,184,246968,2,0,P|25:234|22:266,1,54.6,2|0,3:2|3:2,2:0:0:0:
0,384,247110,1,8,1:3:0:0:
154,102,247393,5,0,1:0:0:0:
169,64,247464,1,0,2:0:0:0:
202,40,247534,1,2,3:2:0:0:
242,36,247605,1,0,3:2:0:0:
279,52,247676,1,0,1:2:0:0:
299,43,247747,1,0,2:0:0:0:
318,34,247817,1,2,3:2:0:0:
338,25,247888,1,0,3:2:0:0:
358,16,247959,6,0,L|332:136,1,109.2,0|2,1:2|3:2,2:0:0:0:
361,142,248171,1,0,3:2:0:0:
387,161,248242,2,0,P|432:137|441:110,1,54.6,4|0,1:3|2:0,2:0:0:0:
434,54,248384,1,2,3:2:0:0:
305,207,248525,6,0,L|221:219,1,54.6,0|0,1:2|2:0,2:0:0:0:
433,268,248667,2,0,L|517:280,1,54.6,2|0,3:2|3:2,2:0:0:0:
296,223,248808,6,0,L|212:235,1,54.6,0|0,1:2|2:0,2:0:0:0:
424,284,248950,2,0,L|508:296,1,54.6,2|0,3:2|3:2,2:0:0:0:
329,312,249091,1,0,1:2:0:0:
275,324,249162,1,0,2:0:0:0:
223,340,249233,1,2,1:2:0:0:
173,360,249303,1,0,3:2:0:0:
123,384,249374,6,0,P|69:381|94:261,1,177.45,4|0,1:0|3:2,2:0:0:0:
89,288,249657,1,8,1:2:0:0:
107,129,249799,1,2,3:2:0:0:
107,129,249869,1,0,3:2:0:0:
107,129,249940,2,0,P|47:163|-3:176,1,118.3,0|2,1:2|3:2,2:0:0:0:
160,217,250223,5,8,1:2:0:0:
82,25,250365,1,2,3:2:0:0:
97,16,250435,1,0,3:2:0:0:
114,12,250506,1,0,1:0:0:0:
271,24,250648,5,2,3:2:0:0:
216,138,250789,1,8,1:2:0:0:
316,108,250931,5,2,3:2:0:0:
332,103,251001,1,0,3:2:0:0:
349,99,251072,1,0,1:2:0:0:
395,92,251143,1,0,2:0:0:0:
436,115,251214,1,2,3:2:0:0:
456,156,251284,1,0,3:2:0:0:
447,202,251355,1,8,1:2:0:0:
436,216,251426,1,0,2:0:0:0:
425,230,251497,1,2,3:2:0:0:
414,243,251567,1,0,3:2:0:0:
400,254,251638,6,0,P|382:178|299:99,1,177.45,0|0,1:0|3:2,2:0:0:0:
315,136,251921,2,0,P|256:163|267:219,1,118.3,8|2,1:2|3:2,2:0:0:0:
274,218,252134,1,0,3:2:0:0:
288,227,252204,1,0,1:2:0:0:
498,289,252346,5,2,3:2:0:0:
300,364,252487,1,8,1:2:0:0:
498,289,252629,1,2,3:2:0:0:
300,364,252770,6,0,L|167:327,1,118.3,0|2,1:0|3:2,2:0:0:0:
168,300,252983,1,0,3:2:0:0:
150,269,253053,2,0,L|75:304,1,59.15,8|0,1:2|2:0,2:0:0:0:
113,372,253195,1,2,3:2:0:0:
42,183,253336,5,0,1:2:0:0:
241,216,253478,1,2,3:2:0:0:
143,157,253619,6,0,P|184:134|206:106,1,59.15,8|0,1:2|1:0,2:0:0:0:
305,102,253761,2,0,P|264:79|242:51,1,59.15,2|0,1:2|1:2,2:0:0:0:
179,42,253902,6,0,P|126:6|82:104,1,177.45,0|0,1:0|3:2,2:0:0:0:
104,97,254185,1,8,1:2:0:0:
140,114,254256,1,0,2:0:0:0:
175,132,254327,1,2,3:2:0:0:
210,150,254398,1,0,3:2:0:0:
245,169,254468,1,0,1:2:0:0:
279,188,254539,1,0,2:0:0:0:
314,208,254610,1,2,3:2:0:0:
347,228,254681,1,0,3:2:0:0:
381,249,254751,2,0,L|396:180,1,59.15,8|0,1:2|2:0,2:0:0:0:
466,161,254893,2,0,L|451:91,1,59.15,2|0,3:2|3:2,2:0:0:0:
484,27,255034,5,0,1:0:0:0:
484,27,255105,1,0,2:0:0:0:
484,27,255176,2,0,P|424:15|383:82,1,118.3,2|8,3:2|1:2,2:0:0:0:
175,132,255459,5,2,3:2:0:0:
175,132,255530,1,0,3:2:0:0:
175,132,255601,2,0,P|235:120|276:187,1,118.3,0|2,1:2|3:2,2:0:0:0:
262,184,255813,1,0,3:2:0:0:
239,203,255884,1,8,1:2:0:0:
179,26,256025,1,2,3:2:0:0:
56,167,256167,6,0,P|85:223|95:296,1,118.3,0|2,1:0|3:2,2:0:0:0:
77,292,256379,1,0,3:2:0:0:
59,308,256450,2,0,P|22:275|39:244,1,59.15,8|0,1:2|2:0,2:0:0:0:
178,271,256591,2,0,P|195:317|166:337,1,59.15,2|0,3:2|3:2,2:0:0:0:
131,380,256733,1,0,1:2:0:0:
315,332,256874,5,2,3:2:0:0:
335,302,256945,1,0,3:2:0:0:
355,273,257016,2,0,L|377:147,1,118.3,8|2,1:2|3:2,2:0:0:0:
494,302,257299,5,0,1:0:0:0:
483,287,257369,1,0,2:0:0:0:
473,272,257440,2,0,L|461:209,1,59.15,2|0,3:2|3:2,2:0:0:0:
402,67,257582,5,8,1:2:0:0:
358,59,257652,1,0,2:0:0:0:
317,74,257723,1,2,3:2:0:0:
291,109,257794,1,0,3:2:0:0:
286,153,257865,1,0,1:2:0:0:
297,167,257935,1,0,2:0:0:0:
308,180,258006,6,0,P|361:149|362:123,1,59.15,2|0,3:2|3:2,2:0:0:0:
209,122,258148,2,0,P|155:91|132:103,1,59.15,8|0,1:2|2:0,2:0:0:0:
209,237,258289,2,0,P|209:298|231:312,1,59.15,2|0,1:2|3:2,2:0:0:0:
254,353,258431,6,0,L|436:380,1,177.45,4|0,1:0|3:2,2:0:0:0:
429,379,258714,1,0,1:2:0:0:
501,204,258855,5,2,3:2:0:0:
487,164,258926,1,0,3:2:0:0:
449,147,258997,1,0,1:2:0:0:
337,222,259138,5,2,3:2:0:0:
342,238,259209,1,0,3:2:0:0:
356,248,259280,1,0,1:2:0:0:
345,33,259421,5,2,3:2:0:0:
306,14,259492,1,0,3:2:0:0:
267,29,259563,1,2,1:0:0:0:
241,161,259704,5,2,3:2:0:0:
256,169,259775,1,0,3:2:0:0:
273,166,259846,1,0,1:2:0:0:
113,22,259987,5,2,3:2:0:0:
72,36,260058,1,0,3:2:0:0:
55,74,260129,1,0,1:0:0:0:
130,186,260270,5,2,3:2:0:0:
147,181,260341,1,0,3:2:0:0:
156,167,260412,2,0,P|86:175|83:241,1,118.3,0|2,1:2|3:2,2:0:0:0:
0,286,260695,6,0,P|68:308|180:381,1,177.45,8|0,1:3|3:2,2:0:0:0:
178,344,260978,1,0,1:2:0:0:
296,161,261119,5,2,3:2:0:0:
259,130,261190,1,0,3:2:0:0:
251,83,261261,1,0,1:2:0:0:
376,50,261402,5,2,3:2:0:0:
373,67,261473,1,0,3:2:0:0:
361,80,261544,1,0,1:2:0:0:
375,250,261685,5,2,3:2:0:0:
370,201,261756,1,0,3:2:0:0:
398,163,261827,2,0,L|513:137,1,118.3,4|2,1:3|3:2,2:0:0:0:
453,359,262110,5,0,1:2:0:0:
424,352,262181,1,0,2:0:0:0:
395,346,262251,1,2,3:2:0:0:
366,339,262322,1,0,3:2:0:0:
337,333,262393,2,0,L|297:279,3,59.15,0|0|2|0,1:2|2:0|3:2|3:2,2:0:0:0:
252,225,262676,5,0,1:2:0:0:
194,220,262747,1,0,2:0:0:0:
148,254,262817,1,2,3:2:0:0:
137,311,262888,1,0,3:2:0:0:
166,361,262959,2,0,P|192:283|231:211,1,118.3,4|2,1:0|3:2,2:0:0:0:
223,241,263171,1,0,3:2:0:0:
238,232,263242,1,0,1:2:0:0:
302,125,263384,5,2,3:2:0:0:
304,106,263454,1,0,3:2:0:0:
307,87,263525,2,0,P|281:41|202:63,1,118.3,0|2,1:2|3:2,2:0:0:0:
201,73,263737,1,0,3:2:0:0:
181,102,263808,2,0,P|124:105|94:58,1,118.3,0|2,1:2|3:2,2:0:0:0:
4,164,264091,6,0,P|27:241|37:338,1,157.733333333333,4|0,1:0|2:0,2:0:0:0:
57,359,264374,2,0,P|112:300|191:242,1,157.733333333333,0|0,1:2|2:0,2:0:0:0:
200,216,264657,2,0,P|120:196|31:157,1,157.733333333333,4|0,1:2|2:0,2:0:0:0:
28,200,264940,2,0,P|85:253|118:312,1,118.3,0|2,1:2|3:2,2:0:0:0:
178,362,265223,5,4,1:0:0:0:
185,373,265294,1,0,2:0:0:0:
194,384,265365,2,0,P|219:348|206:315,1,59.15,2|0,3:2|3:2,2:0:0:0:
192,134,265506,5,0,1:2:0:0:
169,85,265577,1,0,2:0:0:0:
127,50,265648,1,2,3:2:0:0:
77,31,265718,1,0,3:2:0:0:
24,23,265789,1,4,1:0:0:0:
36,50,265860,1,0,2:0:0:0:
48,76,265931,1,2,3:2:0:0:
60,102,266001,1,0,3:2:0:0:
72,129,266072,2,0,P|148:105|220:93,1,118.3,0|2,1:2|3:2,2:0:0:0:
336,186,266355,5,4,1:0:0:0:
336,186,266426,1,0,2:0:0:0:
336,186,266497,2,0,P|312:157|317:129,1,59.15,2|0,3:2|3:2,2:0:0:0:
401,42,266638,6,0,P|398:79|374:95,1,59.15,0|0,3:1|3:0,2:0:0:0:
276,158,266780,2,0,P|279:121|303:105,1,59.15,2|0,3:2|3:2,2:0:0:0:
424,103,266921,6,0,P|395:127|367:122,1,59.15,4|0,3:2|3:0,2:0:0:0:
253,97,267063,2,0,P|282:73|310:78,1,59.15,2|0,3:2|3:2,2:0:0:0:
397,163,267204,6,0,P|359:159|343:136,1,59.15,0|0,3:1|3:0,2:0:0:0:
280,37,267346,2,0,P|318:41|334:64,1,59.15,0|0,3:1|3:2,2:0:0:0:
429,255,267487,5,8,1:3:0:0:
431,261,267558,1,0,2:0:0:0:
433,268,267629,1,0,2:0:0:0:
436,275,267700,1,0,2:0:0:0:
438,282,267770,1,0,2:0:0:0:
441,289,267841,1,0,2:0:0:0:
443,296,267912,1,0,2:0:0:0:
446,303,267983,1,0,2:0:0:0:
446,309,268053,2,0,L|514:329,7,59.15,0|0|0|0|0|0|0|0,2:0|2:0|2:0|2:0|2:0|2:0|2:0|2:0,2:0:0:0:
366,356,268619,5,0,2:0:0:0:
327,375,268690,1,0,2:0:0:0:
285,364,268761,1,0,2:0:0:0:
263,327,268832,1,0,2:0:0:0:
272,284,268902,1,0,2:0:0:0:
291,244,268973,1,0,2:0:0:0:
278,202,269044,1,0,2:0:0:0:
242,180,269115,1,0,2:0:0:0:
199,189,269185,5,0,2:0:0:0:
196,194,269256,1,0,2:0:0:0:
193,199,269327,1,0,2:0:0:0:
191,204,269398,1,0,2:0:0:0:
189,209,269468,2,0,L|128:226,1,59.15,0|0,2:0|2:0,2:0:0:0:
3,338,269610,2,0,L|59:353,1,59.15,0|0,2:0|2:0,2:0:0:0:
77,383,269751,6,0,P|87:325|162:22,1,350.35,0|0,2:0|2:0,2:0:0:0:
168,9,270601,1,8,3:2:0:0:
489,262,271167,5,4,1:0:0:0:
256,192,271237,12,0,279940,2:0:0:0:
