osu file format v14

[General]
AudioFilename: audio.mp3
AudioLeadIn: 0
PreviewTime: 87672
Countdown: 0
SampleSet: Normal
StackLeniency: 0.7
Mode: 1
LetterboxInBreaks: 0
WidescreenStoryboard: 0

[Editor]
DistanceSpacing: 0.4
BeatDivisor: 4
GridSize: 32
TimelineZoom: 2.4

[Metadata]
Title:Lemuria
TitleUnicode:Lemuria
Artist:xi
ArtistUnicode:xi
Creator:Zetera
Version:SVomit On1o(n)
Source:
Tags:vvomit wednesday
BeatmapID:1846075
BeatmapSetID:882717

[Difficulty]
HPDrainRate:6
CircleSize:2
OverallDifficulty:6
ApproachRate:10
SliderMultiplier:1.4
SliderTickRate:1

[Events]
//Background and Video events
0,0,"blue-circle-abstract-wallpaper-89323360-1920x1080.jpg",0,0
//Break Periods
//Storyboard Layer 0 (Background)
//Storyboard Layer 1 (Fail)
//Storyboard Layer 2 (Pass)
//Storyboard Layer 3 (Foreground)
//Storyboard Sound Samples

[TimingPoints]
995,314.13612565445,3,1,0,80,1,0
4764,314.13612565445,4,1,0,80,1,0
8219,314.13612565445,4,1,0,80,1,0
11674,314.13612565445,4,1,0,80,1,0
15129,322.58064516129,4,1,0,80,1,0
16096,352.941176470588,4,1,0,80,1,0
16448,379.746835443038,4,1,0,80,1,0
16827,419.58041958042,4,1,0,80,1,0
17423,454.545454545455,4,1,0,80,1,0
18106,540.540540540541,4,1,0,80,1,0
18646,588.235294117647,4,1,0,80,1,0
19822,314.13612565445,4,1,0,80,1,0
19822,-200,4,1,0,80,0,0
22256,-100,4,1,0,80,0,0
35214,-90.9090909090909,4,1,0,80,0,1
42387,-86.9565217391304,4,1,0,80,0,1
42518,-85.1063829787234,4,1,0,80,0,1
42858,-83.3333333333333,4,1,0,80,0,1
42989,-81.6326530612245,4,1,0,80,0,1
43329,-80,4,1,0,80,0,1
43460,-78.4313725490196,4,1,0,80,0,1
43853,-80.6451612903226,4,1,0,80,0,1
43931,-81.3008130081301,4,1,0,80,0,1
44010,-81.9672131147541,4,1,0,80,0,1
44089,-82.6446280991736,4,1,0,80,0,1
44167,-83.3333333333333,4,1,0,80,0,1
44246,-84.0336134453781,4,1,0,80,0,1
44324,-84.7457627118644,4,1,0,80,0,1
44481,-89.2857142857143,4,1,0,80,0,1
44717,-94.3396226415094,4,1,0,80,0,1
44952,314.13612565445,4,1,0,80,1,0
44952,-100,4,1,0,80,0,0
47150,314.13612565445,4,1,0,80,1,0
49663,314.13612565445,3,1,0,80,1,0
49741,-102.040816326531,3,1,0,80,0,0
49898,-104.166666666667,3,1,0,80,0,0
50055,-106.382978723404,3,1,0,80,0,0
50212,-108.695652173913,3,1,0,80,0,0
50526,-111.111111111111,3,1,0,80,0,0
50683,-113.636363636364,3,1,0,80,0,0
50840,-116.279069767442,3,1,0,80,0,0
50997,-119.047619047619,3,1,0,80,0,0
51154,-121.951219512195,3,1,0,80,0,0
51469,-125,3,1,0,80,0,0
51626,-128.205128205128,3,1,0,80,0,0
51783,-131.578947368421,3,1,0,80,0,0
51940,-135.135135135135,3,1,0,80,0,0
52097,-138.888888888889,3,1,0,80,0,0
52411,-142.857142857143,3,1,0,80,0,0
52568,-147.058823529412,3,1,0,80,0,0
52725,-151.515151515152,3,1,0,80,0,0
52882,-156.25,3,1,0,80,0,0
53039,-161.290322580645,3,1,0,80,0,0
54375,314.13612565445,4,1,0,80,1,0
54375,-90.9090909090909,4,1,0,80,0,0
54453,-86.9565217391304,4,1,0,80,0,0
54846,-83.3333333333333,4,1,0,80,0,0
54924,-80,4,1,0,80,0,0
55317,-76.9230769230769,4,1,0,80,0,0
55395,-74.0740740740741,4,1,0,80,0,0
55867,-76.9230769230769,4,1,0,80,0,0
56102,-80,4,1,0,80,0,0
56181,-81.6326530612245,4,1,0,80,0,0
56259,-83.3333333333333,4,1,0,80,0,0
56416,-86.9565217391304,4,1,0,80,0,0
56573,314.13612565445,4,1,0,80,1,0
56573,-90.9090909090909,4,1,0,80,0,0
59164,-86.9565217391304,4,1,0,80,0,0
59557,-83.3333333333333,4,1,0,80,0,0
59635,-80,4,1,0,80,0,0
60028,-76.9230769230769,4,1,0,80,0,0
60107,-74.0740740740741,4,1,0,80,0,0
60578,-76.9230769230769,4,1,0,80,0,0
60735,-78.4313725490196,4,1,0,80,0,0
60813,-80,4,1,0,80,0,0
60892,-81.6326530612245,4,1,0,80,0,0
60970,-83.3333333333333,4,1,0,80,0,0
61127,-86.9565217391304,4,1,0,80,0,0
61206,-88.8888888888889,4,1,0,80,0,0
61285,314.13612565445,4,1,0,80,1,0
61285,-90.9090909090909,4,1,0,80,0,0
63798,-89.2857142857143,4,1,0,80,0,0
63876,-87.719298245614,4,1,0,80,0,0
63955,-86.2068965517241,4,1,0,80,0,0
64033,-84.7457627118644,4,1,0,80,0,0
64112,-83.3333333333333,4,1,0,80,0,0
68745,-111.111111111111,4,1,0,80,0,0
70866,-108.108108108108,4,1,0,80,0,0
70944,-106.666666666667,4,1,0,80,0,0
71023,-105.263157894737,4,1,0,80,0,0
71180,-102.564102564103,4,1,0,80,0,0
71337,-100,4,1,0,80,0,0
73536,-98.0392156862745,4,1,0,80,0,0
73614,-96.1538461538461,4,1,0,80,0,0
73693,-94.3396226415094,4,1,0,80,0,0
73771,-92.5925925925926,4,1,0,80,0,0
73850,-90.9090909090909,4,1,0,80,0,0
74792,-89.2857142857143,4,1,0,80,0,0
74871,-87.719298245614,4,1,0,80,0,0
74949,-86.2068965517241,4,1,0,80,0,0
75028,-84.7457627118644,4,1,0,80,0,0
75106,-83.3333333333333,4,1,0,80,0,0
75185,-81.9672131147541,4,1,0,80,0,0
75264,-80.6451612903226,4,1,0,80,0,0
75342,-79.3650793650794,4,1,0,80,0,0
75421,-78.125,4,1,0,80,0,0
75499,-76.9230769230769,4,1,0,80,0,0
75578,-75.7575757575758,4,1,0,80,0,0
75656,-74.6268656716418,4,1,0,80,0,0
75735,-73.5294117647059,4,1,0,80,0,0
75813,-72.463768115942,4,1,0,80,0,0
75892,-71.4285714285714,4,1,0,80,0,0
75970,-70.4225352112676,4,1,0,80,0,0
76049,-69.4444444444444,4,1,0,80,0,0
76127,-68.4931506849315,4,1,0,80,0,0
76206,-67.5675675675676,4,1,0,80,0,0
76284,-66.6666666666667,4,1,0,80,0,0
77934,-71.4285714285714,4,1,0,80,0,0
78091,-74.0740740740741,4,1,0,80,0,0
78405,-80,4,1,0,80,0,0
78876,-90.9090909090909,4,1,0,80,0,0
79033,-93.0232558139535,4,1,0,80,0,0
79190,-95.2380952380952,4,1,0,80,0,0
79347,-97.5609756097561,4,1,0,80,0,0
79504,-100,4,1,0,80,0,0
80211,-83.3333333333333,4,1,0,80,0,0
80839,-84.0336134453781,4,1,0,80,0,0
80918,-84.7457627118644,4,1,0,80,0,0
80997,-85.4700854700855,4,1,0,80,0,0
81075,-86.2068965517241,4,1,0,80,0,0
81154,-86.9565217391304,4,1,0,80,0,0
81232,-87.719298245614,4,1,0,80,0,0
81311,-88.4955752212389,4,1,0,80,0,0
81389,-89.2857142857143,4,1,0,80,0,0
81468,-88.4955752212389,4,1,0,80,0,0
81546,-87.719298245614,4,1,0,80,0,0
81625,-86.9565217391304,4,1,0,80,0,0
81703,-86.2068965517241,4,1,0,80,0,0
81782,-85.4700854700855,4,1,0,80,0,0
81860,-84.7457627118644,4,1,0,80,0,0
81939,-84.0336134453781,4,1,0,80,0,0
82017,-83.3333333333333,4,1,0,80,0,0
82096,-84.0336134453781,4,1,0,80,0,0
82175,-84.7457627118644,4,1,0,80,0,0
82253,-85.4700854700855,4,1,0,80,0,0
82332,-86.2068965517241,4,1,0,80,0,0
82410,-86.9565217391304,4,1,0,80,0,0
82489,-87.719298245614,4,1,0,80,0,0
82567,-88.4955752212389,4,1,0,80,0,0
82646,-89.2857142857143,4,1,0,80,0,0
83195,-84.7457627118644,4,1,0,80,0,0
83824,-80.6451612903226,4,1,0,80,0,0
84059,-78.7401574803149,4,1,0,80,0,0
84295,-76.9230769230769,4,1,0,80,0,0
84452,-75.7575757575758,4,1,0,80,0,0
84688,-74.0740740740741,4,1,0,80,0,0
84923,-72.463768115942,4,1,0,80,0,0
85080,-71.4285714285714,4,1,0,80,0,0
86965,-76.9230769230769,4,1,0,80,0,0
87122,-80,4,1,0,80,0,0
87279,-81.6326530612245,4,1,0,80,0,0
87358,-83.3333333333333,4,1,0,80,0,0
87515,-86.9565217391304,4,1,0,80,0,0
87669,-90.9090909090909,4,1,0,80,0,0
87750,-89.2857142857143,4,1,0,80,0,0
87829,-87.719298245614,4,1,0,80,0,0
87908,-86.2068965517241,4,1,0,80,0,0
87986,-84.7457627118644,4,1,0,80,0,0
88142,-90.9090909090909,4,1,0,80,0,0
88223,-89.2857142857143,4,1,0,80,0,0
88302,-87.719298245614,4,1,0,80,0,0
88381,-86.2068965517241,4,1,0,80,0,0
88459,-84.7457627118644,4,1,0,80,0,0
88613,-90.9090909090909,4,1,0,80,0,0
88694,-89.2857142857143,4,1,0,80,0,0
88773,-87.719298245614,4,1,0,80,0,0
88852,-86.2068965517241,4,1,0,80,0,0
88930,-84.7457627118644,4,1,0,80,0,0
89085,-90.9090909090909,4,1,0,80,0,0
89166,-89.2857142857143,4,1,0,80,0,0
89245,-87.719298245614,4,1,0,80,0,0
89324,-86.2068965517241,4,1,0,80,0,0
89402,-84.7457627118644,4,1,0,80,0,0
89556,-90.9090909090909,4,1,0,80,0,0
89637,-89.2857142857143,4,1,0,80,0,0
89716,-87.719298245614,4,1,0,80,0,0
89795,-86.2068965517241,4,1,0,80,0,0
89873,-84.7457627118644,4,1,0,80,0,0
89949,-86.2068965517241,4,1,0,80,0,0
90028,-87.719298245614,4,1,0,80,0,0
90106,-89.2857142857143,4,1,0,80,0,0
90185,-90.9090909090909,4,1,0,80,0,0
90499,-83.3333333333333,4,1,0,80,0,1
101651,-80.6451612903226,4,1,0,80,0,1
101860,-78.125,4,1,0,80,0,1
102070,-75.7575757575758,4,1,0,80,0,1
102279,-73.5294117647059,4,1,0,80,0,1
102489,-71.4285714285714,4,1,0,80,0,1
103012,-66.6666666666667,4,1,0,80,0,1
103169,-83.3333333333333,4,1,0,80,0,1
107567,-80,4,1,0,80,0,1
107724,-76.9230769230769,4,1,0,80,0,1
121756,-74.0740740740741,4,1,0,80,0,1
121965,-71.4285714285714,4,1,0,80,0,1
122175,-68.9655172413793,4,1,0,80,0,1
122384,-66.6666666666667,4,1,0,80,0,1
122593,-64.5161290322581,4,1,0,80,0,1
123117,-57.1428571428571,4,1,0,80,0,1
123274,-76.9230769230769,4,1,0,80,0,1
125525,-76.3358778625954,4,1,0,80,0,1
125604,-75.7575757575758,4,1,0,80,0,1
125682,-75.187969924812,4,1,0,80,0,1
125761,-74.6268656716418,4,1,0,80,0,1
125839,-74.0740740740741,4,1,0,80,0,1
125918,-73.5294117647059,4,1,0,80,0,1
125997,-72.992700729927,4,1,0,80,0,1
126075,-72.463768115942,4,1,0,80,0,1
126154,-71.9424460431655,4,1,0,80,0,1
126232,-71.4285714285714,4,1,0,80,0,1
126311,-70.9219858156028,4,1,0,80,0,1
126389,-70.4225352112676,4,1,0,80,0,1
126468,-69.9300699300699,4,1,0,80,0,1
126546,-69.4444444444444,4,1,0,80,0,1
126625,-68.9655172413793,4,1,0,80,0,1
127881,-76.9230769230769,4,1,0,80,0,0
128431,-83.3333333333333,4,1,0,80,0,0
128902,-88.8888888888889,4,1,0,80,0,0
129374,-95.2380952380952,4,1,0,80,0,0
129688,-100,4,1,0,80,0,0
134714,-50,4,1,0,80,0,0

[HitObjects]
256,192,995,5,4,0:0:0:0:
256,192,1152,1,0,0:0:0:0:
256,192,1309,1,8,0:0:0:0:
256,192,1466,1,0,0:0:0:0:
256,192,1623,1,8,0:0:0:0:
256,192,1780,1,8,0:0:0:0:
256,192,2094,1,8,0:0:0:0:
256,192,2251,1,0,0:0:0:0:
256,192,2408,1,0,0:0:0:0:
256,192,2565,1,8,0:0:0:0:
256,192,2722,1,8,0:0:0:0:
256,192,3036,1,0,0:0:0:0:
256,192,3193,1,8,0:0:0:0:
256,192,3351,1,8,0:0:0:0:
256,192,3508,1,0,0:0:0:0:
256,192,3665,1,8,0:0:0:0:
256,192,3979,1,8,0:0:0:0:
256,192,4136,1,0,0:0:0:0:
256,192,4293,1,8,0:0:0:0:
256,192,4450,1,8,0:0:0:0:
256,192,4607,1,0,0:0:0:0:
256,192,4686,1,0,0:0:0:0:
256,192,4764,1,12,0:0:0:0:
256,192,4921,1,8,0:0:0:0:
256,192,5078,1,0,0:0:0:0:
256,192,5392,1,8,0:0:0:0:
256,192,5549,1,0,0:0:0:0:
256,192,5863,1,0,0:0:0:0:
256,192,6020,1,8,0:0:0:0:
256,192,6177,1,0,0:0:0:0:
256,192,6256,1,8,0:0:0:0:
256,192,6334,1,0,0:0:0:0:
256,192,6413,1,0,0:0:0:0:
256,192,6491,1,8,0:0:0:0:
256,192,6570,1,0,0:0:0:0:
256,192,6648,1,8,0:0:0:0:
256,192,6805,1,0,0:0:0:0:
256,192,7120,1,0,0:0:0:0:
256,192,7198,1,0,0:0:0:0:
256,192,7277,1,8,0:0:0:0:
256,192,7434,1,8,0:0:0:0:
256,192,7748,1,0,0:0:0:0:
256,192,7905,1,8,0:0:0:0:
256,192,8062,1,0,0:0:0:0:
256,192,8219,1,4,0:0:0:0:
256,192,8533,1,8,0:0:0:0:
256,192,8690,1,8,0:0:0:0:
256,192,8847,1,0,0:0:0:0:
256,192,9004,1,0,0:0:0:0:
256,192,9161,1,8,0:0:0:0:
256,192,9318,1,0,0:0:0:0:
256,192,9397,1,8,0:0:0:0:
256,192,9475,1,0,0:0:0:0:
256,192,9554,1,0,0:0:0:0:
256,192,9632,1,8,0:0:0:0:
256,192,9711,1,0,0:0:0:0:
256,192,9789,1,8,0:0:0:0:
256,192,9868,1,8,0:0:0:0:
256,192,9946,1,0,0:0:0:0:
256,192,10025,1,0,0:0:0:0:
256,192,10103,1,8,0:0:0:0:
256,192,10260,1,0,0:0:0:0:
256,192,10417,1,8,0:0:0:0:
256,192,10575,1,8,0:0:0:0:
256,192,10889,1,0,0:0:0:0:
256,192,11046,1,8,0:0:0:0:
256,192,11203,1,0,0:0:0:0:
256,192,11517,1,8,0:0:0:0:
256,192,11674,1,4,0:0:0:0:
256,192,11831,1,8,0:0:0:0:
256,192,11988,1,0,0:0:0:0:
256,192,12302,1,8,0:0:0:0:
256,192,12459,1,8,0:0:0:0:
256,192,12616,1,0,0:0:0:0:
256,192,12930,1,8,0:0:0:0:
256,192,13244,1,0,0:0:0:0:
256,192,13401,1,8,0:0:0:0:
256,192,13558,1,0,0:0:0:0:
256,192,13715,1,8,0:0:0:0:
256,192,13872,1,0,0:0:0:0:
256,192,13951,1,8,0:0:0:0:
256,192,14030,1,8,0:0:0:0:
256,192,14108,1,0,0:0:0:0:
256,192,14187,1,0,0:0:0:0:
256,192,14265,1,0,0:0:0:0:
256,192,14344,1,8,0:0:0:0:
256,192,14422,1,0,0:0:0:0:
256,192,14501,1,8,0:0:0:0:
256,192,14579,1,8,0:0:0:0:
256,192,14658,1,0,0:0:0:0:
256,192,14815,1,0,0:0:0:0:
256,192,14972,1,0,0:0:0:0:
256,192,15050,1,0,0:0:0:0:
256,192,15129,1,12,0:0:0:0:
256,192,15290,1,0,0:0:0:0:
256,192,15612,1,12,0:0:0:0:
256,192,15774,1,8,0:0:0:0:
256,192,16096,1,4,0:0:0:0:
256,192,16448,1,4,0:0:0:0:
256,192,16827,1,12,0:0:0:0:
256,192,17036,1,0,0:0:0:0:
256,192,17423,1,12,0:0:0:0:
256,192,17650,1,8,0:0:0:0:
256,192,18106,1,4,0:0:0:0:
256,192,18646,1,12,0:0:0:0:
256,192,18940,1,0,0:0:0:0:
256,192,19234,1,0,0:0:0:0:
256,192,19528,1,8,0:0:0:0:
256,192,19822,1,12,0:0:0:0:
256,192,19979,12,0,22178,0:0:0:0:
256,192,22335,5,8,0:0:0:0:
256,192,22413,1,8,0:0:0:0:
256,192,22492,1,0,0:0:0:0:
256,192,22570,1,0,0:0:0:0:
256,192,22649,1,8,0:0:0:0:
256,192,22806,1,8,0:0:0:0:
256,192,22884,1,0,0:0:0:0:
256,192,22963,1,0,0:0:0:0:
256,192,23041,1,0,0:0:0:0:
256,192,23120,1,8,0:0:0:0:
256,192,23277,1,8,0:0:0:0:
256,192,23356,1,0,0:0:0:0:
256,192,23434,1,8,0:0:0:0:
256,192,23591,1,8,0:0:0:0:
256,192,23670,1,8,0:0:0:0:
256,192,23748,1,0,0:0:0:0:
256,192,23827,1,8,0:0:0:0:
256,192,23905,1,0,0:0:0:0:
256,192,23984,1,0,0:0:0:0:
256,192,24062,1,8,0:0:0:0:
256,192,24141,1,8,0:0:0:0:
256,192,24219,1,0,0:0:0:0:
256,192,24298,1,0,0:0:0:0:
256,192,24376,1,0,0:0:0:0:
256,192,24455,1,0,0:0:0:0:
256,192,24534,1,8,0:0:0:0:
256,192,24848,1,0,0:0:0:0:
256,192,25162,1,12,0:0:0:0:
256,192,25319,1,0,0:0:0:0:
256,192,25476,1,8,0:0:0:0:
256,192,25554,1,0,0:0:0:0:
256,192,25633,1,0,0:0:0:0:
256,192,25790,1,8,0:0:0:0:
256,192,25947,1,0,0:0:0:0:
256,192,26261,1,0,0:0:0:0:
256,192,26340,1,0,0:0:0:0:
256,192,26418,1,8,0:0:0:0:
256,192,26575,1,0,0:0:0:0:
256,192,26654,1,8,0:0:0:0:
256,192,26732,1,0,0:0:0:0:
256,192,26890,1,0,0:0:0:0:
256,192,27047,1,8,0:0:0:0:
256,192,27125,1,8,0:0:0:0:
256,192,27204,1,8,0:0:0:0:
256,192,27282,1,8,0:0:0:0:
256,192,27361,1,0,0:0:0:0:
256,192,27675,1,8,0:0:0:0:
256,192,27832,1,0,0:0:0:0:
256,192,27989,1,8,0:0:0:0:
256,192,28068,1,0,0:0:0:0:
256,192,28146,1,8,0:0:0:0:
256,192,28303,1,0,0:0:0:0:
256,192,28460,1,8,0:0:0:0:
256,192,28539,1,0,0:0:0:0:
256,192,28617,1,0,0:0:0:0:
256,192,28774,1,0,0:0:0:0:
256,192,28931,1,8,0:0:0:0:
256,192,29089,1,0,0:0:0:0:
256,192,29167,1,8,0:0:0:0:
256,192,29246,1,8,0:0:0:0:
256,192,29324,1,0,0:0:0:0:
256,192,29403,1,8,0:0:0:0:
256,192,29481,1,0,0:0:0:0:
256,192,29560,1,8,0:0:0:0:
256,192,29874,1,0,0:0:0:0:
256,192,30031,1,0,0:0:0:0:
256,192,30188,1,8,0:0:0:0:
256,192,30267,1,8,0:0:0:0:
256,192,30345,1,0,0:0:0:0:
256,192,30502,1,0,0:0:0:0:
256,192,30659,1,0,0:0:0:0:
256,192,30738,1,8,0:0:0:0:
256,192,30816,1,8,0:0:0:0:
256,192,30973,1,8,0:0:0:0:
256,192,31130,1,0,0:0:0:0:
256,192,31287,1,8,0:0:0:0:
256,192,31366,1,8,0:0:0:0:
256,192,31445,1,0,0:0:0:0:
256,192,31602,1,0,0:0:0:0:
256,192,31680,1,8,0:0:0:0:
256,192,31759,1,0,0:0:0:0:
256,192,31916,1,0,0:0:0:0:
256,192,32073,1,8,0:0:0:0:
256,192,32387,1,8,0:0:0:0:
256,192,32544,1,0,0:0:0:0:
256,192,32623,1,0,0:0:0:0:
256,192,32701,1,8,0:0:0:0:
256,192,32858,1,0,0:0:0:0:
256,192,33015,1,8,0:0:0:0:
256,192,33094,1,0,0:0:0:0:
256,192,33172,1,8,0:0:0:0:
256,192,33329,1,0,0:0:0:0:
256,192,33486,1,8,0:0:0:0:
256,192,33565,1,0,0:0:0:0:
256,192,33643,1,0,0:0:0:0:
256,192,33722,1,0,0:0:0:0:
256,192,33801,1,8,0:0:0:0:
256,192,33879,1,8,0:0:0:0:
256,192,33958,1,0,0:0:0:0:
256,192,34036,1,0,0:0:0:0:
256,192,34115,1,8,0:0:0:0:
256,192,34193,1,0,0:0:0:0:
256,192,34272,1,8,0:0:0:0:
256,192,34350,1,8,0:0:0:0:
256,192,34429,1,0,0:0:0:0:
256,192,34507,1,8,0:0:0:0:
256,192,34586,1,0,0:0:0:0:
256,192,34664,1,0,0:0:0:0:
256,192,34743,1,8,0:0:0:0:
256,192,35214,1,12,0:0:0:0:
256,192,35371,1,0,0:0:0:0:
256,192,35528,1,8,0:0:0:0:
256,192,35607,1,0,0:0:0:0:
256,192,35685,1,8,0:0:0:0:
256,192,35842,1,0,0:0:0:0:
256,192,36000,1,8,0:0:0:0:
256,192,36078,1,8,0:0:0:0:
256,192,36157,1,0,0:0:0:0:
256,192,36314,1,8,0:0:0:0:
256,192,36471,1,0,0:0:0:0:
256,192,36549,1,0,0:0:0:0:
256,192,36628,1,8,0:0:0:0:
256,192,36706,1,0,0:0:0:0:
256,192,36785,1,0,0:0:0:0:
256,192,36942,1,8,0:0:0:0:
256,192,37099,1,8,0:0:0:0:
256,192,37178,1,0,0:0:0:0:
256,192,37256,1,8,0:0:0:0:
256,192,37335,1,8,0:0:0:0:
256,192,37413,1,4,0:0:0:0:
256,192,37570,1,0,0:0:0:0:
256,192,37649,1,8,0:0:0:0:
256,192,37727,1,8,0:0:0:0:
256,192,37884,1,0,0:0:0:0:
256,192,38041,1,8,0:0:0:0:
256,192,38120,1,0,0:0:0:0:
256,192,38198,1,8,0:0:0:0:
256,192,38356,1,0,0:0:0:0:
256,192,38513,1,8,0:0:0:0:
256,192,38591,1,0,0:0:0:0:
256,192,38670,1,0,0:0:0:0:
256,192,38827,1,0,0:0:0:0:
256,192,38905,1,0,0:0:0:0:
256,192,38984,1,8,0:0:0:0:
256,192,39062,1,8,0:0:0:0:
256,192,39141,1,0,0:0:0:0:
256,192,39219,1,8,0:0:0:0:
256,192,39298,1,8,0:0:0:0:
256,192,39534,1,8,0:0:0:0:
256,192,39612,1,0,0:0:0:0:
256,192,39848,1,0,0:0:0:0:
256,192,39926,1,12,0:0:0:0:
256,192,40083,1,0,0:0:0:0:
256,192,40240,1,0,0:0:0:0:
256,192,40319,1,8,0:0:0:0:
256,192,40397,1,8,0:0:0:0:
256,192,40554,1,0,0:0:0:0:
256,192,40712,1,8,0:0:0:0:
256,192,40790,1,8,0:0:0:0:
256,192,40869,1,0,0:0:0:0:
256,192,41026,1,8,0:0:0:0:
256,192,41104,1,0,0:0:0:0:
256,192,41183,1,8,0:0:0:0:
256,192,41235,1,8,0:0:0:0:
256,192,41287,1,8,0:0:0:0:
256,192,41340,1,0,0:0:0:0:
256,192,41497,1,0,0:0:0:0:
256,192,41654,1,8,0:0:0:0:
256,192,41732,1,0,0:0:0:0:
256,192,41811,1,8,0:0:0:0:
256,192,41890,1,8,0:0:0:0:
256,192,41968,1,0,0:0:0:0:
256,192,42047,1,0,0:0:0:0:
256,192,42125,1,8,0:0:0:0:
256,192,42204,1,0,0:0:0:0:
256,192,42282,1,8,0:0:0:0:
256,192,42439,1,12,0:0:0:0:
256,192,42596,1,4,0:0:0:0:
256,192,42911,1,12,0:0:0:0:
256,192,43068,1,4,0:0:0:0:
256,192,43382,1,4,0:0:0:0:
256,192,43539,1,12,0:0:0:0:
256,192,43853,1,8,0:0:0:0:
256,192,43931,1,8,0:0:0:0:
256,192,44010,1,0,0:0:0:0:
256,192,44089,1,0,0:0:0:0:
256,192,44167,1,8,0:0:0:0:
256,192,44246,1,0,0:0:0:0:
256,192,44324,1,12,0:0:0:0:
256,192,44560,1,12,0:0:0:0:
256,192,44795,1,0,0:0:0:0:
256,192,45266,1,4,0:0:0:0:
256,192,45580,1,8,0:0:0:0:
256,192,45737,1,0,0:0:0:0:
256,192,45894,1,0,0:0:0:0:
256,192,46051,1,0,0:0:0:0:
256,192,46208,1,8,0:0:0:0:
256,192,46287,1,8,0:0:0:0:
256,192,46365,1,0,0:0:0:0:
256,192,46444,1,0,0:0:0:0:
256,192,46522,1,8,0:0:0:0:
256,192,46836,1,8,0:0:0:0:
256,192,46993,1,0,0:0:0:0:
256,192,47150,1,12,0:0:0:0:
256,192,47464,1,0,0:0:0:0:
256,192,47542,1,0,0:0:0:0:
256,192,47621,1,8,0:0:0:0:
256,192,47778,1,8,0:0:0:0:
256,192,47856,1,0,0:0:0:0:
256,192,47935,1,0,0:0:0:0:
256,192,48013,1,0,0:0:0:0:
256,192,48092,1,8,0:0:0:0:
256,192,48249,1,0,0:0:0:0:
256,192,48406,1,4,0:0:0:0:
256,192,48563,1,8,0:0:0:0:
256,192,48720,1,8,0:0:0:0:
256,192,48799,1,8,0:0:0:0:
256,192,48877,1,0,0:0:0:0:
256,192,48956,1,0,0:0:0:0:
256,192,49034,1,0,0:0:0:0:
256,192,49348,1,12,0:0:0:0:
256,192,49663,1,0,0:0:0:0:
256,192,49820,1,0,0:0:0:0:
256,192,49977,1,8,0:0:0:0:
256,192,50134,1,0,0:0:0:0:
256,192,50291,1,8,0:0:0:0:
256,192,50605,1,0,0:0:0:0:
256,192,50762,1,0,0:0:0:0:
256,192,50919,1,8,0:0:0:0:
256,192,51076,1,0,0:0:0:0:
256,192,51233,1,8,0:0:0:0:
256,192,51547,1,8,0:0:0:0:
256,192,51704,1,0,0:0:0:0:
256,192,51861,1,0,0:0:0:0:
256,192,52019,1,8,0:0:0:0:
256,192,52176,1,8,0:0:0:0:
256,192,52490,1,8,0:0:0:0:
256,192,52647,1,0,0:0:0:0:
256,192,52804,1,0,0:0:0:0:
256,192,52961,1,8,0:0:0:0:
256,192,53118,1,8,0:0:0:0:
256,192,54375,1,12,0:0:0:0:
256,192,54532,1,4,0:0:0:0:
256,192,54846,1,12,0:0:0:0:
256,192,55003,1,4,0:0:0:0:
256,192,55317,1,12,0:0:0:0:
256,192,55474,1,4,0:0:0:0:
256,192,55945,1,0,0:0:0:0:
256,192,56102,1,0,0:0:0:0:
256,192,56181,1,0,0:0:0:0:
256,192,56259,1,8,0:0:0:0:
256,192,56416,1,0,0:0:0:0:
256,192,56573,1,12,0:0:0:0:
256,192,56887,1,8,0:0:0:0:
256,192,57044,1,0,0:0:0:0:
256,192,57201,1,0,0:0:0:0:
256,192,57279,1,0,0:0:0:0:
256,192,57358,1,8,0:0:0:0:
256,192,57436,1,0,0:0:0:0:
256,192,57515,1,8,0:0:0:0:
256,192,57620,1,0,0:0:0:0:
256,192,57724,1,0,0:0:0:0:
256,192,57829,1,8,0:0:0:0:
256,192,58065,1,0,0:0:0:0:
256,192,58143,1,8,0:0:0:0:
256,192,58300,1,0,0:0:0:0:
256,192,58614,1,8,0:0:0:0:
256,192,58693,1,0,0:0:0:0:
256,192,58771,1,8,0:0:0:0:
256,192,58850,1,8,0:0:0:0:
256,192,58929,1,0,0:0:0:0:
256,192,59007,1,8,0:0:0:0:
256,192,59086,1,4,0:0:0:0:
256,192,59243,1,4,0:0:0:0:
256,192,59557,1,4,0:0:0:0:
256,192,59714,1,4,0:0:0:0:
256,192,60028,1,4,0:0:0:0:
256,192,60185,1,4,0:0:0:0:
256,192,60656,1,0,0:0:0:0:
256,192,60735,1,0,0:0:0:0:
256,192,60813,1,8,0:0:0:0:
256,192,60892,1,0,0:0:0:0:
256,192,60970,1,8,0:0:0:0:
256,192,61127,1,0,0:0:0:0:
256,192,61206,1,0,0:0:0:0:
256,192,61284,1,12,0:0:0:0:
256,192,61598,1,8,0:0:0:0:
256,192,61755,1,0,0:0:0:0:
256,192,61912,1,0,0:0:0:0:
256,192,61990,1,8,0:0:0:0:
256,192,62069,1,8,0:0:0:0:
256,192,62147,1,0,0:0:0:0:
256,192,62226,1,8,0:0:0:0:
256,192,62331,1,8,0:0:0:0:
256,192,62435,1,8,0:0:0:0:
256,192,62540,1,0,0:0:0:0:
256,192,62776,1,0,0:0:0:0:
256,192,62854,1,8,0:0:0:0:
256,192,63011,1,0,0:0:0:0:
256,192,63168,1,0,0:0:0:0:
256,192,63247,1,8,0:0:0:0:
256,192,63325,1,0,0:0:0:0:
256,192,63404,1,0,0:0:0:0:
256,192,63482,1,8,0:0:0:0:
256,192,63561,1,8,0:0:0:0:
256,192,63640,1,8,0:0:0:0:
256,192,63797,1,0,0:0:0:0:
256,192,63875,1,0,0:0:0:0:
256,192,63954,1,8,0:0:0:0:
256,192,64032,1,0,0:0:0:0:
256,192,64111,1,12,0:0:0:0:
256,192,64425,1,0,0:0:0:0:
256,192,64503,1,8,0:0:0:0:
256,192,64582,1,0,0:0:0:0:
256,192,64739,1,8,0:0:0:0:
256,192,64818,1,8,0:0:0:0:
256,192,64896,1,0,0:0:0:0:
256,192,64975,1,0,0:0:0:0:
256,192,65053,1,8,0:0:0:0:
256,192,65211,1,0,0:0:0:0:
256,192,65290,1,0,0:0:0:0:
256,192,65368,1,8,0:0:0:0:
256,192,65525,1,8,0:0:0:0:
256,192,65682,1,0,0:0:0:0:
256,192,65840,1,0,0:0:0:0:
256,192,65892,1,8,0:0:0:0:
256,192,65944,1,8,0:0:0:0:
256,192,65997,1,0,0:0:0:0:
256,192,66154,1,0,0:0:0:0:
256,192,66311,1,12,0:0:0:0:
256,192,66468,1,12,0:0:0:0:
256,192,66625,1,0,0:0:0:0:
256,192,66703,1,0,0:0:0:0:
256,192,66782,1,8,0:0:0:0:
256,192,66860,1,8,0:0:0:0:
256,192,66939,1,4,0:0:0:0:
256,192,67096,1,4,0:0:0:0:
256,192,67253,1,8,0:0:0:0:
256,192,67305,1,0,0:0:0:0:
256,192,67358,1,0,0:0:0:0:
256,192,67410,1,8,0:0:0:0:
256,192,67463,1,8,0:0:0:0:
256,192,67515,1,0,0:0:0:0:
256,192,67567,1,8,0:0:0:0:
256,192,67724,1,0,0:0:0:0:
256,192,67803,1,0,0:0:0:0:
256,192,67881,1,8,0:0:0:0:
256,192,68038,1,8,0:0:0:0:
256,192,68117,1,8,0:0:0:0:
256,192,68196,1,0,0:0:0:0:
256,192,68353,1,8,0:0:0:0:
256,192,68431,1,0,0:0:0:0:
256,192,68510,1,12,0:0:0:0:
256,192,68824,1,0,0:0:0:0:
256,192,69138,1,0,0:0:0:0:
256,192,69295,1,0,0:0:0:0:
256,192,69452,1,8,0:0:0:0:
256,192,69766,1,8,0:0:0:0:
256,192,69923,1,8,0:0:0:0:
256,192,70002,1,0,0:0:0:0:
256,192,70080,1,0,0:0:0:0:
256,192,70237,1,0,0:0:0:0:
256,192,70394,1,8,0:0:0:0:
256,192,70473,1,0,0:0:0:0:
256,192,70552,1,8,0:0:0:0:
256,192,70630,1,8,0:0:0:0:
256,192,70709,1,8,0:0:0:0:
256,192,70866,1,0,0:0:0:0:
256,192,70944,1,0,0:0:0:0:
256,192,71023,1,8,0:0:0:0:
256,192,71180,1,0,0:0:0:0:
256,192,71337,1,8,0:0:0:0:
256,192,71494,1,0,0:0:0:0:
256,192,71651,1,0,0:0:0:0:
256,192,71808,1,8,0:0:0:0:
256,192,71965,1,0,0:0:0:0:
256,192,72122,1,0,0:0:0:0:
256,192,72279,1,8,0:0:0:0:
256,192,72384,1,0,0:0:0:0:
256,192,72489,1,8,0:0:0:0:
256,192,72593,1,0,0:0:0:0:
256,192,72750,1,0,0:0:0:0:
256,192,72829,1,0,0:0:0:0:
256,192,72908,1,8,0:0:0:0:
256,192,73065,1,0,0:0:0:0:
256,192,73222,1,0,0:0:0:0:
256,192,73300,1,0,0:0:0:0:
256,192,73379,1,8,0:0:0:0:
256,192,73536,1,8,0:0:0:0:
256,192,73614,1,0,0:0:0:0:
256,192,73693,1,8,0:0:0:0:
256,192,73771,1,8,0:0:0:0:
256,192,73850,1,0,0:0:0:0:
256,192,74007,1,0,0:0:0:0:
256,192,74086,1,0,0:0:0:0:
256,192,74164,1,8,0:0:0:0:
256,192,74243,1,0,0:0:0:0:
256,192,74321,1,8,0:0:0:0:
256,192,74478,1,0,0:0:0:0:
256,192,74557,1,0,0:0:0:0:
256,192,74635,1,8,0:0:0:0:
256,192,74792,1,8,0:0:0:0:
256,192,74871,1,8,0:0:0:0:
256,192,74949,1,0,0:0:0:0:
256,192,75028,1,8,0:0:0:0:
256,192,75106,1,8,0:0:0:0:
256,192,75185,1,0,0:0:0:0:
256,192,75264,1,0,0:0:0:0:
256,192,75342,1,0,0:0:0:0:
256,192,75421,1,8,0:0:0:0:
256,192,75499,1,0,0:0:0:0:
256,192,75578,1,0,0:0:0:0:
256,192,75656,1,0,0:0:0:0:
256,192,75735,1,8,0:0:0:0:
256,192,75813,1,8,0:0:0:0:
256,192,75892,1,0,0:0:0:0:
256,192,75970,1,0,0:0:0:0:
256,192,76049,1,8,0:0:0:0:
256,192,76127,1,8,0:0:0:0:
256,192,76206,1,0,0:0:0:0:
256,192,76284,1,0,0:0:0:0:
256,192,76363,1,8,0:0:0:0:
256,192,76415,1,8,0:0:0:0:
256,192,76468,1,0,0:0:0:0:
256,192,76520,1,8,0:0:0:0:
256,192,76572,1,0,0:0:0:0:
256,192,76625,1,0,0:0:0:0:
256,192,76677,1,8,0:0:0:0:
256,192,76730,1,8,0:0:0:0:
256,192,76782,1,0,0:0:0:0:
256,192,76834,1,8,0:0:0:0:
256,192,76887,1,0,0:0:0:0:
256,192,76939,1,0,0:0:0:0:
256,192,76991,1,8,0:0:0:0:
256,192,77044,1,8,0:0:0:0:
256,192,77096,1,8,0:0:0:0:
256,192,77148,1,8,0:0:0:0:
256,192,77201,1,0,0:0:0:0:
256,192,77253,1,0,0:0:0:0:
256,192,77305,1,8,0:0:0:0:
256,192,77358,1,8,0:0:0:0:
256,192,77410,1,0,0:0:0:0:
256,192,77463,1,0,0:0:0:0:
256,192,77515,1,0,0:0:0:0:
256,192,77567,1,0,0:0:0:0:
256,192,77620,1,12,0:0:0:0:
256,192,77934,1,8,0:0:0:0:
256,192,78091,1,0,0:0:0:0:
256,192,78405,1,0,0:0:0:0:
256,192,78876,1,8,0:0:0:0:
256,192,79033,1,0,0:0:0:0:
256,192,79190,1,8,0:0:0:0:
256,192,79347,1,0,0:0:0:0:
256,192,79661,1,8,0:0:0:0:
256,192,79976,1,0,0:0:0:0:
256,192,80290,1,12,0:0:0:0:
256,192,80447,1,12,0:0:0:0:
256,192,80761,1,8,0:0:0:0:
256,192,80839,1,0,0:0:0:0:
256,192,80918,1,0,0:0:0:0:
256,192,80997,1,0,0:0:0:0:
256,192,81075,1,8,0:0:0:0:
256,192,81154,1,8,0:0:0:0:
256,192,81232,1,8,0:0:0:0:
256,192,81311,1,0,0:0:0:0:
256,192,81389,1,8,0:0:0:0:
256,192,81468,1,8,0:0:0:0:
256,192,81546,1,0,0:0:0:0:
256,192,81625,1,0,0:0:0:0:
256,192,81703,1,8,0:0:0:0:
256,192,81782,1,0,0:0:0:0:
256,192,81860,1,0,0:0:0:0:
256,192,81939,1,0,0:0:0:0:
256,192,82017,1,8,0:0:0:0:
256,192,82096,1,8,0:0:0:0:
256,192,82175,1,8,0:0:0:0:
256,192,82253,1,8,0:0:0:0:
256,192,82332,1,0,0:0:0:0:
256,192,82410,1,0,0:0:0:0:
256,192,82489,1,0,0:0:0:0:
256,192,82567,1,0,0:0:0:0:
256,192,82646,1,12,0:0:0:0:
256,192,82881,1,0,0:0:0:0:
256,192,83117,1,0,0:0:0:0:
256,192,83274,1,12,0:0:0:0:
256,192,83510,1,0,0:0:0:0:
256,192,83745,1,0,0:0:0:0:
256,192,83902,1,12,0:0:0:0:
256,192,84138,1,4,0:0:0:0:
256,192,84374,1,4,0:0:0:0:
256,192,84531,1,12,0:0:0:0:
256,192,84766,1,12,0:0:0:0:
256,192,85002,1,4,0:0:0:0:
256,192,85159,1,8,0:0:0:0:
256,192,85237,1,0,0:0:0:0:
256,192,85316,1,0,0:0:0:0:
256,192,85394,1,8,0:0:0:0:
256,192,85473,1,0,0:0:0:0:
256,192,85552,1,0,0:0:0:0:
256,192,85630,1,8,0:0:0:0:
256,192,85709,1,0,0:0:0:0:
256,192,85787,1,8,0:0:0:0:
256,192,85866,1,8,0:0:0:0:
256,192,85944,1,0,0:0:0:0:
256,192,86023,1,8,0:0:0:0:
256,192,86101,1,8,0:0:0:0:
256,192,86180,1,0,0:0:0:0:
256,192,86258,1,8,0:0:0:0:
256,192,86337,1,0,0:0:0:0:
256,192,86415,1,12,0:0:0:0:
256,192,86730,1,0,0:0:0:0:
256,192,87044,1,12,0:0:0:0:
256,192,87201,1,0,0:0:0:0:
256,192,87279,1,0,0:0:0:0:
256,192,87358,1,8,0:0:0:0:
256,192,87515,1,8,0:0:0:0:
256,192,87672,1,0,0:0:0:0:
256,192,87750,1,0,0:0:0:0:
256,192,87829,1,8,0:0:0:0:
256,192,87908,1,0,0:0:0:0:
256,192,87986,1,8,0:0:0:0:
256,192,88143,1,0,0:0:0:0:
256,192,88222,1,8,0:0:0:0:
256,192,88300,1,0,0:0:0:0:
256,192,88379,1,0,0:0:0:0:
256,192,88457,1,8,0:0:0:0:
256,192,88614,1,0,0:0:0:0:
256,192,88693,1,0,0:0:0:0:
256,192,88771,1,8,0:0:0:0:
256,192,88850,1,8,0:0:0:0:
256,192,88928,1,8,0:0:0:0:
256,192,89086,1,0,0:0:0:0:
256,192,89164,1,8,0:0:0:0:
256,192,89243,1,8,0:0:0:0:
256,192,89321,1,0,0:0:0:0:
256,192,89400,1,8,0:0:0:0:
256,192,89557,1,0,0:0:0:0:
256,192,89635,1,0,0:0:0:0:
256,192,89714,1,0,0:0:0:0:
256,192,89792,1,8,0:0:0:0:
256,192,89871,1,0,0:0:0:0:
256,192,89949,1,0,0:0:0:0:
256,192,90028,1,0,0:0:0:0:
256,192,90106,1,8,0:0:0:0:
256,192,90185,1,8,0:0:0:0:
256,192,90499,1,4,0:0:0:0:
256,192,90656,1,8,0:0:0:0:
256,192,90970,1,0,0:0:0:0:
256,192,91127,1,0,0:0:0:0:
256,192,91206,1,8,0:0:0:0:
256,192,91284,1,0,0:0:0:0:
256,192,91363,1,0,0:0:0:0:
256,192,91442,1,8,0:0:0:0:
256,192,91599,1,0,0:0:0:0:
256,192,91651,1,8,0:0:0:0:
256,192,91703,1,8,0:0:0:0:
256,192,91756,1,0,0:0:0:0:
256,192,91913,1,8,0:0:0:0:
256,192,91991,1,8,0:0:0:0:
256,192,92070,1,0,0:0:0:0:
256,192,92227,1,0,0:0:0:0:
256,192,92305,1,0,0:0:0:0:
256,192,92384,1,8,0:0:0:0:
256,192,92463,1,8,0:0:0:0:
256,192,92541,1,8,0:0:0:0:
256,192,92620,1,8,0:0:0:0:
256,192,92698,1,0,0:0:0:0:
256,192,92855,1,0,0:0:0:0:
256,192,92934,1,0,0:0:0:0:
256,192,93012,1,8,0:0:0:0:
256,192,93169,1,8,0:0:0:0:
256,192,93248,1,8,0:0:0:0:
256,192,93326,1,8,0:0:0:0:
256,192,93405,1,0,0:0:0:0:
256,192,93483,1,8,0:0:0:0:
256,192,93562,1,8,0:0:0:0:
256,192,93641,1,0,0:0:0:0:
256,192,93719,1,0,0:0:0:0:
256,192,93798,1,0,0:0:0:0:
256,192,93876,1,0,0:0:0:0:
256,192,93955,1,8,0:0:0:0:
256,192,94112,1,0,0:0:0:0:
256,192,94190,1,0,0:0:0:0:
256,192,94269,1,8,0:0:0:0:
256,192,94426,1,8,0:0:0:0:
256,192,94504,1,0,0:0:0:0:
256,192,94583,1,8,0:0:0:0:
256,192,94661,1,8,0:0:0:0:
256,192,94740,1,8,0:0:0:0:
256,192,94819,1,0,0:0:0:0:
256,192,94897,1,8,0:0:0:0:
256,192,94976,1,0,0:0:0:0:
256,192,95054,1,0,0:0:0:0:
256,192,95133,1,0,0:0:0:0:
256,192,95211,1,8,0:0:0:0:
256,192,95368,1,0,0:0:0:0:
256,192,95447,1,0,0:0:0:0:
256,192,95525,1,8,0:0:0:0:
256,192,95682,1,8,0:0:0:0:
256,192,95839,1,0,0:0:0:0:
256,192,95918,1,0,0:0:0:0:
256,192,95997,1,8,0:0:0:0:
256,192,96154,1,8,0:0:0:0:
256,192,96232,1,0,0:0:0:0:
256,192,96311,1,8,0:0:0:0:
256,192,96468,1,8,0:0:0:0:
256,192,96546,1,8,0:0:0:0:
256,192,96625,1,0,0:0:0:0:
256,192,96703,1,8,0:0:0:0:
256,192,96782,1,0,0:0:0:0:
256,192,96860,1,8,0:0:0:0:
256,192,96939,1,0,0:0:0:0:
256,192,97017,1,0,0:0:0:0:
256,192,97096,1,8,0:0:0:0:
256,192,97175,1,8,0:0:0:0:
256,192,97253,1,0,0:0:0:0:
256,192,97305,1,0,0:0:0:0:
256,192,97358,1,0,0:0:0:0:
256,192,97410,1,8,0:0:0:0:
256,192,97567,1,8,0:0:0:0:
256,192,97724,1,4,0:0:0:0:
256,192,97881,1,0,0:0:0:0:
256,192,97960,1,8,0:0:0:0:
256,192,98038,1,8,0:0:0:0:
256,192,98195,1,0,0:0:0:0:
256,192,98274,1,8,0:0:0:0:
256,192,98353,1,0,0:0:0:0:
256,192,98431,1,0,0:0:0:0:
256,192,98510,1,8,0:0:0:0:
256,192,98667,1,0,0:0:0:0:
256,192,98745,1,8,0:0:0:0:
256,192,98824,1,0,0:0:0:0:
256,192,98902,1,8,0:0:0:0:
256,192,98981,1,8,0:0:0:0:
256,192,99138,1,0,0:0:0:0:
256,192,99216,1,8,0:0:0:0:
256,192,99295,1,0,0:0:0:0:
256,192,99374,1,0,0:0:0:0:
256,192,99452,1,8,0:0:0:0:
256,192,99531,1,8,0:0:0:0:
256,192,99609,1,0,0:0:0:0:
256,192,99688,1,0,0:0:0:0:
256,192,99766,1,0,0:0:0:0:
256,192,99845,1,8,0:0:0:0:
256,192,99923,1,0,0:0:0:0:
256,192,100002,1,0,0:0:0:0:
256,192,100080,1,8,0:0:0:0:
256,192,100159,1,0,0:0:0:0:
256,192,100237,1,8,0:0:0:0:
256,192,100552,1,4,0:0:0:0:
256,192,100709,1,8,0:0:0:0:
256,192,101023,1,0,0:0:0:0:
256,192,101101,1,0,0:0:0:0:
256,192,101180,1,8,0:0:0:0:
256,192,101258,1,0,0:0:0:0:
256,192,101337,1,8,0:0:0:0:
256,192,101415,1,0,0:0:0:0:
256,192,101494,1,12,0:0:0:0:
256,192,101703,1,4,0:0:0:0:
256,192,101913,1,4,0:0:0:0:
256,192,102122,1,12,0:0:0:0:
256,192,102332,1,4,0:0:0:0:
256,192,102541,1,12,0:0:0:0:
256,192,102750,1,8,0:0:0:0:
256,192,103065,1,4,0:0:0:0:
256,192,103222,1,8,0:0:0:0:
256,192,103300,1,0,0:0:0:0:
256,192,103379,1,0,0:0:0:0:
256,192,103457,1,0,0:0:0:0:
256,192,103536,1,8,0:0:0:0:
256,192,103693,1,8,0:0:0:0:
256,192,103771,1,8,0:0:0:0:
256,192,103850,1,0,0:0:0:0:
256,192,103928,1,0,0:0:0:0:
256,192,104007,1,8,0:0:0:0:
256,192,104164,1,0,0:0:0:0:
256,192,104243,1,0,0:0:0:0:
256,192,104321,1,8,0:0:0:0:
256,192,104400,1,0,0:0:0:0:
256,192,104478,1,8,0:0:0:0:
256,192,104557,1,8,0:0:0:0:
256,192,104635,1,8,0:0:0:0:
256,192,104714,1,0,0:0:0:0:
256,192,104792,1,8,0:0:0:0:
256,192,104871,1,0,0:0:0:0:
256,192,104949,1,8,0:0:0:0:
256,192,105028,1,8,0:0:0:0:
256,192,105106,1,0,0:0:0:0:
256,192,105185,1,0,0:0:0:0:
256,192,105264,1,8,0:0:0:0:
256,192,105421,1,0,0:0:0:0:
256,192,105578,1,0,0:0:0:0:
256,192,105656,1,0,0:0:0:0:
256,192,105735,1,0,0:0:0:0:
256,192,105813,1,0,0:0:0:0:
256,192,105892,1,8,0:0:0:0:
256,192,105970,1,8,0:0:0:0:
256,192,106049,1,0,0:0:0:0:
256,192,106127,1,0,0:0:0:0:
256,192,106206,1,8,0:0:0:0:
256,192,106284,1,0,0:0:0:0:
256,192,106363,1,8,0:0:0:0:
256,192,106442,1,8,0:0:0:0:
256,192,106520,1,8,0:0:0:0:
256,192,106599,1,0,0:0:0:0:
256,192,106677,1,0,0:0:0:0:
256,192,106756,1,8,0:0:0:0:
256,192,106834,1,0,0:0:0:0:
256,192,106913,1,0,0:0:0:0:
256,192,106991,1,8,0:0:0:0:
256,192,107070,1,0,0:0:0:0:
256,192,107148,1,8,0:0:0:0:
256,192,107201,1,8,0:0:0:0:
256,192,107253,1,8,0:0:0:0:
256,192,107305,1,0,0:0:0:0:
256,192,107358,1,0,0:0:0:0:
256,192,107410,1,0,0:0:0:0:
256,192,107463,1,8,0:0:0:0:
256,192,107620,1,8,0:0:0:0:
256,192,107777,1,4,0:0:0:0:
256,192,107934,1,8,0:0:0:0:
256,192,108012,1,8,0:0:0:0:
256,192,108091,1,0,0:0:0:0:
256,192,108248,1,12,0:0:0:0:
256,192,108405,1,0,0:0:0:0:
256,192,108483,1,0,0:0:0:0:
256,192,108562,1,8,0:0:0:0:
256,192,108719,1,4,0:0:0:0:
256,192,108876,1,8,0:0:0:0:
256,192,108955,1,8,0:0:0:0:
256,192,109033,1,0,0:0:0:0:
256,192,109190,1,12,0:0:0:0:
256,192,109347,1,0,0:0:0:0:
256,192,109426,1,0,0:0:0:0:
256,192,109504,1,8,0:0:0:0:
256,192,109583,1,8,0:0:0:0:
256,192,109661,1,8,0:0:0:0:
256,192,109714,1,0,0:0:0:0:
256,192,109766,1,0,0:0:0:0:
256,192,109819,1,8,0:0:0:0:
256,192,109871,1,0,0:0:0:0:
256,192,109923,1,0,0:0:0:0:
256,192,109976,1,8,0:0:0:0:
256,192,110133,1,0,0:0:0:0:
256,192,110211,1,8,0:0:0:0:
256,192,110290,1,0,0:0:0:0:
256,192,110368,1,0,0:0:0:0:
256,192,110447,1,0,0:0:0:0:
256,192,110604,1,12,0:0:0:0:
256,192,110761,1,8,0:0:0:0:
256,192,110839,1,8,0:0:0:0:
256,192,110918,1,0,0:0:0:0:
256,192,111075,1,8,0:0:0:0:
256,192,111154,1,0,0:0:0:0:
256,192,111232,1,8,0:0:0:0:
256,192,111311,1,8,0:0:0:0:
256,192,111389,1,0,0:0:0:0:
256,192,111468,1,0,0:0:0:0:
256,192,111546,1,8,0:0:0:0:
256,192,111703,1,0,0:0:0:0:
256,192,111756,1,8,0:0:0:0:
256,192,111808,1,0,0:0:0:0:
256,192,111860,1,8,0:0:0:0:
256,192,111913,1,0,0:0:0:0:
256,192,111965,1,0,0:0:0:0:
256,192,112017,1,8,0:0:0:0:
256,192,112070,1,0,0:0:0:0:
256,192,112122,1,0,0:0:0:0:
256,192,112175,1,8,0:0:0:0:
256,192,112332,1,0,0:0:0:0:
256,192,112410,1,0,0:0:0:0:
256,192,112489,1,8,0:0:0:0:
256,192,112567,1,8,0:0:0:0:
256,192,112646,1,0,0:0:0:0:
256,192,112724,1,0,0:0:0:0:
256,192,112803,1,8,0:0:0:0:
256,192,112960,1,0,0:0:0:0:
256,192,113038,1,8,0:0:0:0:
256,192,113117,1,0,0:0:0:0:
256,192,113195,1,0,0:0:0:0:
256,192,113274,1,8,0:0:0:0:
256,192,113353,1,8,0:0:0:0:
256,192,113431,1,8,0:0:0:0:
256,192,113510,1,0,0:0:0:0:
256,192,113588,1,8,0:0:0:0:
256,192,113667,1,0,0:0:0:0:
256,192,113745,1,8,0:0:0:0:
256,192,113824,1,8,0:0:0:0:
256,192,113902,1,0,0:0:0:0:
256,192,113981,1,0,0:0:0:0:
256,192,114059,1,8,0:0:0:0:
256,192,114216,1,0,0:0:0:0:
256,192,114295,1,0,0:0:0:0:
256,192,114374,1,8,0:0:0:0:
256,192,114452,1,0,0:0:0:0:
256,192,114531,1,8,0:0:0:0:
256,192,114609,1,0,0:0:0:0:
256,192,114688,1,8,0:0:0:0:
256,192,114766,1,8,0:0:0:0:
256,192,114845,1,8,0:0:0:0:
256,192,114923,1,0,0:0:0:0:
256,192,115002,1,8,0:0:0:0:
256,192,115080,1,0,0:0:0:0:
256,192,115159,1,0,0:0:0:0:
256,192,115237,1,0,0:0:0:0:
256,192,115316,1,8,0:0:0:0:
256,192,115473,1,0,0:0:0:0:
256,192,115552,1,8,0:0:0:0:
256,192,115630,1,8,0:0:0:0:
256,192,115787,1,8,0:0:0:0:
256,192,115944,1,0,0:0:0:0:
256,192,116023,1,0,0:0:0:0:
256,192,116101,1,8,0:0:0:0:
256,192,116180,1,8,0:0:0:0:
256,192,116258,1,0,0:0:0:0:
256,192,116337,1,0,0:0:0:0:
256,192,116415,1,8,0:0:0:0:
256,192,116494,1,0,0:0:0:0:
256,192,116572,1,8,0:0:0:0:
256,192,116651,1,8,0:0:0:0:
256,192,116730,1,0,0:0:0:0:
256,192,116808,1,0,0:0:0:0:
256,192,116887,1,8,0:0:0:0:
256,192,116965,1,0,0:0:0:0:
256,192,117044,1,8,0:0:0:0:
256,192,117122,1,0,0:0:0:0:
256,192,117201,1,8,0:0:0:0:
256,192,117253,1,8,0:0:0:0:
256,192,117305,1,8,0:0:0:0:
256,192,117358,1,0,0:0:0:0:
256,192,117410,1,0,0:0:0:0:
256,192,117463,1,0,0:0:0:0:
256,192,117515,1,8,0:0:0:0:
256,192,117672,1,8,0:0:0:0:
256,192,117829,1,4,0:0:0:0:
256,192,117986,1,0,0:0:0:0:
256,192,118065,1,8,0:0:0:0:
256,192,118143,1,0,0:0:0:0:
256,192,118222,1,0,0:0:0:0:
256,192,118300,1,12,0:0:0:0:
256,192,118457,1,0,0:0:0:0:
256,192,118536,1,0,0:0:0:0:
256,192,118614,1,8,0:0:0:0:
256,192,118693,1,8,0:0:0:0:
256,192,118771,1,4,0:0:0:0:
256,192,118928,1,0,0:0:0:0:
256,192,119007,1,8,0:0:0:0:
256,192,119086,1,8,0:0:0:0:
256,192,119164,1,0,0:0:0:0:
256,192,119243,1,8,0:0:0:0:
256,192,119295,1,8,0:0:0:0:
256,192,119347,1,8,0:0:0:0:
256,192,119400,1,0,0:0:0:0:
256,192,119478,1,8,0:0:0:0:
256,192,119557,1,0,0:0:0:0:
256,192,119635,1,0,0:0:0:0:
256,192,119714,1,8,0:0:0:0:
256,192,119871,1,8,0:0:0:0:
256,192,119949,1,8,0:0:0:0:
256,192,120028,1,0,0:0:0:0:
256,192,120106,1,0,0:0:0:0:
256,192,120185,1,8,0:0:0:0:
256,192,120264,1,0,0:0:0:0:
256,192,120342,1,8,0:0:0:0:
256,192,120656,1,4,0:0:0:0:
256,192,120813,1,8,0:0:0:0:
256,192,121127,1,0,0:0:0:0:
256,192,121206,1,8,0:0:0:0:
256,192,121284,1,0,0:0:0:0:
256,192,121363,1,0,0:0:0:0:
256,192,121442,1,8,0:0:0:0:
256,192,121520,1,0,0:0:0:0:
256,192,121599,1,12,0:0:0:0:
256,192,121808,1,4,0:0:0:0:
256,192,122017,1,4,0:0:0:0:
256,192,122227,1,12,0:0:0:0:
256,192,122436,1,4,0:0:0:0:
256,192,122646,1,12,0:0:0:0:
256,192,122855,1,8,0:0:0:0:
256,192,123169,1,4,0:0:0:0:
256,192,123326,1,8,0:0:0:0:
256,192,123405,1,0,0:0:0:0:
256,192,123483,1,0,0:0:0:0:
256,192,123562,1,0,0:0:0:0:
256,192,123641,1,8,0:0:0:0:
256,192,123719,1,0,0:0:0:0:
256,192,123798,1,8,0:0:0:0:
256,192,123955,1,0,0:0:0:0:
256,192,124033,1,0,0:0:0:0:
256,192,124112,1,8,0:0:0:0:
256,192,124269,1,0,0:0:0:0:
256,192,124347,1,8,0:0:0:0:
256,192,124426,1,8,0:0:0:0:
256,192,124504,1,0,0:0:0:0:
256,192,124583,1,8,0:0:0:0:
256,192,124661,1,8,0:0:0:0:
256,192,124740,1,8,0:0:0:0:
256,192,124819,1,0,0:0:0:0:
256,192,124897,1,8,0:0:0:0:
256,192,124976,1,0,0:0:0:0:
256,192,125054,1,8,0:0:0:0:
256,192,125133,1,8,0:0:0:0:
256,192,125211,1,0,0:0:0:0:
256,192,125290,1,0,0:0:0:0:
256,192,125368,1,8,0:0:0:0:
256,192,125525,1,0,0:0:0:0:
256,192,125604,1,0,0:0:0:0:
256,192,125682,1,8,0:0:0:0:
256,192,125761,1,8,0:0:0:0:
256,192,125839,1,0,0:0:0:0:
256,192,125918,1,0,0:0:0:0:
256,192,125997,1,8,0:0:0:0:
256,192,126075,1,0,0:0:0:0:
256,192,126154,1,0,0:0:0:0:
256,192,126232,1,0,0:0:0:0:
256,192,126311,1,8,0:0:0:0:
256,192,126389,1,0,0:0:0:0:
256,192,126468,1,8,0:0:0:0:
256,192,126546,1,8,0:0:0:0:
256,192,126625,1,8,0:0:0:0:
256,192,126703,1,0,0:0:0:0:
256,192,126782,1,0,0:0:0:0:
256,192,126860,1,8,0:0:0:0:
256,192,126939,1,0,0:0:0:0:
256,192,126991,1,0,0:0:0:0:
256,192,127044,1,0,0:0:0:0:
256,192,127096,1,8,0:0:0:0:
256,192,127175,1,0,0:0:0:0:
256,192,127253,1,8,0:0:0:0:
256,192,127305,1,8,0:0:0:0:
256,192,127358,1,8,0:0:0:0:
256,192,127410,1,0,0:0:0:0:
256,192,127489,1,0,0:0:0:0:
256,192,127567,1,12,0:0:0:0:
256,192,127881,1,4,0:0:0:0:
256,192,128510,1,8,0:0:0:0:
256,192,128981,1,0,0:0:0:0:
256,192,129452,1,0,0:0:0:0:
256,192,129766,1,8,0:0:0:0:
256,192,129923,1,0,0:0:0:0:
256,192,130237,1,8,0:0:0:0:
256,192,130552,1,0,0:0:0:0:
256,192,130709,1,8,0:0:0:0:
256,192,130787,1,8,0:0:0:0:
256,192,130866,1,8,0:0:0:0:
256,192,130944,1,8,0:0:0:0:
256,192,131023,1,0,0:0:0:0:
256,192,131180,1,8,0:0:0:0:
256,192,131258,1,0,0:0:0:0:
256,192,131337,1,0,0:0:0:0:
256,192,131494,1,8,0:0:0:0:
256,192,131572,1,8,0:0:0:0:
256,192,131651,1,0,0:0:0:0:
256,192,131808,1,8,0:0:0:0:
256,192,131887,1,0,0:0:0:0:
256,192,131965,1,8,0:0:0:0:
256,192,132201,1,8,0:0:0:0:
256,192,132279,1,0,0:0:0:0:
256,192,132358,1,0,0:0:0:0:
256,192,132436,1,8,0:0:0:0:
256,192,132515,1,8,0:0:0:0:
256,192,132593,1,0,0:0:0:0:
256,192,132672,1,8,0:0:0:0:
256,192,132750,1,0,0:0:0:0:
256,192,132829,1,0,0:0:0:0:
256,192,132908,1,8,0:0:0:0:
256,192,132986,1,0,0:0:0:0:
256,192,133143,1,8,0:0:0:0:
256,192,133222,1,8,0:0:0:0:
256,192,133300,1,0,0:0:0:0:
256,192,133379,1,8,0:0:0:0:
256,192,133457,1,0,0:0:0:0:
256,192,133536,1,0,0:0:0:0:
256,192,133614,1,8,0:0:0:0:
256,192,133693,1,8,0:0:0:0:
256,192,133771,1,0,0:0:0:0:
256,192,133850,1,8,0:0:0:0:
256,192,133928,1,8,0:0:0:0:
256,192,134007,1,8,0:0:0:0:
256,192,134086,1,0,0:0:0:0:
256,192,134164,1,8,0:0:0:0:
256,192,134243,1,0,0:0:0:0:
256,192,134321,1,8,0:0:0:0:
256,192,134400,1,0,0:0:0:0:
256,192,134792,1,12,0:0:0:0:
256,192,134949,12,0,139504,0:0:0:0:
