osu file format v14

[General]
AudioFilename: audio.mp3
AudioLeadIn: 0
PreviewTime: 72884
Countdown: 0
SampleSet: Soft
StackLeniency: 0.7
Mode: 2
LetterboxInBreaks: 0
WidescreenStoryboard: 1

[Editor]
DistanceSpacing: 0.9
BeatDivisor: 4
GridSize: 32
TimelineZoom: 5.699997

[Metadata]
Title:Last Resort
TitleUnicode:Last Resort
Artist:xi
ArtistUnicode:xi
Creator:fuhie
Version:Joakh's VIVID
Source:SOUND VOLTEX IV HEAVENLY HAVEN
Tags:The 7th Konami Arcade Championship Original Song Contest Winner Bemani KAC SDVX Video Rhythm Game Instrumental ΩDimension Omega Phase 3 Stardust Prism Razor Sharp Ascendance Dika312 Verti Sinnoh Kukkai [_-Kukkai-_] ZiRoX -Joakh -Rustyy
BeatmapID:3356793
BeatmapSetID:1625860

[Difficulty]
HPDrainRate:6
CircleSize:4.4
OverallDifficulty:10
ApproachRate:10
SliderMultiplier:2
SliderTickRate:2

[Events]
//Background and Video events
0,0,"BG.jpg",0,0
//Break Periods
//Storyboard Layer 0 (Background)
//Storyboard Layer 1 (Fail)
//Storyboard Layer 2 (Pass)
//Storyboard Layer 3 (Foreground)
//Storyboard Layer 4 (Overlay)
//Storyboard Sound Samples

[TimingPoints]
992,238.095238095238,4,2,31,80,1,0
992,-50,4,2,31,80,0,0
1230,-100,4,2,31,80,0,0
1944,-100,4,2,34,80,0,0
2182,-100,4,2,32,80,0,0
2539,-100,4,2,31,20,0,0
2658,-100,4,2,31,80,0,0
2896,-83.3333333333333,4,2,31,80,0,0
2911,-83.3333333333333,4,2,31,80,0,0
3119,-83.3333333333333,4,2,31,5,0,0
3134,-83.3333333333333,4,2,31,80,0,0
3149,-83.3333333333333,4,2,31,80,0,0
3357,-83.3333333333333,4,2,31,5,0,0
3372,-83.3333333333333,4,2,31,80,0,0
3387,-83.3333333333333,4,2,31,80,0,0
3595,-83.3333333333333,4,2,31,5,0,0
3610,-83.3333333333333,4,2,31,80,0,0
3625,-83.3333333333333,4,2,31,80,0,0
3834,-83.3333333333333,4,2,31,5,0,0
3848,-83.3333333333333,4,2,31,80,0,0
3864,-83.3333333333333,4,2,31,80,0,0
4072,-83.3333333333333,4,2,31,5,0,0
4087,-83.3333333333333,4,2,31,80,0,0
4102,-83.3333333333333,4,2,31,80,0,0
4310,-83.3333333333333,4,2,31,5,0,0
4325,-83.3333333333333,4,2,31,80,0,0
4340,-83.3333333333333,4,2,31,80,0,0
4548,-83.3333333333333,4,2,31,5,0,0
4563,-83.3333333333333,4,2,31,80,0,0
4578,-83.3333333333333,4,2,31,80,0,0
4786,-83.3333333333333,4,2,31,5,0,0
4801,-83.3333333333333,4,2,31,80,0,0
4816,-83.3333333333333,4,2,31,80,0,0
5024,-83.3333333333333,4,2,31,5,0,0
5039,-83.3333333333333,4,2,31,80,0,0
5054,-83.3333333333333,4,2,31,80,0,0
5262,-83.3333333333333,4,2,31,5,0,0
5277,-83.3333333333333,4,2,31,80,0,0
5292,-83.3333333333333,4,2,31,80,0,0
5500,-83.3333333333333,4,2,31,5,0,0
5515,-83.3333333333333,4,2,31,80,0,0
5530,-83.3333333333333,4,2,31,80,0,0
5738,-83.3333333333333,4,2,31,5,0,0
5753,-83.3333333333333,4,2,31,80,0,0
5768,-83.3333333333333,4,2,31,80,0,0
5976,-83.3333333333333,4,2,31,5,0,0
5991,-83.3333333333333,4,2,31,80,0,0
6006,-83.3333333333333,4,2,31,80,0,0
6214,-83.3333333333333,4,2,31,5,0,0
6229,-83.3333333333333,4,2,31,80,0,0
6244,-83.3333333333333,4,2,31,80,0,0
6453,-83.3333333333333,4,2,31,5,0,0
6467,-83.3333333333333,4,2,31,80,0,0
6483,-83.3333333333333,4,2,31,80,0,0
6691,-83.3333333333333,4,2,31,5,0,0
6706,-50,4,2,34,80,0,0
6721,-50,4,2,34,80,0,0
6884,-50,4,2,34,5,0,0
6944,-50,4,2,34,80,0,0
6959,-50,4,2,34,80,0,0
7122,-50,4,2,34,5,0,0
7182,-50,4,2,34,80,0,0
7197,-50,4,2,34,80,0,0
7361,-50,4,2,34,5,0,0
7420,-50,4,2,34,80,0,0
7435,-50,4,2,34,80,0,0
7599,-50,4,2,34,5,0,0
7658,-50,4,2,34,80,0,0
7673,-50,4,2,34,80,0,0
7837,-50,4,2,34,20,0,0
7881,-50,4,2,34,5,0,0
7896,-50,4,2,34,80,0,0
7911,-50,4,2,34,80,0,0
8075,-50,4,2,34,20,0,0
8119,-50,4,2,34,5,0,0
8134,-50,4,2,34,80,0,0
8149,-50,4,2,34,80,0,0
8313,-50,4,2,34,20,0,0
8357,-50,4,2,34,5,0,0
8372,-50,4,2,34,80,0,0
8387,-50,4,2,34,80,0,0
8551,-50,4,2,34,20,0,0
8595,-50,4,2,34,5,0,0
8611,-50,4,2,34,80,0,0
9563,-100,4,2,34,80,0,0
10515,-100,4,2,31,80,0,0
10739,-100,4,2,31,5,0,0
10753,-100,4,2,31,80,0,0
11468,-100,4,2,34,80,0,0
11587,-100,4,2,33,80,0,0
11706,-100,4,2,34,80,0,0
11825,-100,4,2,33,80,0,0
11944,-100,4,2,34,80,0,0
12182,-100,4,2,33,80,0,0
12301,-100,4,2,34,80,0,0
12420,-100,4,2,31,65,0,0
19444,-100,4,2,33,65,0,0
19563,-100,4,2,31,65,0,0
19682,-100,4,2,33,65,0,0
19801,-100,4,2,31,72,0,0
20039,-50,4,2,31,80,0,0
20753,-100,4,2,31,80,0,0
21944,-50,4,2,31,80,0,0
22658,-100,4,2,31,80,0,0
25753,-100,4,2,31,60,0,0
26706,-83.3333333333333,4,2,33,80,0,0
27420,-71.4285714285714,4,2,34,80,0,0
27599,-100,4,2,31,5,0,0
27658,-100,4,2,31,80,0,0
33372,-100,4,2,34,80,0,0
34206,-100,4,2,31,80,0,0
34920,-100,4,2,32,80,0,0
34980,-100,4,2,33,80,0,0
35277,-100,4,2,31,80,0,0
35515,-100,4,2,32,80,0,0
36051,-100,4,2,32,5,0,0
36111,-100,4,2,32,80,0,0
36289,-100,4,2,32,5,0,0
36349,-100,4,2,32,80,0,0
38194,-100,4,2,32,5,0,0
38253,-100,4,2,32,80,0,0
39087,-100,4,2,31,80,0,0
39325,-100,4,2,32,80,0,0
40099,-100,4,2,32,5,0,0
40158,-100,4,2,32,80,0,0
40991,-100,4,2,31,80,0,0
41170,-100,4,2,31,5,0,0
41230,-100,4,2,32,80,0,0
41825,-100,4,2,31,80,0,0
42420,-100,4,2,31,78,0,0
42480,-100,4,2,31,76,0,0
42539,-100,4,2,31,74,0,0
42599,-100,4,2,31,72,0,0
42658,-100,4,2,31,70,0,0
42718,-100,4,2,31,68,0,0
42777,-100,4,2,31,66,0,0
42837,-100,4,2,31,64,0,0
42896,-100,4,2,31,60,0,0
43134,-100,4,2,2,60,0,0
49563,-83.3333333333333,4,2,2,60,0,0
50277,-100,4,2,31,80,0,0
51944,-100,4,2,34,80,0,0
52420,-100,4,2,31,80,0,0
53849,-100,4,2,34,80,0,0
54325,-100,4,2,31,80,0,0
54980,-100,4,2,31,5,0,0
55039,-100,4,2,31,80,0,0
57301,-100,4,2,31,5,0,0
57361,-100,4,2,31,80,0,0
57480,-100,4,2,31,5,0,0
57539,-100,4,2,31,80,0,0
57777,-100,4,2,31,5,0,0
57837,-100,4,2,31,80,0,0
57956,-100,4,2,31,5,0,0
58015,-100,4,2,31,80,0,0
58134,-100,4,2,33,80,0,0
58849,-100,4,2,34,80,0,0
59087,-100,4,2,33,80,0,0
59801,-100,4,2,34,80,0,0
60039,-100,4,2,31,80,0,0
60991,-100,4,2,32,80,0,0
61468,-100,4,2,34,80,0,0
62420,-100,4,2,32,80,0,0
62658,-100,4,2,31,80,0,0
63730,-100,4,2,31,5,0,0
63849,-100,4,2,31,60,0,0
63968,-100,4,2,31,5,0,0
64027,-100,4,2,31,60,0,0
64087,-100,4,2,31,5,0,0
64146,-100,4,2,31,5,0,0
64206,-100,4,2,31,60,0,0
64325,-100,4,2,31,65,0,0
64444,-100,4,2,31,5,0,0
64503,-100,4,2,31,65,0,0
64563,-100,4,2,31,5,0,0
64622,-100,4,2,31,5,0,0
64682,-100,4,2,31,65,0,0
64801,-100,4,2,31,70,0,0
64920,-100,4,2,31,5,0,0
64980,-100,4,2,31,70,0,0
65039,-100,4,2,31,5,0,0
65099,-100,4,2,31,5,0,0
65158,-100,4,2,31,70,0,0
65277,-100,4,2,31,75,0,0
65396,-100,4,2,31,5,0,0
65456,-100,4,2,31,75,0,0
65515,-100,4,2,31,5,0,0
65575,-100,4,2,31,5,0,0
65634,-100,4,2,31,75,0,0
65753,-100,4,2,34,80,0,0
69563,-100,4,2,31,80,0,0
71468,-100,4,2,31,40,0,0
72420,-100,4,2,32,80,0,0
72896,-100,4,2,32,60,0,0
73134,-100,4,2,32,80,0,0
73313,-100,4,2,31,5,0,0
73372,-50,4,2,31,80,0,1
74087,-90.9090909090909,4,2,31,80,0,1
74622,-90.9090909090909,4,2,31,5,0,1
74682,-90.9090909090909,4,2,31,80,0,1
75277,-50,4,2,31,80,0,1
75991,-90.9090909090909,4,2,31,80,0,1
76349,-50,4,2,31,80,0,1
76527,-50,4,2,31,5,0,1
76587,-50,4,2,31,80,0,1
76706,-90.9090909090909,4,2,31,80,0,1
80991,-90.9090909090909,4,2,34,80,0,1
81111,-90.9090909090909,4,2,31,80,0,1
81706,-90.9090909090909,4,2,31,80,0,1
82896,-90.9090909090909,4,2,31,80,0,1
83611,-90.9090909090909,4,2,31,80,0,1
83968,-90.9090909090909,4,2,31,80,0,1
84325,-90.9090909090909,4,2,31,80,0,1
84444,-90.9090909090909,4,2,31,40,0,1
84563,-90.9090909090909,4,2,31,80,0,1
84682,-90.9090909090909,4,2,31,40,0,1
84801,-90.9090909090909,4,2,31,80,0,1
85872,-90.9090909090909,4,2,31,80,0,1
86230,-90.9090909090909,4,2,32,80,0,1
86468,-90.9090909090909,4,2,31,40,0,1
86527,-90.9090909090909,4,2,31,50,0,1
86587,-90.9090909090909,4,2,31,60,0,1
86646,-90.9090909090909,4,2,31,70,0,1
86706,-90.9090909090909,4,2,34,80,0,1
87658,-90.9090909090909,4,2,33,80,0,1
88611,-90.9090909090909,4,2,32,80,0,1
88730,-90.9090909090909,4,2,32,80,0,0
88968,-90.9090909090909,4,2,32,80,0,1
89087,-90.9090909090909,4,2,32,80,0,0
89325,-90.9090909090909,4,2,32,80,0,1
89444,-90.9090909090909,4,2,32,80,0,0
89563,-90.9090909090909,4,2,32,40,0,0
89682,-90.9090909090909,4,2,32,80,0,1
89801,-90.9090909090909,4,2,32,80,0,0
89920,-90.9090909090909,4,2,32,40,0,0
90039,-90.9090909090909,4,2,32,80,0,0
90277,-90.9090909090909,4,2,35,80,0,0
90515,-90.9090909090909,4,2,31,80,0,0
97182,-90.9090909090909,4,2,34,80,0,0
97301,-90.9090909090909,4,2,31,80,0,0
97420,-90.9090909090909,4,2,34,80,0,0
97539,-90.9090909090909,4,2,31,80,0,0
97658,-90.9090909090909,4,2,34,80,0,0
97896,-90.9090909090909,4,2,31,80,0,0
98134,-90.9090909090909,4,2,34,80,0,0
101944,-90.9090909090909,4,2,31,80,0,0
104801,-90.9090909090909,4,2,34,80,0,0
104920,-90.9090909090909,4,2,33,80,0,0
105039,-90.9090909090909,4,2,34,80,0,0
105158,-90.9090909090909,4,2,33,80,0,0
105277,-90.9090909090909,4,2,34,80,0,0
105515,-90.9090909090909,4,2,33,80,0,0
105634,-90.9090909090909,4,2,31,80,0,0
108611,-90.9090909090909,4,2,34,80,0,0
108730,-90.9090909090909,4,2,33,80,0,0
108849,-90.9090909090909,4,2,34,80,0,0
108968,-90.9090909090909,4,2,33,80,0,0
109087,-90.9090909090909,4,2,34,80,0,0
109325,-90.9090909090909,4,2,33,80,0,0
109444,-90.9090909090909,4,2,34,80,0,0
109563,-90.9090909090909,4,2,31,80,0,0
109622,-90.9090909090909,4,2,31,5,0,0
110039,-90.9090909090909,4,2,31,80,0,0
112896,-90.9090909090909,4,2,33,80,0,0
113372,-90.9090909090909,4,2,32,80,0,1
113611,-90.9090909090909,4,2,32,40,0,1
113849,-90.9090909090909,4,2,32,80,0,1
114087,-90.9090909090909,4,2,32,40,0,1
114325,-90.9090909090909,4,2,34,80,0,1
114444,-90.9090909090909,4,2,34,40,0,1
114563,-90.9090909090909,4,2,34,80,0,1
114682,-90.9090909090909,4,2,34,40,0,1
114801,-90.9090909090909,4,2,34,80,0,1
115277,-90.9090909090909,4,2,32,80,0,1
115515,-90.9090909090909,4,2,32,60,0,1
115634,-90.9090909090909,4,2,32,80,0,1
115872,-90.9090909090909,4,2,32,60,0,1
115991,-90.9090909090909,4,2,32,80,0,1
116349,-83.3333333333333,4,2,32,80,0,1
117122,-90.9090909090909,4,2,31,5,0,1
117420,-100,4,2,31,80,0,0
118134,-100,4,2,31,80,0,0
119027,-200,4,2,31,5,0,0
119087,-200,4,2,32,80,0,0

[Colours]
Combo1 : 61,70,78
Combo2 : 42,72,82
Combo3 : 74,130,131
Combo4 : 155,151,164

[HitObjects]
289,159,992,6,0,B|374:340|374:340|173:337,1,400,6|0,0:0|0:0,0:0:0:0:
43,339,1349,1,0,0:0:0:0:
238,236,1468,2,0,L|290:236,1,50
235,229,1587,2,0,L|163:229,1,50
321,90,1706,2,0,L|380:92,1,50,2|2,0:0|0:0,0:0:0:0:
214,121,1825,5,2,0:1:0:0:
190,133,1855,1,0,0:0:0:0:
214,121,1884,1,2,0:1:0:0:
311,173,1914,1,0,0:0:0:0:
415,161,1944,5,6,0:0:0:0:
207,72,2063,2,0,L|257:72,1,50,2|2,0:0|0:0,0:0:0:0:
435,74,2182,1,6,0:0:0:0:
210,59,2301,2,0,B|115:88|115:88|120:192,1,200,6|0,0:0|0:0,0:0:0:0:
318,236,2658,2,0,L|378:250,1,50,2|2,0:0|0:0,0:0:0:0:
207,345,2777,2,0,L|158:352,1,50,2|2,0:0|0:0,0:0:0:0:
344,160,2896,6,0,P|438:207|425:311,1,224.999993133545,6|0,0:0|0:0,0:0:0:0:
425,311,3134,2,0,L|192:310,1,224.999993133545
201,310,3372,2,0,B|312:265|312:265|199:257,1,224.999993133545
208,257,3611,2,0,B|104:249|104:249|215:204,1,224.999993133545
215,204,3849,6,0,L|447:202,1,224.999993133545
440,202,4087,2,0,L|209:203,1,224.999993133545
216,202,4325,2,0,B|330:236|330:236|329:344,1,224.999993133545
329,344,4563,2,0,B|213:317|213:317|208:205,1,224.999993133545
208,205,4801,6,0,L|432:205,1,224.999993133545
433,205,5039,2,0,B|323:157|323:157|427:155,1,224.999993133545
428,154,5277,2,0,B|318:106|318:106|422:104,1,224.999993133545
423,103,5515,2,0,L|187:97,1,224.999993133545
199,97,5753,6,0,B|318:99|318:99|260:199,1,224.999993133545
265,98,5991,2,0,B|146:100|146:100|204:200,1,224.999993133545
200,191,6230,2,0,L|433:192,1,224.999993133545
425,191,6468,2,0,L|200:191,1,224.999993133545
200,191,6706,6,0,B|400:186|400:186|399:368,1,375,6|0,0:0|0:0,0:0:0:0:
400,360,6944,2,0,B|199:348|199:348|196:170,1,375,6|0,0:0|0:0,0:0:0:0:
197,174,7182,2,0,B|396:174|396:174|397:358,1,375,6|0,0:0|0:0,0:0:0:0:
397,349,7420,2,0,L|22:349,1,375,6|0,0:0|0:0,0:0:0:0:
22,349,7658,6,0,L|405:348,1,375,6|0,0:0|0:0,0:0:0:0:
397,348,7896,2,0,B|202:301|202:301|283:146,1,375,6|0,0:0|0:0,0:0:0:0:
283,146,8134,2,0,B|469:176|469:176|283:173,1,375,6|0,0:0|0:0,0:0:0:0:
283,146,8372,2,0,B|469:176|469:176|283:173,1,375,6|0,0:0|0:0,0:0:0:0:
283,172,8611,6,0,B|85:173|85:173|112:238,1,266.666666666667,14|0,0:0|0:0,0:0:0:0:
291,229,8849,2,0,B|94:231|94:231|129:296,1,266.666666666667,14|0,0:0|0:0,0:0:0:0:
291,229,9087,2,0,B|489:231|489:231|455:291,1,266.666666666667,14|0,0:0|0:0,0:0:0:0:
284,278,9325,2,0,B|482:280|482:280|434:358,1,266.666666666667,14|0,0:0|0:0,0:0:0:0:
221,357,9563,6,0,L|147:359,2,66.6666666666667,14|2|8,0:0|0:0|0:0,0:0:0:0:
404,303,9801,2,0,L|483:301,2,66.6666666666667,14|2|8,0:0|0:0|0:0,0:0:0:0:
173,271,10039,1,14,0:0:0:0:
320,259,10118,1,2,0:0:0:0:
469,263,10198,1,8,0:0:0:0:
254,173,10277,2,0,L|177:176,2,66.6666666666667,14|2|8,0:0|0:0|0:0,0:0:0:0:
418,145,10515,6,0,P|482:196|418:247,1,187.5,14|0,0:0|0:0,0:0:0:0:
418,247,10753,2,0,L|218:244,1,200
350,241,11111,1,0,0:0:0:0:
148,92,11230,2,0,L|70:89,1,50,2|2,0:0|0:0,0:0:0:0:
251,146,11349,2,0,L|320:152,1,50,2|2,0:0|0:0,0:0:0:0:
161,235,11468,5,14,0:0:0:0:
364,246,11587,1,2,0:1:0:0:
387,269,11617,1,2,0:1:0:0:
364,246,11646,1,2,0:1:0:0:
255,296,11676,1,2,0:1:0:0:
129,278,11706,5,14,0:0:0:0:
365,201,11825,1,2,0:1:0:0:
389,203,11854,1,2,0:1:0:0:
365,201,11884,1,2,0:1:0:0:
212,137,11914,1,2,0:1:0:0:
85,135,11944,6,0,L|150:136,1,50,14|2,0:0|0:0,0:0:0:0:
322,128,12063,2,0,L|390:127,1,50,2|2,0:0|0:0,0:0:0:0:
206,83,12182,2,0,L|164:83,2,25,14|2|2,0:1|0:1|0:1,0:0:0:0:
334,77,12271,1,2,0:1:0:0:
463,79,12301,2,0,L|395:79,1,50,2|2,0:0|0:0,0:0:0:0:
216,28,12420,6,0,L|113:28,1,100,14|0,0:0|0:0,0:0:0:0:
228,224,12658,2,0,L|352:224,1,100
217,248,12896,2,0,L|214:368,1,100
345,353,13134,2,0,L|455:354,1,100
206,160,13491,5,2,0:0:0:0:
327,165,13611,2,0,L|331:294,1,100
211,260,13849,2,0,L|211:360,1,100,2|0,0:0|0:0,0:0:0:0:
330,362,14087,2,0,L|217:363,1,100,2|2,0:0|0:0,0:0:0:0:
253,357,14265,1,2,0:0:0:0:
408,354,14325,6,0,L|406:238,1,100,2|0,0:0|0:0,0:0:0:0:
287,251,14563,2,0,L|409:249,1,100
267,145,14801,2,0,L|168:144,1,100
287,173,15039,2,0,L|286:65,1,100
82,58,15277,6,0,L|182:58,1,100,0|2,0:0|0:0,0:0:0:0:
302,62,15515,2,0,L|313:171,1,100
184,170,15753,1,2,0:0:0:0:
135,176,15812,1,0,0:0:0:0:
109,217,15872,1,0,0:0:0:0:
124,263,15931,1,0,0:0:0:0:
285,264,15991,2,0,L|286:318,1,50,2|2,0:0|0:0,0:0:0:0:
220,315,16111,2,0,L|217:379,1,50,0|2,0:0|0:0,0:0:0:0:
358,335,16230,6,0,L|458:335,1,100,6|0,0:0|0:0,0:0:0:0:
338,190,16468,2,0,L|239:181,1,100
119,172,16706,2,0,L|112:61,1,100
233,63,16944,2,0,L|333:63,1,100
114,308,17301,5,2,0:0:0:0:
234,311,17420,2,0,L|238:185,1,100
118,220,17658,2,0,L|114:110,1,100,2|0,0:0|0:0,0:0:0:0:
235,118,17896,2,0,L|361:117,1,100,2|2,0:0|0:0,0:0:0:0:
289,115,18075,1,2,0:0:0:0:
149,57,18134,5,2,0:0:0:0:
269,53,18253,1,0,0:0:0:0:
143,109,18372,2,0,L|142:212,1,100
263,212,18611,2,0,L|153:212,1,100
362,331,18849,2,0,L|263:328,1,100
458,208,19087,6,0,L|463:89,1,100,0|2,0:0|0:0,0:0:0:0:
226,86,19325,1,2,0:0:0:0:
432,87,19444,2,0,L|476:88,2,25,2|2|2,0:1|0:1|0:1,0:0:0:0:
304,78,19533,1,2,0:1:0:0:
176,71,19563,2,0,L|162:144,1,50,2|0,0:0|0:0,0:0:0:0:
326,147,19682,6,0,L|368:157,2,25,2|0|2,0:1|0:0|0:1,0:0:0:0:
197,125,19771,1,0,0:0:0:0:
72,114,19801,2,0,L|138:112,1,50,2|2,0:0|0:0,0:0:0:0:
290,65,19920,2,0,L|237:64,1,50,2|2,0:0|0:0,0:0:0:0:
47,47,20039,6,0,B|248:40|248:40|247:246,1,400,14|0,0:0|0:0,0:0:0:0:
465,337,20396,2,0,B|264:344|264:344|265:138,1,400,10|0,0:0|0:0,0:0:0:0:
458,152,20753,2,0,L|354:145,1,100,10|0,0:0|0:0,0:0:0:0:
127,133,20991,6,0,B|226:120|226:120|128:102,1,200,10|0,0:0|0:0,0:0:0:0:
360,306,21349,2,0,L|155:302,1,200,10|0,0:0|0:0,0:0:0:0:
374,160,21706,2,0,L|275:157,1,100,10|0,0:0|0:0,0:0:0:0:
81,129,21944,6,0,B|281:131|281:131|213:318,1,400,10|0,0:0|0:0,0:0:0:0:
409,322,22301,2,0,B|209:320|209:320|278:132,1,400,10|0,0:0|0:0,0:0:0:0:
472,135,22658,2,0,L|468:33,1,100,10|0,0:0|0:0,0:0:0:0:
247,42,22896,6,0,L|148:40,1,100,10|0,0:0|0:0,0:0:0:0:
354,223,23134,2,0,L|454:229,1,100,0|10,0:0|0:0,0:0:0:0:
220,122,23372,2,0,L|115:122,1,100
122,195,23551,1,0,0:0:0:0:
340,178,23611,2,0,L|452:179,1,100,10|2,0:0|0:0,0:0:0:0:
301,86,23789,1,0,0:0:0:0:
156,87,23849,6,0,L|147:139,1,50,6|2,0:0|0:0,0:0:0:0:
285,174,23968,2,0,L|280:240,1,50,2|2,0:0|0:0,0:0:0:0:
416,271,24087,2,0,L|415:324,1,50,2|2,0:0|0:0,0:0:0:0:
275,313,24206,2,0,L|276:251,1,50,2|2,0:0|0:0,0:0:0:0:
421,234,24325,2,0,L|429:157,1,50,2|2,0:0|0:0,0:0:0:0:
272,192,24444,2,0,L|275:136,1,50,2|2,0:0|0:0,0:0:0:0:
124,134,24563,2,0,L|4:137,1,100,2|2,0:0|0:0,0:0:0:0:
167,342,24741,1,0,0:0:0:0:
393,298,24801,6,0,L|328:292,1,50,6|2,0:0|0:0,0:0:0:0:
181,209,24920,2,0,L|236:206,1,50,2|2,0:0|0:0,0:0:0:0:
423,238,25039,2,0,L|358:232,1,50,2|2,0:0|0:0,0:0:0:0:
211,147,25158,2,0,L|266:144,1,50,2|2,0:0|0:0,0:0:0:0:
449,177,25277,2,0,L|384:171,1,50,2|2,0:0|0:0,0:0:0:0:
246,83,25396,6,0,L|220:82,1,25,2|0,0:1|0:0,0:0:0:0:
89,83,25456,2,0,L|64:83,1,25,2|0,0:1|0:0,0:0:0:0:
194,29,25515,2,0,L|250:29,1,50,2|2,0:0|0:0,0:0:0:0:
421,27,25634,2,0,L|386:27,1,25,2|0,0:1|0:0,0:0:0:0:
260,126,25694,2,0,L|235:126,1,25,2|0,0:1|0:0,0:0:0:0:
87,134,25753,6,0,L|25:143,1,50,14|0,0:0|0:0,0:0:0:0:
232,157,25872,2,0,L|286:156,1,50
120,293,25991,2,0,L|61:291,1,50
206,212,26111,2,0,L|261:212,1,50
88,200,26230,2,0,L|39:199,1,50
176,143,26349,2,0,L|238:144,1,50
176,143,26468,2,0,L|118:143,1,50
289,45,26587,2,0,L|359:46,1,50
127,44,26706,6,0,L|67:42,1,59.9999981689454,6|6,0:0|0:0,0:0:0:0:
308,170,26825,2,0,L|393:175,1,59.9999981689454,6|6,0:0|0:0,0:0:0:0:
113,351,26944,2,0,L|25:353,1,59.9999981689454,6|6,0:0|0:0,0:0:0:0:
311,79,27063,6,0,L|370:82,1,59.9999981689454,6|6,0:0|0:0,0:0:0:0:
106,160,27182,2,0,L|20:154,1,59.9999981689454,6|6,0:0|0:0,0:0:0:0:
322,201,27301,2,0,L|381:202,1,59.9999981689454,6|6,0:0|0:0,0:0:0:0:
121,38,27420,2,0,B|25:72|25:72|135:123,1,209.999993591309,10|0,0:1|0:0,0:0:0:0:
352,142,27658,6,0,P|423:186|352:230,1,200,6|0,0:0|0:0,0:0:0:0:
231,235,28015,2,0,L|426:191,1,200
202,79,28491,6,0,P|121:95|112:206,1,200
222,209,28849,2,0,L|242:318,1,100
358,300,29087,2,0,L|358:182,1,100
239,148,29325,2,0,L|338:147,1,100
199,55,29563,5,0,0:0:0:0:
85,82,29682,1,0,0:0:0:0:
40,100,29741,1,0,0:0:0:0:
25,146,29801,1,0,0:0:0:0:
50,187,29860,1,0,0:0:0:0:
98,194,29920,2,0,P|196:179|292:202,2,200
328,270,30634,6,0,P|416:239|414:146,1,200
283,137,30991,2,0,L|79:134,1,200
310,277,31468,5,0,0:0:0:0:
429,273,31587,2,0,L|476:235,2,50
299,273,31825,2,0,L|493:225,1,200
272,80,32301,6,0,P|180:98|161:191,1,200
280,190,32658,1,0,0:0:0:0:
330,271,32777,1,0,0:0:0:0:
285,356,32896,1,0,0:0:0:0:
190,361,33015,1,0,0:0:0:0:
80,355,33134,1,0,0:0:0:0:
190,361,33253,1,0,0:0:0:0:
418,357,33372,5,6,0:0:0:0:
192,311,33491,2,0,L|250:307,1,50
416,286,33611,1,0,0:0:0:0:
174,249,33730,2,0,P|112:188|185:140,1,200,6|0,0:0|0:0,0:0:0:0:
315,144,34087,1,0,0:0:0:0:
77,88,34206,6,0,P|176:76|275:83,1,200,6|2,0:0|0:0,0:0:0:0:
85,199,34563,1,6,0:0:0:0:
25,200,34642,1,0,0:0:0:0:
85,199,34722,1,0,0:0:0:0:
245,195,34801,5,6,0:0:0:0:
148,195,34920,2,0,L|197:195,1,50,6|6,0:0|0:0,0:0:0:0:
329,192,35039,2,0,L|383:190,1,50,6|6,0:0|0:0,0:0:0:0:
168,73,35158,2,0,L|108:71,1,50,6|6,0:0|0:0,0:0:0:0:
273,78,35277,6,0,L|425:78,1,150,6|0,0:0|0:0,0:0:0:0:
362,79,35515,1,0,0:0:0:0:
242,81,35634,1,2,0:0:0:0:
433,81,35753,1,10,0:1:0:0:
321,74,35872,2,0,L|171:71,1,150,2|0,0:0|0:0,0:0:0:0:
379,172,36111,6,0,P|431:216|374:248,1,150,2|0,0:0|0:0,0:0:0:0:
224,246,36349,1,8,0:1:0:0:
278,248,36408,1,0,0:0:0:0:
333,249,36468,1,2,0:0:0:0:
132,239,36587,1,0,0:0:0:0:
375,66,36706,6,0,L|376:169,1,100,10|0,0:1|0:0,0:0:0:0:
159,161,36944,1,2,0:0:0:0:
370,46,37063,2,0,L|320:45,1,50,2|0,0:0|0:0,0:0:0:0:
125,53,37182,5,2,0:0:0:0:
234,58,37301,1,0,0:0:0:0:
288,69,37361,1,0,0:0:0:0:
285,123,37420,1,0,0:0:0:0:
231,136,37480,1,0,0:0:0:0:
107,131,37539,1,2,0:0:0:0:
326,245,37658,2,0,L|226:245,2,100,10|2|0,0:1|0:0|0:0,0:0:0:0:
130,122,38015,6,0,P|80:162|134:197,1,150,2|0,0:0|0:0,0:0:0:0:
372,185,38253,1,8,0:1:0:0:
272,183,38372,2,0,L|421:182,1,150,2|0,0:0|0:0,0:0:0:0:
213,84,38611,1,10,0:1:0:0:
160,82,38670,1,0,0:0:0:0:
214,77,38730,1,0,0:0:0:0:
161,75,38789,1,0,0:0:0:0:
324,56,38849,2,0,L|396:56,1,50,2|0,0:0|0:0,0:0:0:0:
219,19,38968,2,0,L|159:21,1,50,2|0,0:0|0:0,0:0:0:0:
350,223,39087,6,0,L|359:333,1,100,6|0,0:0|0:0,0:0:0:0:
303,328,39265,1,0,0:0:0:0:
247,333,39325,1,0,0:0:0:0:
453,82,39444,2,0,L|353:81,1,100,2|10,0:0|0:1,0:0:0:0:
138,102,39682,2,0,P|85:138|139:174,1,150,2|0,0:0|0:0,0:0:0:0:
319,183,39920,6,0,P|388:198|400:267,1,150,2|0,0:0|0:0,0:0:0:0:
245,277,40158,2,0,L|187:275,1,50,8|0,0:1|0:0,0:0:0:0:
311,117,40277,2,0,L|378:119,1,50,2|0,0:0|0:0,0:0:0:0:
193,75,40396,1,0,0:0:0:0:
374,50,40515,5,10,0:1:0:0:
274,37,40634,2,0,L|213:29,1,50
64,34,40753,2,0,L|139:28,1,50,2|0,0:0|0:0,0:0:0:0:
242,126,40872,2,0,L|291:133,1,50
117,201,40991,6,0,B|32:258|32:258|117:305,1,200,6|2,0:0|0:0,0:0:0:0:
261,303,41309,1,2,0:0:0:0:
117,305,41388,1,2,0:0:0:0:
261,303,41468,1,6,0:0:0:0:
65,304,41587,1,6,0:0:0:0:
412,151,41825,6,0,P|473:216|408:279,1,200,14|2,0:0|0:0,0:0:0:0:
344,285,42122,1,2,0:0:0:0:
188,280,42182,1,8,0:0:0:0:
403,99,42301,2,0,L|349:93,1,50,2|2,0:0|0:0,0:0:0:0:
206,77,42420,2,0,L|132:72,1,50,8|0,0:0|0:0,0:0:0:0:
300,199,42539,2,0,L|360:204,1,50,2|2,0:0|0:0,0:0:0:0:
190,189,42658,2,0,L|127:189,1,50,8|0,0:0|0:0,0:0:0:0:
199,137,42777,2,0,L|270:142,1,50,2|2,0:0|0:0,0:0:0:0:
82,46,42896,5,14,0:0:0:0:
22,124,43015,1,0,0:0:0:0:
10,222,43134,1,0,0:0:0:0:
50,313,43253,1,0,0:0:0:0:
130,370,43372,1,0,0:0:0:0:
228,379,43491,1,0,0:0:0:0:
318,337,43610,1,0,0:0:0:0:
373,256,43729,1,0,0:0:0:0:
379,157,43848,1,0,0:0:0:0:
335,69,43967,1,0,0:0:0:0:
252,16,44086,1,0,0:0:0:0:
153,12,44205,1,0,0:0:0:0:
350,92,44325,5,2,0:0:0:0:
439,110,44444,1,0,0:0:0:0:
435,202,44563,1,0,0:0:0:0:
344,211,44682,1,0,0:0:0:0:
118,300,44801,5,2,0:0:0:0:
96,203,44920,1,0,0:0:0:0:
134,112,45039,1,0,0:0:0:0:
216,58,45158,1,0,0:0:0:0:
315,61,45277,1,0,0:0:0:0:
394,119,45396,1,0,0:0:0:0:
426,212,45515,1,0,0:0:0:0:
400,307,45634,1,0,0:0:0:0:
181,329,45753,5,2,0:0:0:0:
278,346,45872,1,0,0:0:0:0:
368,307,45991,1,0,0:0:0:0:
422,225,46110,1,0,0:0:0:0:
422,126,46229,1,8,0:0:0:0:
368,44,46348,1,0,0:0:0:0:
277,7,46467,1,0,0:0:0:0:
180,23,46586,1,0,0:0:0:0:
387,95,46706,5,2,0:0:0:0:
288,90,46825,1,0,0:0:0:0:
207,145,46944,1,0,0:0:0:0:
173,238,47063,1,0,0:0:0:0:
201,332,47182,1,10,0:0:0:0:
270,309,47261,1,2,0:0:0:0:
201,332,47341,1,2,0:0:0:0:
131,310,47420,1,2,0:0:0:0:
66,276,47499,1,2,0:0:0:0:
131,310,47579,1,2,0:0:0:0:
287,328,47658,5,2,0:0:0:0:
383,317,47777,1,0,0:0:0:0:
438,237,47896,1,0,0:0:0:0:
413,144,48015,1,0,0:0:0:0:
212,133,48134,2,0,L|70:128,1,100,10|0,0:0|0:0,0:0:0:0:
316,52,48372,2,0,L|415:51,1,100,2|0,0:0|0:0,0:0:0:0:
144,57,48611,5,2,0:0:0:0:
94,142,48730,1,0,0:0:0:0:
99,240,48849,1,0,0:0:0:0:
157,320,48968,1,0,0:0:0:0:
249,355,49087,1,8,0:0:0:0:
345,333,49206,1,0,0:0:0:0:
414,262,49325,1,0,0:0:0:0:
433,166,49444,1,0,0:0:0:0:
140,91,49563,5,0,0:0:0:0:
110,92,49592,1,0,0:0:0:0:
88,111,49622,1,0,0:0:0:0:
82,140,49652,1,0,0:0:0:0:
95,166,49682,1,0,0:0:0:0:
121,179,49711,1,0,0:0:0:0:
150,173,49741,1,0,0:0:0:0:
286,151,49771,1,0,0:0:0:0:
421,148,49801,5,0,0:0:0:0:
436,122,49830,1,0,0:0:0:0:
438,92,49860,1,0,0:0:0:0:
426,65,49890,1,0,0:0:0:0:
403,47,49920,1,0,0:0:0:0:
374,41,49949,1,0,0:0:0:0:
345,49,49979,1,0,0:0:0:0:
220,51,50009,1,0,0:0:0:0:
90,63,50039,5,0,0:0:0:0:
60,62,50068,1,0,0:0:0:0:
34,76,50098,1,0,0:0:0:0:
21,103,50128,1,0,0:0:0:0:
24,132,50158,1,0,0:0:0:0:
42,156,50187,1,0,0:0:0:0:
69,166,50217,1,0,0:0:0:0:
98,159,50247,1,0,0:0:0:0:
231,161,50277,6,0,L|275:161,1,25,2|0,0:2|0:0,0:0:0:0:
386,161,50337,2,0,L|427:159,1,25,2|0,0:2|0:0,0:0:0:0:
258,92,50396,2,0,L|211:92,1,25,2|0,0:2|0:0,0:0:0:0:
102,91,50456,2,0,L|72:91,1,25,2|0,0:2|0:0,0:0:0:0:
268,297,50515,6,0,L|467:294,1,200,6|8,0:0|0:0,0:0:0:0:
218,58,50872,2,0,B|314:86|314:86|221:124,1,200,6|8,0:0|0:0,0:0:0:0:
433,313,51230,2,0,L|220:318,1,200,6|8,0:0|0:0,0:0:0:0:
352,309,51527,1,8,0:0:0:0:
479,262,51587,2,0,L|480:42,1,200,6|8,0:0|0:0,0:0:0:0:
218,62,51944,6,0,L|444:61,1,200,6|6,0:0|0:0,0:0:0:0:
178,61,52301,1,2,0:0:0:0:
318,59,52361,1,2,0:0:0:0:
467,193,52420,6,0,B|369:205|369:205|467:227,1,200,6|8,0:0|0:0,0:0:0:0:
248,135,52777,2,0,L|447:132,1,200,6|8,0:0|0:0,0:0:0:0:
223,273,53134,2,0,L|441:269,1,200,6|8,0:0|0:0,0:0:0:0:
285,272,53432,1,8,0:0:0:0:
139,146,53491,2,0,B|240:161|240:161|142:167,1,200,6|8,0:0|0:0,0:0:0:0:
358,165,53849,6,0,L|372:232,1,50,6|0,0:0|0:0,0:0:0:0:
303,222,53968,2,0,L|296:274,1,50
361,274,54087,2,0,L|305:278,1,50,6|0,0:0|0:0,0:0:0:0:
172,280,54206,1,2,0:0:0:0:
25,285,54265,1,2,0:0:0:0:
193,109,54325,6,0,L|404:105,1,200,6|8,0:0|0:0,0:0:0:0:
135,161,54682,2,0,P|68:213|142:254,1,200,6|0,0:0|0:0,0:0:0:0:
354,242,55039,1,2,0:0:0:0:
483,240,55099,1,2,0:0:0:0:
354,242,55158,1,2,0:0:0:0:
224,249,55218,1,2,0:0:0:0:
360,184,55277,6,0,P|434:145|366:95,1,200,6|8,0:0|0:0,0:0:0:0:
134,98,55634,2,0,P|68:152|139:200,1,200,6|0,0:0|0:0,0:0:0:0:
354,242,55991,1,2,0:0:0:0:
483,240,56051,1,2,0:0:0:0:
354,242,56110,1,2,0:0:0:0:
221,247,56170,1,2,0:0:0:0:
358,119,56230,6,0,L|458:119,1,100,14|8,0:0|0:0,0:0:0:0:
251,31,56468,2,0,L|384:29,1,100,8|8,0:0|0:0,0:0:0:0:
160,154,56706,2,0,L|53:151,1,100,8|8,0:0|0:0,0:0:0:0:
260,307,56944,2,0,L|145:310,1,100,8|8,0:0|0:0,0:0:0:0:
220,307,57122,1,0,0:0:0:0:
407,197,57182,5,10,0:0:0:0:
157,198,57361,1,10,0:0:0:0:
407,203,57539,2,0,L|344:203,1,50,10|0,0:0|0:0,0:0:0:0:
149,126,57658,5,10,0:0:0:0:
398,112,57837,1,10,0:0:0:0:
152,79,58015,2,0,L|97:79,1,50,10|0,0:0|0:0,0:0:0:0:
271,235,58134,5,14,0:0:0:0:
408,229,58194,1,14,0:0:0:0:
271,235,58253,1,14,0:0:0:0:
134,227,58313,1,14,0:0:0:0:
290,125,58372,2,0,L|346:125,1,50,14|14,0:0|0:0,0:0:0:0:
473,51,58491,2,0,L|422:51,1,50,14|14,0:0|0:0,0:0:0:0:
242,48,58611,6,0,L|185:47,1,50,14|14,0:0|0:0,0:0:0:0:
343,26,58730,2,0,L|413:27,1,50,14|14,0:0|0:0,0:0:0:0:
233,104,58849,1,10,0:1:0:0:
185,104,58908,1,0,0:0:0:0:
154,142,58968,1,0,0:0:0:0:
161,190,59027,1,0,0:0:0:0:
298,201,59087,5,14,0:0:0:0:
434,197,59146,1,14,0:0:0:0:
298,201,59206,1,14,0:0:0:0:
162,198,59265,1,14,0:0:0:0:
315,289,59325,2,0,L|373:291,1,50,14|14,0:0|0:0,0:0:0:0:
228,184,59444,2,0,L|179:181,1,50,14|14,0:0|0:0,0:0:0:0:
351,142,59563,6,0,L|355:86,1,50,14|14,0:0|0:0,0:0:0:0:
201,66,59682,2,0,L|141:66,1,50,14|14,0:0|0:0,0:0:0:0:
318,91,59801,1,10,0:1:0:0:
379,87,59861,1,0,0:0:0:0:
378,27,59920,1,0,0:0:0:0:
318,26,59980,1,0,0:0:0:0:
125,18,60039,5,14,0:0:0:0:
266,16,60099,1,2,0:0:0:0:
407,167,60158,1,2,0:0:0:0:
421,213,60217,1,2,0:0:0:0:
393,253,60277,1,2,0:0:0:0:
345,257,60336,1,0,0:0:0:0:
170,251,60396,2,0,L|117:251,1,50,8|0,0:0|0:0,0:0:0:0:
262,173,60515,5,14,0:0:0:0:
395,169,60575,1,2,0:0:0:0:
241,103,60634,1,2,0:0:0:0:
182,75,60694,1,2,0:0:0:0:
241,103,60753,1,2,0:0:0:0:
307,103,60813,1,0,0:0:0:0:
143,198,60872,2,0,L|93:198,1,50,10|0,0:0|0:0,0:0:0:0:
262,146,60991,5,14,0:0:0:0:
411,134,61051,2,0,L|467:151,2,50,0|4|0,0:0|0:0|0:0,0:0:0:0:
260,80,61230,1,14,0:0:0:0:
109,85,61289,2,0,L|49:92,2,50,0|4|0,0:0|0:0|0:0,0:0:0:0:
287,47,61468,6,0,L|437:52,1,150,14|8,0:0|0:0,0:0:0:0:
228,245,61706,2,0,L|114:246,1,100,14|0,0:0|0:0,0:0:0:0:
188,244,61884,1,8,0:0:0:0:
353,167,61944,6,0,L|234:167,1,100,14|8,0:0|0:0,0:0:0:0:
253,222,62122,1,8,0:0:0:0:
388,85,62182,1,14,0:0:0:0:
193,81,62301,1,14,0:0:0:0:
395,149,62420,2,0,L|335:152,1,50,14|0,0:0|0:0,0:0:0:0:
180,147,62539,2,0,L|252:146,1,50,14|0,0:0|0:0,0:0:0:0:
395,149,62658,5,14,0:0:0:0:
256,192,62777,12,0,63611,0:0:0:0:
180,339,63849,6,0,L|28:274,2,150,14|10|2,0:0|0:0|0:0,0:0:0:0:
324,327,64265,1,2,0:0:0:0:
472,227,64325,2,0,L|320:156,2,150,14|10|2,0:0|0:0|0:0,0:0:0:0:
324,259,64741,1,2,0:0:0:0:
172,244,64801,6,0,L|325:173,2,150,14|10|2,0:0|0:0|0:0,0:0:0:0:
324,259,65218,1,2,0:0:0:0:
476,161,65277,2,0,L|341:90,2,150,14|10|2,0:0|0:0|0:0,0:0:0:0:
321,147,65694,1,2,0:0:0:0:
170,154,65753,5,6,0:0:0:0:
121,159,65812,1,0,0:0:0:0:
94,199,65872,1,0,0:0:0:0:
108,245,65931,1,0,0:0:0:0:
275,255,65991,1,6,0:0:0:0:
280,207,66050,1,0,0:0:0:0:
250,169,66110,1,0,0:0:0:0:
201,163,66169,1,0,0:0:0:0:
370,154,66230,5,6,0:0:0:0:
417,145,66289,1,0,0:0:0:0:
444,104,66349,1,0,0:0:0:0:
433,57,66408,1,0,0:0:0:0:
261,96,66468,1,6,0:0:0:0:
255,47,66527,1,0,0:0:0:0:
287,12,66587,1,0,0:0:0:0:
336,13,66646,1,0,0:0:0:0:
175,159,66706,5,6,0:0:0:0:
126,166,66765,1,0,0:0:0:0:
95,203,66825,1,0,0:0:0:0:
95,252,66884,1,0,0:0:0:0:
266,279,66944,1,6,0:0:0:0:
313,269,67003,1,0,0:0:0:0:
336,227,67063,1,0,0:0:0:0:
316,182,67122,1,0,0:0:0:0:
164,137,67182,5,6,0:0:0:0:
157,90,67241,1,0,0:0:0:0:
189,53,67301,1,0,0:0:0:0:
238,55,67360,1,0,0:0:0:0:
385,79,67420,1,6,0:0:0:0:
397,127,67479,1,0,0:0:0:0:
370,167,67539,1,0,0:0:0:0:
322,174,67598,1,0,0:0:0:0:
178,178,67658,5,6,0:0:0:0:
37,187,67718,1,0,0:0:0:0:
45,240,67777,1,0,0:0:0:0:
93,266,67837,1,0,0:0:0:0:
242,269,67896,1,6,0:0:0:0:
393,283,67956,2,0,L|451:283,2,50
240,171,68134,5,6,0:0:0:0:
93,144,68194,2,0,L|47:177,2,50
243,36,68372,1,6,0:0:0:0:
392,36,68432,1,0,0:0:0:0:
436,68,68491,1,0,0:0:0:0:
458,118,68551,1,0,0:0:0:0:
306,156,68611,5,6,0:0:0:0:
154,198,68670,2,0,L|110:225,2,50
303,134,68849,1,6,0:0:0:0:
453,140,68908,1,0,0:0:0:0:
428,89,68968,1,0,0:0:0:0:
381,61,69027,1,0,0:0:0:0:
206,58,69087,6,0,L|146:55,1,50,6|2,0:0|0:0,0:0:0:0:
322,218,69206,2,0,L|383:218,1,50,2|2,0:0|0:0,0:0:0:0:
193,258,69325,2,0,L|128:256,1,50,6|2,0:0|0:0,0:0:0:0:
346,151,69444,2,0,L|395:151,1,50,2|2,0:0|0:0,0:0:0:0:
176,108,69563,6,0,P|34:242|217:310,1,466.666666666667,6|0,0:0|0:0,0:0:0:0:
276,277,70198,1,0,0:0:0:0:
335,251,70277,1,0,0:0:0:0:
362,191,70356,1,0,0:0:0:0:
342,129,70436,1,0,0:0:0:0:
280,103,70515,5,0,0:0:0:0:
219,103,70575,1,0,0:0:0:0:
170,109,70634,1,0,0:0:0:0:
133,142,70694,1,0,0:0:0:0:
121,190,70753,1,0,0:0:0:0:
138,236,70813,1,0,0:0:0:0:
179,265,70872,1,0,0:0:0:0:
228,266,70932,1,0,0:0:0:0:
338,271,71051,5,0,0:0:0:0:
283,263,71111,1,0,0:0:0:0:
229,251,71170,1,0,0:0:0:0:
176,231,71230,1,0,0:0:0:0:
155,187,71289,1,0,0:0:0:0:
178,144,71349,1,0,0:0:0:0:
226,137,71408,1,0,0:0:0:0:
383,132,71468,6,0,L|435:131,1,50
377,97,71587,2,0,L|322:97,1,50
383,132,71706,2,0,L|435:131,1,50
377,97,71825,2,0,L|322:97,1,50
383,132,71944,2,0,L|435:131,1,50
377,97,72063,2,0,L|322:97,1,50
383,132,72182,2,0,L|435:131,1,50
377,97,72301,2,0,L|322:97,1,50
152,96,72420,5,6,0:0:0:0:
377,56,72539,1,6,0:0:0:0:
149,147,72658,2,0,P|152:240|244:260,1,200,6|0,0:0|0:0,0:0:0:0:
292,259,72956,1,0,0:0:0:0:
341,260,73015,1,0,0:0:0:0:
390,269,73075,1,0,0:0:0:0:
261,354,73134,2,0,L|243:288,1,50,10|0,0:1|0:0,0:0:0:0:
312,296,73253,2,0,L|291:225,1,50
153,69,73372,6,0,B|354:68|354:68|274:266,1,400,6|8,0:0|0:0,0:0:0:0:
88,111,73730,2,0,B|289:110|289:110|209:308,1,400,2|8,0:0|0:0,0:0:0:0:
39,304,74087,6,0,L|226:176,1,220.000006713867,2|8,0:0|0:0,0:0:0:0:
44,122,74444,2,0,L|165:121,1,110.000003356934,2|0,0:0|0:0,0:0:0:0:
44,122,74682,1,8,0:0:0:0:
256,236,74801,2,0,L|134:238,1,110.000003356934,2|0,0:0|0:0,0:0:0:0:
373,154,75039,2,0,L|299:154,1,55.0000016784668,2|0,0:0|0:0,0:0:0:0:
179,87,75158,2,0,L|234:87,1,55.0000016784668
434,88,75277,6,0,B|233:87|233:87|237:294,1,400,2|8,0:0|0:0,0:0:0:0:
33,291,75634,2,0,B|234:292|234:292|230:85,1,400,2|8,0:0|0:0,0:0:0:0:
37,68,75991,2,0,B|147:68|147:68|37:67,1,220.000006713867,2|8,0:0|0:0,0:0:0:0:
281,140,76349,6,0,B|81:144|81:144|278:172,1,400,2|8,0:0|0:0,0:0:0:0:
487,56,76706,2,0,L|373:52,1,110.000003356934,2|0,0:0|0:0,0:0:0:0:
188,44,76944,2,0,L|115:44,1,55.0000016784668,2|0,0:0|0:0,0:0:0:0:
194,114,77063,2,0,L|262:114,1,55.0000016784668
421,102,77182,5,6,0:0:0:0:
311,103,77301,1,0,0:0:0:0:
421,102,77420,1,8,0:0:0:0:
225,201,77539,1,2,0:0:0:0:
338,200,77658,2,0,L|346:319,1,110.000003356934,0|8,0:0|0:0,0:0:0:0:
153,333,77896,2,0,L|29:334,1,110.000003356934,2|0,0:0|0:0,0:0:0:0:
246,261,78134,6,0,L|314:259,1,55.0000016784668,8|0,0:0|0:0,0:0:0:0:
134,245,78253,2,0,L|126:177,1,55.0000016784668,2|0,0:0|0:0,0:0:0:0:
193,180,78372,2,0,L|190:102,1,55.0000016784668
124,129,78491,1,8,0:0:0:0:
302,108,78611,2,0,L|419:109,1,110.000003356934,2|0,0:0|0:0,0:0:0:0:
210,15,78849,2,0,L|142:15,1,55.0000016784668,2|0,0:0|0:0,0:0:0:0:
303,21,78968,5,0,0:0:0:0:
427,20,79027,1,0,0:0:0:0:
303,21,79087,1,2,0:0:0:0:
179,25,79146,1,0,0:0:0:0:
317,61,79206,1,0,0:0:0:0:
371,60,79265,1,0,0:0:0:0:
404,101,79325,1,8,0:0:0:0:
392,153,79384,1,0,0:0:0:0:
214,172,79444,2,0,L|141:171,1,55.0000016784668,2|0,0:0|0:0,0:0:0:0:
293,282,79563,5,0,0:0:0:0:
420,286,79622,1,0,0:0:0:0:
285,216,79682,2,0,L|204:214,1,55.0000016784668,8|0,0:0|0:0,0:0:0:0:
403,220,79801,2,0,L|407:160,1,55.0000016784668,2|0,0:0|0:0,0:0:0:0:
340,164,79920,2,0,L|343:106,1,55.0000016784668
409,113,80039,5,8,0:0:0:0:
184,97,80158,2,0,L|379:209,1,220.000006713867,2|8,0:0|0:0,0:0:0:0:
179,250,80515,2,0,L|55:251,1,110.000003356934,2|8,0:0|0:0,0:0:0:0:
129,251,80694,1,8,0:0:0:0:
264,224,80753,2,0,L|335:223,1,55.0000016784668,10|8,0:0|0:0,0:0:0:0:
176,154,80872,2,0,L|106:154,1,55.0000016784668,8|8,0:0|0:0,0:0:0:0:
325,81,80991,5,14,0:1:0:0:
123,85,81111,2,0,L|112:197,1,110.000003356934,0|2,0:0|0:0,0:0:0:0:
324,198,81349,1,0,0:0:0:0:
114,37,81468,2,0,L|246:39,1,110.000003356934,2|0,0:0|0:0,0:0:0:0:
444,43,81706,5,2,0:0:0:0:
240,257,81825,2,0,L|359:254,1,110.000003356934,0|2,0:0|0:0,0:0:0:0:
104,124,82063,1,0,0:0:0:0:
316,116,82182,2,0,L|434:115,1,110.000003356934,2|0,0:0|0:0,0:0:0:0:
193,51,82420,2,0,L|69:53,1,110.000003356934,2|0,0:0|0:0,0:0:0:0:
283,236,82658,2,0,L|358:236,1,55.0000016784668,2|0,0:0|0:0,0:0:0:0:
174,149,82777,2,0,L|119:149,1,55.0000016784668
353,50,82896,5,6,0:0:0:0:
173,41,83015,2,0,L|63:41,1,110.000003356934,0|2,0:0|0:0,0:0:0:0:
277,123,83253,1,0,0:0:0:0:
64,240,83372,2,0,L|193:239,1,110.000003356934,2|0,0:0|0:0,0:0:0:0:
393,229,83611,1,2,0:0:0:0:
188,132,83730,2,0,L|314:130,1,110.000003356934,0|2,0:0|0:0,0:0:0:0:
67,169,83968,6,0,L|59:309,1,110.000003356934
264,280,84206,1,0,0:0:0:0:
73,86,84325,1,2,0:0:0:0:
267,85,84444,2,0,L|348:85,1,55.0000016784668,2|2,0:0|0:0,0:0:0:0:
128,171,84563,1,2,0:0:0:0:
333,169,84682,2,0,L|278:169,1,55.0000016784668,2|2,0:0|0:0,0:0:0:0:
107,173,84801,5,14,0:0:0:0:
333,53,84920,2,0,L|213:49,1,110.000003356934,0|10,0:0|0:0,0:0:0:0:
448,51,85158,1,0,0:0:0:0:
236,137,85277,2,0,L|109:137,1,110.000003356934,10|0,0:0|0:0,0:0:0:0:
356,137,85515,1,10,0:0:0:0:
141,79,85634,2,0,L|11:76,1,110.000003356934,0|14,0:0|0:0,0:0:0:0:
282,64,85872,5,0,0:0:0:0:
76,128,85991,2,0,L|72:237,1,110.000003356934,10|0,0:0|0:0,0:0:0:0:
281,238,86230,1,14,0:0:0:0:
72,237,86349,1,14,0:0:0:0:
273,155,86468,2,0,L|336:151,1,55.0000016784668,2|2,0:0|0:0,0:0:0:0:
159,130,86587,2,0,L|84:130,1,55.0000016784668,2|2,0:0|0:0,0:0:0:0:
273,83,86706,5,14,0:0:0:0:
392,81,86765,1,2,0:0:0:0:
271,83,86825,1,2,0:0:0:0:
152,80,86884,1,2,0:0:0:0:
296,138,86944,1,14,0:0:0:0:
349,145,87003,1,2,0:0:0:0:
381,188,87063,1,2,0:0:0:0:
372,241,87122,1,2,0:0:0:0:
210,255,87182,5,14,0:0:0:0:
91,248,87241,1,2,0:0:0:0:
212,210,87301,1,2,0:0:0:0:
333,211,87361,1,2,0:0:0:0:
476,139,87420,2,0,L|412:136,1,55.0000016784668,14|2,0:0|0:0,0:0:0:0:
227,131,87539,2,0,L|172:131,1,55.0000016784668,2|2,0:0|0:0,0:0:0:0:
363,28,87658,5,2,0:1:0:0:
390,22,87687,1,2,0:1:0:0:
417,27,87717,1,2,0:1:0:0:
440,42,87747,1,2,0:1:0:0:
454,65,87777,1,2,0:1:0:0:
459,92,87806,1,2,0:1:0:0:
452,118,87836,1,2,0:1:0:0:
436,140,87866,1,2,0:1:0:0:
412,154,87896,1,2,0:1:0:0:
385,157,87925,1,2,0:1:0:0:
359,149,87955,1,2,0:1:0:0:
232,160,87986,1,2,0:1:0:0:
99,160,88015,6,0,L|59:161,2,27.5000008392334,2|2|2,0:1|0:1|0:1,0:1:0:0:
215,108,88105,1,2,0:1:0:0:
345,99,88134,2,0,L|378:104,2,27.5000008392334,2|2|2,0:1|0:1|0:1,0:1:0:0:
230,54,88224,1,2,0:1:0:0:
100,57,88253,2,0,L|68:59,2,27.5000008392334,2|2|2,0:1|0:1|0:1,0:0:0:0:
214,11,88343,1,2,0:1:0:0:
352,17,88372,6,0,L|391:17,1,27.5000008392334,2|2,0:1|0:1,0:0:0:0:
249,20,88432,2,0,L|212:20,1,27.5000008392334,2|0,0:1|0:0,0:1:0:0:
95,20,88491,2,0,L|56:21,1,27.5000008392334,2|0,0:1|0:0,0:1:0:0:
201,126,88551,2,0,L|232:125,1,27.5000008392334,2|0,0:1|0:0,0:1:0:0:
364,124,88611,5,14,0:0:0:0:
144,75,88730,2,0,L|18:76,1,110.000003356934,14|0,0:0|0:0,0:0:0:0:
260,58,88968,5,14,0:0:0:0:
34,20,89087,2,0,L|149:20,1,110.000003356934,14|0,0:0|0:0,0:0:0:0:
354,22,89325,5,14,0:0:0:0:
133,113,89444,2,0,L|123:240,1,110.000003356934,14|2,0:0|0:0,0:0:0:0:
339,236,89682,5,14,0:0:0:0:
126,35,89801,2,0,L|254:30,1,110.000003356934,14|2,0:0|0:0,0:0:0:0:
39,106,90039,1,14,0:0:0:0:
26,157,90098,1,0,0:0:0:0:
58,200,90158,1,0,0:0:0:0:
111,203,90217,1,0,0:0:0:0:
282,199,90277,2,0,L|351:197,1,55.0000016784668,14|2,0:0|0:0,0:0:0:0:
162,130,90396,2,0,L|77:132,1,55.0000016784668,2|2,0:0|0:0,0:0:0:0:
273,54,90515,5,6,0:0:0:0:
477,47,90634,1,2,0:0:0:0:
273,54,90753,1,2,0:0:0:0:
477,47,90872,1,2,0:0:0:0:
264,149,90991,2,0,L|154:151,1,110.000003356934,2|2,0:0|0:0,0:0:0:0:
421,159,91230,2,0,L|425:268,1,110.000003356934,2|2,0:0|0:0,0:0:0:0:
172,299,91468,5,2,0:0:0:0:
292,299,91587,1,2,0:0:0:0:
172,299,91706,1,2,0:0:0:0:
378,103,91825,1,2,0:0:0:0:
257,97,91944,1,2,0:0:0:0:
136,91,92063,1,2,0:0:0:0:
373,150,92182,2,0,L|382:270,1,110.000003356934,2|2,0:0|0:0,0:0:0:0:
159,244,92420,5,2,0:0:0:0:
279,236,92539,1,2,0:0:0:0:
399,231,92658,1,2,0:0:0:0:
143,134,92777,1,2,0:0:0:0:
263,129,92896,1,2,0:0:0:0:
143,134,93015,2,0,L|205:133,1,55.0000016784668,2|0,0:0|0:0,0:0:0:0:
373,122,93134,2,0,L|492:121,1,110.000003356934,2|2,0:0|0:0,0:0:0:0:
215,36,93372,6,0,L|101:36,1,110.000003356934,2|2,0:0|0:0,0:0:0:0:
284,167,93611,2,0,L|300:246,1,55.0000016784668,2|0,0:0|0:0,0:0:0:0:
228,220,93730,2,0,L|220:292,1,55.0000016784668,2|0,0:0|0:0,0:0:0:0:
402,280,93849,2,0,L|404:153,1,110.000003356934,2|2,0:0|0:0,0:0:0:0:
175,135,94087,2,0,L|41:136,1,110.000003356934,2|2,0:0|0:0,0:0:0:0:
124,134,94265,1,2,0:0:0:0:
303,95,94325,5,6,0:0:0:0:
182,92,94444,1,2,0:0:0:0:
303,95,94563,1,2,0:0:0:0:
62,231,94682,1,2,0:0:0:0:
183,232,94801,1,2,0:0:0:0:
62,231,94920,1,2,0:0:0:0:
293,150,95039,2,0,L|435:148,1,110.000003356934,2|2,0:0|0:0,0:0:0:0:
119,144,95277,6,0,L|111:283,1,110.000003356934,2|2,0:0|0:0,0:0:0:0:
173,255,95456,1,0,0:0:0:0:
334,258,95515,2,0,L|465:255,1,110.000003356934,2|2,0:0|0:0,0:0:0:0:
383,257,95694,1,0,0:0:0:0:
168,167,95753,5,2,0:0:0:0:
241,164,95833,1,2,0:0:0:0:
168,167,95912,1,2,0:0:0:0:
344,80,95991,1,2,0:0:0:0:
421,106,96071,1,2,0:0:0:0:
344,80,96150,1,2,0:0:0:0:
162,71,96230,5,6,0:0:0:0:
109,79,96289,1,0,0:0:0:0:
81,124,96349,1,2,0:0:0:0:
97,175,96408,1,0,0:0:0:0:
273,186,96468,2,0,L|281:275,1,55.0000016784668,2|0,0:0|0:0,0:0:0:0:
215,245,96587,2,0,L|130:243,1,55.0000016784668,2|0,0:0|0:0,0:0:0:0:
349,242,96706,5,6,0:0:0:0:
411,221,96765,1,0,0:0:0:0:
394,156,96825,1,2,0:0:0:0:
329,145,96884,1,0,0:0:0:0:
178,133,96944,2,0,L|182:70,1,55.0000016784668,2|0,0:0|0:0,0:0:0:0:
247,80,97063,2,0,L|243:134,1,55.0000016784668,2|0,0:0|0:0,0:0:0:0:
51,36,97182,5,6,0:0:0:0:
174,29,97241,1,0,0:0:0:0:
301,27,97301,1,2,0:1:0:0:
328,50,97331,1,2,0:1:0:0:
330,85,97361,1,2,0:1:0:0:
221,101,97390,1,2,0:1:0:0:
115,105,97420,6,0,L|169:103,1,55.0000016784668,6|0,0:0|0:0,0:0:0:0:
328,95,97539,2,0,L|366:97,2,27.5000008392334,2|2|2,0:1|0:1|0:1,0:0:0:0:
221,101,97628,1,2,0:1:0:0:
115,202,97658,6,0,L|52:202,1,55.0000016784668,6|2,0:0|0:0,0:0:0:0:
244,190,97777,2,0,L|318:186,1,55.0000016784668,2|2,0:0|0:0,0:0:0:0:
126,306,97896,2,0,L|77:309,2,27.5000008392334,6|0|2,0:1|0:0|0:1,0:0:0:0:
248,302,97986,1,0,0:0:0:0:
362,302,98015,2,0,L|432:303,1,55.0000016784668,2|2,0:0|0:0,0:0:0:0:
243,128,98134,6,0,L|172:128,1,55.0000016784668,6|2,0:0|0:0,0:0:0:0:
368,113,98253,2,0,L|422:112,1,55.0000016784668,6|2,0:0|0:0,0:0:0:0:
251,82,98372,2,0,L|181:77,1,55.0000016784668,6|2,0:0|0:0,0:0:0:0:
365,176,98491,2,0,L|433:175,1,55.0000016784668,6|2,0:0|0:0,0:0:0:0:
246,191,98611,6,0,L|191:191,1,55.0000016784668,6|2,0:0|0:0,0:0:0:0:
34,122,98730,2,0,L|119:119,1,55.0000016784668,6|2,0:0|0:0,0:0:0:0:
236,103,98849,2,0,L|243:180,1,55.0000016784668,6|2,0:0|0:0,0:0:0:0:
379,215,98968,2,0,L|386:282,1,55.0000016784668,6|2,0:0|0:0,0:0:0:0:
241,295,99087,6,0,L|175:297,1,55.0000016784668,6|2,0:0|0:0,0:0:0:0:
354,338,99206,2,0,L|415:338,1,55.0000016784668,6|2,0:0|0:0,0:0:0:0:
237,231,99325,2,0,L|228:154,1,55.0000016784668,6|2,0:0|0:0,0:0:0:0:
386,153,99444,2,0,L|469:151,1,55.0000016784668,6|2,0:0|0:0,0:0:0:0:
237,69,99563,6,0,L|174:65,1,55.0000016784668,6|2,0:0|0:0,0:0:0:0:
327,57,99682,1,6,0:0:0:0:
454,52,99741,1,2,0:0:0:0:
237,69,99801,2,0,L|169:66,1,55.0000016784668,6|2,0:0|0:0,0:0:0:0:
382,140,99920,2,0,L|446:136,1,55.0000016784668,6|2,0:0|0:0,0:0:0:0:
303,228,100039,6,0,L|301:294,1,55.0000016784668,6|2,0:0|0:0,0:0:0:0:
162,277,100158,2,0,L|156:346,1,55.0000016784668,6|2,0:0|0:0,0:0:0:0:
295,346,100277,2,0,L|350:346,1,55.0000016784668,6|2,0:0|0:0,0:0:0:0:
197,225,100396,2,0,L|143:224,1,55.0000016784668,6|2,0:0|0:0,0:0:0:0:
319,201,100515,6,0,L|318:144,1,55.0000016784668,6|2,0:0|0:0,0:0:0:0:
181,125,100634,1,6,0:0:0:0:
47,118,100694,1,2,0:0:0:0:
191,201,100753,2,0,L|253:205,1,55.0000016784668,6|2,0:0|0:0,0:0:0:0:
86,178,100872,2,0,L|22:178,1,55.0000016784668,6|2,0:0|0:0,0:0:0:0:
225,97,100991,6,0,L|232:29,1,55.0000016784668,6|2,0:0|0:0,0:0:0:0:
375,62,101111,2,0,L|382:-2,1,55.0000016784668,6|2,0:0|0:0,0:0:0:0:
243,299,101230,1,6,0:0:0:0:
119,301,101289,1,2,0:0:0:0:
245,299,101349,1,6,0:0:0:0:
368,307,101408,1,2,0:0:0:0:
215,177,101468,6,0,L|146:175,1,55.0000016784668,6|2,0:0|0:0,0:0:0:0:
364,117,101587,2,0,L|369:186,1,55.0000016784668,6|2,0:0|0:0,0:0:0:0:
226,249,101706,2,0,L|166:252,1,55.0000016784668,6|2,0:0|0:0,0:0:0:0:
330,228,101825,2,0,L|404:220,1,55.0000016784668,6|2,0:0|0:0,0:0:0:0:
223,80,101944,5,14,0:0:0:0:
103,82,102063,1,2,0:0:0:0:
315,79,102182,1,2,0:0:0:0:
57,208,102301,1,14,0:0:0:0:
167,201,102420,1,2,0:0:0:0:
57,208,102539,1,2,0:0:0:0:
323,151,102658,5,14,0:0:0:0:
213,148,102777,1,2,0:0:0:0:
103,141,102896,1,2,0:0:0:0:
389,66,103015,1,14,0:0:0:0:
209,57,103134,1,2,0:0:0:0:
30,50,103253,1,2,0:0:0:0:
259,138,103372,5,2,0:0:0:0:
313,141,103431,1,2,0:0:0:0:
344,184,103491,1,2,0:0:0:0:
331,236,103550,1,2,0:0:0:0:
170,244,103611,2,0,L|105:242,1,55.0000016784668,2|2,0:0|0:0,0:0:0:0:
249,195,103730,1,2,0:0:0:0:
373,192,103789,1,2,0:0:0:0:
154,57,103849,6,0,L|44:51,1,110.000003356934,14|2,0:0|0:0,0:0:0:0:
256,54,104087,2,0,L|342:52,1,55.0000016784668,2|0,0:0|0:0,0:0:0:0:
256,54,104206,2,0,L|179:53,1,55.0000016784668,10|0,0:0|0:0,0:0:0:0:
364,116,104325,2,0,L|473:117,1,110.000003356934,2|10,0:0|0:0,0:0:0:0:
273,26,104563,1,2,0:0:0:0:
481,25,104682,1,10,0:0:0:0:
290,132,104801,5,14,0:0:0:0:
168,133,104861,1,0,0:0:0:0:
51,136,104920,2,0,L|16:136,2,27.5000008392334,2|2|2,0:1|0:1|0:1,0:0:0:0:
168,133,105009,1,2,0:1:0:0:
290,132,105039,6,0,L|351:131,1,55.0000016784668,14|0,0:0|0:0,0:0:0:0:
229,53,105158,1,2,0:1:0:0:
195,73,105188,1,2,0:1:0:0:
195,111,105218,1,2,0:1:0:0:
305,116,105247,1,2,0:1:0:0:
417,113,105277,6,0,L|472:113,1,55.0000016784668,14|2,0:0|0:0,0:0:0:0:
305,116,105396,2,0,L|227:117,1,55.0000016784668,2|2,0:0|0:0,0:0:0:0:
408,37,105515,2,0,L|441:38,2,27.5000008392334,6|2|2,0:1|0:1|0:1,0:0:0:0:
290,36,105605,1,2,0:1:0:0:
179,34,105634,2,0,L|124:34,1,55.0000016784668,2|2,0:0|0:0,0:0:0:0:
349,175,105753,5,14,0:0:0:0:
239,178,105872,1,2,0:0:0:0:
452,171,105991,1,2,0:0:0:0:
186,117,106111,1,14,0:0:0:0:
82,117,106230,1,2,0:0:0:0:
186,117,106349,1,2,0:0:0:0:
398,43,106468,5,14,0:0:0:0:
188,41,106587,1,2,0:0:0:0:
398,43,106706,1,2,0:0:0:0:
58,247,106825,1,14,0:0:0:0:
268,245,106944,1,2,0:0:0:0:
58,247,107063,1,2,0:0:0:0:
266,129,107182,6,0,L|334:127,1,55.0000016784668,2|2,0:0|0:0,0:0:0:0:
262,58,107301,2,0,L|181:59,1,55.0000016784668,2|2,0:0|0:0,0:0:0:0:
354,272,107420,2,0,L|414:271,1,55.0000016784668,2|2,0:0|0:0,0:0:0:0:
260,191,107539,1,2,0:0:0:0:
132,194,107599,1,2,0:0:0:0:
322,70,107658,6,0,L|432:70,1,110.000003356934,14|2,0:0|0:0,0:0:0:0:
205,17,107896,2,0,L|330:14,1,110.000003356934,2|10,0:0|0:0,0:0:0:0:
52,58,108134,2,0,L|49:172,1,110.000003356934,2|10,0:0|0:0,0:0:0:0:
269,179,108372,2,0,L|378:182,1,110.000003356934,2|10,0:0|0:0,0:0:0:0:
189,96,108611,5,14,0:0:0:0:
388,91,108730,2,0,L|421:113,2,27.5000008392334,2|2|2,0:1|0:1|0:1,0:0:0:0:
269,93,108819,1,2,0:1:0:0:
148,95,108849,5,14,0:0:0:0:
333,183,108968,2,0,L|366:205,2,27.5000008392334,2|2|2,0:1|0:1|0:1,0:0:0:0:
200,195,109057,1,2,0:1:0:0:
81,197,109087,6,0,L|26:197,1,55.0000016784668,14|2,0:0|0:0,0:0:0:0:
168,288,109206,2,0,L|222:285,1,55.0000016784668,2|2,0:0|0:0,0:0:0:0:
66,113,109325,2,0,L|36:112,2,27.5000008392334,14|2|2,0:1|0:1|0:1,0:0:0:0:
185,109,109414,1,2,0:1:0:0:
305,109,109444,2,0,L|359:107,1,55.0000016784668,2|2,0:0|0:0,0:0:0:0:
32,54,109563,6,0,B|31:298|31:298|31:102,1,440.000013427735,14|2,0:0|0:0,0:0:0:0:
92,92,110099,1,2,0:0:0:0:
241,89,110158,2,0,L|304:89,1,55.0000016784668,2|2,0:0|0:0,0:0:0:0:
122,35,110277,2,0,L|56:34,1,55.0000016784668,2|2,0:0|0:0,0:0:0:0:
263,155,110396,2,0,L|326:155,1,55.0000016784668,2|2,0:0|0:0,0:0:0:0:
144,101,110515,6,0,L|78:100,1,55.0000016784668,2|2,0:0|0:0,0:0:0:0:
281,212,110634,2,0,L|344:212,1,55.0000016784668,2|2,0:0|0:0,0:0:0:0:
162,158,110753,2,0,L|96:157,1,55.0000016784668,2|2,0:0|0:0,0:0:0:0:
304,260,110872,2,0,L|367:260,1,55.0000016784668,2|2,0:0|0:0,0:0:0:0:
185,206,110991,6,0,L|119:205,1,55.0000016784668,2|2,0:0|0:0,0:0:0:0:
326,318,111111,2,0,L|389:318,1,55.0000016784668,2|2,0:0|0:0,0:0:0:0:
207,264,111230,2,0,L|141:263,1,55.0000016784668,2|2,0:0|0:0,0:0:0:0:
332,367,111349,2,0,L|387:367,1,55.0000016784668,2|2,0:0|0:0,0:0:0:0:
190,341,111468,6,0,L|191:283,1,55.0000016784668,2|2,0:0|0:0,0:0:0:0:
330,273,111587,2,0,L|331:215,1,55.0000016784668,2|2,0:0|0:0,0:0:0:0:
470,205,111706,2,0,L|469:148,1,55.0000016784668,2|2,0:0|0:0,0:0:0:0:
323,96,111825,2,0,L|253:94,1,55.0000016784668,2|2,0:0|0:0,0:0:0:0:
470,27,111944,6,0,L|470:93,1,55.0000016784668,2|2,0:0|0:0,0:0:0:0:
329,158,112063,2,0,L|329:221,1,55.0000016784668,2|2,0:0|0:0,0:0:0:0:
189,244,112182,2,0,L|189:301,1,55.0000016784668,2|2,0:0|0:0,0:0:0:0:
333,310,112301,2,0,L|398:307,1,55.0000016784668,2|2,0:0|0:0,0:0:0:0:
220,204,112420,6,0,L|144:206,1,55.0000016784668,2|2,0:0|0:0,0:0:0:0:
31,204,112539,2,0,L|30:134,1,55.0000016784668,2|2,0:0|0:0,0:0:0:0:
174,107,112658,2,0,L|243:106,1,55.0000016784668,2|2,0:0|0:0,0:0:0:0:
382,76,112777,2,0,L|321:72,1,55.0000016784668,2|2,0:0|0:0,0:0:0:0:
147,28,112896,6,0,L|183:27,1,27.5000008392334,2|2,0:1|0:1,0:0:0:0:
292,125,112956,2,0,L|329:125,1,27.5000008392334,2|2,0:1|0:1,0:0:0:0:
433,129,113015,2,0,L|386:128,1,27.5000008392334,2|2,0:1|0:1,0:0:0:0:
288,188,113075,2,0,L|261:188,1,27.5000008392334,2|2,0:1|0:1,0:0:0:0:
147,233,113134,6,0,L|176:233,1,27.5000008392334,2|2,0:1|0:1,0:0:0:0:
292,255,113194,2,0,L|330:255,1,27.5000008392334,2|2,0:1|0:1,0:0:0:0:
433,316,113253,2,0,L|400:317,1,27.5000008392334,2|2,0:1|0:1,0:0:0:0:
288,325,113313,2,0,L|258:325,1,27.5000008392334,2|2,0:1|0:1,0:0:0:0:
147,334,113372,5,14,0:0:0:0:
349,329,113491,1,2,0:0:0:0:
129,151,113611,2,0,L|213:151,1,55.0000016784668,2|2,0:0|0:0,0:0:0:0:
359,147,113730,2,0,L|304:146,1,55.0000016784668,2|2,0:0|0:0,0:0:0:0:
113,79,113849,5,14,0:0:0:0:
319,85,113968,1,14,0:0:0:0:
111,25,114087,2,0,L|43:52,1,55.0000016784668,2|2,0:0|0:0,0:0:0:0:
244,244,114206,2,0,L|300:225,1,55.0000016784668,2|2,0:0|0:0,0:0:0:0:
144,185,114325,5,14,0:0:0:0:
344,155,114444,2,0,L|303:209,1,55.0000016784668,2|2,0:0|0:0,0:0:0:0:
139,250,114563,1,14,0:0:0:0:
324,271,114682,2,0,L|260:273,1,55.0000016784668,2|2,0:0|0:0,0:0:0:0:
121,326,114801,6,0,L|180:321,1,55.0000016784668,14|8,0:0|0:0,0:0:0:0:
311,333,114920,2,0,L|380:331,1,55.0000016784668,10|2,0:0|0:0,0:0:0:0:
220,182,115039,2,0,L|160:180,1,55.0000016784668,14|8,0:0|0:0,0:0:0:0:
324,110,115158,2,0,L|383:112,1,55.0000016784668,10|8,0:0|0:0,0:0:0:0:
186,70,115277,5,14,0:0:0:0:
397,60,115396,2,0,L|273:62,1,110.000003356934,14|8,0:0|0:0,0:0:0:0:
85,70,115634,5,14,0:0:0:0:
285,195,115753,2,0,L|394:196,1,110.000003356934,14|8,0:0|0:0,0:0:0:0:
144,122,115991,5,14,0:0:0:0:
379,92,116111,2,0,L|400:205,1,110.000003356934,14|0,0:0|0:0,0:0:0:0:
187,216,116349,6,0,L|123:215,1,59.9999981689454,14|10,0:0|0:0,0:0:0:0:
307,315,116468,6,0,L|370:315,1,59.9999981689454,14|10,0:0|0:0,0:0:0:0:
150,144,116587,6,0,L|88:142,1,59.9999981689454,14|10,0:0|0:0,0:0:0:0:
334,248,116706,6,0,L|401:246,1,59.9999981689454,14|10,0:0|0:0,0:0:0:0:
124,83,116825,6,0,L|54:82,1,59.9999981689454,14|10,0:0|0:0,0:0:0:0:
366,179,116944,6,0,L|428:176,1,59.9999981689454,14|10,0:0|0:0,0:0:0:0:
90,142,117063,6,0,L|18:142,1,59.9999981689454,14|10,0:0|0:0,0:0:0:0:
466,78,117420,6,0,P|380:295|291:79,1,600,6|0,0:0|0:0,0:0:0:0:
318,71,118164,1,0,0:0:0:0:
342,80,118193,1,0,0:0:0:0:
363,93,118223,1,0,0:0:0:0:
382,109,118253,1,0,0:0:0:0:
397,129,118283,1,0,0:0:0:0:
408,151,118312,1,0,0:0:0:0:
415,176,118342,1,0,0:0:0:0:
417,200,118372,5,0,0:0:0:0:
414,225,118402,1,0,0:0:0:0:
406,249,118431,1,0,0:0:0:0:
394,271,118461,1,0,0:0:0:0:
378,290,118491,1,0,0:0:0:0:
359,306,118521,1,0,0:0:0:0:
337,317,118550,1,0,0:0:0:0:
313,325,118580,1,0,0:0:0:0:
288,327,118610,5,0,0:0:0:0:
263,325,118640,1,0,0:0:0:0:
239,318,118669,1,0,0:0:0:0:
217,307,118699,1,0,0:0:0:0:
197,292,118729,1,0,0:0:0:0:
181,273,118759,1,0,0:0:0:0:
169,251,118789,1,0,0:0:0:0:
160,227,118818,1,0,0:0:0:0:
157,203,118848,5,0,0:0:0:0:
159,178,118878,1,0,0:0:0:0:
165,154,118908,1,0,0:0:0:0:
175,131,118937,1,0,0:0:0:0:
190,111,118967,1,0,0:0:0:0:
208,94,118997,1,0,0:0:0:0:
230,81,119027,1,0,0:0:0:0:
449,78,119087,5,6,0:0:0:0:
160,25,119206,1,0,0:0:0:0:
