osu file format v14

[General]
AudioFilename: audio.mp3
AudioLeadIn: 0
PreviewTime: 73241
Countdown: 0
SampleSet: Soft
StackLeniency: 0.6
Mode: 0
LetterboxInBreaks: 0
WidescreenStoryboard: 0

[Editor]
DistanceSpacing: 0.87
BeatDivisor: 4
GridSize: 4
TimelineZoom: 3.599998

[Metadata]
Title:Last Resort
TitleUnicode:Last Resort
Artist:xi
ArtistUnicode:xi
Creator:Kroytz
Version:toybot's MAXIMUM
Source:SOUND VOLTEX IV HEAVENLY HAVEN
Tags:The 7th Konami Arcade Championship Original Song Contest Winner Bemani KAC SDVX Video Rhythm Game Instrumental DJPop SnowNiNo_ C00l Cool 1112deng Suzuki_1112 Otosaka-Yu Elsa Valentine xLolicore- Realazy toybot vikala R3m AncuL Murumoo Tails Reba Wonki Blasticide Lolicide bsc _Streamy_ jakads
BeatmapID:1679799
BeatmapSetID:800102

[Difficulty]
HPDrainRate:5
CircleSize:4.2
OverallDifficulty:9.4
ApproachRate:9.7
SliderMultiplier:2
SliderTickRate:1

[Events]
//Background and Video events
0,0,"BG.jpg",0,0
//Break Periods
2,27846,32865
//Storyboard Layer 0 (Background)
//Storyboard Layer 1 (Fail)
//Storyboard Layer 2 (Pass)
//Storyboard Layer 3 (Foreground)
//Storyboard Layer 4 (Overlay)
//Storyboard Sound Samples

[TimingPoints]
992,-100,4,2,31,80,0,0
992,238.095238095238,4,2,31,80,1,0
1944,-100,4,2,34,80,0,0
2182,-100,4,2,32,80,0,0
2539,-100,4,2,31,40,0,0
2658,-83.3333333333333,4,2,31,80,0,0
3134,-200,4,2,1,60,0,0
4007,-200,4,2,1,40,0,0
4087,-200,4,2,1,60,0,0
4245,-200,4,2,1,40,0,0
4325,-200,4,2,1,60,0,0
4484,-200,4,2,1,40,0,0
4563,-200,4,2,1,60,0,0
4722,-200,4,2,1,40,0,0
4801,-200,4,2,1,60,0,0
6706,-100,4,2,34,80,0,0
6884,-100,4,2,34,5,0,0
6944,-100,4,2,34,80,0,0
7122,-100,4,2,34,5,0,0
7182,-100,4,2,34,80,0,0
7361,-100,4,2,34,5,0,0
7420,-100,4,2,34,80,0,0
7599,-100,4,2,34,5,0,0
7658,-100,4,2,34,80,0,0
7837,-100,4,2,34,20,0,0
7896,-100,4,2,34,80,0,0
8075,-100,4,2,34,20,0,0
8134,-100,4,2,34,80,0,0
8313,-100,4,2,34,20,0,0
8372,-100,4,2,34,80,0,0
8551,-100,4,2,34,20,0,0
8611,-100,4,2,34,80,0,0
10515,-100,4,2,31,80,0,0
10753,-100,4,2,31,60,0,0
11468,-83.3333333333333,4,2,34,80,0,0
11587,-83.3333333333333,4,2,33,80,0,0
11706,-83.3333333333333,4,2,34,80,0,0
11825,-83.3333333333333,4,2,33,80,0,0
11944,-83.3333333333333,4,2,34,80,0,0
12182,-83.3333333333333,4,2,33,80,0,0
12301,-83.3333333333333,4,2,34,80,0,0
12420,-133.333333333333,4,2,31,80,0,0
12539,-133.333333333333,4,2,1,70,0,0
13491,-133.333333333333,4,2,31,80,0,0
14444,-133.333333333333,4,2,1,70,0,0
15396,-133.333333333333,4,2,31,70,0,0
16349,-133.333333333333,4,2,1,70,0,0
17301,-133.333333333333,4,2,31,80,0,0
18253,-133.333333333333,4,2,1,70,0,0
19206,-133.333333333333,4,2,31,80,0,0
19444,-133.333333333333,4,2,33,80,0,0
19563,-100,4,2,31,80,0,0
19682,-100,4,2,33,80,0,0
19801,-100,4,2,31,80,0,0
25813,-100,4,2,31,70,0,0
25991,-100,4,2,31,60,0,0
26230,-100,4,2,31,50,0,0
26706,-100,4,2,33,80,0,0
27420,-100,4,2,34,80,0,0
27599,-100,4,2,31,5,0,0
27658,-100,4,2,31,80,0,0
33372,-133.333333333333,4,2,34,80,0,0
34206,-133.333333333333,4,2,31,80,0,0
34801,-100,4,2,31,80,0,0
34920,-100,4,2,32,80,0,0
34980,-100,4,2,33,80,0,0
35277,-100,4,2,31,80,0,0
35515,-100,4,2,32,80,0,0
36111,-100,4,2,32,80,0,0
36349,-100,4,2,32,80,0,0
38253,-100,4,2,32,80,0,0
39087,-100,4,2,31,80,0,0
39325,-100,4,2,32,80,0,0
40099,-100,4,2,32,5,0,0
40158,-100,4,2,32,80,0,0
40991,-90.9090909090909,4,2,31,80,0,0
41230,-90.9090909090909,4,2,32,80,0,0
41825,-90.9090909090909,4,2,31,80,0,0
42063,-90.9090909090909,4,2,31,80,0,0
42420,-90.9090909090909,4,2,31,78,0,0
42480,-90.9090909090909,4,2,31,76,0,0
42539,-90.9090909090909,4,2,31,74,0,0
42599,-90.9090909090909,4,2,31,72,0,0
42658,-90.9090909090909,4,2,31,70,0,0
42718,-90.9090909090909,4,2,31,68,0,0
42777,-90.9090909090909,4,2,31,66,0,0
42837,-90.9090909090909,4,2,31,64,0,0
42896,-200,4,2,31,60,0,0
43372,-200,4,2,2,60,0,0
49563,-133.333333333333,4,2,31,60,0,0
50277,-133.333333333333,4,2,31,80,0,0
50515,-100,4,2,31,80,0,0
51944,-100,4,2,34,80,0,0
52420,-100,4,2,31,80,0,0
53849,-100,4,2,34,80,0,0
54325,-100,4,2,31,80,0,0
55039,-100,4,2,31,80,0,0
57361,-100,4,2,31,80,0,0
57539,-100,4,2,31,80,0,0
57837,-100,4,2,31,80,0,0
58015,-100,4,2,31,80,0,0
58134,-100,4,2,33,80,0,0
58849,-100,4,2,34,80,0,0
59087,-100,4,2,33,80,0,0
59801,-100,4,2,34,80,0,0
60039,-100,4,2,31,80,0,0
60991,-100,4,2,32,80,0,0
61468,-100,4,2,34,80,0,0
62420,-100,4,2,32,80,0,0
62658,-120.00048000192,4,2,31,80,0,0
63789,-120.00048000192,4,2,31,5,0,0
63849,-120.00048000192,4,2,31,60,0,0
64325,-120.00048000192,4,2,31,65,0,0
64801,-120.00048000192,4,2,31,70,0,0
65277,-120.00048000192,4,2,31,75,0,0
65753,-120.00048000192,4,2,34,80,0,0
69563,-120.00048000192,4,2,31,80,0,0
71468,-120.00048000192,4,2,31,40,0,0
72361,-120.00048000192,4,2,31,5,0,0
72420,-120.00048000192,4,2,32,80,0,0
72896,-120.00048000192,4,2,32,60,0,0
73134,-100,4,2,32,80,0,0
73372,-83.3333333333333,4,2,31,80,0,1
74682,-83.3333333333333,4,2,31,80,0,1
75813,-83.3333333333333,4,2,31,5,0,1
75872,-83.3333333333333,4,2,31,80,0,1
76170,-83.3333333333333,4,2,31,5,0,1
76230,-83.3333333333333,4,2,31,80,0,1
76527,-83.3333333333333,4,2,31,5,0,1
76587,-83.3333333333333,4,2,31,80,0,1
78075,-83.3333333333333,4,2,31,5,0,1
78134,-83.3333333333333,4,2,31,80,0,1
80991,-83.3333333333333,4,2,34,80,0,1
81111,-83.3333333333333,4,2,31,80,0,1
81884,-83.3333333333333,4,2,31,5,0,1
81944,-83.3333333333333,4,2,31,80,0,1
82361,-83.3333333333333,4,2,31,5,0,1
82420,-83.3333333333333,4,2,31,80,0,1
84444,-83.3333333333333,4,2,31,40,0,1
84563,-83.3333333333333,4,2,31,80,0,1
84682,-83.3333333333333,4,2,31,40,0,1
84801,-83.3333333333333,4,2,31,80,0,1
86230,-83.3333333333333,4,2,32,80,0,1
86468,-83.3333333333333,4,2,31,40,0,1
86527,-83.3333333333333,4,2,31,50,0,1
86587,-83.3333333333333,4,2,31,60,0,1
86646,-83.3333333333333,4,2,31,70,0,1
86706,-83.3333333333333,4,2,34,80,0,1
87658,-83.3333333333333,4,2,33,80,0,1
88611,-83.3333333333333,4,2,32,80,0,1
89622,-83.3333333333333,4,2,32,40,0,1
89682,-83.3333333333333,4,2,32,80,0,1
89980,-83.3333333333333,4,2,32,40,0,1
90039,-83.3333333333333,4,2,32,80,0,1
90277,-83.3333333333333,4,2,35,80,0,1
90515,-100,4,2,31,80,0,1
97182,-100,4,2,34,80,0,1
97301,-100,4,2,31,80,0,1
97420,-100,4,2,34,80,0,1
97539,-100,4,2,31,80,0,1
97658,-100,4,2,34,80,0,1
97896,-100,4,2,31,80,0,1
98134,-80,4,2,34,80,0,1
101944,-80,4,2,31,80,0,1
104801,-80,4,2,34,80,0,1
104920,-80,4,2,33,80,0,1
105039,-80,4,2,34,80,0,1
105158,-80,4,2,33,80,0,1
105277,-80,4,2,34,80,0,1
105515,-80,4,2,33,80,0,1
105634,-80,4,2,31,80,0,1
108611,-80,4,2,34,80,0,1
108730,-80,4,2,33,80,0,1
108849,-80,4,2,34,80,0,1
108968,-80,4,2,33,80,0,1
109087,-80,4,2,34,80,0,1
109325,-80,4,2,33,80,0,1
109444,-80,4,2,34,80,0,1
109563,-400,4,2,31,80,0,0
109622,-400,4,2,31,5,0,0
109980,-400,4,2,31,5,0,0
110039,-400,4,2,31,80,0,0
110753,-80,4,2,31,80,0,0
112896,-66.6666666666667,4,2,33,80,0,0
113134,-100,4,2,33,80,0,0
113372,-100,4,2,32,80,0,1
113611,-100,4,2,32,40,0,1
113849,-100,4,2,32,80,0,1
114087,-100,4,2,32,40,0,1
114325,-100,4,2,34,80,0,1
114444,-100,4,2,34,40,0,1
114563,-100,4,2,34,80,0,1
114682,-100,4,2,34,40,0,1
114801,-100,4,2,34,80,0,1
114920,-100,4,2,34,80,0,1
115277,-100,4,2,32,80,0,1
115515,-100,4,2,32,60,0,1
115634,-100,4,2,32,80,0,1
115872,-100,4,2,32,60,0,1
115991,-100,4,2,32,80,0,1
116230,-100,4,2,32,80,0,1
116349,-100,4,2,32,80,0,1
117063,-100,4,2,32,80,0,1
117122,-100,4,2,31,5,0,1
117420,-100,4,2,31,80,0,0
119027,-100,4,2,31,5,0,0
119087,-66.6666666666667,4,2,32,80,0,1
119206,-66.6666666666667,4,2,32,80,0,0

[Colours]
Combo1 : 61,70,78
Combo2 : 42,72,82
Combo3 : 74,130,131
Combo4 : 155,151,164

[HitObjects]
448,159,992,6,0,P|396:167|328:175,1,100,6|0,0:0|0:0,0:0:0:0:
80,219,1230,1,0,0:0:0:0:
120,151,1349,1,0,0:0:0:0:
176,207,1468,1,0,0:0:0:0:
136,275,1587,1,0,0:0:0:0:
120,151,1706,5,2,0:0:0:0:
118,138,1765,1,2,0:0:0:0:
116,126,1825,1,2,0:1:0:0:
115,113,1884,1,2,0:1:0:0:
113,101,1944,6,0,P|141:106|194:112,1,50,6|0,0:0|0:0,0:0:0:0:
399,283,2063,2,0,P|370:277|318:272,1,50,2|2,0:0|0:0,0:0:0:0:
112,283,2182,2,0,P|137:278|162:274,1,50,6|0,0:0|0:0,0:0:0:0:
399,101,2301,6,0,B|332:68|268:116|268:116|312:148|320:192,1,200,6|0,0:0|0:0,0:0:0:0:
312,244,2658,6,0,P|336:244|372:204,1,59.9999981689454,2|2,0:0|0:0,0:0:0:0:
208,68,2777,2,0,P|191:92|188:122,1,59.9999981689454,2|2,0:0|0:0,0:0:0:0:
256,320,2896,5,6,0:0:0:0:
180,264,3134,1,2,0:0:0:0:
138,346,3372,1,0,0:0:0:0:
374,346,3611,1,2,0:0:0:0:
180,264,3849,6,0,L|175:194,1,66.6666666666667
332,264,4087,2,0,L|337:194,1,66.6666666666667,2|0,0:0|0:0,0:0:0:0:
168,276,4325,2,0,L|158:207,1,66.6666666666667
344,276,4563,2,0,L|354:207,1,66.6666666666667,2|0,0:0|0:0,0:0:0:0:
440,292,4801,5,0,0:0:0:0:
72,292,5039,1,2,0:0:0:0:
374,346,5277,1,0,0:0:0:0:
138,346,5515,1,2,0:0:0:0:
320,280,5753,1,0,0:0:0:0:
192,280,5991,1,2,0:0:0:0:
188,260,6071,1,0,0:0:0:0:
184,240,6150,1,0,0:0:0:0:
180,220,6230,2,0,P|185:172|192:104,1,100,0|2,0:0|0:0,0:0:0:0:
431,27,6706,6,0,P|459:69|461:118,1,100,6|0,0:0|0:0,0:0:0:0:
80,27,6944,2,0,P|52:69|50:118,1,100,12|0,0:0|0:0,0:0:0:0:
484,132,7182,6,0,P|480:181|450:220,1,100,6|0,0:0|0:0,0:0:0:0:
28,132,7420,2,0,P|31:181|61:220,1,100,12|0,0:0|0:0,0:0:0:0:
464,244,7658,6,0,P|424:280|352:272,1,100,6|0,0:0|0:0,0:0:0:0:
48,244,7896,2,0,P|88:280|160:272,1,100,12|0,0:0|0:0,0:0:0:0:
305,70,8134,6,0,P|256:70|205:69,1,100,6|0,0:0|0:0,0:0:0:0:
207,323,8372,2,0,P|255:322|306:323,1,100,12|0,0:0|0:0,0:0:0:0:
98,228,8611,6,0,L|108:328,1,100,14|0,0:0|0:0,0:0:0:0:
413,228,8849,2,0,L|404:328,1,100,12|0,0:0|0:0,0:0:0:0:
66,132,9087,6,0,L|76:232,1,100,14|0,0:0|0:0,0:0:0:0:
445,132,9325,2,0,L|436:232,1,100,12|0,0:0|0:0,0:0:0:0:
85,48,9563,6,0,L|94:131,1,66.6666666666667,14|0,0:0|0:0,0:0:0:0:
364,8,9722,1,8,0:0:0:0:
427,48,9801,2,0,L|418:131,1,66.6666666666667,14|0,0:0|0:0,0:0:0:0:
159,153,9960,1,8,0:0:0:0:
96,193,10039,6,0,L|105:276,2,66.6666666666667,14|0|8,0:0|0:0|0:0,0:0:0:0:
416,193,10277,2,0,L|407:276,2,66.6666666666667,14|0|8,0:0|0:0|0:0,0:0:0:0:
256,68,10515,5,14,0:0:0:0:
256,316,10753,1,0,0:0:0:0:
348,200,10991,5,0,0:0:0:0:
164,184,11111,1,8,0:0:0:0:
257,207,11230,5,2,0:0:0:0:
256,198,11289,1,2,0:0:0:0:
255,191,11349,1,2,0:0:0:0:
255,183,11408,1,2,0:0:0:0:
254,174,11468,6,0,L|249:100,1,59.9999981689454,14|0,0:0|0:0,0:0:0:0:
263,291,11587,2,0,L|264:330,2,29.9999990844727,2|2|2,0:1|0:1|0:1,0:0:0:0:
164,184,11706,6,0,L|159:110,1,59.9999981689454,14|0,0:0|0:0,0:0:0:0:
173,301,11825,2,0,L|174:340,2,29.9999990844727,2|2|2,0:1|0:1|0:1,0:0:0:0:
74,194,11944,6,0,L|69:120,1,59.9999981689454,14|2,0:0|0:0,0:0:0:0:
83,311,12063,2,0,L|87:390,1,59.9999981689454,2|2,0:0|0:0,0:0:0:0:
254,174,12182,5,14,0:1:0:0:
298,179,12241,1,2,0:1:0:0:
343,185,12301,1,2,0:0:0:0:
387,191,12361,1,2,0:0:0:0:
432,197,12420,5,14,0:0:0:0:
398,105,12539,1,0,0:0:0:0:
307,68,12658,1,2,0:0:0:0:
214,98,12777,1,0,0:0:0:0:
167,183,12896,2,0,L|176:271,1,75.0000028610231,2|0,0:0|0:0,0:0:0:0:
129,344,13134,2,0,P|73:356|7:285,1,150.000005722046,2|0,0:0|0:0,0:0:0:0:
7,123,13491,6,0,P|45:130|96:136,1,75.0000028610231,2|0,0:0|0:0,0:0:0:0:
280,303,13730,1,0,0:0:0:0:
202,356,13849,2,0,P|163:348|113:343,1,75.0000028610231,2|0,0:0|0:0,0:0:0:0:
314,154,14087,2,0,P|352:161|403:167,1,75.0000028610231,2|2,0:0|0:0,0:0:0:0:
387,166,14265,1,2,0:0:0:0:
387,166,14325,1,2,0:0:0:0:
463,109,14444,5,0,0:0:0:0:
481,204,14563,1,2,0:0:0:0:
445,294,14682,1,0,0:0:0:0:
355,333,14801,2,0,L|345:258,1,75.0000028610231,2|0,0:0|0:0,0:0:0:0:
254,325,15039,2,0,L|244:246,1,75.0000028610231,2|0,0:0|0:0,0:0:0:0:
61,184,15277,6,0,L|70:109,1,75.0000028610231,2|2,0:0|0:0,0:0:0:0:
162,176,15515,2,0,L|172:97,1,75.0000028610231
401,31,15753,6,0,P|365:37|327:42,1,75.0000028610231,2|0,0:0|0:0,0:0:0:0:
344,128,15932,1,0,0:0:0:0:
344,128,15991,2,0,P|382:123|419:117,1,75.0000028610231,2|0,0:0|0:0,0:0:0:0:
484,288,16230,5,6,0:0:0:0:
396,245,16349,1,0,0:0:0:0:
299,257,16468,1,2,0:0:0:0:
227,323,16587,1,0,0:0:0:0:
143,372,16706,1,2,0:0:0:0:
50,339,16825,1,0,0:0:0:0:
30,243,16944,2,0,L|37:154,1,75.0000028610231,2|0,0:0|0:0,0:0:0:0:
20,40,17182,5,0,0:0:0:0:
176,80,17301,2,0,P|138:83|102:90,1,75.0000028610231,2|0,0:0|0:0,0:0:0:0:
194,204,17539,1,0,0:0:0:0:
30,243,17658,2,0,P|67:240|104:233,1,75.0000028610231,2|0,0:0|0:0,0:0:0:0:
344,128,17896,2,0,P|306:130|269:137,1,75.0000028610231,2|2,0:0|0:0,0:0:0:0:
269,137,18075,1,2,0:0:0:0:
269,137,18134,1,2,0:0:0:0:
308,47,18253,5,0,0:0:0:0:
404,58,18372,1,2,0:0:0:0:
475,124,18491,1,0,0:0:0:0:
468,222,18611,2,0,L|454:318,1,75.0000028610231,2|0,0:0|0:0,0:0:0:0:
373,236,18849,2,0,L|359:332,1,75.0000028610231,2|0,0:0|0:0,0:0:0:0:
87,117,19087,6,0,L|101:213,1,75.0000028610231,2|2,0:0|0:0,0:0:0:0:
182,131,19325,2,0,L|196:227,1,75.0000028610231,2|2,0:0|0:1,0:0:0:0:
217,381,19563,6,0,L|150:371,1,50,10|0,0:0|0:0,0:0:0:0:
117,286,19682,1,2,0:1:0:0:
117,286,19741,1,2,0:1:0:0:
117,286,19801,2,0,L|203:298,1,50,2|2,0:0|0:0,0:0:0:0:
249,303,19920,2,0,L|335:315,1,50,2|2,0:0|0:0,0:0:0:0:
442,256,20039,6,0,P|456:204|432:136,1,100,14|0,0:0|0:0,0:0:0:0:
407,71,20277,1,0,0:0:0:0:
70,128,20396,2,0,P|56:180|80:248,1,100,10|0,0:0|0:0,0:0:0:0:
105,313,20634,1,0,0:0:0:0:
320,33,20753,2,0,P|265:40|195:46,1,100,10|0,0:0|0:0,0:0:0:0:
192,351,20991,6,0,P|246:343|317:338,1,100,10|0,0:0|0:0,0:0:0:0:
374,307,21230,1,0,0:0:0:0:
320,33,21349,2,0,P|265:40|195:46,1,100,10|0,0:0|0:0,0:0:0:0:
138,77,21587,1,0,0:0:0:0:
429,235,21706,2,0,L|408:130,1,100,10|0,0:0|0:0,0:0:0:0:
83,149,21944,6,0,L|104:254,1,100,10|0,0:0|0:0,0:0:0:0:
94,335,22182,1,0,0:0:0:0:
429,235,22301,2,0,L|408:130,1,100,10|0,0:0|0:0,0:0:0:0:
418,49,22539,1,0,0:0:0:0:
176,299,22658,6,0,P|239:302|285:348,1,100,10|0,0:0|0:0,0:0:0:0:
336,85,22896,2,0,P|273:82|227:36,1,100,10|0,0:0|0:0,0:0:0:0:
272,297,23134,2,0,P|305:333|316:381,1,100,0|10,0:0|0:0,0:0:0:0:
240,87,23372,2,0,P|206:50|195:2,1,100
195,2,23551,1,2,0:0:0:0:
195,2,23611,1,10,0:0:0:0:
256,192,23730,1,2,0:0:0:0:
93,109,23849,5,6,0:0:0:0:
63,110,23908,1,2,0:0:0:0:
36,124,23968,1,2,0:0:0:0:
16,146,24027,1,2,0:0:0:0:
7,175,24087,1,2,0:0:0:0:
7,204,24146,1,2,0:0:0:0:
17,232,24206,1,2,0:0:0:0:
34,255,24265,1,2,0:0:0:0:
61,267,24325,6,0,P|110:257|176:250,1,100,2|2,0:0|0:0,0:0:0:0:
230,215,24503,1,2,0:0:0:0:
230,215,24563,2,0,L|250:335,1,100,2|2,0:0|0:0,0:0:0:0:
419,275,24801,5,6,0:0:0:0:
449,274,24861,1,2,0:0:0:0:
476,260,24920,1,2,0:0:0:0:
496,238,24980,1,2,0:0:0:0:
505,209,25039,1,2,0:0:0:0:
505,180,25099,1,2,0:0:0:0:
495,152,25158,1,2,0:0:0:0:
478,129,25218,1,2,0:0:0:0:
451,117,25277,6,0,L|364:131,1,50,2|2,0:0|0:1,0:0:0:0:
326,153,25396,2,0,L|319:106,2,25,2|2|0,0:0|0:0|0:0,0:0:0:0:
288,56,25515,2,0,L|375:42,1,50,2|2,0:0|0:1,0:0:0:0:
412,20,25634,2,0,L|419:67,2,25,2|2|0,0:1|0:0|0:0,0:0:0:0:
424,202,25753,6,0,L|415:273,3,50,14|0|0|0,0:0|0:0|0:0|0:0,0:0:0:0:
338,233,25991,2,0,L|329:304,3,50
252,264,26230,5,0,0:0:0:0:
233,257,26289,1,0,0:0:0:0:
213,260,26349,1,0,0:0:0:0:
194,253,26408,1,0,0:0:0:0:
174,256,26468,1,0,0:0:0:0:
155,249,26527,1,0,0:0:0:0:
135,252,26587,1,0,0:0:0:0:
116,245,26646,1,0,0:0:0:0:
96,248,26706,5,6,0:0:0:0:
83,210,26765,1,6,0:0:0:0:
81,169,26825,1,6,0:0:0:0:
100,134,26884,1,6,0:0:0:0:
132,110,26944,1,6,0:0:0:0:
170,101,27003,1,6,0:0:0:0:
209,106,27063,1,6,0:0:0:0:
241,128,27122,1,6,0:0:0:0:
260,163,27182,6,0,P|256:193|249:241,1,50,6|6,0:0|0:0,0:0:0:0:
147,296,27301,2,0,P|150:272|154:247,1,50,6|6,0:0|0:0,0:0:0:0:
349,136,27420,2,0,L|330:297,1,150,10|0,0:1|0:0,0:0:0:0:
400,346,27658,5,6,0:0:0:0:
473,154,33372,6,0,P|431:145|382:103,1,75.0000028610231,6|0,0:0|0:0,0:0:0:0:
342,68,33551,1,0,0:0:0:0:
339,57,33611,1,0,0:0:0:0:
293,298,33730,2,0,P|347:248|420:249,1,150.000005722046,6|0,0:0|0:0,0:0:0:0:
381,331,34087,1,0,0:0:0:0:
234,96,34206,6,0,P|245:165|204:222,1,112.500004291535,6|0,0:0|0:0,0:0:0:0:
203,222,34444,1,2,0:0:0:0:
79,131,34563,2,0,L|154:142,1,75.0000028610231,6|0,0:0|0:0,0:0:0:0:
340,269,34801,6,0,L|277:278,1,50,6|0,0:0|0:0,0:0:0:0:
163,333,34920,2,0,L|226:342,1,50,6|6,0:0|0:0,0:0:0:0:
423,368,35039,1,6,0:0:0:0:
424,355,35099,1,6,0:0:0:0:
425,343,35158,1,6,0:0:0:0:
426,330,35218,1,6,0:0:0:0:
427,318,35277,6,0,P|423:251|404:129,1,150,6|0,0:0|0:0,0:0:0:0:
419,134,35515,1,0,0:0:0:0:
198,18,35634,2,0,P|243:-1|292:3,1,100,2|10,0:0|0:1,0:0:0:0:
293,166,35872,2,0,P|243:171|198:151,1,100,2|0,0:0|0:0,0:0:0:0:
446,47,36111,6,0,B|342:28|370:113|247:83,1,200,2|8,0:0|0:1,0:0:0:0:
76,33,36468,1,2,0:0:0:0:
119,222,36587,1,0,0:0:0:0:
154,114,36706,5,10,0:1:0:0:
33,137,36825,1,0,0:0:0:0:
235,194,36944,1,2,0:0:0:0:
184,2,37063,1,2,0:0:0:0:
119,222,37182,6,0,P|132:284|135:328,1,100,2|0,0:0|0:0,0:0:0:0:
134,320,37361,1,0,0:0:0:0:
134,320,37420,1,0,0:0:0:0:
42,280,37539,1,2,0:0:0:0:
228,304,37658,1,10,0:1:0:0:
157,136,37777,1,2,0:0:0:0:
147,118,38015,6,0,P|213:109|306:203,1,200,2|8,0:0|0:1,0:0:0:0:
100,220,38372,2,0,P|150:212|200:209,1,100,2|0,0:0|0:0,0:0:0:0:
486,95,38611,2,0,P|461:93|436:89,1,50,10|0,0:1|0:0,0:0:0:0:
321,42,38730,2,0,P|331:64|338:88,1,50
391,173,38849,1,2,0:0:0:0:
437,1,38968,1,2,0:0:0:0:
252,106,39087,6,0,P|203:100|124:86,1,100,6|0,0:0|0:0,0:0:0:0:
152,92,39265,1,0,0:0:0:0:
152,92,39325,1,0,0:0:0:0:
227,13,39444,1,2,0:0:0:0:
196,188,39563,1,10,0:1:0:0:
227,13,39682,2,0,P|297:20|354:130,1,200,2|2,0:0|0:0,0:0:0:0:
354,125,40158,5,8,0:1:0:0:
334,160,40218,1,0,0:0:0:0:
328,199,40277,1,2,0:0:0:0:
341,236,40337,1,0,0:0:0:0:
370,262,40396,2,0,P|420:258|482:244,1,100,0|10,0:0|0:1,0:0:0:0:
487,151,40634,1,0,0:0:0:0:
233,332,40753,5,2,0:0:0:0:
174,277,40833,1,2,0:0:0:0:
96,275,40912,1,2,0:0:0:0:
31,319,40991,6,0,P|-26:237|38:100,1,220.000006713867,6|2,0:0|0:0,0:0:0:0:
80,110,41309,1,2,0:0:0:0:
57,184,41388,1,2,0:0:0:0:
3,127,41468,5,6,0:0:0:0:
226,233,41587,1,6,0:0:0:0:
226,233,41825,6,0,P|286:146|392:149,1,220.000006713867,14|2,0:0|0:0,0:0:0:0:
355,269,42122,1,2,0:0:0:0:
328,290,42182,6,0,L|330:235,1,55.0000016784668,8|0,0:0|0:0,0:0:0:0:
333,54,42301,1,2,0:0:0:0:
392,149,42420,5,10,0:0:0:0:
352,161,42480,1,2,0:0:0:0:
313,161,42539,1,2,0:0:0:0:
276,145,42599,1,0,0:0:0:0:
250,120,42658,1,10,0:0:0:0:
233,90,42718,1,2,0:0:0:0:
229,58,42777,1,2,0:0:0:0:
233,29,42837,1,0,0:0:0:0:
252,0,42896,6,0,P|247:149|243:207,1,200,14|0,0:0|0:0,0:0:0:0:
52,338,43849,2,0,P|38:312|38:287,3,50
119,294,44325,2,0,P|160:285|256:343,1,150,2|0,0:0|0:0,0:0:0:0:
338,355,44801,6,0,B|364:335|398:337|398:337|360:289|356:244|372:194,1,200,2|8,0:0|0:0,0:0:0:0:
174,29,45753,2,0,B|148:49|114:47|114:47|152:95|156:140|140:190,1,200,2|8,0:0|0:0,0:0:0:0:
113,342,46468,1,0,0:0:0:0:
168,280,46587,2,0,L|208:291,1,25
218,303,46706,6,0,P|278:290|420:287,1,200,2|10,0:0|0:0,0:0:0:0:
451,255,47261,1,0,0:0:0:0:
461,209,47341,1,0,0:0:0:0:
447,164,47420,1,2,0:0:0:0:
426,122,47499,1,0,0:0:0:0:
423,75,47579,1,0,0:0:0:0:
445,34,47658,6,0,P|451:85|326:120,1,200,2|10,0:0|0:0,0:0:0:0:
306,218,48372,1,2,0:0:0:0:
217,174,48611,6,0,P|142:175|68:190,1,150,2|0,0:0|0:0,0:0:0:0:
26,258,49087,2,0,P|47:269|72:271,1,50,8|0,0:0|0:0,0:0:0:0:
68,111,49325,2,0,P|43:114|21:126,1,50
68,190,49563,6,0,L|115:186,3,37.5000014305115,2|0|0|0,0:1|0:0|0:0|0:0,0:0:0:0:
156,203,49801,2,0,L|203:199,3,37.5000014305115,2|0|0|0,0:1|0:0|0:0|0:0,0:0:0:0:
234,173,50039,2,0,L|281:169,3,37.5000014305115,2|0|0|0,0:1|0:0|0:0|0:0,0:0:0:0:
318,186,50277,5,2,0:2:0:0:
353,170,50337,1,2,0:2:0:0:
390,168,50396,1,2,0:2:0:0:
425,180,50456,1,2,0:2:0:0:
454,203,50515,6,0,L|447:94,1,100,6|0,0:0|0:0,0:0:0:0:
381,265,50753,1,8,0:0:0:0:
264,49,50872,6,0,L|256:148,1,100,6|0,0:0|0:0,0:0:0:0:
169,2,51111,1,8,0:0:0:0:
14,191,51230,6,0,P|108:177|170:250,1,200,6|8,0:0|0:0,0:0:0:0:
170,250,51527,1,8,0:0:0:0:
170,250,51587,6,0,P|129:281|79:275,1,100,6|0,0:0|0:0,0:0:0:0:
166,94,51825,1,8,0:0:0:0:
257,356,51944,6,0,P|261:308|271:257,1,100,6|0,0:0|0:0,0:0:0:0:
444,99,52182,2,0,P|453:148|458:197,1,100,6|2,0:0|0:0,0:0:0:0:
458,197,52361,1,2,0:0:0:0:
458,197,52420,6,0,P|406:208|336:221,1,100,6|0,0:0|0:0,0:0:0:0:
137,259,52658,1,8,0:0:0:0:
334,298,52777,6,0,P|281:287|235:279,1,100,6|0,0:0|0:0,0:0:0:0:
43,239,53015,1,8,0:0:0:0:
244,149,53134,6,0,P|194:159|145:167,1,100,6|0,0:0|0:0,0:0:0:0:
43,350,53372,1,8,0:0:0:0:
43,350,53432,1,8,0:0:0:0:
43,350,53491,6,0,P|102:332|233:394,1,200,6|8,0:0|0:0,0:0:0:0:
445,286,53849,2,0,P|386:304|255:242,1,200,6|6,0:0|0:0,0:0:0:0:
352,98,54206,1,2,0:0:0:0:
352,98,54265,1,2,0:0:0:0:
352,98,54325,6,0,P|359:148|365:198,1,100,6|0,0:0|0:0,0:0:0:0:
277,0,54563,1,8,0:0:0:0:
437,46,54682,2,0,B|323:32|367:117|228:95,1,200,6|0,0:0|0:0,0:0:0:0:
25,76,55039,5,2,0:0:0:0:
38,74,55099,1,2,0:0:0:0:
51,72,55158,1,2,0:0:0:0:
64,70,55218,1,2,0:0:0:0:
77,68,55277,2,0,P|59:175|45:271,1,200,6|8,0:0|0:0,0:0:0:0:
252,298,55634,1,6,0:0:0:0:
146,333,55753,2,0,L|160:229,1,100
374,197,55991,5,2,0:0:0:0:
361,199,56051,1,2,0:0:0:0:
349,202,56111,1,2,0:0:0:0:
337,204,56170,1,2,0:0:0:0:
325,207,56230,5,14,0:0:0:0:
282,139,56349,1,8,0:0:0:0:
299,60,56468,1,8,0:0:0:0:
366,18,56587,1,8,0:0:0:0:
445,35,56706,1,8,0:0:0:0:
488,102,56825,1,8,0:0:0:0:
471,181,56944,1,8,0:0:0:0:
403,224,57063,1,8,0:0:0:0:
325,207,57182,5,10,0:0:0:0:
366,18,57361,1,10,0:0:0:0:
471,181,57539,1,10,0:0:0:0:
437,203,57599,1,2,0:0:0:0:
403,224,57658,5,10,0:0:0:0:
299,60,57837,1,10,0:0:0:0:
488,102,58015,1,10,0:0:0:0:
409,128,58134,6,0,P|384:123|360:121,3,50,14|14|14|14,0:0|0:0|0:0|0:0,0:0:0:0:
376,22,58372,2,0,P|401:27|426:30,3,50,14|14|14|14,0:0|0:0|0:0|0:0,0:0:0:0:
299,60,58611,1,14,0:0:0:0:
264,64,58670,1,14,0:0:0:0:
233,80,58730,1,14,0:0:0:0:
212,108,58789,1,14,0:0:0:0:
204,142,58849,6,0,L|197:212,2,66.6666666666667,10|0|0,0:1|0:0|0:0,0:0:0:0:
111,80,59087,5,14,0:0:0:0:
126,111,59146,1,14,0:0:0:0:
129,146,59206,1,14,0:0:0:0:
123,180,59265,1,14,0:0:0:0:
103,209,59325,1,14,0:0:0:0:
89,241,59384,1,14,0:0:0:0:
93,275,59444,1,14,0:0:0:0:
115,301,59503,1,14,0:0:0:0:
149,305,59563,1,14,0:0:0:0:
180,290,59622,1,14,0:0:0:0:
208,269,59682,1,14,0:0:0:0:
242,262,59741,1,14,0:0:0:0:
277,266,59801,6,0,L|270:193,2,66.6666666666667,10|0|0,0:1|0:0|0:0,0:0:0:0:
376,88,60039,6,0,L|436:76,1,50,14|2,0:0|0:0,0:0:0:0:
416,160,60158,2,0,L|476:148,1,50,2|2,0:0|0:0,0:0:0:0:
259,80,60277,5,2,0:0:0:0:
230,60,60337,1,0,0:0:0:0:
196,57,60396,1,10,0:0:0:0:
163,67,60456,1,0,0:0:0:0:
136,88,60515,6,0,L|76:76,1,50,14|2,0:0|0:0,0:0:0:0:
96,160,60634,2,0,L|36:148,1,50,2|2,0:0|0:0,0:0:0:0:
149,282,60753,5,2,0:0:0:0:
178,262,60813,1,0,0:0:0:0:
212,259,60872,1,10,0:0:0:0:
245,269,60932,1,0,0:0:0:0:
267,295,60991,6,0,L|279:375,3,50,14|0|4|0,0:0|0:0|0:0|0:0,0:0:0:0:
340,243,61230,2,0,L|352:163,3,50,14|0|4|0,0:0|0:0|0:0|0:0,0:0:0:0:
432,295,61468,6,0,B|475:305|510:271|510:271|469:337,1,150,14|0,0:0|0:0,0:0:0:0:
447,215,61706,2,0,B|461:177|461:177|458:108|396:78,1,150,14|8,0:0|0:0,0:0:0:0:
296,53,61944,6,0,P|299:81|307:127,1,50,14|0,0:0|0:0,0:0:0:0:
231,214,62063,2,0,P|229:187|220:140,1,50,8|8,0:0|0:0,0:0:0:0:
161,95,62182,1,14,0:0:0:0:
146,93,62241,1,0,0:0:0:0:
130,91,62301,1,14,0:0:0:0:
114,89,62361,1,0,0:0:0:0:
99,87,62420,5,14,0:0:0:0:
424,204,62539,1,14,0:0:0:0:
115,318,62658,6,0,B|74:272|74:272|121:244|141:221|141:221|193:237|227:236|227:236|218:285|218:285|254:285|301:303|301:303|331:266|363:251|363:251|343:224|329:187|346:136|393:81|480:100|516:155|529:223|467:267,1,791.663495712266,14|0,0:0|0:0,0:0:0:0:
424,204,63849,5,14,0:0:0:0:
383,50,64027,1,10,0:0:0:0:
480,116,64206,2,0,L|416:124,1,41.6664997743298,2|2,0:0|0:0,0:0:0:0:
344,132,64325,2,0,L|199:109,2,124.999499322989,14|10|2,0:0|0:0|0:0,0:0:0:0:
344,132,64801,5,14,0:0:0:0:
108,188,64980,1,10,0:0:0:0:
215,71,65158,2,0,L|220:112,1,41.6664997743298,2|2,0:0|0:0,0:0:0:0:
232,221,65277,2,0,L|216:365,2,124.999499322989,14|10|2,0:0|0:0|0:0,0:0:0:0:
260,4,65753,6,0,L|304:12,3,41.6664997743298,6|0|0|0,0:0|0:0|0:0|0:0,0:0:0:0:
335,125,65991,2,0,L|343:81,3,41.6664997743298,6|0|0|0,0:0|0:0|0:0|0:0,0:0:0:0:
450,41,66230,2,0,L|406:33,3,41.6664997743298,6|0|0|0,0:0|0:0|0:0|0:0,0:0:0:0:
486,119,66468,5,6,0:0:0:0:
469,122,66527,1,0,0:0:0:0:
452,125,66587,1,0,0:0:0:0:
435,128,66646,1,0,0:0:0:0:
418,131,66706,5,6,0:0:0:0:
425,163,66765,1,0,0:0:0:0:
419,196,66825,1,0,0:0:0:0:
402,224,66884,1,0,0:0:0:0:
372,240,66944,1,6,0:0:0:0:
339,244,67003,1,0,0:0:0:0:
306,234,67063,1,0,0:0:0:0:
279,213,67122,1,0,0:0:0:0:
266,181,67182,6,0,P|238:192|212:194,3,41.6664997743298,6|0|0|0,0:0|0:0|0:0|0:0,0:0:0:0:
163,250,67420,2,0,P|142:246|123:237,3,41.6664997743298,6|0|0|0,0:0|0:0|0:0|0:0,0:0:0:0:
48,193,67658,6,0,L|41:144,1,41.6664997743298,6|0,0:0|0:0,0:0:0:0:
141,115,67777,2,0,L|134:164,1,41.6664997743298
30,270,67896,6,0,L|24:228,1,41.6664997743298,6|0,0:0|0:0,0:0:0:0:
121,46,68015,2,0,L|115:87,1,41.6664997743298
212,224,68134,5,6,0:0:0:0:
242,238,68194,1,0,0:0:0:0:
274,237,68253,1,0,0:0:0:0:
305,225,68313,1,0,0:0:0:0:
330,204,68372,2,0,P|350:208|371:210,3,41.6664997743298,6|0|0|0,0:0|0:0|0:0|0:0,0:0:0:0:
448,254,68611,6,0,L|441:318,1,41.6664997743298,6|0,0:0|0:0,0:0:0:0:
337,51,68730,2,0,L|330:-13,1,41.6664997743298
477,174,68849,6,0,L|484:238,1,41.6664997743298,6|0,0:0|0:0,0:0:0:0:
366,131,68968,2,0,L|373:67,1,41.6664997743298
471,39,69087,5,6,0:0:0:0:
463,92,69146,1,2,0:0:0:0:
420,126,69206,1,2,0:0:0:0:
366,131,69265,1,2,0:0:0:0:
315,110,69325,1,2,0:0:0:0:
267,84,69384,1,2,0:0:0:0:
213,93,69444,1,2,0:0:0:0:
184,138,69503,1,2,0:0:0:0:
195,191,69563,5,6,0:0:0:0:
256,192,69801,12,0,72361,0:0:0:0:
134,314,72420,5,6,0:0:0:0:
412,262,72539,1,6,0:0:0:0:
235,45,72658,1,6,0:0:0:0:
260,213,72896,6,0,L|252:167,3,41.6664997743298
137,221,73134,6,0,P|112:214|88:210,1,50,10|0,0:1|0:0,0:0:0:0:
374,162,73253,2,0,P|399:169|423:173,1,50
198,38,73372,6,0,B|247:6|247:6|321:91|242:184,1,239.999992675781,6|8,0:0|0:0,0:0:0:0:
17,307,73730,2,0,B|145:276|117:372|272:333,1,239.999992675781,2|8,0:0|0:0,0:0:0:0:
163,153,74087,6,0,P|112:157|112:222,1,119.999996337891,2|0,0:0|0:0,0:0:0:0:
240,282,74325,1,8,0:0:0:0:
163,153,74444,6,0,B|142:99|142:99|57:196|57:196|118:222,1,239.999992675781,2|8,0:0|0:0,0:0:0:0:
252,171,74801,2,0,P|252:141|263:82,1,59.9999981689454,2|0,0:0|0:0,0:0:0:0:
48,6,74920,2,0,P|48:36|37:95,1,59.9999981689454
185,234,75039,5,2,0:0:0:0:
183,263,75099,1,0,0:0:0:0:
181,293,75158,1,0,0:0:0:0:
179,323,75218,1,0,0:0:0:0:
177,353,75277,6,0,B|260:368|260:368|327:338|327:338|407:352,1,239.999992675781,2|8,0:0|0:0,0:0:0:0:
461,125,75634,2,0,B|393:62|393:62|370:152,1,179.999994506836,2|0,0:0|0:0,0:0:0:0:
420,210,75872,2,0,P|442:225|448:201,1,59.9999981689454,8|0,0:0|0:0,0:0:0:0:
474,7,75991,2,0,L|277:49,1,179.999994506836,2|0,0:0|0:0,0:0:0:0:
223,68,76230,5,8,0:0:0:0:
357,252,76349,2,0,B|389:214|389:214|371:146,1,119.999996337891,2|0,0:0|0:0,0:0:0:0:
297,44,76587,1,8,0:0:0:0:
499,106,76706,6,0,P|469:103|440:95,1,59.9999981689454,2|0,0:0|0:0,0:0:0:0:
238,180,76825,2,0,P|267:182|296:190,1,59.9999981689454
497,303,76944,1,2,0:0:0:0:
468,294,77003,1,0,0:0:0:0:
438,299,77063,1,0,0:0:0:0:
412,314,77122,1,0,0:0:0:0:
397,340,77182,6,0,L|242:326,1,119.999996337891,6|0,0:0|0:0,0:0:0:0:
82,311,77420,1,8,0:0:0:0:
231,239,77539,2,0,B|194:230|164:197|164:197|186:390,1,239.999992675781,2|8,0:0|0:0,0:0:0:0:
243,141,77896,6,0,L|255:20,1,119.999996337891,2|0,0:0|0:0,0:0:0:0:
82,311,78134,1,8,0:0:0:0:
82,311,78194,1,0,0:0:0:0:
82,311,78253,6,0,B|90:223|90:223|50:162|50:162|58:65,1,239.999992675781,2|8,0:0|0:0,0:0:0:0:
298,88,78611,1,2,0:0:0:0:
141,141,78730,1,0,0:0:0:0:
317,4,78849,1,2,0:0:0:0:
356,24,78908,1,0,0:0:0:0:
381,61,78968,1,0,0:0:0:0:
384,105,79027,1,0,0:0:0:0:
365,145,79087,5,2,0:0:0:0:
387,163,79146,1,0,0:0:0:0:
398,191,79206,1,0,0:0:0:0:
400,220,79265,1,0,0:0:0:0:
390,248,79325,1,8,0:0:0:0:
370,270,79384,1,0,0:0:0:0:
342,281,79444,2,0,P|312:286|285:274,1,59.9999981689454,2|0,0:0|0:0,0:0:0:0:
251,181,79563,5,0,0:0:0:0:
245,198,79622,1,0,0:0:0:0:
233,212,79682,1,8,0:0:0:0:
217,220,79741,1,0,0:0:0:0:
199,224,79801,1,2,0:0:0:0:
180,223,79861,1,0,0:0:0:0:
164,216,79920,2,0,P|145:192|138:163,1,59.9999981689454
182,94,80039,5,8,0:0:0:0:
211,305,80158,2,0,B|184:249|108:255|108:255|160:308|143:369,1,239.999992675781,2|8,0:0|0:0,0:0:0:0:
1,324,80515,6,0,P|32:326|61:333,1,59.9999981689454,2|0,0:0|0:0,0:0:0:0:
290,186,80634,2,0,P|259:187|230:194,1,59.9999981689454,8|8,0:0|0:0,0:0:0:0:
0,47,80753,1,10,0:0:0:0:
56,53,80813,1,8,0:0:0:0:
111,60,80872,1,8,0:0:0:0:
168,66,80932,1,8,0:0:0:0:
224,72,80991,5,14,0:1:0:0:
285,274,81111,1,0,0:0:0:0:
137,157,81230,1,2,0:0:0:0:
352,87,81349,5,0,0:0:0:0:
204,365,81468,2,0,P|145:341|80:344,1,119.999996337891,2|0,0:0|0:0,0:0:0:0:
322,183,81706,2,0,P|376:252|361:338,1,179.999994506836,2|0,0:0|0:0,0:0:0:0:
361,338,81944,5,2,0:0:0:0:
226,263,82063,2,0,P|255:263|284:273,1,59.9999981689454
352,87,82182,2,0,B|255:64|272:152|157:115,1,179.999994506836,2|0,0:0|0:0,0:0:0:0:
109,87,82420,5,2,0:0:0:0:
158,354,82539,1,0,0:0:0:0:
71,162,82658,6,0,P|70:192|68:222,1,59.9999981689454,2|0,0:0|0:0,0:0:0:0:
196,278,82777,2,0,P|196:248|198:218,1,59.9999981689454
260,33,82896,5,6,0:0:0:0:
481,152,83015,1,0,0:0:0:0:
290,261,83134,1,2,0:0:0:0:
352,87,83253,5,0,0:0:0:0:
393,184,83372,1,2,0:0:0:0:
293,173,83491,1,0,0:0:0:0:
452,0,83611,6,0,P|443:32|441:56,1,59.9999981689454,2|0,0:0|0:0,0:0:0:0:
456,258,83730,2,0,P|488:210|481:151,1,119.999996337891,0|2,0:0|0:0,0:0:0:0:
210,180,83968,5,0,0:0:0:0:
210,180,84027,1,0,0:0:0:0:
210,180,84087,2,0,L|329:196,1,119.999996337891,2|0,0:0|0:0,0:0:0:0:
149,345,84325,1,2,0:0:0:0:
107,93,84444,1,2,0:0:0:0:
290,293,84563,2,0,L|230:285,1,59.9999981689454,2|0,0:0|0:0,0:0:0:0:
90,267,84682,2,0,L|30:259,1,59.9999981689454,2|2,0:0|0:0,0:0:0:0:
207,87,84801,5,14,0:0:0:0:
241,379,84920,1,0,0:0:0:0:
158,176,85039,1,10,0:0:0:0:
343,119,85158,5,0,0:0:0:0:
375,350,85277,1,10,0:0:0:0:
286,196,85396,1,0,0:0:0:0:
478,147,85515,5,10,0:0:0:0:
507,320,85634,1,0,0:0:0:0:
492,309,85694,1,0,0:0:0:0:
482,293,85753,6,0,L|490:208,1,59.9999981689454,14|0,0:0|0:0,0:0:0:0:
381,45,85872,2,0,B|406:85|406:85|393:167,1,119.999996337891,0|10,0:0|0:0,0:0:0:0:
295,354,86111,1,0,0:0:0:0:
107,130,86230,5,14,0:0:0:0:
392,282,86349,1,14,0:0:0:0:
101,364,86468,6,0,P|99:330|91:285,1,59.9999981689454,2|2,0:0|0:0,0:0:0:0:
208,182,86587,2,0,P|210:216|218:261,1,59.9999981689454,2|2,0:0|0:0,0:0:0:0:
18,343,86706,5,14,0:0:0:0:
0,301,86765,1,2,0:0:0:0:
10,253,86825,1,2,0:0:0:0:
41,217,86884,1,2,0:0:0:0:
77,184,86944,1,14,0:0:0:0:
89,138,87003,1,2,0:0:0:0:
73,92,87063,1,2,0:0:0:0:
26,83,87122,1,2,0:0:0:0:
0,110,87182,5,14,0:0:0:0:
44,125,87241,1,2,0:0:0:0:
92,119,87301,1,2,0:0:0:0:
131,90,87361,1,2,0:0:0:0:
152,47,87420,5,14,0:0:0:0:
185,32,87480,1,2,0:0:0:0:
220,34,87539,1,2,0:0:0:0:
250,54,87599,1,2,0:0:0:0:
271,82,87658,6,0,P|292:63|302:34,1,59.9999981689454,2|2,0:1|0:1,0:0:0:0:
379,1,87777,2,0,P|385:16|387:30,6,29.9999990844727,2|2|2|2|2|2|2,0:1|0:1|0:1|0:1|0:1|0:1|0:1,0:0:0:0:
360,106,88015,2,0,P|381:125|391:154,1,59.9999981689454,2|2,0:1|0:1,0:0:0:0:
472,190,88134,6,0,P|477:177|479:162,2,29.9999990844727,2|2|2,0:1|0:1|0:1,0:0:0:0:
360,320,88253,2,0,P|366:335|368:349,2,29.9999990844727,2|2|2,0:1|0:1|0:1,0:0:0:0:
413,254,88372,5,2,0:1:0:0:
355,234,88432,1,2,0:1:0:0:
300,258,88491,1,2,0:1:0:0:
275,313,88551,1,2,0:1:0:0:
289,371,88611,5,14,0:0:0:0:
77,223,88730,2,0,P|159:202|211:269,1,179.999994506836,14|0,0:0|0:0,0:0:0:0:
134,276,88968,5,14,0:0:0:0:
193,36,89087,2,0,P|238:108|190:178,1,179.999994506836,14|0,0:0|0:0,0:0:0:0:
160,106,89325,5,14,0:0:0:0:
406,88,89444,2,0,P|351:153|269:129,1,179.999994506836,14|0,0:0|0:0,0:0:0:0:
329,78,89682,5,14,0:0:0:0:
422,306,89801,2,0,P|343:274|340:189,1,179.999994506836,14|0,0:0|0:0,0:0:0:0:
407,229,90039,6,0,B|349:241|349:241|311:288|311:288|251:298,1,179.999994506836,14|0,0:0|0:0,0:0:0:0:
105,330,90277,1,14,0:0:0:0:
109,292,90337,1,2,0:0:0:0:
114,255,90396,1,2,0:0:0:0:
118,218,90456,1,2,0:0:0:0:
123,181,90515,5,6,0:0:0:0:
401,345,90634,1,2,0:0:0:0:
105,330,90753,1,2,0:0:0:0:
395,190,90872,1,2,0:0:0:0:
204,77,90991,6,0,P|214:125|218:175,1,100,2|2,0:0|0:0,0:0:0:0:
205,287,91230,1,2,0:0:0:0:
299,255,91349,1,2,0:0:0:0:
384,312,91468,6,0,P|433:303|482:305,1,100,2|2,0:0|0:0,0:0:0:0:
348,175,91706,1,2,0:0:0:0:
498,200,91825,2,0,P|444:200|374:78,1,200,2|2,0:0|0:0,0:0:0:0:
474,7,92182,2,0,L|465:107,1,100,2|2,0:0|0:0,0:0:0:0:
229,291,92420,5,2,0:0:0:0:
201,67,92539,1,2,0:0:0:0:
290,218,92658,1,2,0:0:0:0:
135,143,92777,2,0,P|88:160|38:161,1,100,2|2,0:0|0:0,0:0:0:0:
321,310,93015,1,2,0:0:0:0:
321,310,93075,1,0,0:0:0:0:
321,310,93134,2,0,P|367:293|417:292,1,100,2|2,0:0|0:0,0:0:0:0:
454,298,93313,1,2,0:0:0:0:
485,289,93372,6,0,L|491:178,1,100,2|2,0:0|0:0,0:0:0:0:
290,37,93611,1,2,0:0:0:0:
397,195,93730,1,2,0:0:0:0:
468,38,93849,5,2,0:0:0:0:
439,31,93908,1,0,0:0:0:0:
409,37,93968,1,2,0:0:0:0:
383,52,94027,1,0,0:0:0:0:
364,76,94087,1,2,0:0:0:0:
345,100,94146,1,0,0:0:0:0:
319,115,94206,1,2,0:0:0:0:
289,121,94265,1,2,0:0:0:0:
260,113,94325,6,0,P|210:122|160:124,1,100,6|2,0:0|0:0,0:0:0:0:
93,299,94563,1,2,0:0:0:0:
34,172,94682,2,0,P|130:157|213:209,1,200,2|2,0:0|0:0,0:0:0:0:
190,360,95039,2,0,P|189:333|184:310,1,50,2|0,0:0|0:0,0:0:0:0:
310,198,95158,2,0,P|311:222|316:247,1,50,2|0,0:0|0:0,0:0:0:0:
347,361,95277,5,2,0:0:0:0:
93,299,95396,1,2,0:0:0:0:
329,178,95515,1,2,0:0:0:0:
80,100,95634,1,2,0:0:0:0:
214,322,95753,5,2,0:0:0:0:
184,272,95833,1,2,0:0:0:0:
197,215,95912,1,2,0:0:0:0:
232,169,95991,5,2,0:0:0:0:
258,117,96071,1,2,0:0:0:0:
241,61,96150,1,2,0:0:0:0:
190,30,96230,6,0,P|165:28|140:25,3,50,6|0|2|0,0:0|0:0|0:0|0:0,0:0:0:0:
30,95,96468,2,0,P|54:96|79:99,3,50,2|0|2|0,0:0|0:0|0:0|0:0,0:0:0:0:
154,151,96706,2,0,L|170:272,1,100,6|2,0:0|0:0,0:0:0:0:
153,287,96884,1,0,0:0:0:0:
189,270,96944,1,2,0:0:0:0:
226,281,97003,1,0,0:0:0:0:
262,298,97063,1,2,0:0:0:0:
301,301,97122,1,0,0:0:0:0:
338,285,97182,6,0,P|361:277|386:277,1,50,6|0,0:0|0:0,0:0:0:0:
430,211,97301,1,2,0:1:0:0:
430,211,97361,2,0,P|440:218|448:227,2,25,2|0|2,0:1|0:0|0:1,0:0:0:0:
468,362,97539,6,0,P|468:337|458:315,1,50,2|2,0:1|0:1,0:0:0:0:
346,202,97658,1,6,0:0:0:0:
357,163,97718,1,2,0:0:0:0:
387,136,97777,1,2,0:0:0:0:
425,126,97837,1,2,0:0:0:0:
464,132,97896,2,0,L|471:76,3,50,6|2|2|2,0:1|0:1|0:0|0:0,0:0:0:0:
387,19,98134,6,0,L|325:27,1,62.5,6|2,0:0|0:0,0:0:0:0:
375,98,98253,2,0,L|313:106,3,62.5,6|2|2|2,0:0|0:0|0:0|0:0,0:0:0:0:
125,19,98491,6,0,L|187:27,1,62.5,6|2,0:0|0:0,0:0:0:0:
137,98,98611,2,0,L|199:106,3,62.5,6|2|2|2,0:0|0:0|0:0|0:0,0:0:0:0:
308,193,98849,6,0,L|298:279,1,62.5,6|2,0:0|0:0,0:0:0:0:
211,255,98968,2,0,L|204:193,1,62.5,6|2,0:0|0:0,0:0:0:0:
433,163,99087,6,0,P|442:192|441:223,1,62.5,6|2,0:0|0:0,0:0:0:0:
266,82,99206,2,0,P|275:52|295:28,1,62.5,6|2,0:0|0:0,0:0:0:0:
353,245,99325,2,0,P|327:262|297:271,1,62.5,6|2,0:0|0:0,0:0:0:0:
379,62,99444,2,0,P|410:62|439:73,3,62.5,6|2|2|2,0:0|0:0|0:0|0:0,0:0:0:0:
250,195,99682,6,0,P|225:176|207:150,1,62.5,6|2,0:0|0:0,0:0:0:0:
252,22,99801,2,0,P|264:48|249:118,3,62.5,6|2|2|2,0:0|0:0|0:0|0:0,0:0:0:0:
69,122,100039,6,0,P|56:93|55:62,3,62.5,6|2|2|2,0:0|0:0|0:0|0:0,0:0:0:0:
161,12,100277,2,0,P|148:40|148:71,1,62.5,6|2,0:0|0:0,0:0:0:0:
69,262,100396,6,0,P|56:290|55:321,3,62.5,6|2|2|2,0:0|0:0|0:0|0:0,0:0:0:0:
181,378,100634,1,6,0:0:0:0:
170,376,100694,1,2,0:0:0:0:
161,371,100753,2,0,P|148:343|148:312,3,62.5,6|2|2|2,0:0|0:0|0:0|0:0,0:0:0:0:
224,247,100991,6,0,L|307:261,1,62.5,6|2,0:0|0:0,0:0:0:0:
384,223,101111,2,0,L|301:237,1,62.5,6|2,0:0|0:0,0:0:0:0:
198,163,101230,6,0,L|281:177,1,62.5,6|2,0:0|0:0,0:0:0:0:
394,126,101349,2,0,L|311:140,1,62.5,6|2,0:0|0:0,0:0:0:0:
248,88,101468,5,6,0:0:0:0:
205,80,101527,1,2,0:0:0:0:
161,71,101587,1,6,0:0:0:0:
118,63,101646,1,2,0:0:0:0:
74,56,101706,2,0,L|85:125,3,62.5,6|2|6|2,0:0|0:0|0:0|0:0,0:0:0:0:
129,184,101944,5,14,0:0:0:0:
361,274,102063,1,2,0:0:0:0:
108,311,102182,1,2,0:0:0:0:
303,164,102301,5,14,0:0:0:0:
94,320,102420,1,2,0:0:0:0:
373,280,102539,1,2,0:0:0:0:
209,124,102658,5,14,0:0:0:0:
334,347,102777,1,2,0:0:0:0:
391,103,102896,1,2,0:0:0:0:
232,380,103015,5,14,0:0:0:0:
304,152,103134,1,2,0:0:0:0:
442,355,103253,1,2,0:0:0:0:
209,124,103372,5,2,0:0:0:0:
198,99,103432,1,2,0:0:0:0:
202,75,103491,1,2,0:0:0:0:
219,53,103551,1,2,0:0:0:0:
242,45,103611,1,2,0:0:0:0:
266,45,103670,1,2,0:0:0:0:
286,60,103730,1,2,0:0:0:0:
297,82,103789,1,2,0:0:0:0:
293,108,103849,5,14,0:0:0:0:
44,144,103968,1,2,0:0:0:0:
263,249,104087,1,2,0:0:0:0:
216,245,104146,1,2,0:0:0:0:
169,241,104206,1,10,0:0:0:0:
122,238,104265,1,2,0:0:0:0:
76,234,104325,1,2,0:0:0:0:
289,375,104444,1,10,0:0:0:0:
36,316,104563,1,2,0:0:0:0:
346,198,104682,6,0,P|358:226|357:257,1,62.5,10|0,0:0|0:0,0:0:0:0:
179,300,104801,2,0,P|167:271|168:240,1,62.5,14|0,0:0|0:0,0:0:0:0:
263,249,104920,6,0,L|270:289,4,31.25,2|2|2|2|14,0:1|0:1|0:1|0:1|0:0,0:0:0:0:
229,77,105158,2,0,L|222:37,4,31.25,2|2|2|2|14,0:1|0:1|0:1|0:1|0:0,0:0:0:0:
265,101,105337,1,2,0:0:0:0:
308,102,105396,1,2,0:0:0:0:
347,81,105456,1,2,0:0:0:0:
388,68,105515,1,6,0:1:0:0:
431,75,105575,1,2,0:1:0:0:
458,108,105634,1,2,0:0:0:0:
462,151,105694,1,2,0:0:0:0:
441,189,105753,5,14,0:0:0:0:
310,9,105872,1,2,0:0:0:0:
159,156,105991,1,2,0:0:0:0:
290,336,106111,5,14,0:0:0:0:
259,168,106230,1,2,0:0:0:0:
228,0,106349,1,2,0:0:0:0:
185,259,106468,5,14,0:0:0:0:
351,174,106587,1,2,0:0:0:0:
159,156,106706,1,2,0:0:0:0:
403,266,106825,5,14,0:0:0:0:
99,232,106944,1,2,0:0:0:0:
356,58,107063,1,2,0:0:0:0:
99,232,107182,5,2,0:0:0:0:
69,199,107241,1,2,0:0:0:0:
58,156,107301,1,2,0:0:0:0:
67,112,107361,1,2,0:0:0:0:
92,76,107420,1,2,0:0:0:0:
132,58,107480,1,2,0:0:0:0:
175,56,107539,1,2,0:0:0:0:
215,74,107599,1,2,0:0:0:0:
244,105,107658,6,0,P|242:136|236:167,1,62.5,14|0,0:0|0:0,0:0:0:0:
309,279,107777,2,0,P|340:281|371:286,1,62.5,2|0,0:0|0:0,0:0:0:0:
470,193,107896,2,0,P|472:162|477:132,1,62.5,2|0,0:0|0:0,0:0:0:0:
404,19,108015,2,0,P|373:17|343:12,1,62.5,10|0,0:0|0:0,0:0:0:0:
205,179,108134,6,0,L|143:188,1,62.5,2|0,0:0|0:0,0:0:0:0:
109,116,108253,2,0,L|170:106,1,62.5,10|0,0:0|0:0,0:0:0:0:
307,179,108372,2,0,L|400:194,1,62.5,2|0,0:0|0:0,0:0:0:0:
401,116,108491,2,0,L|308:101,1,62.5,10|0,0:0|0:0,0:0:0:0:
256,83,108611,5,14,0:0:0:0:
196,268,108730,2,0,L|180:316,4,31.25,2|2|2|2|14,0:1|0:1|0:1|0:1|0:0,0:0:0:0:
316,268,108968,2,0,L|332:316,4,31.25,2|2|2|2|14,0:1|0:1|0:1|0:1|0:0,0:0:0:0:
332,228,109146,1,2,0:0:0:0:
368,204,109206,1,2,0:0:0:0:
412,200,109265,1,2,0:0:0:0:
452,216,109325,5,14,0:1:0:0:
394,230,109384,1,2,0:1:0:0:
332,228,109444,1,2,0:0:0:0:
280,193,109503,1,2,0:0:0:0:
259,133,109563,6,0,L|268:46,1,87.5,14|0,0:0|0:0,0:0:0:0:
248,30,110039,5,2,0:0:0:0:
236,28,110099,1,2,0:0:0:0:
223,26,110158,1,2,0:0:0:0:
210,24,110218,1,2,0:0:0:0:
171,37,110277,5,2,0:0:0:0:
158,35,110337,1,2,0:0:0:0:
145,33,110396,1,2,0:0:0:0:
132,31,110456,1,2,0:0:0:0:
93,44,110515,5,2,0:0:0:0:
80,42,110575,1,2,0:0:0:0:
67,40,110634,1,2,0:0:0:0:
54,38,110694,1,2,0:0:0:0:
15,51,110753,6,0,P|22:85|27:124,3,62.5,2|2|2|2,0:0|0:0|0:0|0:0,0:0:0:0:
138,226,110991,2,0,P|132:195|128:165,3,62.5,2|2|2|2,0:0|0:0|0:0|0:0,0:0:0:0:
235,117,111230,5,2,0:0:0:0:
282,102,111289,1,2,0:0:0:0:
331,108,111349,1,2,0:0:0:0:
372,134,111408,1,2,0:0:0:0:
395,178,111468,6,0,L|388:244,7,62.5,2|2|2|2|2|2|2|2,0:0|0:0|0:0|0:0|0:0|0:0|0:0|0:0,0:0:0:0:
256,310,111944,2,0,L|249:244,7,62.5,2|2|2|2|2|2|2|2,0:0|0:0|0:0|0:0|0:0|0:0|0:0|0:0,0:0:0:0:
122,149,112420,5,2,0:0:0:0:
71,152,112480,1,2,0:0:0:0:
30,180,112539,1,2,0:0:0:0:
14,227,112599,1,2,0:0:0:0:
26,274,112658,1,2,0:0:0:0:
64,306,112718,1,2,0:0:0:0:
113,307,112777,1,2,0:0:0:0:
157,284,112837,1,2,0:0:0:0:
181,240,112896,6,0,L|174:191,1,37.5000014305115,2|2,0:1|0:1,0:0:0:0:
208,236,112956,2,0,L|201:187,1,37.5000014305115,2|2,0:1|0:1,0:0:0:0:
235,232,113015,2,0,L|228:183,1,37.5000014305115,2|2,0:1|0:1,0:0:0:0:
262,228,113075,2,0,L|255:179,1,37.5000014305115,2|2,0:1|0:1,0:0:0:0:
299,248,113134,6,0,L|296:290,1,25,2|2,0:1|0:1,0:0:0:0:
324,250,113194,2,0,L|321:292,1,25,2|2,0:1|0:1,0:0:0:0:
349,252,113253,2,0,L|346:294,1,25,2|2,0:1|0:1,0:0:0:0:
374,254,113313,2,0,L|371:296,1,25,2|2,0:1|0:1,0:0:0:0:
406,244,113372,5,14,0:0:0:0:
326,24,113491,1,14,0:0:0:0:
479,157,113611,5,2,0:0:0:0:
449,129,113670,1,2,0:0:0:0:
412,115,113730,1,2,0:0:0:0:
371,120,113789,1,2,0:0:0:0:
337,142,113849,5,14,0:0:0:0:
254,363,113968,1,14,0:0:0:0:
399,223,114087,5,2,0:0:0:0:
365,245,114146,1,2,0:0:0:0:
324,250,114206,1,2,0:0:0:0:
287,236,114265,1,2,0:0:0:0:
257,208,114325,5,14,0:0:0:0:
214,66,114444,1,2,0:0:0:0:
211,82,114503,1,2,0:0:0:0:
208,98,114563,1,14,0:0:0:0:
135,274,114682,1,2,0:0:0:0:
132,258,114741,1,2,0:0:0:0:
129,242,114801,6,0,L|120:183,1,50,14|8,0:0|0:0,0:0:0:0:
214,66,114920,2,0,L|263:58,1,50,10|8,0:0|0:0,0:0:0:0:
390,151,115039,2,0,L|397:200,1,50,14|8,0:0|0:0,0:0:0:0:
305,327,115158,2,0,L|255:334,1,50,10|8,0:0|0:0,0:0:0:0:
137,44,115277,5,14,0:0:0:0:
379,62,115396,1,14,0:0:0:0:
379,29,115634,5,14,0:0:0:0:
140,60,115753,1,14,0:0:0:0:
114,360,115991,5,14,0:0:0:0:
393,323,116111,1,14,0:0:0:0:
391,344,116349,5,14,0:0:0:0:
107,310,116468,1,14,0:0:0:0:
402,236,116587,1,14,0:0:0:0:
89,196,116706,1,14,0:0:0:0:
414,126,116825,1,14,0:0:0:0:
75,77,116944,1,14,0:0:0:0:
424,18,117063,1,8,0:0:0:0:
256,192,117420,5,6,0:0:0:0:
256,192,117480,12,0,119027,0:0:0:0:
247,14,119087,5,6,0:0:0:0:
266,360,119206,1,6,0:0:0:0:
