osu file format v14

[General]
AudioFilename: audio.mp3
AudioLeadIn: 0
PreviewTime: 73241
Countdown: 0
SampleSet: Soft
StackLeniency: 0.2
Mode: 3
LetterboxInBreaks: 0
SpecialStyle: 0
WidescreenStoryboard: 0

[Editor]
DistanceSpacing: 0.6
BeatDivisor: 4
GridSize: 4
TimelineZoom: 1.399999

[Metadata]
Title:Last Resort
TitleUnicode:Last Resort
Artist:xi
ArtistUnicode:xi
Creator:Kroytz
Version:Streamy's EXHAUST
Source:SOUND VOLTEX IV HEAVENLY HAVEN
Tags:The 7th Konami Arcade Championship Original Song Contest Winner Bemani KAC SDVX Video Rhythm Game Instrumental DJPop SnowNiNo_ C00l Cool 1112deng Suzuki_1112 Otosaka-Yu Elsa Valentine xLolicore- Realazy toybot vikala R3m AncuL Murumoo Tails Reba Wonki Blasticide Lolicide bsc _Streamy_ jakads
BeatmapID:1679796
BeatmapSetID:800102

[Difficulty]
HPDrainRate:7.7
CircleSize:7
OverallDifficulty:7.7
ApproachRate:10
SliderMultiplier:2.22
SliderTickRate:1

[Events]
//Background and Video events
0,0,"BG2.jpg",0,0
//Break Periods
//Storyboard Layer 0 (Background)
//Storyboard Layer 1 (Fail)
//Storyboard Layer 2 (Pass)
//Storyboard Layer 3 (Foreground)
//Storyboard Layer 4 (Overlay)
//Storyboard Sound Samples
Sample,9551,0,"soft-hitclap31.wav",70
Sample,11456,0,"soft-hitclap31.wav",70
Sample,11932,0,"soft-hitclap31.wav",70
Sample,12408,0,"soft-hitclap31.wav",70
Sample,20027,0,"soft-hitclap31.wav",70
Sample,22289,0,"soft-hitwhistle31.wav",70
Sample,25503,0,"soft-hitwhistle31.wav",70
Sample,25741,0,"soft-hitclap31.wav",70
Sample,26753,0,"soft-hitwhistle31.wav",70
Sample,26813,0,"soft-hitfinish33.wav",70
Sample,26872,0,"soft-hitwhistle31.wav",70
Sample,26932,0,"soft-hitfinish33.wav",70
Sample,26991,0,"soft-hitwhistle31.wav",70
Sample,27051,0,"soft-hitfinish33.wav",70
Sample,27110,0,"soft-hitwhistle31.wav",70
Sample,27170,0,"soft-hitfinish33.wav",70
Sample,27229,0,"soft-hitwhistle31.wav",70
Sample,27289,0,"soft-hitfinish33.wav",70
Sample,27349,0,"soft-hitwhistle31.wav",70
Sample,35027,0,"soft-hitfinish33.wav",70
Sample,35206,0,"soft-hitwhistle31.wav",70
Sample,36694,0,"soft-hitclap35.wav",70
Sample,38599,0,"soft-hitclap35.wav",70
Sample,38599,0,"soft-hitclap31.wav",70
Sample,40503,0,"soft-hitclap35.wav",70
Sample,41813,0,"soft-hitclap31.wav",70
Sample,50503,0,"soft-hitfinish31.wav",70
Sample,58122,0,"soft-hitclap31.wav",70
Sample,58182,0,"soft-hitwhistle31.wav",70
Sample,58182,0,"soft-hitfinish33.wav",70
Sample,58241,0,"soft-hitclap31.wav",70
Sample,58241,0,"soft-hitfinish33.wav",70
Sample,58301,0,"soft-hitwhistle31.wav",70
Sample,58301,0,"soft-hitfinish33.wav",70
Sample,58360,0,"soft-hitclap31.wav",70
Sample,58360,0,"soft-hitfinish33.wav",70
Sample,58420,0,"soft-hitwhistle31.wav",70
Sample,58420,0,"soft-hitfinish33.wav",70
Sample,58479,0,"soft-hitclap31.wav",70
Sample,58479,0,"soft-hitfinish33.wav",70
Sample,58539,0,"soft-hitwhistle31.wav",70
Sample,58539,0,"soft-hitfinish33.wav",70
Sample,58599,0,"soft-hitclap31.wav",70
Sample,58599,0,"soft-hitfinish33.wav",70
Sample,58658,0,"soft-hitwhistle31.wav",70
Sample,58658,0,"soft-hitfinish33.wav",70
Sample,58718,0,"soft-hitclap31.wav",70
Sample,58718,0,"soft-hitfinish33.wav",70
Sample,58777,0,"soft-hitwhistle31.wav",70
Sample,58777,0,"soft-hitfinish33.wav",70
Sample,59075,0,"soft-hitwhistle31.wav",70
Sample,59075,0,"soft-hitfinish33.wav",70
Sample,59134,0,"soft-hitclap31.wav",70
Sample,59134,0,"soft-hitfinish33.wav",70
Sample,59194,0,"soft-hitwhistle31.wav",70
Sample,59194,0,"soft-hitfinish33.wav",70
Sample,59253,0,"soft-hitclap31.wav",70
Sample,59253,0,"soft-hitfinish33.wav",70
Sample,59313,0,"soft-hitwhistle31.wav",70
Sample,59313,0,"soft-hitfinish33.wav",70
Sample,59372,0,"soft-hitclap31.wav",70
Sample,59372,0,"soft-hitfinish33.wav",70
Sample,59432,0,"soft-hitwhistle31.wav",70
Sample,59432,0,"soft-hitfinish33.wav",70
Sample,59491,0,"soft-hitclap31.wav",70
Sample,59491,0,"soft-hitfinish33.wav",70
Sample,59551,0,"soft-hitwhistle31.wav",70
Sample,59551,0,"soft-hitfinish33.wav",70
Sample,59610,0,"soft-hitclap31.wav",70
Sample,59610,0,"soft-hitfinish33.wav",70
Sample,59670,0,"soft-hitwhistle31.wav",70
Sample,59670,0,"soft-hitfinish33.wav",70
Sample,59729,0,"soft-hitclap31.wav",70
Sample,59729,0,"soft-hitfinish33.wav",70
Sample,60027,0,"soft-hitclap31.wav",70
Sample,60087,0,"soft-hitclap31.wav",70
Sample,60206,0,"soft-hitclap31.wav",70
Sample,60265,0,"soft-hitclap31.wav",70
Sample,60503,0,"soft-hitclap31.wav",70
Sample,60563,0,"soft-hitclap31.wav",70
Sample,60622,0,"soft-hitclap31.wav",70
Sample,60860,0,"soft-hitclap31.wav",70
Sample,60979,0,"soft-hitclap31.wav",70
Sample,61218,0,"soft-hitclap31.wav",70
Sample,61456,0,"soft-hitclap31.wav",70
Sample,61694,0,"soft-hitclap31.wav",70
Sample,61932,0,"soft-hitclap31.wav",70
Sample,62170,0,"soft-hitclap31.wav",70
Sample,62289,0,"soft-hitclap31.wav",70
Sample,62527,0,"soft-hitclap31.wav",70
Sample,63837,0,"soft-hitwhistle31.wav",70
Sample,64015,0,"soft-hitwhistle31.wav",70
Sample,64313,0,"soft-hitwhistle31.wav",70
Sample,64491,0,"soft-hitwhistle31.wav",70
Sample,64789,0,"soft-hitclap31.wav",70
Sample,64968,0,"soft-hitclap31.wav",70
Sample,65265,0,"soft-hitclap31.wav",70
Sample,65444,0,"soft-hitclap31.wav",70
Sample,69134,0,"soft-hitclap31.wav",70
Sample,69194,0,"soft-hitclap31.wav",70
Sample,69253,0,"soft-hitclap31.wav",70
Sample,69313,0,"soft-hitfinish32.wav",70
Sample,69313,0,"soft-hitclap31.wav",70
Sample,69372,0,"soft-hitclap31.wav",70
Sample,69432,0,"soft-hitclap31.wav",70
Sample,69491,0,"soft-hitclap31.wav",70
Sample,69551,0,"soft-hitclap31.wav",70
Sample,84789,0,"soft-hitclap31.wav",70
Sample,86218,0,"soft-hitclap31.wav",70
Sample,86337,0,"soft-hitfinish32.wav",70
Sample,86337,0,"soft-hitclap31.wav",70
Sample,86932,0,"soft-hitfinish34.wav",70
Sample,87170,0,"soft-hitfinish34.wav",70
Sample,87408,0,"soft-hitfinish34.wav",70
Sample,90265,0,"soft-hitclap35.wav",70
Sample,97408,0,"soft-hitwhistle31.wav",70
Sample,98182,0,"soft-hitfinish34.wav",70
Sample,98241,0,"soft-hitfinish34.wav",70
Sample,98301,0,"soft-hitfinish34.wav",70
Sample,98360,0,"soft-hitfinish34.wav",70
Sample,98420,0,"soft-hitfinish34.wav",70
Sample,98479,0,"soft-hitfinish34.wav",70
Sample,98539,0,"soft-hitwhistle31.wav",70
Sample,98599,0,"soft-hitwhistle31.wav",70
Sample,98658,0,"soft-hitwhistle31.wav",70
Sample,98718,0,"soft-hitwhistle31.wav",70
Sample,98777,0,"soft-hitfinish34.wav",70
Sample,98837,0,"soft-hitwhistle31.wav",70
Sample,98896,0,"soft-hitfinish34.wav",70
Sample,98956,0,"soft-hitwhistle31.wav",70
Sample,99015,0,"soft-hitfinish34.wav",70
Sample,99075,0,"soft-hitwhistle31.wav",70
Sample,99134,0,"soft-hitwhistle31.wav",70
Sample,99194,0,"soft-hitfinish34.wav",70
Sample,99253,0,"soft-hitwhistle31.wav",70
Sample,99313,0,"soft-hitfinish34.wav",70
Sample,99372,0,"soft-hitfinish34.wav",70
Sample,99491,0,"soft-hitfinish34.wav",70
Sample,99610,0,"soft-hitwhistle31.wav",70
Sample,99670,0,"soft-hitfinish34.wav",70
Sample,99729,0,"soft-hitfinish34.wav",70
Sample,99789,0,"soft-hitfinish34.wav",70
Sample,99849,0,"soft-hitfinish34.wav",70
Sample,99908,0,"soft-hitfinish34.wav",70
Sample,99968,0,"soft-hitwhistle31.wav",70
Sample,100027,0,"soft-hitfinish34.wav",70
Sample,100087,0,"soft-hitwhistle31.wav",70
Sample,100146,0,"soft-hitwhistle31.wav",70
Sample,100206,0,"soft-hitwhistle31.wav",70
Sample,100265,0,"soft-hitwhistle31.wav",70
Sample,100325,0,"soft-hitfinish34.wav",70
Sample,100384,0,"soft-hitfinish34.wav",70
Sample,100444,0,"soft-hitwhistle31.wav",70
Sample,100503,0,"soft-hitwhistle31.wav",70
Sample,100563,0,"soft-hitfinish34.wav",70
Sample,100622,0,"soft-hitwhistle31.wav",70
Sample,100682,0,"soft-hitfinish34.wav",70
Sample,100741,0,"soft-hitwhistle31.wav",70
Sample,100801,0,"soft-hitfinish34.wav",70
Sample,100860,0,"soft-hitwhistle31.wav",70
Sample,100920,0,"soft-hitwhistle31.wav",70
Sample,101039,0,"soft-hitfinish34.wav",70
Sample,101099,0,"soft-hitfinish34.wav",70
Sample,101158,0,"soft-hitwhistle31.wav",70
Sample,101218,0,"soft-hitfinish34.wav",70
Sample,101277,0,"soft-hitfinish34.wav",70
Sample,101337,0,"soft-hitfinish34.wav",70
Sample,101396,0,"soft-hitfinish34.wav",70
Sample,101456,0,"soft-hitfinish34.wav",70
Sample,101515,0,"soft-hitfinish34.wav",70
Sample,101575,0,"soft-hitfinish34.wav",70
Sample,101634,0,"soft-hitfinish34.wav",70
Sample,101694,0,"soft-hitfinish34.wav",70
Sample,101753,0,"soft-hitfinish34.wav",70
Sample,101813,0,"soft-hitfinish34.wav",70
Sample,101872,0,"soft-hitwhistle31.wav",70
Sample,101932,0,"soft-hitwhistle31.wav",70
Sample,102289,0,"soft-hitwhistle31.wav",70
Sample,102646,0,"soft-hitfinish31.wav",70
Sample,103003,0,"soft-hitfinish31.wav",70
Sample,103837,0,"soft-hitclap31.wav",70
Sample,104194,0,"soft-hitclap31.wav",70
Sample,104432,0,"soft-hitclap31.wav",70
Sample,104670,0,"soft-hitclap31.wav",70
Sample,104789,0,"soft-hitfinish34.wav",70
Sample,105027,0,"soft-hitfinish34.wav",70
Sample,105265,0,"soft-hitwhistle31.wav",70
Sample,105265,0,"soft-hitclap31.wav",70
Sample,105741,0,"soft-hitclap31.wav",70
Sample,106099,0,"soft-hitclap31.wav",70
Sample,106456,0,"soft-hitwhistle31.wav",70
Sample,106813,0,"soft-hitwhistle31.wav",70
Sample,107646,0,"soft-hitwhistle31.wav",70
Sample,108003,0,"soft-hitwhistle31.wav",70
Sample,108241,0,"soft-hitwhistle31.wav",70
Sample,108479,0,"soft-hitwhistle31.wav",70
Sample,108599,0,"soft-hitfinish34.wav",70
Sample,108837,0,"soft-hitwhistle31.wav",70
Sample,109075,0,"soft-hitfinish34.wav",70
Sample,109075,0,"soft-hitclap31.wav",70
Sample,110027,0,"soft-hitwhistle31.wav",23
Sample,110027,0,"soft-hitwhistle31.wav",23
Sample,110087,0,"soft-hitwhistle31.wav",23
Sample,110087,0,"soft-hitwhistle31.wav",23
Sample,110146,0,"soft-hitwhistle31.wav",23
Sample,110146,0,"soft-hitwhistle31.wav",23
Sample,110206,0,"soft-hitwhistle31.wav",23
Sample,110206,0,"soft-hitwhistle31.wav",23
Sample,110265,0,"soft-hitwhistle31.wav",23
Sample,110265,0,"soft-hitwhistle31.wav",23
Sample,110325,0,"soft-hitwhistle31.wav",23
Sample,110325,0,"soft-hitwhistle31.wav",23
Sample,110384,0,"soft-hitwhistle31.wav",23
Sample,110384,0,"soft-hitwhistle31.wav",23
Sample,110444,0,"soft-hitwhistle31.wav",23
Sample,110444,0,"soft-hitwhistle31.wav",23
Sample,110503,0,"soft-hitwhistle31.wav",23
Sample,110503,0,"soft-hitwhistle31.wav",23
Sample,110563,0,"soft-hitwhistle31.wav",23
Sample,110563,0,"soft-hitwhistle31.wav",23
Sample,110622,0,"soft-hitwhistle31.wav",23
Sample,110622,0,"soft-hitwhistle31.wav",23
Sample,110682,0,"soft-hitwhistle31.wav",23
Sample,110682,0,"soft-hitwhistle31.wav",23
Sample,110741,0,"soft-hitwhistle31.wav",23
Sample,110741,0,"soft-hitwhistle31.wav",23
Sample,110801,0,"soft-hitwhistle31.wav",23
Sample,110801,0,"soft-hitwhistle31.wav",23
Sample,110860,0,"soft-hitwhistle31.wav",23
Sample,110860,0,"soft-hitwhistle31.wav",23
Sample,110920,0,"soft-hitwhistle31.wav",23
Sample,110920,0,"soft-hitwhistle31.wav",23
Sample,110979,0,"soft-hitwhistle31.wav",23
Sample,110979,0,"soft-hitwhistle31.wav",23
Sample,111039,0,"soft-hitwhistle31.wav",23
Sample,111039,0,"soft-hitwhistle31.wav",23
Sample,111099,0,"soft-hitwhistle31.wav",23
Sample,111099,0,"soft-hitwhistle31.wav",23
Sample,111158,0,"soft-hitwhistle31.wav",23
Sample,111158,0,"soft-hitwhistle31.wav",23
Sample,111218,0,"soft-hitwhistle31.wav",23
Sample,111218,0,"soft-hitwhistle31.wav",23
Sample,111277,0,"soft-hitwhistle31.wav",23
Sample,111277,0,"soft-hitwhistle31.wav",23
Sample,111337,0,"soft-hitwhistle31.wav",23
Sample,111337,0,"soft-hitwhistle31.wav",23
Sample,111396,0,"soft-hitwhistle31.wav",23
Sample,111396,0,"soft-hitwhistle31.wav",23
Sample,111515,0,"soft-hitwhistle31.wav",35
Sample,111575,0,"soft-hitwhistle31.wav",35
Sample,111634,0,"soft-hitwhistle31.wav",35
Sample,111694,0,"soft-hitwhistle31.wav",35
Sample,111753,0,"soft-hitwhistle31.wav",35
Sample,111813,0,"soft-hitwhistle31.wav",35
Sample,111872,0,"soft-hitwhistle31.wav",35
Sample,111932,0,"soft-hitwhistle31.wav",23
Sample,111991,0,"soft-hitwhistle31.wav",35
Sample,112051,0,"soft-hitwhistle31.wav",35
Sample,112110,0,"soft-hitwhistle31.wav",35
Sample,112170,0,"soft-hitwhistle31.wav",35
Sample,112229,0,"soft-hitwhistle31.wav",35
Sample,112289,0,"soft-hitwhistle31.wav",35
Sample,112349,0,"soft-hitwhistle31.wav",35
Sample,112468,0,"soft-hitwhistle31.wav",35
Sample,112527,0,"soft-hitwhistle31.wav",35
Sample,112587,0,"soft-hitwhistle31.wav",35
Sample,112646,0,"soft-hitwhistle31.wav",35
Sample,112706,0,"soft-hitwhistle31.wav",35
Sample,112765,0,"soft-hitwhistle31.wav",35
Sample,112825,0,"soft-hitwhistle31.wav",35
Sample,113360,0,"soft-hitfinish32.wav",70
Sample,113479,0,"soft-hitfinish32.wav",70
Sample,113599,0,"soft-hitwhistle31.wav",23
Sample,113599,0,"soft-hitwhistle31.wav",23
Sample,113658,0,"soft-hitwhistle31.wav",23
Sample,113718,0,"soft-hitwhistle31.wav",23
Sample,113718,0,"soft-hitwhistle31.wav",23
Sample,113718,0,"soft-hitwhistle31.wav",23
Sample,113777,0,"soft-hitwhistle31.wav",23
Sample,113837,0,"soft-hitwhistle31.wav",70
Sample,113956,0,"soft-hitwhistle31.wav",70
Sample,114075,0,"soft-hitwhistle31.wav",23
Sample,114075,0,"soft-hitwhistle31.wav",23
Sample,114134,0,"soft-hitwhistle31.wav",23
Sample,114194,0,"soft-hitwhistle31.wav",23
Sample,114194,0,"soft-hitwhistle31.wav",23
Sample,114194,0,"soft-hitwhistle31.wav",23
Sample,114253,0,"soft-hitwhistle31.wav",23
Sample,114313,0,"soft-hitfinish34.wav",70
Sample,114432,0,"soft-hitwhistle31.wav",23
Sample,114432,0,"soft-hitwhistle31.wav",23
Sample,114432,0,"soft-hitwhistle31.wav",23
Sample,114491,0,"soft-hitwhistle31.wav",23
Sample,114551,0,"soft-hitwhistle31.wav",70
Sample,114670,0,"soft-hitwhistle31.wav",23
Sample,114670,0,"soft-hitwhistle31.wav",23
Sample,114670,0,"soft-hitwhistle31.wav",23
Sample,114729,0,"soft-hitwhistle31.wav",23
Sample,114789,0,"soft-hitfinish34.wav",70
Sample,115027,0,"soft-hitfinish34.wav",70
Sample,115503,0,"soft-hitclap31.wav",23
Sample,115503,0,"soft-hitclap31.wav",23
Sample,115860,0,"soft-hitclap31.wav",23
Sample,115860,0,"soft-hitclap31.wav",23
Sample,117408,0,"soft-hitfinish31.wav",23
Sample,117408,0,"soft-hitfinish31.wav",23
Sample,119075,0,"soft-hitwhistle31.wav",23
Sample,119075,0,"soft-hitfinish32.wav",23
Sample,119075,0,"soft-hitfinish32.wav",23
Sample,119075,0,"soft-hitfinish32.wav",23
Sample,119194,0,"soft-hitfinish32.wav",23
Sample,119194,0,"soft-hitfinish32.wav",23

[TimingPoints]
992,-100,4,2,34,40,0,0
992,238.095238095238,4,2,34,40,1,0
73372,-100,4,2,34,40,0,1
80932,-100,4,2,34,40,0,0
80991,-100,4,2,34,40,0,1
90515,-100,4,2,34,40,0,0
113372,-100,4,2,34,40,0,1
119206,-100,4,2,34,40,0,0

[Colours]
Combo1 : 255,192,0
Combo2 : 0,202,0
Combo3 : 18,124,255
Combo4 : 242,24,57

[HitObjects]
36,192,992,5,0,0:0:0:70:soft-hitwhistle31.wav
182,192,992,1,0,0:0:0:70:soft-hitfinish31.wav
475,192,992,128,0,1706:0:0:0:0:
109,192,1230,128,0,1349:0:0:0:0:
329,192,1349,128,0,1468:0:0:0:0:
256,192,1468,1,0,0:0:0:0:
182,192,1527,1,0,0:0:0:0:
36,192,1587,1,0,0:0:0:0:
109,192,1646,1,0,0:0:0:0:
256,192,1706,1,0,0:0:0:70:soft-hitwhistle31.wav
402,192,1706,1,0,0:0:0:0:
36,192,1765,1,0,0:0:0:70:soft-hitwhistle31.wav
182,192,1765,1,0,0:0:0:0:
329,192,1825,128,0,1944:0:0:0:70:soft-hitwhistle31.wav
475,192,1825,1,0,0:0:0:0:
36,192,1944,1,0,0:0:0:70:soft-hitwhistle31.wav
256,192,1944,1,0,0:0:0:70:soft-hitfinish34.wav
182,192,2063,1,0,0:0:0:70:soft-hitwhistle31.wav
329,192,2122,1,0,0:0:0:70:soft-hitwhistle31.wav
36,192,2182,1,0,0:0:0:70:soft-hitwhistle31.wav
475,192,2182,1,0,0:0:0:70:soft-hitfinish32.wav
109,192,2301,1,0,0:0:0:70:soft-hitwhistle31.wav
256,192,2301,1,0,0:0:0:70:soft-hitfinish32.wav
402,192,2420,128,0,2539:0:0:0:0:
36,192,2539,128,0,2658:0:0:0:0:
109,192,2658,1,0,0:0:0:70:soft-hitwhistle31.wav
182,192,2718,1,0,0:0:0:70:soft-hitwhistle31.wav
256,192,2777,1,0,0:0:0:70:soft-hitwhistle31.wav
475,192,2837,1,0,0:0:0:70:soft-hitwhistle31.wav
36,192,2896,1,0,0:0:0:70:soft-hitwhistle31.wav
109,192,2896,1,0,0:0:0:70:soft-hitfinish31.wav
329,192,2896,1,0,0:0:0:0:
182,192,3134,128,0,3372:0:0:0:0:
329,192,3372,128,0,3611:0:0:0:0:
109,192,3611,128,0,3849:0:0:0:0:
402,192,3849,128,0,4087:0:0:0:0:
109,192,4087,128,0,4325:0:0:0:0:
329,192,4325,128,0,4563:0:0:0:0:
475,192,4563,128,0,4801:0:0:0:0:
182,192,4801,128,0,5039:0:0:0:0:
36,192,5039,128,0,5277:0:0:0:0:
329,192,5277,128,0,5515:0:0:0:0:
182,192,5515,128,0,5753:0:0:0:0:
329,192,5753,128,0,5991:0:0:0:0:
402,192,5991,128,0,6230:0:0:0:0:
475,192,6230,128,0,6468:0:0:0:0:
256,192,6468,128,0,6706:0:0:0:0:
36,192,6706,1,0,0:0:0:70:soft-hitwhistle31.wav
182,192,6706,1,0,0:0:0:70:soft-hitfinish34.wav
402,192,6706,1,0,0:0:0:0:
109,192,6944,1,0,0:0:0:70:soft-hitwhistle31.wav
329,192,6944,1,0,0:0:0:70:soft-hitfinish34.wav
475,192,6944,1,0,0:0:0:0:
36,192,7182,1,0,0:0:0:70:soft-hitwhistle31.wav
182,192,7182,1,0,0:0:0:70:soft-hitfinish34.wav
256,192,7182,1,0,0:0:0:0:
109,192,7420,1,0,0:0:0:70:soft-hitwhistle31.wav
329,192,7420,1,0,0:0:0:70:soft-hitfinish34.wav
402,192,7420,1,0,0:0:0:0:
36,192,7658,1,0,0:0:0:70:soft-hitwhistle31.wav
256,192,7658,1,0,0:0:0:70:soft-hitfinish34.wav
475,192,7658,1,0,0:0:0:0:
109,192,7896,1,0,0:0:0:70:soft-hitwhistle31.wav
182,192,7896,1,0,0:0:0:70:soft-hitfinish34.wav
402,192,7896,1,0,0:0:0:0:
36,192,8134,1,0,0:0:0:70:soft-hitwhistle31.wav
329,192,8134,1,0,0:0:0:70:soft-hitfinish34.wav
475,192,8134,1,0,0:0:0:0:
182,192,8372,1,0,0:0:0:70:soft-hitwhistle31.wav
256,192,8372,1,0,0:0:0:70:soft-hitfinish34.wav
402,192,8372,1,0,0:0:0:0:
109,192,8611,128,0,8849:0:0:0:70:soft-hitwhistle31.wav
329,192,8611,1,0,0:0:0:70:soft-hitfinish34.wav
475,192,8611,1,0,0:0:0:70:soft-hitclap31.wav
182,192,8849,1,0,0:0:0:70:soft-hitwhistle31.wav
256,192,8849,1,0,0:0:0:70:soft-hitfinish34.wav
402,192,8849,128,0,9087:0:0:0:70:soft-hitclap31.wav
36,192,9087,128,0,9325:0:0:0:70:soft-hitwhistle31.wav
109,192,9087,1,0,0:0:0:70:soft-hitfinish34.wav
329,192,9087,1,0,0:0:0:70:soft-hitclap31.wav
182,192,9325,128,0,9563:0:0:0:70:soft-hitwhistle31.wav
256,192,9325,1,0,0:0:0:70:soft-hitfinish34.wav
475,192,9325,1,0,0:0:0:70:soft-hitclap31.wav
109,192,9563,1,0,0:0:0:70:soft-hitwhistle31.wav
402,192,9563,1,0,0:0:0:70:soft-hitfinish34.wav
329,192,9722,1,0,0:0:0:70:soft-hitclap31.wav
36,192,9801,1,0,0:0:0:70:soft-hitwhistle31.wav
109,192,9801,1,0,0:0:0:70:soft-hitfinish34.wav
475,192,9801,1,0,0:0:0:70:soft-hitclap31.wav
256,192,9960,1,0,0:0:0:70:soft-hitclap31.wav
109,192,10039,1,0,0:0:0:70:soft-hitwhistle31.wav
329,192,10039,1,0,0:0:0:70:soft-hitfinish34.wav
475,192,10039,1,0,0:0:0:70:soft-hitclap31.wav
182,192,10198,1,0,0:0:0:70:soft-hitclap31.wav
36,192,10277,1,0,0:0:0:70:soft-hitwhistle31.wav
402,192,10277,1,0,0:0:0:70:soft-hitfinish34.wav
475,192,10277,1,0,0:0:0:70:soft-hitclap31.wav
109,192,10357,1,0,0:0:0:0:
182,192,10436,1,0,0:0:0:70:soft-hitclap31.wav
256,192,10515,128,0,10991:0:0:0:70:soft-hitwhistle31.wav
329,192,10515,1,0,0:0:0:70:soft-hitfinish31.wav
475,192,10515,1,0,0:0:0:70:soft-hitclap31.wav
36,192,10753,128,0,10991:0:0:0:0:
109,192,10991,128,0,11230:0:0:0:0:
475,192,10991,128,0,11111:0:0:0:0:
329,192,11111,128,0,11230:0:0:0:0:
36,192,11230,1,0,0:0:0:70:soft-hitwhistle31.wav
402,192,11230,1,0,0:0:0:0:
182,192,11289,1,0,0:0:0:70:soft-hitwhistle31.wav
475,192,11349,1,0,0:0:0:70:soft-hitwhistle31.wav
329,192,11408,1,0,0:0:0:70:soft-hitwhistle31.wav
36,192,11468,1,0,0:0:0:70:soft-hitwhistle31.wav
109,192,11468,1,0,0:0:0:70:soft-hitfinish34.wav
256,192,11587,1,0,0:0:0:70:soft-hitwhistle31.wav
475,192,11587,128,0,11706:0:0:0:0:
36,192,11706,1,0,0:0:0:70:soft-hitwhistle31.wav
182,192,11706,1,0,0:0:0:70:soft-hitfinish34.wav
402,192,11706,1,0,0:0:0:70:soft-hitclap31.wav
109,192,11825,128,0,11944:0:0:0:70:soft-hitwhistle31.wav
256,192,11825,1,0,0:0:0:0:
402,192,11944,1,0,0:0:0:70:soft-hitwhistle31.wav
475,192,11944,1,0,0:0:0:70:soft-hitfinish34.wav
329,192,12003,1,0,0:0:0:70:soft-hitwhistle31.wav
256,192,12063,1,0,0:0:0:70:soft-hitwhistle31.wav
182,192,12122,1,0,0:0:0:70:soft-hitwhistle31.wav
36,192,12182,1,0,0:0:0:70:soft-hitwhistle31.wav
109,192,12182,1,0,0:0:0:70:soft-hitfinish34.wav
475,192,12182,128,0,12420:0:0:0:70:soft-hitclap31.wav
402,192,12301,128,0,12420:0:0:0:70:soft-hitwhistle31.wav
36,192,12420,1,0,0:0:0:70:soft-hitwhistle31.wav
182,192,12420,1,0,0:0:0:70:soft-hitfinish31.wav
329,192,12539,128,0,12658:0:0:0:0:
36,192,12658,128,0,12777:0:0:0:0:
182,192,12777,128,0,12896:0:0:0:0:
402,192,12896,128,0,13015:0:0:0:0:
256,192,13015,128,0,13134:0:0:0:0:
109,192,13134,128,0,13253:0:0:0:0:
475,192,13134,128,0,13372:0:0:0:0:
329,192,13253,128,0,13372:0:0:0:0:
36,192,13491,1,0,0:0:0:70:soft-hitwhistle31.wav
182,192,13491,128,0,13611:0:0:0:0:
402,192,13611,128,0,13730:0:0:0:0:
256,192,13730,128,0,13849:0:0:0:0:
36,192,13849,128,0,13968:0:0:0:70:soft-hitwhistle31.wav
475,192,13849,1,0,0:0:0:0:
182,192,13968,128,0,14087:0:0:0:0:
329,192,14087,128,0,14206:0:0:0:70:soft-hitwhistle31.wav
475,192,14087,128,0,14325:0:0:0:0:
256,192,14206,1,0,0:0:0:70:soft-hitwhistle31.wav
182,192,14265,1,0,0:0:0:70:soft-hitwhistle31.wav
109,192,14325,1,0,0:0:0:70:soft-hitwhistle31.wav
329,192,14444,128,0,14563:0:0:0:0:
475,192,14563,128,0,14682:0:0:0:0:
182,192,14682,128,0,14801:0:0:0:0:
36,192,14801,128,0,14920:0:0:0:0:
256,192,14920,128,0,15039:0:0:0:0:
402,192,15039,128,0,15158:0:0:0:0:
109,192,15158,128,0,15277:0:0:0:0:
475,192,15277,128,0,15396:0:0:0:0:
36,192,15396,1,0,0:0:0:70:soft-hitwhistle31.wav
182,192,15396,128,0,15515:0:0:0:0:
402,192,15515,128,0,15634:0:0:0:0:
256,192,15634,128,0,15753:0:0:0:0:
109,192,15753,1,0,0:0:0:70:soft-hitwhistle31.wav
475,192,15753,128,0,15991:0:0:0:0:
36,192,15872,1,0,0:0:0:0:
182,192,15932,1,0,0:0:0:0:
329,192,15991,1,0,0:0:0:70:soft-hitwhistle31.wav
402,192,15991,1,0,0:0:0:0:
109,192,16051,1,0,0:0:0:70:soft-hitwhistle31.wav
402,192,16170,1,0,0:0:0:70:soft-hitwhistle31.wav
475,192,16170,1,0,0:0:0:0:
36,192,16230,1,0,0:0:0:70:soft-hitwhistle31.wav
182,192,16230,1,0,0:0:0:70:soft-hitfinish31.wav
329,192,16230,1,0,0:0:0:0:
256,192,16349,128,0,16468:0:0:0:0:
402,192,16468,128,0,16587:0:0:0:0:
182,192,16587,128,0,16706:0:0:0:0:
36,192,16706,128,0,16825:0:0:0:0:
256,192,16825,128,0,16944:0:0:0:0:
109,192,16944,128,0,17182:0:0:0:0:
475,192,16944,128,0,17063:0:0:0:0:
329,192,17063,128,0,17182:0:0:0:0:
36,192,17301,1,0,0:0:0:70:soft-hitwhistle31.wav
256,192,17301,128,0,17420:0:0:0:0:
475,192,17420,128,0,17539:0:0:0:0:
329,192,17539,128,0,17658:0:0:0:0:
36,192,17658,128,0,17777:0:0:0:70:soft-hitwhistle31.wav
256,192,17658,1,0,0:0:0:0:
182,192,17777,128,0,17896:0:0:0:0:
402,192,17896,1,0,0:0:0:70:soft-hitwhistle31.wav
475,192,17896,128,0,18134:0:0:0:0:
109,192,18015,1,0,0:0:0:70:soft-hitwhistle31.wav
182,192,18075,1,0,0:0:0:70:soft-hitwhistle31.wav
256,192,18134,1,0,0:0:0:70:soft-hitwhistle31.wav
402,192,18253,128,0,18372:0:0:0:0:
256,192,18372,128,0,18491:0:0:0:0:
36,192,18491,128,0,18611:0:0:0:0:
182,192,18611,128,0,18730:0:0:0:0:
329,192,18730,128,0,18849:0:0:0:0:
475,192,18849,128,0,18968:0:0:0:0:
256,192,18968,128,0,19087:0:0:0:0:
402,192,19087,128,0,19206:0:0:0:0:
36,192,19206,1,0,0:0:0:70:soft-hitwhistle31.wav
182,192,19206,128,0,19325:0:0:0:0:
329,192,19325,128,0,19444:0:0:0:70:soft-hitwhistle31.wav
475,192,19325,1,0,0:0:0:0:
36,192,19444,128,0,19563:0:0:0:70:soft-hitwhistle31.wav
402,192,19563,1,0,0:0:0:70:soft-hitwhistle31.wav
475,192,19563,1,0,0:0:0:0:
182,192,19682,1,0,0:0:0:70:soft-hitwhistle31.wav
256,192,19682,128,0,19801:0:0:0:0:
36,192,19801,1,0,0:0:0:70:soft-hitwhistle31.wav
475,192,19861,1,0,0:0:0:70:soft-hitwhistle31.wav
329,192,19920,1,0,0:0:0:0:
182,192,19980,1,0,0:0:0:70:soft-hitwhistle31.wav
36,192,20039,128,0,20277:0:0:0:70:soft-hitwhistle31.wav
475,192,20039,1,0,0:0:0:70:soft-hitfinish31.wav
256,192,20158,128,0,20277:0:0:0:0:
402,192,20277,128,0,20396:0:0:0:0:
182,192,20396,128,0,20515:0:0:0:70:soft-hitclap31.wav
329,192,20396,1,0,0:0:0:70:soft-hitwhistle31.wav
475,192,20515,128,0,20634:0:0:0:0:
256,192,20634,128,0,20753:0:0:0:0:
36,192,20753,128,0,20872:0:0:0:70:soft-hitclap31.wav
109,192,20753,1,0,0:0:0:70:soft-hitwhistle31.wav
402,192,20753,128,0,20991:0:0:0:0:
182,192,20872,128,0,20991:0:0:0:0:
256,192,20991,1,0,0:0:0:70:soft-hitwhistle31.wav
475,192,20991,1,0,0:0:0:70:soft-hitclap31.wav
36,192,21111,128,0,21230:0:0:0:0:
329,192,21111,128,0,21349:0:0:0:0:
475,192,21230,128,0,21349:0:0:0:0:
109,192,21349,128,0,21468:0:0:0:70:soft-hitwhistle31.wav
182,192,21349,1,0,0:0:0:70:soft-hitclap31.wav
256,192,21468,128,0,21587:0:0:0:0:
402,192,21587,128,0,21706:0:0:0:0:
36,192,21706,128,0,21944:0:0:0:70:soft-hitwhistle31.wav
182,192,21706,128,0,21825:0:0:0:70:soft-hitclap31.wav
329,192,21706,1,0,0:0:0:0:
475,192,21825,128,0,21944:0:0:0:0:
256,192,21944,1,0,0:0:0:70:soft-hitwhistle31.wav
402,192,21944,1,0,0:0:0:70:soft-hitclap31.wav
109,192,22063,128,0,22182:0:0:0:0:
329,192,22063,128,0,22301:0:0:0:0:
475,192,22182,128,0,22301:0:0:0:0:
182,192,22301,128,0,22420:0:0:0:70:soft-hitclap31.wav
36,192,22420,128,0,22539:0:0:0:0:
256,192,22539,128,0,22658:0:0:0:0:
402,192,22658,128,0,22777:0:0:0:70:soft-hitclap31.wav
475,192,22658,1,0,0:0:0:70:soft-hitwhistle31.wav
182,192,22777,128,0,22896:0:0:0:0:
36,192,22896,1,0,0:0:0:70:soft-hitwhistle31.wav
329,192,22896,128,0,23015:0:0:0:70:soft-hitclap31.wav
109,192,23015,128,0,23134:0:0:0:0:
256,192,23134,128,0,23253:0:0:0:0:
402,192,23253,128,0,23372:0:0:0:70:soft-hitclap31.wav
475,192,23253,1,0,0:0:0:70:soft-hitwhistle31.wav
182,192,23372,128,0,23491:0:0:0:0:
256,192,23491,1,0,0:0:0:0:
329,192,23551,1,0,0:0:0:0:
402,192,23611,1,0,0:0:0:70:soft-hitwhistle31.wav
475,192,23611,1,0,0:0:0:70:soft-hitclap31.wav
256,192,23730,1,0,0:0:0:70:soft-hitwhistle31.wav
182,192,23789,1,0,0:0:0:70:soft-hitwhistle31.wav
36,192,23849,1,0,0:0:0:70:soft-hitwhistle31.wav
109,192,23849,1,0,0:0:0:70:soft-hitfinish31.wav
475,192,23849,1,0,0:0:0:0:
402,192,23908,1,0,0:0:0:70:soft-hitwhistle31.wav
329,192,23968,1,0,0:0:0:70:soft-hitwhistle31.wav
256,192,24027,1,0,0:0:0:70:soft-hitwhistle31.wav
36,192,24087,1,0,0:0:0:70:soft-hitwhistle31.wav
109,192,24146,1,0,0:0:0:70:soft-hitwhistle31.wav
182,192,24206,1,0,0:0:0:70:soft-hitwhistle31.wav
475,192,24206,1,0,0:0:0:0:
402,192,24265,1,0,0:0:0:70:soft-hitwhistle31.wav
329,192,24325,1,0,0:0:0:70:soft-hitwhistle31.wav
36,192,24384,1,0,0:0:0:70:soft-hitwhistle31.wav
182,192,24444,1,0,0:0:0:70:soft-hitwhistle31.wav
329,192,24503,1,0,0:0:0:70:soft-hitwhistle31.wav
36,192,24563,1,0,0:0:0:70:soft-hitwhistle31.wav
475,192,24563,1,0,0:0:0:0:
256,192,24682,1,0,0:0:0:70:soft-hitwhistle31.wav
402,192,24682,1,0,0:0:0:0:
182,192,24741,1,0,0:0:0:70:soft-hitwhistle31.wav
109,192,24801,1,0,0:0:0:70:soft-hitwhistle31.wav
475,192,24801,1,0,0:0:0:70:soft-hitfinish31.wav
402,192,24861,1,0,0:0:0:70:soft-hitwhistle31.wav
329,192,24920,1,0,0:0:0:70:soft-hitwhistle31.wav
256,192,24980,1,0,0:0:0:70:soft-hitwhistle31.wav
36,192,25039,1,0,0:0:0:70:soft-hitwhistle31.wav
109,192,25099,1,0,0:0:0:70:soft-hitwhistle31.wav
182,192,25158,1,0,0:0:0:70:soft-hitwhistle31.wav
475,192,25158,1,0,0:0:0:0:
402,192,25218,1,0,0:0:0:70:soft-hitwhistle31.wav
329,192,25277,1,0,0:0:0:70:soft-hitwhistle31.wav
256,192,25337,1,0,0:0:0:70:soft-hitwhistle31.wav
36,192,25396,1,0,0:0:0:70:soft-hitwhistle31.wav
109,192,25396,128,0,25515:0:0:0:0:
329,192,25515,1,0,0:0:0:70:soft-hitwhistle31.wav
475,192,25575,1,0,0:0:0:70:soft-hitwhistle31.wav
182,192,25634,1,0,0:0:0:70:soft-hitwhistle31.wav
256,192,25634,128,0,25753:0:0:0:0:
329,192,25753,1,0,0:0:0:70:soft-hitwhistle31.wav
402,192,25753,1,0,0:0:0:70:soft-hitfinish31.wav
36,192,25813,1,0,0:0:0:0:
109,192,25872,1,0,0:0:0:0:
182,192,25932,1,0,0:0:0:0:
256,192,25991,1,0,0:0:0:0:
475,192,26051,1,0,0:0:0:0:
402,192,26111,1,0,0:0:0:0:
329,192,26170,1,0,0:0:0:0:
182,192,26230,1,0,0:0:0:0:
109,192,26289,1,0,0:0:0:0:
36,192,26349,1,0,0:0:0:0:
329,192,26408,1,0,0:0:0:0:
256,192,26468,1,0,0:0:0:0:
182,192,26527,1,0,0:0:0:0:
475,192,26587,1,0,0:0:0:0:
402,192,26646,1,0,0:0:0:0:
256,192,26706,1,0,0:0:0:70:soft-hitwhistle31.wav
329,192,26706,1,0,0:0:0:70:soft-hitfinish33.wav
36,192,26765,1,0,0:0:0:70:soft-hitfinish33.wav
475,192,26825,1,0,0:0:0:70:soft-hitwhistle31.wav
182,192,26884,1,0,0:0:0:70:soft-hitfinish33.wav
329,192,26944,1,0,0:0:0:70:soft-hitwhistle31.wav
36,192,27003,1,0,0:0:0:70:soft-hitfinish33.wav
475,192,27063,1,0,0:0:0:70:soft-hitwhistle31.wav
182,192,27122,1,0,0:0:0:70:soft-hitfinish33.wav
329,192,27182,1,0,0:0:0:70:soft-hitwhistle31.wav
36,192,27241,1,0,0:0:0:70:soft-hitfinish33.wav
109,192,27301,1,0,0:0:0:70:soft-hitwhistle31.wav
182,192,27361,1,0,0:0:0:70:soft-hitfinish33.wav
256,192,27420,1,0,0:0:0:70:soft-hitwhistle31.wav
329,192,27420,128,0,27658:0:0:0:0:
475,192,27420,1,0,0:0:0:0:
36,192,27658,1,0,0:0:0:70:soft-hitwhistle31.wav
109,192,27658,1,0,0:0:0:70:soft-hitfinish31.wav
475,192,27777,1,0,0:0:0:0:
256,192,27837,1,0,0:0:0:0:
36,192,27896,1,0,0:0:0:0:
182,192,28015,1,0,0:0:0:0:
329,192,28253,1,0,0:0:0:0:
475,192,28491,1,0,0:0:0:0:
182,192,28730,1,0,0:0:0:0:
402,192,28849,1,0,0:0:0:0:
109,192,28968,1,0,0:0:0:0:
329,192,29087,1,0,0:0:0:0:
36,192,29206,1,0,0:0:0:0:
475,192,29325,1,0,0:0:0:0:
256,192,29444,1,0,0:0:0:0:
109,192,29563,1,0,0:0:0:0:
402,192,29563,1,0,0:0:0:0:
329,192,29682,1,0,0:0:0:0:
182,192,29741,1,0,0:0:0:0:
475,192,29801,1,0,0:0:0:0:
402,192,29861,1,0,0:0:0:0:
329,192,29920,1,0,0:0:0:0:
36,192,30158,1,0,0:0:0:0:
256,192,30277,1,0,0:0:0:0:
475,192,30396,1,0,0:0:0:0:
109,192,30634,1,0,0:0:0:0:
402,192,30872,1,0,0:0:0:0:
256,192,30991,1,0,0:0:0:0:
475,192,31230,1,0,0:0:0:0:
36,192,31468,1,0,0:0:0:0:
182,192,31587,1,0,0:0:0:0:
256,192,31646,1,0,0:0:0:0:
329,192,31706,1,0,0:0:0:0:
475,192,31825,1,0,0:0:0:0:
182,192,32063,1,0,0:0:0:0:
36,192,32301,1,0,0:0:0:0:
256,192,32539,1,0,0:0:0:0:
475,192,32658,1,0,0:0:0:0:
402,192,32777,1,0,0:0:0:0:
329,192,32896,1,0,0:0:0:0:
36,192,33015,1,0,0:0:0:0:
109,192,33134,1,0,0:0:0:0:
182,192,33253,1,0,0:0:0:0:
256,192,33372,1,0,0:0:0:70:soft-hitwhistle31.wav
475,192,33372,1,0,0:0:0:70:soft-hitfinish34.wav
36,192,33491,1,0,0:0:0:0:
109,192,33551,1,0,0:0:0:0:
182,192,33611,1,0,0:0:0:0:
256,192,33670,1,0,0:0:0:0:
329,192,33730,1,0,0:0:0:70:soft-hitwhistle31.wav
475,192,33730,128,0,34206:0:0:0:70:soft-hitfinish34.wav
36,192,33968,128,0,34087:0:0:0:0:
182,192,34087,128,0,34206:0:0:0:0:
256,192,34206,1,0,0:0:0:70:soft-hitwhistle31.wav
402,192,34206,1,0,0:0:0:70:soft-hitfinish31.wav
36,192,34444,1,0,0:0:0:70:soft-hitwhistle31.wav
109,192,34444,1,0,0:0:0:0:
402,192,34563,1,0,0:0:0:70:soft-hitwhistle31.wav
475,192,34563,1,0,0:0:0:70:soft-hitfinish31.wav
256,192,34642,1,0,0:0:0:0:
109,192,34722,1,0,0:0:0:0:
329,192,34801,1,0,0:0:0:70:soft-hitwhistle31.wav
402,192,34801,1,0,0:0:0:70:soft-hitfinish31.wav
36,192,34920,1,0,0:0:0:70:soft-hitwhistle31.wav
182,192,34920,1,0,0:0:0:70:soft-hitfinish32.wav
402,192,34980,1,0,0:0:0:70:soft-hitfinish33.wav
475,192,34980,1,0,0:0:0:70:soft-hitwhistle31.wav
329,192,35039,1,0,0:0:0:70:soft-hitwhistle31.wav
109,192,35099,1,0,0:0:0:70:soft-hitfinish33.wav
256,192,35099,1,0,0:0:0:70:soft-hitwhistle31.wav
36,192,35158,1,0,0:0:0:70:soft-hitwhistle31.wav
475,192,35158,1,0,0:0:0:70:soft-hitfinish33.wav
402,192,35218,1,0,0:0:0:70:soft-hitfinish33.wav
182,192,35277,1,0,0:0:0:70:soft-hitwhistle31.wav
329,192,35277,1,0,0:0:0:70:soft-hitfinish31.wav
256,192,35515,1,0,0:0:0:0:
402,192,35634,1,0,0:0:0:70:soft-hitwhistle31.wav
475,192,35634,128,0,35753:0:0:0:0:
36,192,35753,1,0,0:0:0:70:soft-hitclap31.wav
109,192,35753,1,0,0:0:0:70:soft-hitclap35.wav
182,192,35872,1,0,0:0:0:70:soft-hitwhistle31.wav
256,192,35872,128,0,35991:0:0:0:0:
109,192,36111,128,0,36349:0:0:0:70:soft-hitwhistle31.wav
402,192,36111,1,0,0:0:0:0:
329,192,36349,1,0,0:0:0:70:soft-hitclap31.wav
475,192,36349,1,0,0:0:0:0:
256,192,36408,1,0,0:0:0:0:
36,192,36468,1,0,0:0:0:70:soft-hitwhistle31.wav
182,192,36468,128,0,36706:0:0:0:0:
475,192,36587,1,0,0:0:0:0:
402,192,36646,1,0,0:0:0:0:
109,192,36706,1,0,0:0:0:70:soft-hitwhistle31.wav
329,192,36706,1,0,0:0:0:70:soft-hitclap31.wav
475,192,36825,1,0,0:0:0:0:
36,192,36944,1,0,0:0:0:70:soft-hitwhistle31.wav
256,192,36944,1,0,0:0:0:0:
402,192,37063,1,0,0:0:0:70:soft-hitwhistle31.wav
475,192,37063,1,0,0:0:0:0:
109,192,37182,1,0,0:0:0:70:soft-hitwhistle31.wav
182,192,37182,1,0,0:0:0:0:
329,192,37301,1,0,0:0:0:0:
475,192,37361,1,0,0:0:0:0:
36,192,37420,1,0,0:0:0:0:
109,192,37480,1,0,0:0:0:0:
182,192,37539,1,0,0:0:0:70:soft-hitwhistle31.wav
256,192,37539,1,0,0:0:0:0:
402,192,37658,1,0,0:0:0:70:soft-hitclap31.wav
475,192,37658,1,0,0:0:0:70:soft-hitclap35.wav
109,192,37777,1,0,0:0:0:70:soft-hitwhistle31.wav
329,192,37777,1,0,0:0:0:0:
36,192,38015,1,0,0:0:0:70:soft-hitwhistle31.wav
256,192,38015,128,0,38253:0:0:0:0:
475,192,38015,128,0,38253:0:0:0:0:
109,192,38253,1,0,0:0:0:70:soft-hitclap31.wav
182,192,38253,1,0,0:0:0:0:
36,192,38372,128,0,38611:0:0:0:70:soft-hitwhistle31.wav
402,192,38372,1,0,0:0:0:0:
329,192,38611,1,0,0:0:0:70:soft-hitwhistle31.wav
256,192,38670,1,0,0:0:0:0:
182,192,38730,1,0,0:0:0:0:
109,192,38789,1,0,0:0:0:0:
475,192,38849,1,0,0:0:0:70:soft-hitwhistle31.wav
402,192,38908,1,0,0:0:0:0:
329,192,38968,1,0,0:0:0:70:soft-hitwhistle31.wav
256,192,39027,1,0,0:0:0:0:
36,192,39087,1,0,0:0:0:70:soft-hitwhistle31.wav
182,192,39087,1,0,0:0:0:70:soft-hitfinish31.wav
475,192,39206,1,0,0:0:0:0:
329,192,39265,1,0,0:0:0:0:
182,192,39325,1,0,0:0:0:0:
36,192,39444,1,0,0:0:0:70:soft-hitwhistle31.wav
402,192,39444,1,0,0:0:0:0:
182,192,39563,1,0,0:0:0:70:soft-hitclap31.wav
256,192,39563,1,0,0:0:0:70:soft-hitclap35.wav
329,192,39682,1,0,0:0:0:70:soft-hitwhistle31.wav
475,192,39682,1,0,0:0:0:0:
36,192,39920,1,0,0:0:0:70:soft-hitwhistle31.wav
182,192,39920,1,0,0:0:0:0:
329,192,39920,1,0,0:0:0:0:
475,192,39920,1,0,0:0:0:0:
402,192,40158,1,0,0:0:0:70:soft-hitclap31.wav
475,192,40158,1,0,0:0:0:0:
329,192,40218,1,0,0:0:0:0:
36,192,40277,1,0,0:0:0:70:soft-hitwhistle31.wav
182,192,40277,1,0,0:0:0:0:
475,192,40337,1,0,0:0:0:0:
256,192,40396,1,0,0:0:0:0:
109,192,40515,1,0,0:0:0:70:soft-hitwhistle31.wav
402,192,40515,1,0,0:0:0:70:soft-hitclap31.wav
256,192,40634,128,0,40753:0:0:0:0:
36,192,40753,1,0,0:0:0:70:soft-hitwhistle31.wav
182,192,40833,1,0,0:0:0:70:soft-hitwhistle31.wav
475,192,40833,1,0,0:0:0:0:
329,192,40912,1,0,0:0:0:70:soft-hitwhistle31.wav
109,192,40991,1,0,0:0:0:70:soft-hitwhistle31.wav
256,192,40991,1,0,0:0:0:70:soft-hitfinish31.wav
329,192,41230,1,0,0:0:0:70:soft-hitwhistle31.wav
475,192,41230,1,0,0:0:0:0:
109,192,41309,1,0,0:0:0:70:soft-hitwhistle31.wav
256,192,41388,1,0,0:0:0:70:soft-hitwhistle31.wav
402,192,41388,1,0,0:0:0:0:
36,192,41468,1,0,0:0:0:70:soft-hitwhistle31.wav
182,192,41468,128,0,41825:0:0:0:70:soft-hitfinish32.wav
329,192,41587,1,0,0:0:0:70:soft-hitwhistle31.wav
475,192,41587,1,0,0:0:0:70:soft-hitfinish32.wav
109,192,41825,1,0,0:0:0:70:soft-hitwhistle31.wav
402,192,41825,128,0,42063:0:0:0:70:soft-hitfinish31.wav
36,192,42063,1,0,0:0:0:70:soft-hitwhistle31.wav
109,192,42122,1,0,0:0:0:70:soft-hitwhistle31.wav
182,192,42182,1,0,0:0:0:70:soft-hitclap31.wav
329,192,42182,128,0,42420:0:0:0:0:
475,192,42182,1,0,0:0:0:0:
36,192,42301,1,0,0:0:0:70:soft-hitwhistle31.wav
109,192,42361,1,0,0:0:0:70:soft-hitwhistle31.wav
402,192,42420,1,0,0:0:0:70:soft-hitclap31.wav
256,192,42480,1,0,0:0:0:0:
182,192,42539,1,0,0:0:0:70:soft-hitwhistle31.wav
109,192,42599,1,0,0:0:0:70:soft-hitwhistle31.wav
475,192,42658,1,0,0:0:0:70:soft-hitclap31.wav
402,192,42718,1,0,0:0:0:0:
329,192,42777,1,0,0:0:0:70:soft-hitwhistle31.wav
256,192,42837,1,0,0:0:0:70:soft-hitwhistle31.wav
36,192,42896,1,0,0:0:0:70:soft-hitwhistle31.wav
182,192,42896,128,0,44325:0:0:0:70:soft-hitfinish31.wav
475,192,43134,1,0,0:0:0:0:
256,192,43372,1,0,0:0:0:0:
402,192,43611,1,0,0:0:0:0:
36,192,43849,1,0,0:0:0:0:
329,192,44087,1,0,0:0:0:0:
109,192,44325,1,0,0:0:0:0:
402,192,44325,128,0,44801:0:0:0:0:
256,192,44563,1,0,0:0:0:0:
36,192,44801,128,0,45753:0:0:0:0:
329,192,44801,1,0,0:0:0:0:
182,192,45039,1,0,0:0:0:0:
402,192,45277,1,0,0:0:0:0:
256,192,45515,1,0,0:0:0:0:
329,192,45753,1,0,0:0:0:0:
475,192,45753,128,0,48134:0:0:0:0:
109,192,45991,1,0,0:0:0:0:
256,192,46230,1,0,0:0:0:0:
402,192,46230,1,0,0:0:0:0:
36,192,46468,1,0,0:0:0:0:
182,192,46706,1,0,0:0:0:0:
329,192,46944,1,0,0:0:0:0:
182,192,47182,1,0,0:0:0:0:
256,192,47241,1,0,0:0:0:0:
329,192,47301,1,0,0:0:0:0:
402,192,47361,1,0,0:0:0:0:
36,192,47420,1,0,0:0:0:0:
109,192,47480,1,0,0:0:0:0:
182,192,47539,1,0,0:0:0:0:
256,192,47599,1,0,0:0:0:0:
329,192,47658,128,0,48134:0:0:0:0:
109,192,47896,1,0,0:0:0:0:
36,192,48134,1,0,0:0:0:0:
256,192,48134,128,0,48372:0:0:0:0:
182,192,48372,128,0,48611:0:0:0:0:
109,192,48611,128,0,49563:0:0:0:0:
402,192,48611,1,0,0:0:0:0:
329,192,48849,1,0,0:0:0:0:
256,192,49087,1,0,0:0:0:0:
475,192,49087,1,0,0:0:0:0:
36,192,49325,1,0,0:0:0:0:
182,192,49563,1,0,0:0:0:0:
475,192,49563,128,0,49801:0:0:0:0:
329,192,49801,128,0,50039:0:0:0:0:
182,192,50039,128,0,50277:0:0:0:0:
36,192,50277,1,0,0:0:0:70:soft-hitwhistle31.wav
256,192,50277,1,0,0:0:0:0:
329,192,50337,1,0,0:0:0:70:soft-hitwhistle31.wav
402,192,50396,1,0,0:0:0:70:soft-hitwhistle31.wav
475,192,50396,1,0,0:0:0:0:
36,192,50456,1,0,0:0:0:70:soft-hitwhistle31.wav
109,192,50456,1,0,0:0:0:0:
256,192,50515,128,0,50753:0:0:0:70:soft-hitwhistle31.wav
329,192,50753,1,0,0:0:0:70:soft-hitclap31.wav
475,192,50753,1,0,0:0:0:0:
36,192,50872,1,0,0:0:0:70:soft-hitwhistle31.wav
109,192,50872,1,0,0:0:0:70:soft-hitfinish31.wav
182,192,51111,1,0,0:0:0:70:soft-hitclap31.wav
256,192,51111,1,0,0:0:0:0:
402,192,51230,1,0,0:0:0:70:soft-hitwhistle31.wav
475,192,51230,1,0,0:0:0:70:soft-hitfinish31.wav
36,192,51468,1,0,0:0:0:70:soft-hitclap31.wav
109,192,51468,1,0,0:0:0:0:
182,192,51527,1,0,0:0:0:70:soft-hitclap31.wav
256,192,51587,1,0,0:0:0:70:soft-hitwhistle31.wav
402,192,51587,1,0,0:0:0:70:soft-hitfinish31.wav
329,192,51825,1,0,0:0:0:70:soft-hitclap31.wav
475,192,51825,1,0,0:0:0:0:
36,192,51944,1,0,0:0:0:70:soft-hitwhistle31.wav
182,192,51944,1,0,0:0:0:70:soft-hitfinish34.wav
402,192,52182,1,0,0:0:0:70:soft-hitwhistle31.wav
475,192,52182,1,0,0:0:0:70:soft-hitfinish34.wav
109,192,52301,1,0,0:0:0:70:soft-hitwhistle31.wav
182,192,52301,1,0,0:0:0:0:
256,192,52361,1,0,0:0:0:70:soft-hitwhistle31.wav
329,192,52420,1,0,0:0:0:70:soft-hitwhistle31.wav
475,192,52420,1,0,0:0:0:70:soft-hitfinish31.wav
36,192,52658,1,0,0:0:0:70:soft-hitclap31.wav
109,192,52658,1,0,0:0:0:0:
182,192,52777,1,0,0:0:0:70:soft-hitwhistle31.wav
329,192,52777,1,0,0:0:0:70:soft-hitfinish31.wav
402,192,53015,1,0,0:0:0:70:soft-hitclap31.wav
475,192,53015,1,0,0:0:0:0:
182,192,53134,1,0,0:0:0:70:soft-hitwhistle31.wav
329,192,53134,1,0,0:0:0:70:soft-hitfinish31.wav
36,192,53372,1,0,0:0:0:70:soft-hitclap31.wav
109,192,53372,1,0,0:0:0:0:
256,192,53432,1,0,0:0:0:70:soft-hitclap31.wav
402,192,53491,1,0,0:0:0:70:soft-hitwhistle31.wav
475,192,53491,1,0,0:0:0:70:soft-hitfinish31.wav
36,192,53730,1,0,0:0:0:70:soft-hitclap31.wav
182,192,53730,1,0,0:0:0:0:
329,192,53849,1,0,0:0:0:70:soft-hitfinish34.wav
475,192,53849,1,0,0:0:0:70:soft-hitwhistle31.wav
36,192,54087,1,0,0:0:0:70:soft-hitfinish34.wav
109,192,54087,1,0,0:0:0:70:soft-hitwhistle31.wav
329,192,54206,1,0,0:0:0:70:soft-hitwhistle31.wav
475,192,54206,1,0,0:0:0:0:
256,192,54265,1,0,0:0:0:70:soft-hitwhistle31.wav
36,192,54325,1,0,0:0:0:70:soft-hitwhistle31.wav
182,192,54325,1,0,0:0:0:70:soft-hitfinish31.wav
402,192,54563,1,0,0:0:0:70:soft-hitclap31.wav
475,192,54563,1,0,0:0:0:0:
109,192,54682,1,0,0:0:0:70:soft-hitwhistle31.wav
256,192,54682,1,0,0:0:0:70:soft-hitfinish31.wav
36,192,55039,1,0,0:0:0:70:soft-hitwhistle31.wav
109,192,55099,1,0,0:0:0:70:soft-hitwhistle31.wav
182,192,55158,1,0,0:0:0:70:soft-hitwhistle31.wav
256,192,55218,1,0,0:0:0:70:soft-hitwhistle31.wav
36,192,55277,1,0,0:0:0:70:soft-hitwhistle31.wav
329,192,55277,1,0,0:0:0:70:soft-hitfinish31.wav
475,192,55277,1,0,0:0:0:0:
109,192,55515,1,0,0:0:0:70:soft-hitclap31.wav
256,192,55515,1,0,0:0:0:0:
402,192,55634,1,0,0:0:0:70:soft-hitwhistle31.wav
475,192,55634,1,0,0:0:0:70:soft-hitfinish31.wav
36,192,55991,1,0,0:0:0:70:soft-hitwhistle31.wav
329,192,55991,1,0,0:0:0:0:
109,192,56051,1,0,0:0:0:70:soft-hitwhistle31.wav
182,192,56111,1,0,0:0:0:70:soft-hitwhistle31.wav
475,192,56111,1,0,0:0:0:0:
402,192,56170,1,0,0:0:0:70:soft-hitwhistle31.wav
36,192,56230,1,0,0:0:0:70:soft-hitwhistle31.wav
256,192,56230,128,0,57182:0:0:0:70:soft-hitfinish31.wav
329,192,56230,1,0,0:0:0:70:soft-hitclap31.wav
475,192,56349,1,0,0:0:0:70:soft-hitclap31.wav
109,192,56468,1,0,0:0:0:70:soft-hitclap31.wav
402,192,56587,1,0,0:0:0:70:soft-hitclap31.wav
36,192,56706,1,0,0:0:0:70:soft-hitclap31.wav
475,192,56825,1,0,0:0:0:70:soft-hitclap31.wav
109,192,56944,1,0,0:0:0:70:soft-hitclap31.wav
329,192,57063,1,0,0:0:0:70:soft-hitclap31.wav
402,192,57122,1,0,0:0:0:70:soft-hitclap31.wav
36,192,57182,1,0,0:0:0:70:soft-hitwhistle31.wav
109,192,57182,1,0,0:0:0:70:soft-hitclap31.wav
475,192,57182,1,0,0:0:0:0:
329,192,57361,1,0,0:0:0:70:soft-hitwhistle31.wav
402,192,57361,1,0,0:0:0:70:soft-hitclap31.wav
36,192,57539,1,0,0:0:0:70:soft-hitwhistle31.wav
182,192,57539,1,0,0:0:0:70:soft-hitclap31.wav
329,192,57658,1,0,0:0:0:70:soft-hitwhistle31.wav
475,192,57658,1,0,0:0:0:70:soft-hitclap31.wav
182,192,57837,1,0,0:0:0:70:soft-hitwhistle31.wav
256,192,57837,1,0,0:0:0:70:soft-hitclap31.wav
36,192,58015,1,0,0:0:0:70:soft-hitwhistle31.wav
109,192,58015,1,0,0:0:0:70:soft-hitclap31.wav
402,192,58134,1,0,0:0:0:70:soft-hitwhistle31.wav
475,192,58134,1,0,0:0:0:70:soft-hitfinish33.wav
329,192,58194,1,0,0:0:0:70:soft-hitclap31.wav
182,192,58253,1,0,0:0:0:70:soft-hitwhistle31.wav
36,192,58313,1,0,0:0:0:70:soft-hitclap31.wav
402,192,58372,1,0,0:0:0:70:soft-hitwhistle31.wav
256,192,58432,1,0,0:0:0:70:soft-hitclap31.wav
109,192,58491,1,0,0:0:0:70:soft-hitwhistle31.wav
329,192,58551,1,0,0:0:0:70:soft-hitclap31.wav
475,192,58611,1,0,0:0:0:70:soft-hitwhistle31.wav
182,192,58670,1,0,0:0:0:70:soft-hitclap31.wav
36,192,58730,1,0,0:0:0:70:soft-hitwhistle31.wav
256,192,58789,1,0,0:0:0:70:soft-hitclap31.wav
402,192,58849,1,0,0:0:0:70:soft-hitwhistle31.wav
475,192,58849,128,0,58928:0:0:0:70:soft-hitclap31.wav
109,192,58928,128,0,59007:0:0:0:0:
182,192,59007,128,0,59087:0:0:0:0:
256,192,59087,1,0,0:0:0:70:soft-hitclap31.wav
402,192,59146,1,0,0:0:0:70:soft-hitwhistle31.wav
36,192,59206,1,0,0:0:0:70:soft-hitclap31.wav
182,192,59265,1,0,0:0:0:70:soft-hitwhistle31.wav
329,192,59325,1,0,0:0:0:70:soft-hitclap31.wav
475,192,59384,1,0,0:0:0:70:soft-hitwhistle31.wav
109,192,59444,1,0,0:0:0:70:soft-hitclap31.wav
256,192,59503,1,0,0:0:0:70:soft-hitwhistle31.wav
402,192,59563,1,0,0:0:0:70:soft-hitclap31.wav
182,192,59622,1,0,0:0:0:70:soft-hitwhistle31.wav
36,192,59682,1,0,0:0:0:70:soft-hitclap31.wav
329,192,59741,1,0,0:0:0:70:soft-hitwhistle31.wav
109,192,59801,128,0,59880:0:0:0:70:soft-hitclap31.wav
475,192,59801,1,0,0:0:0:70:soft-hitwhistle31.wav
182,192,59880,128,0,59960:0:0:0:0:
256,192,59960,128,0,60039:0:0:0:0:
402,192,60039,1,0,0:0:0:70:soft-hitwhistle31.wav
475,192,60039,1,0,0:0:0:70:soft-hitfinish31.wav
36,192,60099,1,0,0:0:0:70:soft-hitwhistle31.wav
182,192,60158,1,0,0:0:0:70:soft-hitwhistle31.wav
329,192,60158,1,0,0:0:0:70:soft-hitclap31.wav
475,192,60218,1,0,0:0:0:70:soft-hitwhistle31.wav
36,192,60277,1,0,0:0:0:70:soft-hitwhistle31.wav
109,192,60337,1,0,0:0:0:0:
182,192,60396,1,0,0:0:0:70:soft-hitclap31.wav
256,192,60456,1,0,0:0:0:0:
329,192,60515,1,0,0:0:0:70:soft-hitwhistle31.wav
475,192,60515,1,0,0:0:0:70:soft-hitfinish31.wav
182,192,60575,1,0,0:0:0:70:soft-hitwhistle31.wav
36,192,60634,1,0,0:0:0:70:soft-hitwhistle31.wav
256,192,60753,1,0,0:0:0:70:soft-hitwhistle31.wav
402,192,60753,1,0,0:0:0:0:
182,192,60813,1,0,0:0:0:0:
109,192,60872,1,0,0:0:0:70:soft-hitwhistle31.wav
36,192,60932,1,0,0:0:0:0:
329,192,60991,1,0,0:0:0:70:soft-hitwhistle31.wav
475,192,60991,1,0,0:0:0:70:soft-hitfinish32.wav
256,192,61051,1,0,0:0:0:0:
182,192,61111,1,0,0:0:0:70:soft-hitfinish32.wav
109,192,61170,1,0,0:0:0:0:
36,192,61230,1,0,0:0:0:70:soft-hitwhistle31.wav
402,192,61230,1,0,0:0:0:70:soft-hitfinish32.wav
329,192,61289,1,0,0:0:0:0:
256,192,61349,1,0,0:0:0:70:soft-hitfinish32.wav
182,192,61408,1,0,0:0:0:0:
109,192,61468,1,0,0:0:0:70:soft-hitwhistle31.wav
475,192,61468,1,0,0:0:0:70:soft-hitfinish34.wav
329,192,61646,1,0,0:0:0:70:soft-hitclap31.wav
402,192,61646,1,0,0:0:0:0:
36,192,61706,1,0,0:0:0:70:soft-hitwhistle31.wav
182,192,61706,1,0,0:0:0:70:soft-hitfinish34.wav
256,192,61825,1,0,0:0:0:70:soft-hitclap31.wav
329,192,61884,1,0,0:0:0:0:
109,192,61944,1,0,0:0:0:70:soft-hitwhistle31.wav
402,192,61944,1,0,0:0:0:70:soft-hitfinish34.wav
36,192,62122,1,0,0:0:0:70:soft-hitclap31.wav
182,192,62122,1,0,0:0:0:0:
329,192,62182,1,0,0:0:0:70:soft-hitwhistle31.wav
475,192,62182,1,0,0:0:0:70:soft-hitfinish34.wav
109,192,62241,1,0,0:0:0:0:
402,192,62301,1,0,0:0:0:70:soft-hitwhistle31.wav
329,192,62361,1,0,0:0:0:0:
36,192,62420,1,0,0:0:0:70:soft-hitwhistle31.wav
182,192,62420,1,0,0:0:0:70:soft-hitfinish32.wav
256,192,62420,1,0,0:0:0:70:soft-hitclap31.wav
402,192,62539,1,0,0:0:0:70:soft-hitwhistle31.wav
475,192,62539,1,0,0:0:0:70:soft-hitfinish32.wav
109,192,62658,1,0,0:0:0:70:soft-hitwhistle31.wav
182,192,62658,128,0,63849:0:0:0:70:soft-hitfinish31.wav
329,192,62658,128,0,63849:0:0:0:70:soft-hitclap31.wav
36,192,63849,1,0,0:0:0:70:soft-hitclap31.wav
475,192,63849,1,0,0:0:0:70:soft-hitfinish31.wav
109,192,64027,1,0,0:0:0:70:soft-hitclap31.wav
256,192,64027,1,0,0:0:0:70:soft-hitfinish31.wav
475,192,64206,1,0,0:0:0:70:soft-hitwhistle31.wav
329,192,64265,1,0,0:0:0:70:soft-hitwhistle31.wav
36,192,64325,1,0,0:0:0:70:soft-hitclap31.wav
182,192,64325,1,0,0:0:0:70:soft-hitfinish31.wav
256,192,64503,1,0,0:0:0:70:soft-hitclap31.wav
402,192,64503,1,0,0:0:0:70:soft-hitfinish31.wav
36,192,64682,1,0,0:0:0:70:soft-hitwhistle31.wav
109,192,64682,1,0,0:0:0:0:
182,192,64801,1,0,0:0:0:70:soft-hitwhistle31.wav
329,192,64801,1,0,0:0:0:70:soft-hitfinish31.wav
256,192,64980,1,0,0:0:0:70:soft-hitwhistle31.wav
402,192,64980,1,0,0:0:0:70:soft-hitfinish31.wav
36,192,65158,1,0,0:0:0:70:soft-hitwhistle31.wav
182,192,65158,1,0,0:0:0:0:
329,192,65277,1,0,0:0:0:70:soft-hitwhistle31.wav
475,192,65277,1,0,0:0:0:70:soft-hitfinish31.wav
182,192,65456,1,0,0:0:0:70:soft-hitwhistle31.wav
256,192,65456,1,0,0:0:0:70:soft-hitfinish31.wav
36,192,65634,1,0,0:0:0:70:soft-hitwhistle31.wav
109,192,65634,1,0,0:0:0:0:
256,192,65753,1,0,0:0:0:70:soft-hitwhistle31.wav
402,192,65753,1,0,0:0:0:70:soft-hitfinish34.wav
475,192,65753,128,0,67658:0:0:0:0:
182,192,65813,1,0,0:0:0:0:
109,192,65872,1,0,0:0:0:70:soft-hitclap31.wav
36,192,65932,1,0,0:0:0:70:soft-hitclap31.wav
329,192,65991,1,0,0:0:0:70:soft-hitwhistle31.wav
402,192,65991,1,0,0:0:0:70:soft-hitfinish34.wav
256,192,66051,1,0,0:0:0:0:
182,192,66111,1,0,0:0:0:70:soft-hitclap31.wav
109,192,66170,1,0,0:0:0:0:
36,192,66230,1,0,0:0:0:70:soft-hitwhistle31.wav
402,192,66230,1,0,0:0:0:70:soft-hitfinish34.wav
329,192,66289,1,0,0:0:0:70:soft-hitclap31.wav
256,192,66349,1,0,0:0:0:70:soft-hitclap31.wav
182,192,66408,1,0,0:0:0:0:
36,192,66468,1,0,0:0:0:70:soft-hitwhistle31.wav
109,192,66468,1,0,0:0:0:70:soft-hitfinish34.wav
402,192,66527,1,0,0:0:0:0:
329,192,66587,1,0,0:0:0:70:soft-hitclap31.wav
256,192,66646,1,0,0:0:0:70:soft-hitclap31.wav
36,192,66706,1,0,0:0:0:70:soft-hitwhistle31.wav
182,192,66706,1,0,0:0:0:70:soft-hitfinish34.wav
256,192,66765,1,0,0:0:0:0:
329,192,66825,1,0,0:0:0:70:soft-hitclap31.wav
402,192,66884,1,0,0:0:0:70:soft-hitclap31.wav
36,192,66944,1,0,0:0:0:70:soft-hitwhistle31.wav
109,192,66944,1,0,0:0:0:70:soft-hitfinish34.wav
182,192,67003,1,0,0:0:0:0:
256,192,67063,1,0,0:0:0:70:soft-hitclap31.wav
329,192,67122,1,0,0:0:0:70:soft-hitclap31.wav
36,192,67182,1,0,0:0:0:70:soft-hitwhistle31.wav
402,192,67182,1,0,0:0:0:70:soft-hitfinish34.wav
109,192,67241,1,0,0:0:0:0:
182,192,67301,1,0,0:0:0:70:soft-hitclap31.wav
256,192,67361,1,0,0:0:0:70:soft-hitclap31.wav
329,192,67420,1,0,0:0:0:70:soft-hitwhistle31.wav
402,192,67420,1,0,0:0:0:70:soft-hitfinish34.wav
36,192,67480,1,0,0:0:0:0:
109,192,67539,1,0,0:0:0:70:soft-hitclap31.wav
182,192,67599,1,0,0:0:0:70:soft-hitclap31.wav
256,192,67658,1,0,0:0:0:70:soft-hitwhistle31.wav
402,192,67658,1,0,0:0:0:70:soft-hitfinish34.wav
36,192,67718,1,0,0:0:0:0:
109,192,67777,1,0,0:0:0:70:soft-hitclap31.wav
182,192,67837,1,0,0:0:0:70:soft-hitclap31.wav
256,192,67896,128,0,69087:0:0:0:70:soft-hitwhistle31.wav
475,192,67896,1,0,0:0:0:70:soft-hitfinish34.wav
402,192,67956,1,0,0:0:0:0:
329,192,68015,1,0,0:0:0:70:soft-hitclap31.wav
182,192,68075,1,0,0:0:0:70:soft-hitclap31.wav
36,192,68134,1,0,0:0:0:70:soft-hitwhistle31.wav
109,192,68134,1,0,0:0:0:70:soft-hitfinish34.wav
475,192,68194,1,0,0:0:0:0:
402,192,68253,1,0,0:0:0:70:soft-hitclap31.wav
329,192,68313,1,0,0:0:0:70:soft-hitclap31.wav
36,192,68372,1,0,0:0:0:70:soft-hitwhistle31.wav
182,192,68372,1,0,0:0:0:70:soft-hitfinish34.wav
475,192,68432,1,0,0:0:0:0:
402,192,68491,1,0,0:0:0:70:soft-hitclap31.wav
329,192,68551,1,0,0:0:0:70:soft-hitclap31.wav
36,192,68611,1,0,0:0:0:70:soft-hitwhistle31.wav
109,192,68611,1,0,0:0:0:70:soft-hitfinish34.wav
182,192,68670,1,0,0:0:0:0:
329,192,68730,1,0,0:0:0:70:soft-hitclap31.wav
402,192,68789,1,0,0:0:0:70:soft-hitclap31.wav
36,192,68849,1,0,0:0:0:70:soft-hitwhistle31.wav
475,192,68849,1,0,0:0:0:70:soft-hitfinish34.wav
109,192,68908,1,0,0:0:0:0:
182,192,68968,1,0,0:0:0:70:soft-hitclap31.wav
329,192,69027,1,0,0:0:0:70:soft-hitclap31.wav
36,192,69087,1,0,0:0:0:70:soft-hitwhistle31.wav
402,192,69087,1,0,0:0:0:70:soft-hitfinish32.wav
475,192,69087,1,0,0:0:0:70:soft-hitclap31.wav
182,192,69146,1,0,0:0:0:70:soft-hitwhistle31.wav
329,192,69206,1,0,0:0:0:70:soft-hitwhistle31.wav
475,192,69265,1,0,0:0:0:70:soft-hitwhistle31.wav
109,192,69325,1,0,0:0:0:70:soft-hitwhistle31.wav
256,192,69384,1,0,0:0:0:70:soft-hitwhistle31.wav
402,192,69444,1,0,0:0:0:70:soft-hitwhistle31.wav
36,192,69503,1,0,0:0:0:70:soft-hitwhistle31.wav
182,192,69563,1,0,0:0:0:70:soft-hitwhistle31.wav
475,192,69563,128,0,70515:0:0:0:70:soft-hitfinish31.wav
402,192,69920,1,0,0:0:0:0:
256,192,70039,1,0,0:0:0:0:
36,192,70118,1,0,0:0:0:0:
109,192,70198,1,0,0:0:0:0:
182,192,70277,1,0,0:0:0:0:
402,192,70357,1,0,0:0:0:0:
329,192,70436,1,0,0:0:0:0:
256,192,70515,1,0,0:0:0:0:
36,192,70575,1,0,0:0:0:0:
109,192,70634,1,0,0:0:0:0:
182,192,70694,1,0,0:0:0:0:
402,192,70753,1,0,0:0:0:0:
329,192,70813,1,0,0:0:0:0:
256,192,70872,1,0,0:0:0:0:
475,192,70932,1,0,0:0:0:0:
402,192,70991,1,0,0:0:0:0:
329,192,71051,1,0,0:0:0:0:
36,192,71111,1,0,0:0:0:0:
109,192,71170,1,0,0:0:0:0:
182,192,71230,1,0,0:0:0:0:
475,192,71289,1,0,0:0:0:0:
402,192,71349,1,0,0:0:0:0:
329,192,71408,1,0,0:0:0:0:
36,192,71468,1,0,0:0:0:0:
182,192,71527,1,0,0:0:0:0:
475,192,71587,1,0,0:0:0:0:
329,192,71646,1,0,0:0:0:0:
36,192,71706,1,0,0:0:0:0:
182,192,71765,1,0,0:0:0:0:
475,192,71825,1,0,0:0:0:0:
329,192,71884,1,0,0:0:0:0:
36,192,71944,1,0,0:0:0:0:
182,192,72003,1,0,0:0:0:0:
475,192,72063,1,0,0:0:0:0:
329,192,72122,1,0,0:0:0:0:
36,192,72182,1,0,0:0:0:0:
182,192,72241,1,0,0:0:0:0:
475,192,72301,1,0,0:0:0:0:
329,192,72361,1,0,0:0:0:0:
36,192,72420,1,0,0:0:0:70:soft-hitwhistle31.wav
109,192,72420,1,0,0:0:0:70:soft-hitfinish32.wav
402,192,72539,1,0,0:0:0:70:soft-hitwhistle31.wav
475,192,72539,1,0,0:0:0:70:soft-hitfinish32.wav
36,192,72658,1,0,0:0:0:70:soft-hitwhistle31.wav
109,192,72658,1,0,0:0:0:70:soft-hitfinish32.wav
256,192,72658,1,0,0:0:0:0:
475,192,72896,128,0,73015:0:0:0:0:
36,192,73015,1,0,0:0:0:0:
109,192,73075,1,0,0:0:0:0:
182,192,73134,1,0,0:0:0:70:soft-hitclap31.wav
256,192,73134,1,0,0:0:0:70:soft-hitclap35.wav
475,192,73194,1,0,0:0:0:0:
329,192,73253,1,0,0:0:0:0:
182,192,73313,1,0,0:0:0:0:
36,192,73372,128,0,73611:0:0:0:70:soft-hitwhistle31.wav
402,192,73372,128,0,73611:0:0:0:70:soft-hitfinish31.wav
475,192,73372,128,0,73611:0:0:0:0:
109,192,73730,128,0,73968:0:0:0:70:soft-hitwhistle31.wav
182,192,73730,128,0,73968:0:0:0:0:
329,192,73730,128,0,73968:0:0:0:0:
256,192,74087,128,0,74325:0:0:0:70:soft-hitwhistle31.wav
402,192,74087,128,0,74325:0:0:0:0:
475,192,74087,128,0,74325:0:0:0:0:
36,192,74444,128,0,74682:0:0:0:70:soft-hitwhistle31.wav
182,192,74444,128,0,74682:0:0:0:0:
329,192,74444,128,0,74682:0:0:0:0:
475,192,74682,1,0,0:0:0:70:soft-hitclap31.wav
109,192,74801,1,0,0:0:0:70:soft-hitwhistle31.wav
256,192,74801,1,0,0:0:0:0:
402,192,74920,1,0,0:0:0:0:
36,192,75039,1,0,0:0:0:70:soft-hitwhistle31.wav
182,192,75039,1,0,0:0:0:0:
256,192,75099,1,0,0:0:0:0:
329,192,75158,1,0,0:0:0:0:
402,192,75218,1,0,0:0:0:0:
36,192,75277,128,0,75515:0:0:0:70:soft-hitwhistle31.wav
475,192,75277,128,0,75515:0:0:0:0:
109,192,75515,1,0,0:0:0:70:soft-hitclap31.wav
182,192,75634,128,0,75872:0:0:0:70:soft-hitwhistle31.wav
256,192,75634,128,0,75872:0:0:0:0:
402,192,75634,128,0,75872:0:0:0:0:
475,192,75872,1,0,0:0:0:70:soft-hitclap31.wav
36,192,75991,128,0,76230:0:0:0:70:soft-hitwhistle31.wav
329,192,75991,128,0,76230:0:0:0:0:
475,192,76230,1,0,0:0:0:70:soft-hitclap31.wav
182,192,76349,1,0,0:0:0:70:soft-hitwhistle31.wav
256,192,76349,1,0,0:0:0:0:
329,192,76468,1,0,0:0:0:0:
402,192,76468,1,0,0:0:0:0:
36,192,76587,1,0,0:0:0:70:soft-hitclap31.wav
182,192,76706,1,0,0:0:0:70:soft-hitwhistle31.wav
475,192,76706,1,0,0:0:0:0:
329,192,76825,1,0,0:0:0:0:
36,192,76944,1,0,0:0:0:70:soft-hitwhistle31.wav
109,192,76944,1,0,0:0:0:0:
182,192,77003,1,0,0:0:0:0:
256,192,77063,1,0,0:0:0:0:
329,192,77122,1,0,0:0:0:0:
402,192,77182,128,0,77420:0:0:0:70:soft-hitwhistle31.wav
475,192,77182,128,0,77420:0:0:0:70:soft-hitfinish31.wav
36,192,77420,1,0,0:0:0:70:soft-hitclap31.wav
109,192,77539,128,0,77777:0:0:0:70:soft-hitwhistle31.wav
182,192,77539,128,0,77777:0:0:0:0:
329,192,77539,128,0,77777:0:0:0:0:
256,192,77896,128,0,78134:0:0:0:70:soft-hitwhistle31.wav
402,192,77896,128,0,78134:0:0:0:0:
475,192,77896,128,0,78134:0:0:0:0:
182,192,78134,1,0,0:0:0:70:soft-hitclap31.wav
109,192,78194,1,0,0:0:0:0:
36,192,78253,1,0,0:0:0:70:soft-hitwhistle31.wav
329,192,78253,1,0,0:0:0:0:
475,192,78253,1,0,0:0:0:0:
182,192,78372,1,0,0:0:0:0:
402,192,78491,1,0,0:0:0:70:soft-hitclap31.wav
109,192,78611,1,0,0:0:0:70:soft-hitwhistle31.wav
256,192,78611,1,0,0:0:0:0:
475,192,78730,1,0,0:0:0:0:
36,192,78849,1,0,0:0:0:70:soft-hitwhistle31.wav
182,192,78908,1,0,0:0:0:0:
402,192,78968,1,0,0:0:0:0:
329,192,79027,1,0,0:0:0:0:
109,192,79087,1,0,0:0:0:70:soft-hitwhistle31.wav
256,192,79087,1,0,0:0:0:0:
475,192,79146,1,0,0:0:0:0:
402,192,79206,1,0,0:0:0:0:
329,192,79265,1,0,0:0:0:0:
36,192,79325,1,0,0:0:0:70:soft-hitclap31.wav
109,192,79384,1,0,0:0:0:0:
182,192,79444,1,0,0:0:0:70:soft-hitwhistle31.wav
256,192,79444,1,0,0:0:0:0:
475,192,79503,1,0,0:0:0:0:
36,192,79563,1,0,0:0:0:0:
329,192,79563,1,0,0:0:0:0:
109,192,79622,1,0,0:0:0:0:
182,192,79682,1,0,0:0:0:70:soft-hitclap31.wav
256,192,79741,1,0,0:0:0:0:
329,192,79801,1,0,0:0:0:70:soft-hitwhistle31.wav
402,192,79801,1,0,0:0:0:0:
36,192,79861,1,0,0:0:0:0:
109,192,79920,1,0,0:0:0:0:
182,192,79980,1,0,0:0:0:0:
256,192,80039,1,0,0:0:0:70:soft-hitclap31.wav
475,192,80039,1,0,0:0:0:0:
36,192,80158,1,0,0:0:0:70:soft-hitwhistle31.wav
329,192,80158,128,0,80396:0:0:0:0:
182,192,80396,128,0,80515:0:0:0:70:soft-hitclap31.wav
36,192,80515,128,0,80634:0:0:0:70:soft-hitwhistle31.wav
475,192,80515,1,0,0:0:0:0:
329,192,80634,1,0,0:0:0:70:soft-hitclap31.wav
256,192,80694,1,0,0:0:0:70:soft-hitclap31.wav
109,192,80753,1,0,0:0:0:70:soft-hitwhistle31.wav
182,192,80753,1,0,0:0:0:70:soft-hitclap31.wav
475,192,80813,1,0,0:0:0:70:soft-hitclap31.wav
329,192,80872,1,0,0:0:0:70:soft-hitclap31.wav
182,192,80932,1,0,0:0:0:70:soft-hitclap31.wav
36,192,80991,1,0,0:0:0:70:soft-hitfinish31.wav
402,192,80991,1,0,0:0:0:70:soft-hitwhistle31.wav
475,192,80991,128,0,81230:0:0:0:0:
182,192,81230,1,0,0:0:0:70:soft-hitwhistle31.wav
256,192,81230,1,0,0:0:0:0:
36,192,81349,128,0,81587:0:0:0:0:
109,192,81349,128,0,81587:0:0:0:0:
329,192,81468,1,0,0:0:0:70:soft-hitwhistle31.wav
475,192,81468,1,0,0:0:0:0:
182,192,81706,1,0,0:0:0:70:soft-hitwhistle31.wav
402,192,81706,128,0,81944:0:0:0:0:
36,192,81944,1,0,0:0:0:70:soft-hitwhistle31.wav
109,192,81944,1,0,0:0:0:0:
182,192,82063,128,0,82301:0:0:0:0:
256,192,82063,128,0,82301:0:0:0:0:
402,192,82182,1,0,0:0:0:70:soft-hitwhistle31.wav
475,192,82182,1,0,0:0:0:0:
36,192,82301,1,0,0:0:0:0:
329,192,82420,1,0,0:0:0:70:soft-hitwhistle31.wav
475,192,82420,1,0,0:0:0:0:
109,192,82539,1,0,0:0:0:0:
256,192,82658,1,0,0:0:0:70:soft-hitwhistle31.wav
402,192,82658,1,0,0:0:0:0:
182,192,82718,1,0,0:0:0:0:
109,192,82777,1,0,0:0:0:0:
36,192,82837,1,0,0:0:0:0:
329,192,82896,1,0,0:0:0:70:soft-hitwhistle31.wav
475,192,82896,128,0,83134:0:0:0:70:soft-hitfinish31.wav
36,192,83134,1,0,0:0:0:70:soft-hitwhistle31.wav
109,192,83134,1,0,0:0:0:0:
182,192,83253,128,0,83491:0:0:0:0:
256,192,83253,128,0,83491:0:0:0:0:
402,192,83372,1,0,0:0:0:70:soft-hitwhistle31.wav
475,192,83372,1,0,0:0:0:0:
36,192,83611,128,0,83849:0:0:0:70:soft-hitwhistle31.wav
329,192,83611,1,0,0:0:0:0:
109,192,83849,1,0,0:0:0:70:soft-hitwhistle31.wav
182,192,83849,1,0,0:0:0:0:
402,192,83968,128,0,84206:0:0:0:0:
475,192,83968,128,0,84206:0:0:0:0:
36,192,84087,1,0,0:0:0:70:soft-hitwhistle31.wav
256,192,84087,1,0,0:0:0:0:
182,192,84206,1,0,0:0:0:0:
109,192,84325,1,0,0:0:0:70:soft-hitwhistle31.wav
329,192,84325,1,0,0:0:0:0:
402,192,84444,1,0,0:0:0:70:soft-hitwhistle31.wav
36,192,84563,1,0,0:0:0:70:soft-hitwhistle31.wav
256,192,84563,1,0,0:0:0:0:
329,192,84622,1,0,0:0:0:0:
402,192,84682,1,0,0:0:0:70:soft-hitwhistle31.wav
475,192,84741,1,0,0:0:0:70:soft-hitwhistle31.wav
36,192,84801,128,0,85039:0:0:0:70:soft-hitfinish31.wav
109,192,84801,1,0,0:0:0:70:soft-hitwhistle31.wav
256,192,85039,1,0,0:0:0:70:soft-hitwhistle31.wav
329,192,85039,1,0,0:0:0:70:soft-hitclap31.wav
402,192,85158,128,0,85396:0:0:0:0:
475,192,85158,128,0,85396:0:0:0:0:
36,192,85277,1,0,0:0:0:70:soft-hitwhistle31.wav
182,192,85277,1,0,0:0:0:70:soft-hitclap31.wav
109,192,85515,128,0,85753:0:0:0:70:soft-hitclap31.wav
329,192,85515,1,0,0:0:0:70:soft-hitwhistle31.wav
402,192,85753,1,0,0:0:0:70:soft-hitclap31.wav
475,192,85753,1,0,0:0:0:70:soft-hitwhistle31.wav
256,192,85872,128,0,86111:0:0:0:0:
329,192,85872,128,0,86111:0:0:0:0:
36,192,85991,1,0,0:0:0:70:soft-hitclap31.wav
109,192,85991,1,0,0:0:0:70:soft-hitwhistle31.wav
475,192,86111,1,0,0:0:0:0:
36,192,86230,1,0,0:0:0:70:soft-hitwhistle31.wav
182,192,86230,1,0,0:0:0:70:soft-hitfinish32.wav
402,192,86349,1,0,0:0:0:70:soft-hitwhistle31.wav
109,192,86468,1,0,0:0:0:70:soft-hitwhistle31.wav
256,192,86468,1,0,0:0:0:0:
475,192,86527,1,0,0:0:0:70:soft-hitwhistle31.wav
402,192,86587,1,0,0:0:0:70:soft-hitwhistle31.wav
329,192,86646,1,0,0:0:0:70:soft-hitwhistle31.wav
36,192,86706,1,0,0:0:0:70:soft-hitwhistle31.wav
182,192,86706,1,0,0:0:0:70:soft-hitfinish34.wav
475,192,86765,1,0,0:0:0:0:
329,192,86825,1,0,0:0:0:70:soft-hitwhistle31.wav
36,192,86884,1,0,0:0:0:0:
182,192,86944,1,0,0:0:0:70:soft-hitwhistle31.wav
402,192,87003,1,0,0:0:0:0:
256,192,87063,1,0,0:0:0:70:soft-hitwhistle31.wav
109,192,87122,1,0,0:0:0:0:
329,192,87182,1,0,0:0:0:70:soft-hitwhistle31.wav
475,192,87241,1,0,0:0:0:0:
182,192,87301,1,0,0:0:0:70:soft-hitwhistle31.wav
36,192,87361,1,0,0:0:0:0:
402,192,87420,1,0,0:0:0:70:soft-hitwhistle31.wav
256,192,87480,1,0,0:0:0:0:
109,192,87539,1,0,0:0:0:70:soft-hitwhistle31.wav
475,192,87599,1,0,0:0:0:0:
36,192,87658,128,0,88611:0:0:0:70:soft-hitwhistle31.wav
182,192,87658,128,0,88611:0:0:0:0:
329,192,87658,128,0,88611:0:0:0:0:
402,192,88611,1,0,0:0:0:70:soft-hitwhistle31.wav
475,192,88611,1,0,0:0:0:70:soft-hitclap31.wav
109,192,88730,1,0,0:0:0:70:soft-hitwhistle31.wav
256,192,88730,1,0,0:0:0:70:soft-hitclap31.wav
36,192,88968,1,0,0:0:0:70:soft-hitwhistle31.wav
182,192,88968,1,0,0:0:0:70:soft-hitclap31.wav
329,192,89087,1,0,0:0:0:70:soft-hitwhistle31.wav
402,192,89087,1,0,0:0:0:70:soft-hitclap31.wav
109,192,89325,1,0,0:0:0:70:soft-hitwhistle31.wav
256,192,89325,1,0,0:0:0:70:soft-hitclap31.wav
402,192,89444,1,0,0:0:0:70:soft-hitwhistle31.wav
475,192,89444,1,0,0:0:0:70:soft-hitclap31.wav
182,192,89682,1,0,0:0:0:70:soft-hitwhistle31.wav
329,192,89682,1,0,0:0:0:70:soft-hitclap31.wav
36,192,89801,1,0,0:0:0:70:soft-hitwhistle31.wav
109,192,89801,1,0,0:0:0:70:soft-hitclap31.wav
256,192,90039,1,0,0:0:0:70:soft-hitwhistle31.wav
402,192,90039,128,0,90277:0:0:0:70:soft-hitclap31.wav
36,192,90277,1,0,0:0:0:70:soft-hitwhistle31.wav
109,192,90277,1,0,0:0:0:70:soft-hitfinish34.wav
182,192,90337,1,0,0:0:0:70:soft-hitwhistle31.wav
256,192,90396,1,0,0:0:0:70:soft-hitwhistle31.wav
475,192,90456,1,0,0:0:0:70:soft-hitwhistle31.wav
36,192,90515,1,0,0:0:0:70:soft-hitwhistle31.wav
182,192,90515,1,0,0:0:0:70:soft-hitfinish31.wav
329,192,90515,1,0,0:0:0:0:
36,192,90634,1,0,0:0:0:70:soft-hitwhistle31.wav
182,192,90634,1,0,0:0:0:0:
329,192,90753,1,0,0:0:0:70:soft-hitwhistle31.wav
475,192,90753,1,0,0:0:0:0:
329,192,90872,1,0,0:0:0:70:soft-hitwhistle31.wav
475,192,90872,1,0,0:0:0:0:
36,192,90991,1,0,0:0:0:70:soft-hitwhistle31.wav
256,192,90991,1,0,0:0:0:0:
475,192,91111,1,0,0:0:0:70:soft-hitwhistle31.wav
256,192,91230,1,0,0:0:0:70:soft-hitwhistle31.wav
402,192,91230,1,0,0:0:0:0:
36,192,91349,1,0,0:0:0:70:soft-hitwhistle31.wav
182,192,91468,1,0,0:0:0:70:soft-hitwhistle31.wav
329,192,91468,1,0,0:0:0:0:
475,192,91587,1,0,0:0:0:70:soft-hitwhistle31.wav
36,192,91706,1,0,0:0:0:70:soft-hitwhistle31.wav
109,192,91706,1,0,0:0:0:0:
256,192,91825,1,0,0:0:0:70:soft-hitwhistle31.wav
402,192,91944,1,0,0:0:0:70:soft-hitwhistle31.wav
475,192,91944,1,0,0:0:0:0:
109,192,92063,1,0,0:0:0:70:soft-hitwhistle31.wav
182,192,92182,1,0,0:0:0:70:soft-hitwhistle31.wav
329,192,92182,1,0,0:0:0:0:
36,192,92301,1,0,0:0:0:70:soft-hitwhistle31.wav
402,192,92420,1,0,0:0:0:70:soft-hitwhistle31.wav
475,192,92420,1,0,0:0:0:0:
256,192,92539,1,0,0:0:0:70:soft-hitwhistle31.wav
36,192,92658,1,0,0:0:0:70:soft-hitwhistle31.wav
182,192,92658,1,0,0:0:0:0:
475,192,92777,1,0,0:0:0:70:soft-hitwhistle31.wav
109,192,92896,1,0,0:0:0:70:soft-hitwhistle31.wav
256,192,92896,1,0,0:0:0:0:
402,192,93015,1,0,0:0:0:70:soft-hitwhistle31.wav
36,192,93134,1,0,0:0:0:70:soft-hitwhistle31.wav
182,192,93134,1,0,0:0:0:0:
329,192,93253,1,0,0:0:0:70:soft-hitwhistle31.wav
36,192,93372,1,0,0:0:0:70:soft-hitwhistle31.wav
475,192,93372,1,0,0:0:0:0:
256,192,93491,1,0,0:0:0:70:soft-hitwhistle31.wav
36,192,93611,1,0,0:0:0:70:soft-hitwhistle31.wav
402,192,93611,1,0,0:0:0:0:
109,192,93670,1,0,0:0:0:0:
182,192,93730,1,0,0:0:0:70:soft-hitwhistle31.wav
256,192,93789,1,0,0:0:0:0:
475,192,93849,1,0,0:0:0:70:soft-hitwhistle31.wav
402,192,93908,1,0,0:0:0:0:
329,192,93968,1,0,0:0:0:70:soft-hitwhistle31.wav
36,192,94027,1,0,0:0:0:0:
182,192,94087,1,0,0:0:0:70:soft-hitwhistle31.wav
402,192,94206,1,0,0:0:0:70:soft-hitwhistle31.wav
475,192,94206,1,0,0:0:0:0:
329,192,94265,1,0,0:0:0:70:soft-hitwhistle31.wav
109,192,94325,1,0,0:0:0:70:soft-hitfinish31.wav
256,192,94325,1,0,0:0:0:70:soft-hitwhistle31.wav
36,192,94444,1,0,0:0:0:70:soft-hitwhistle31.wav
182,192,94563,1,0,0:0:0:70:soft-hitwhistle31.wav
329,192,94563,1,0,0:0:0:0:
475,192,94682,1,0,0:0:0:70:soft-hitwhistle31.wav
182,192,94801,1,0,0:0:0:70:soft-hitwhistle31.wav
329,192,94801,1,0,0:0:0:0:
36,192,94920,1,0,0:0:0:70:soft-hitwhistle31.wav
256,192,95039,1,0,0:0:0:70:soft-hitwhistle31.wav
402,192,95039,1,0,0:0:0:0:
109,192,95158,1,0,0:0:0:70:soft-hitwhistle31.wav
329,192,95277,1,0,0:0:0:70:soft-hitwhistle31.wav
475,192,95277,1,0,0:0:0:0:
36,192,95396,1,0,0:0:0:70:soft-hitwhistle31.wav
109,192,95515,1,0,0:0:0:70:soft-hitwhistle31.wav
256,192,95515,1,0,0:0:0:0:
402,192,95634,1,0,0:0:0:70:soft-hitwhistle31.wav
36,192,95753,1,0,0:0:0:70:soft-hitwhistle31.wav
182,192,95753,1,0,0:0:0:0:
475,192,95833,1,0,0:0:0:70:soft-hitwhistle31.wav
256,192,95912,1,0,0:0:0:70:soft-hitwhistle31.wav
475,192,95991,1,0,0:0:0:70:soft-hitwhistle31.wav
256,192,96071,1,0,0:0:0:70:soft-hitwhistle31.wav
475,192,96150,1,0,0:0:0:70:soft-hitwhistle31.wav
36,192,96230,1,0,0:0:0:70:soft-hitwhistle31.wav
329,192,96230,1,0,0:0:0:70:soft-hitfinish31.wav
109,192,96289,1,0,0:0:0:0:
182,192,96349,1,0,0:0:0:70:soft-hitwhistle31.wav
475,192,96408,1,0,0:0:0:0:
36,192,96468,1,0,0:0:0:70:soft-hitwhistle31.wav
329,192,96468,1,0,0:0:0:0:
109,192,96527,1,0,0:0:0:0:
182,192,96587,1,0,0:0:0:70:soft-hitwhistle31.wav
475,192,96646,1,0,0:0:0:0:
36,192,96706,1,0,0:0:0:70:soft-hitfinish31.wav
329,192,96706,1,0,0:0:0:70:soft-hitwhistle31.wav
256,192,96765,1,0,0:0:0:0:
182,192,96825,1,0,0:0:0:70:soft-hitwhistle31.wav
109,192,96884,1,0,0:0:0:0:
36,192,96944,1,0,0:0:0:70:soft-hitwhistle31.wav
402,192,96944,1,0,0:0:0:0:
329,192,97003,1,0,0:0:0:0:
256,192,97063,1,0,0:0:0:70:soft-hitwhistle31.wav
182,192,97122,1,0,0:0:0:0:
109,192,97182,1,0,0:0:0:70:soft-hitwhistle31.wav
475,192,97182,1,0,0:0:0:70:soft-hitfinish34.wav
402,192,97241,1,0,0:0:0:0:
36,192,97301,128,0,97420:0:0:0:70:soft-hitwhistle31.wav
329,192,97301,1,0,0:0:0:0:
182,192,97420,1,0,0:0:0:70:soft-hitfinish34.wav
475,192,97539,128,0,97658:0:0:0:70:soft-hitwhistle31.wav
36,192,97658,1,0,0:0:0:70:soft-hitwhistle31.wav
329,192,97658,1,0,0:0:0:70:soft-hitfinish34.wav
109,192,97718,1,0,0:0:0:70:soft-hitwhistle31.wav
182,192,97777,1,0,0:0:0:70:soft-hitwhistle31.wav
475,192,97777,1,0,0:0:0:0:
402,192,97837,1,0,0:0:0:70:soft-hitwhistle31.wav
256,192,97896,128,0,98015:0:0:0:70:soft-hitwhistle31.wav
329,192,97896,1,0,0:0:0:70:soft-hitfinish34.wav
109,192,98015,1,0,0:0:0:70:soft-hitwhistle31.wav
475,192,98075,1,0,0:0:0:70:soft-hitwhistle31.wav
329,192,98134,1,0,0:0:0:70:soft-hitwhistle31.wav
402,192,98134,1,0,0:0:0:70:soft-hitfinish34.wav
36,192,98194,1,0,0:0:0:70:soft-hitwhistle31.wav
182,192,98253,1,0,0:0:0:70:soft-hitwhistle31.wav
475,192,98313,1,0,0:0:0:70:soft-hitwhistle31.wav
329,192,98372,1,0,0:0:0:70:soft-hitwhistle31.wav
109,192,98432,1,0,0:0:0:70:soft-hitwhistle31.wav
256,192,98491,1,0,0:0:0:70:soft-hitwhistle31.wav
402,192,98551,1,0,0:0:0:70:soft-hitfinish34.wav
182,192,98611,1,0,0:0:0:70:soft-hitfinish34.wav
36,192,98670,1,0,0:0:0:70:soft-hitfinish34.wav
329,192,98730,1,0,0:0:0:70:soft-hitfinish34.wav
475,192,98789,1,0,0:0:0:70:soft-hitwhistle31.wav
109,192,98849,1,0,0:0:0:70:soft-hitfinish34.wav
402,192,98908,1,0,0:0:0:70:soft-hitwhistle31.wav
182,192,98968,1,0,0:0:0:70:soft-hitfinish34.wav
329,192,99027,1,0,0:0:0:70:soft-hitwhistle31.wav
36,192,99087,1,0,0:0:0:70:soft-hitfinish34.wav
256,192,99146,1,0,0:0:0:70:soft-hitfinish34.wav
475,192,99206,1,0,0:0:0:70:soft-hitwhistle31.wav
329,192,99265,1,0,0:0:0:70:soft-hitfinish34.wav
36,192,99325,1,0,0:0:0:70:soft-hitwhistle31.wav
182,192,99384,1,0,0:0:0:70:soft-hitwhistle31.wav
402,192,99444,1,0,0:0:0:70:soft-hitfinish34.wav
256,192,99503,1,0,0:0:0:70:soft-hitwhistle31.wav
109,192,99563,1,0,0:0:0:70:soft-hitfinish34.wav
329,192,99622,1,0,0:0:0:70:soft-hitfinish34.wav
475,192,99682,1,0,0:0:0:70:soft-hitwhistle31.wav
36,192,99741,1,0,0:0:0:70:soft-hitwhistle31.wav
182,192,99801,1,0,0:0:0:70:soft-hitwhistle31.wav
402,192,99861,1,0,0:0:0:70:soft-hitwhistle31.wav
256,192,99920,1,0,0:0:0:70:soft-hitwhistle31.wav
109,192,99980,1,0,0:0:0:70:soft-hitfinish34.wav
475,192,100039,1,0,0:0:0:70:soft-hitwhistle31.wav
329,192,100099,1,0,0:0:0:70:soft-hitfinish34.wav
182,192,100158,1,0,0:0:0:70:soft-hitfinish34.wav
36,192,100218,1,0,0:0:0:70:soft-hitfinish34.wav
402,192,100277,1,0,0:0:0:70:soft-hitfinish34.wav
256,192,100337,1,0,0:0:0:70:soft-hitwhistle31.wav
109,192,100396,1,0,0:0:0:70:soft-hitwhistle31.wav
329,192,100456,1,0,0:0:0:70:soft-hitfinish34.wav
475,192,100515,1,0,0:0:0:70:soft-hitfinish34.wav
182,192,100575,1,0,0:0:0:70:soft-hitwhistle31.wav
36,192,100634,1,0,0:0:0:70:soft-hitfinish34.wav
402,192,100694,1,0,0:0:0:70:soft-hitwhistle31.wav
256,192,100753,1,0,0:0:0:70:soft-hitfinish34.wav
109,192,100813,1,0,0:0:0:70:soft-hitwhistle31.wav
329,192,100872,1,0,0:0:0:70:soft-hitfinish34.wav
475,192,100932,1,0,0:0:0:70:soft-hitfinish34.wav
36,192,100991,1,0,0:0:0:70:soft-hitwhistle31.wav
182,192,100991,1,0,0:0:0:70:soft-hitfinish34.wav
256,192,101051,1,0,0:0:0:70:soft-hitwhistle31.wav
329,192,101111,1,0,0:0:0:70:soft-hitwhistle31.wav
402,192,101170,1,0,0:0:0:70:soft-hitfinish34.wav
475,192,101230,1,0,0:0:0:70:soft-hitwhistle31.wav
36,192,101289,1,0,0:0:0:70:soft-hitwhistle31.wav
182,192,101349,1,0,0:0:0:70:soft-hitwhistle31.wav
329,192,101408,1,0,0:0:0:70:soft-hitwhistle31.wav
475,192,101468,1,0,0:0:0:70:soft-hitwhistle31.wav
256,192,101527,1,0,0:0:0:70:soft-hitwhistle31.wav
182,192,101587,1,0,0:0:0:70:soft-hitwhistle31.wav
109,192,101646,1,0,0:0:0:70:soft-hitwhistle31.wav
36,192,101706,1,0,0:0:0:70:soft-hitwhistle31.wav
475,192,101765,1,0,0:0:0:70:soft-hitwhistle31.wav
402,192,101825,1,0,0:0:0:70:soft-hitwhistle31.wav
329,192,101884,1,0,0:0:0:70:soft-hitfinish34.wav
109,192,101944,1,0,0:0:0:70:soft-hitfinish31.wav
256,192,101944,1,0,0:0:0:70:soft-hitclap31.wav
475,192,102063,1,0,0:0:0:70:soft-hitwhistle31.wav
182,192,102182,1,0,0:0:0:70:soft-hitwhistle31.wav
329,192,102182,1,0,0:0:0:0:
36,192,102301,1,0,0:0:0:70:soft-hitfinish31.wav
109,192,102301,1,0,0:0:0:70:soft-hitclap31.wav
402,192,102420,1,0,0:0:0:70:soft-hitwhistle31.wav
475,192,102420,1,0,0:0:0:0:
36,192,102539,1,0,0:0:0:70:soft-hitwhistle31.wav
182,192,102658,1,0,0:0:0:70:soft-hitwhistle31.wav
256,192,102658,1,0,0:0:0:70:soft-hitclap31.wav
402,192,102777,1,0,0:0:0:70:soft-hitwhistle31.wav
475,192,102777,1,0,0:0:0:0:
109,192,102896,1,0,0:0:0:70:soft-hitwhistle31.wav
182,192,102896,1,0,0:0:0:0:
329,192,103015,1,0,0:0:0:70:soft-hitwhistle31.wav
402,192,103015,1,0,0:0:0:70:soft-hitclap31.wav
36,192,103134,1,0,0:0:0:70:soft-hitwhistle31.wav
109,192,103134,1,0,0:0:0:0:
256,192,103253,1,0,0:0:0:70:soft-hitwhistle31.wav
329,192,103253,1,0,0:0:0:0:
36,192,103372,1,0,0:0:0:70:soft-hitwhistle31.wav
182,192,103432,1,0,0:0:0:70:soft-hitwhistle31.wav
475,192,103491,1,0,0:0:0:70:soft-hitwhistle31.wav
329,192,103551,1,0,0:0:0:70:soft-hitwhistle31.wav
36,192,103611,1,0,0:0:0:70:soft-hitwhistle31.wav
109,192,103670,1,0,0:0:0:70:soft-hitwhistle31.wav
182,192,103730,1,0,0:0:0:70:soft-hitwhistle31.wav
256,192,103789,1,0,0:0:0:70:soft-hitwhistle31.wav
329,192,103849,1,0,0:0:0:70:soft-hitwhistle31.wav
402,192,103849,1,0,0:0:0:70:soft-hitfinish31.wav
36,192,103968,1,0,0:0:0:70:soft-hitwhistle31.wav
182,192,104087,1,0,0:0:0:70:soft-hitwhistle31.wav
256,192,104087,1,0,0:0:0:0:
475,192,104206,1,0,0:0:0:70:soft-hitwhistle31.wav
109,192,104325,1,0,0:0:0:70:soft-hitwhistle31.wav
329,192,104325,1,0,0:0:0:0:
402,192,104444,1,0,0:0:0:70:soft-hitwhistle31.wav
256,192,104563,1,0,0:0:0:70:soft-hitwhistle31.wav
475,192,104563,1,0,0:0:0:0:
36,192,104682,1,0,0:0:0:70:soft-hitwhistle31.wav
182,192,104801,1,0,0:0:0:70:soft-hitwhistle31.wav
402,192,104801,1,0,0:0:0:70:soft-hitclap31.wav
109,192,104861,1,0,0:0:0:0:
36,192,104920,1,0,0:0:0:70:soft-hitwhistle31.wav
475,192,104920,128,0,105039:0:0:0:0:
256,192,105039,1,0,0:0:0:70:soft-hitwhistle31.wav
329,192,105039,1,0,0:0:0:70:soft-hitclap31.wav
182,192,105099,1,0,0:0:0:0:
109,192,105158,1,0,0:0:0:70:soft-hitwhistle31.wav
402,192,105158,128,0,105277:0:0:0:0:
329,192,105277,1,0,0:0:0:70:soft-hitfinish34.wav
256,192,105337,1,0,0:0:0:70:soft-hitwhistle31.wav
109,192,105396,1,0,0:0:0:70:soft-hitwhistle31.wav
182,192,105396,1,0,0:0:0:0:
36,192,105456,1,0,0:0:0:70:soft-hitwhistle31.wav
329,192,105515,128,0,105634:0:0:0:70:soft-hitwhistle31.wav
475,192,105515,1,0,0:0:0:70:soft-hitfinish34.wav
109,192,105634,1,0,0:0:0:70:soft-hitwhistle31.wav
182,192,105694,1,0,0:0:0:70:soft-hitwhistle31.wav
256,192,105753,1,0,0:0:0:70:soft-hitwhistle31.wav
402,192,105753,1,0,0:0:0:70:soft-hitfinish31.wav
36,192,105872,1,0,0:0:0:70:soft-hitwhistle31.wav
182,192,105991,1,0,0:0:0:70:soft-hitwhistle31.wav
329,192,105991,1,0,0:0:0:0:
402,192,106111,1,0,0:0:0:70:soft-hitwhistle31.wav
475,192,106111,1,0,0:0:0:70:soft-hitfinish31.wav
36,192,106230,1,0,0:0:0:70:soft-hitwhistle31.wav
109,192,106230,1,0,0:0:0:0:
475,192,106349,1,0,0:0:0:70:soft-hitwhistle31.wav
256,192,106468,1,0,0:0:0:70:soft-hitclap31.wav
329,192,106468,1,0,0:0:0:70:soft-hitfinish31.wav
36,192,106587,1,0,0:0:0:70:soft-hitwhistle31.wav
109,192,106587,1,0,0:0:0:0:
329,192,106706,1,0,0:0:0:70:soft-hitwhistle31.wav
402,192,106706,1,0,0:0:0:0:
109,192,106825,1,0,0:0:0:70:soft-hitclap31.wav
182,192,106825,1,0,0:0:0:70:soft-hitfinish31.wav
402,192,106944,1,0,0:0:0:70:soft-hitwhistle31.wav
475,192,106944,1,0,0:0:0:0:
182,192,107063,1,0,0:0:0:70:soft-hitwhistle31.wav
256,192,107063,1,0,0:0:0:0:
475,192,107182,1,0,0:0:0:70:soft-hitwhistle31.wav
329,192,107241,1,0,0:0:0:70:soft-hitwhistle31.wav
36,192,107301,1,0,0:0:0:70:soft-hitwhistle31.wav
182,192,107361,1,0,0:0:0:70:soft-hitwhistle31.wav
475,192,107420,1,0,0:0:0:70:soft-hitwhistle31.wav
402,192,107480,1,0,0:0:0:70:soft-hitwhistle31.wav
329,192,107539,1,0,0:0:0:70:soft-hitwhistle31.wav
256,192,107599,1,0,0:0:0:70:soft-hitwhistle31.wav
109,192,107658,1,0,0:0:0:70:soft-hitclap31.wav
182,192,107658,1,0,0:0:0:70:soft-hitfinish31.wav
475,192,107777,1,0,0:0:0:70:soft-hitwhistle31.wav
256,192,107896,1,0,0:0:0:70:soft-hitwhistle31.wav
329,192,107896,1,0,0:0:0:0:
36,192,108015,1,0,0:0:0:70:soft-hitclap31.wav
402,192,108134,1,0,0:0:0:70:soft-hitwhistle31.wav
475,192,108134,1,0,0:0:0:0:
182,192,108253,1,0,0:0:0:70:soft-hitclap31.wav
36,192,108372,1,0,0:0:0:70:soft-hitwhistle31.wav
256,192,108372,1,0,0:0:0:0:
475,192,108491,1,0,0:0:0:70:soft-hitclap31.wav
109,192,108611,1,0,0:0:0:70:soft-hitwhistle31.wav
329,192,108611,1,0,0:0:0:70:soft-hitclap31.wav
402,192,108670,1,0,0:0:0:0:
182,192,108730,128,0,108849:0:0:0:70:soft-hitwhistle31.wav
475,192,108730,1,0,0:0:0:0:
36,192,108849,1,0,0:0:0:70:soft-hitfinish34.wav
256,192,108849,1,0,0:0:0:70:soft-hitclap31.wav
329,192,108908,1,0,0:0:0:0:
109,192,108968,128,0,109087:0:0:0:70:soft-hitwhistle31.wav
402,192,108968,1,0,0:0:0:0:
182,192,109087,1,0,0:0:0:70:soft-hitwhistle31.wav
475,192,109146,1,0,0:0:0:70:soft-hitwhistle31.wav
329,192,109206,1,0,0:0:0:70:soft-hitwhistle31.wav
402,192,109206,1,0,0:0:0:0:
256,192,109265,1,0,0:0:0:70:soft-hitwhistle31.wav
36,192,109325,128,0,109444:0:0:0:70:soft-hitfinish34.wav
182,192,109325,1,0,0:0:0:70:soft-hitwhistle31.wav
402,192,109444,1,0,0:0:0:70:soft-hitwhistle31.wav
329,192,109503,1,0,0:0:0:70:soft-hitwhistle31.wav
109,192,109563,128,0,110039:0:0:0:70:soft-hitwhistle31.wav
256,192,109563,1,0,0:0:0:70:soft-hitfinish31.wav
475,192,109563,128,0,111468:0:0:0:70:soft-hitclap31.wav
182,192,110039,1,0,0:0:0:23:soft-hitwhistle31.wav
329,192,110099,1,0,0:0:0:23:soft-hitwhistle31.wav
36,192,110158,1,0,0:0:0:23:soft-hitwhistle31.wav
182,192,110218,1,0,0:0:0:23:soft-hitwhistle31.wav
402,192,110277,1,0,0:0:0:23:soft-hitwhistle31.wav
256,192,110337,1,0,0:0:0:23:soft-hitwhistle31.wav
109,192,110396,1,0,0:0:0:23:soft-hitwhistle31.wav
329,192,110456,1,0,0:0:0:23:soft-hitwhistle31.wav
182,192,110515,1,0,0:0:0:23:soft-hitwhistle31.wav
36,192,110575,1,0,0:0:0:23:soft-hitwhistle31.wav
256,192,110634,1,0,0:0:0:23:soft-hitwhistle31.wav
402,192,110694,1,0,0:0:0:23:soft-hitwhistle31.wav
36,192,110753,1,0,0:0:0:23:soft-hitwhistle31.wav
182,192,110813,1,0,0:0:0:23:soft-hitwhistle31.wav
329,192,110872,1,0,0:0:0:23:soft-hitwhistle31.wav
109,192,110932,1,0,0:0:0:23:soft-hitwhistle31.wav
256,192,110991,1,0,0:0:0:23:soft-hitwhistle31.wav
402,192,111051,1,0,0:0:0:23:soft-hitwhistle31.wav
182,192,111111,1,0,0:0:0:23:soft-hitwhistle31.wav
36,192,111170,1,0,0:0:0:23:soft-hitwhistle31.wav
329,192,111230,1,0,0:0:0:23:soft-hitwhistle31.wav
109,192,111289,1,0,0:0:0:23:soft-hitwhistle31.wav
256,192,111349,1,0,0:0:0:23:soft-hitwhistle31.wav
402,192,111408,1,0,0:0:0:23:soft-hitwhistle31.wav
36,192,111468,1,0,0:0:0:35:soft-hitwhistle31.wav
182,192,111468,128,0,111944:0:0:0:35:soft-hitwhistle31.wav
329,192,111527,1,0,0:0:0:35:soft-hitwhistle31.wav
109,192,111587,1,0,0:0:0:35:soft-hitwhistle31.wav
256,192,111646,1,0,0:0:0:35:soft-hitwhistle31.wav
402,192,111706,1,0,0:0:0:35:soft-hitwhistle31.wav
36,192,111765,1,0,0:0:0:35:soft-hitwhistle31.wav
475,192,111825,1,0,0:0:0:35:soft-hitwhistle31.wav
329,192,111884,1,0,0:0:0:35:soft-hitwhistle31.wav
36,192,111944,128,0,112420:0:0:0:23:soft-hitwhistle31.wav
402,192,112003,1,0,0:0:0:35:soft-hitwhistle31.wav
109,192,112063,1,0,0:0:0:35:soft-hitwhistle31.wav
256,192,112122,1,0,0:0:0:35:soft-hitwhistle31.wav
475,192,112182,1,0,0:0:0:35:soft-hitwhistle31.wav
329,192,112241,1,0,0:0:0:35:soft-hitwhistle31.wav
182,192,112301,1,0,0:0:0:35:soft-hitwhistle31.wav
402,192,112361,1,0,0:0:0:35:soft-hitwhistle31.wav
109,192,112420,1,0,0:0:0:23:soft-hitwhistle31.wav
256,192,112420,128,0,112896:0:0:0:23:soft-hitwhistle31.wav
475,192,112480,1,0,0:0:0:35:soft-hitwhistle31.wav
329,192,112539,1,0,0:0:0:35:soft-hitwhistle31.wav
182,192,112599,1,0,0:0:0:35:soft-hitwhistle31.wav
36,192,112658,1,0,0:0:0:35:soft-hitwhistle31.wav
402,192,112718,1,0,0:0:0:35:soft-hitwhistle31.wav
109,192,112777,1,0,0:0:0:35:soft-hitwhistle31.wav
329,192,112837,1,0,0:0:0:35:soft-hitwhistle31.wav
36,192,112896,128,0,113372:0:0:0:70:soft-hitwhistle31.wav
475,192,112896,128,0,113372:0:0:0:0:
109,192,113372,1,0,0:0:0:70:soft-hitwhistle31.wav
182,192,113372,1,0,0:0:0:70:soft-hitclap31.wav
329,192,113491,1,0,0:0:0:70:soft-hitwhistle31.wav
402,192,113491,1,0,0:0:0:70:soft-hitclap31.wav
36,192,113611,1,0,0:0:0:23:soft-hitwhistle31.wav
109,192,113611,1,0,0:0:0:23:soft-hitwhistle31.wav
182,192,113670,1,0,0:0:0:23:soft-hitwhistle31.wav
256,192,113730,1,0,0:0:0:23:soft-hitwhistle31.wav
329,192,113789,1,0,0:0:0:23:soft-hitwhistle31.wav
402,192,113849,1,0,0:0:0:70:soft-hitfinish32.wav
475,192,113849,1,0,0:0:0:70:soft-hitclap31.wav
36,192,113968,1,0,0:0:0:70:soft-hitfinish32.wav
109,192,113968,1,0,0:0:0:70:soft-hitclap31.wav
402,192,114087,1,0,0:0:0:23:soft-hitwhistle31.wav
475,192,114087,1,0,0:0:0:23:soft-hitwhistle31.wav
329,192,114146,1,0,0:0:0:23:soft-hitwhistle31.wav
256,192,114206,1,0,0:0:0:23:soft-hitwhistle31.wav
182,192,114265,1,0,0:0:0:23:soft-hitwhistle31.wav
36,192,114325,1,0,0:0:0:70:soft-hitwhistle31.wav
109,192,114325,1,0,0:0:0:70:soft-hitclap31.wav
475,192,114384,1,0,0:0:0:0:
402,192,114444,1,0,0:0:0:23:soft-hitwhistle31.wav
329,192,114503,1,0,0:0:0:23:soft-hitwhistle31.wav
182,192,114563,1,0,0:0:0:70:soft-hitfinish34.wav
256,192,114563,1,0,0:0:0:70:soft-hitclap31.wav
475,192,114622,1,0,0:0:0:0:
329,192,114682,1,0,0:0:0:23:soft-hitwhistle31.wav
36,192,114741,1,0,0:0:0:23:soft-hitwhistle31.wav
109,192,114801,1,0,0:0:0:70:soft-hitwhistle31.wav
182,192,114801,1,0,0:0:0:70:soft-hitclap31.wav
402,192,114920,1,0,0:0:0:70:soft-hitwhistle31.wav
475,192,114920,1,0,0:0:0:70:soft-hitclap31.wav
256,192,115039,1,0,0:0:0:70:soft-hitwhistle31.wav
329,192,115039,1,0,0:0:0:70:soft-hitclap31.wav
36,192,115158,1,0,0:0:0:70:soft-hitwhistle31.wav
182,192,115158,1,0,0:0:0:70:soft-hitclap31.wav
329,192,115277,1,0,0:0:0:70:soft-hitfinish32.wav
402,192,115277,1,0,0:0:0:70:soft-hitclap31.wav
475,192,115277,1,0,0:0:0:70:soft-hitwhistle31.wav
36,192,115396,1,0,0:0:0:70:soft-hitfinish32.wav
109,192,115396,1,0,0:0:0:70:soft-hitclap31.wav
182,192,115396,1,0,0:0:0:70:soft-hitwhistle31.wav
256,192,115515,1,0,0:0:0:23:soft-hitclap31.wav
329,192,115634,1,0,0:0:0:70:soft-hitwhistle31.wav
402,192,115634,1,0,0:0:0:70:soft-hitclap31.wav
475,192,115634,1,0,0:0:0:70:soft-hitfinish32.wav
36,192,115753,1,0,0:0:0:70:soft-hitwhistle31.wav
109,192,115753,1,0,0:0:0:70:soft-hitclap31.wav
182,192,115753,1,0,0:0:0:70:soft-hitfinish32.wav
475,192,115872,1,0,0:0:0:23:soft-hitclap31.wav
256,192,115991,1,0,0:0:0:70:soft-hitwhistle31.wav
329,192,115991,1,0,0:0:0:70:soft-hitfinish32.wav
402,192,115991,1,0,0:0:0:70:soft-hitclap31.wav
36,192,116111,1,0,0:0:0:70:soft-hitwhistle31.wav
109,192,116111,1,0,0:0:0:70:soft-hitfinish32.wav
182,192,116111,1,0,0:0:0:70:soft-hitclap31.wav
329,192,116349,1,0,0:0:0:70:soft-hitwhistle31.wav
402,192,116349,1,0,0:0:0:70:soft-hitfinish32.wav
475,192,116349,1,0,0:0:0:70:soft-hitclap31.wav
36,192,116468,1,0,0:0:0:70:soft-hitwhistle31.wav
109,192,116468,1,0,0:0:0:70:soft-hitfinish32.wav
182,192,116468,1,0,0:0:0:70:soft-hitclap31.wav
256,192,116587,1,0,0:0:0:70:soft-hitwhistle31.wav
329,192,116587,1,0,0:0:0:70:soft-hitfinish32.wav
475,192,116587,1,0,0:0:0:70:soft-hitclap31.wav
36,192,116706,1,0,0:0:0:70:soft-hitwhistle31.wav
109,192,116706,1,0,0:0:0:70:soft-hitfinish32.wav
182,192,116706,1,0,0:0:0:70:soft-hitclap31.wav
329,192,116825,1,0,0:0:0:70:soft-hitwhistle31.wav
402,192,116825,1,0,0:0:0:70:soft-hitfinish32.wav
475,192,116825,1,0,0:0:0:70:soft-hitclap31.wav
36,192,116944,1,0,0:0:0:70:soft-hitwhistle31.wav
109,192,116944,1,0,0:0:0:70:soft-hitfinish32.wav
256,192,116944,1,0,0:0:0:70:soft-hitclap31.wav
329,192,117063,1,0,0:0:0:70:soft-hitwhistle31.wav
402,192,117063,1,0,0:0:0:70:soft-hitfinish32.wav
475,192,117063,1,0,0:0:0:70:soft-hitclap31.wav
36,192,117420,128,0,119087:0:0:0:23:soft-hitwhistle31.wav
182,192,117420,1,0,0:0:0:23:soft-hitwhistle31.wav
329,192,117420,1,0,0:0:0:23:soft-hitwhistle31.wav
475,192,117420,128,0,119087:0:0:0:23:soft-hitfinish31.wav
256,192,118253,128,0,119087:0:0:0:0:
109,192,119087,1,0,0:0:0:23:soft-hitwhistle31.wav
402,192,119087,1,0,0:0:0:23:soft-hitwhistle31.wav
36,192,119206,1,0,0:0:0:23:soft-hitwhistle31.wav
182,192,119206,1,0,0:0:0:23:soft-hitwhistle31.wav
329,192,119206,1,0,0:0:0:23:soft-hitwhistle31.wav
475,192,119206,1,0,0:0:0:23:soft-hitfinish32.wav
