osu file format v14

[General]
AudioFilename: audio.mp3
AudioLeadIn: 0
PreviewTime: 73241
Countdown: 0
SampleSet: Soft
StackLeniency: 0.2
Mode: 0
LetterboxInBreaks: 0
WidescreenStoryboard: 0

[Editor]
Bookmarks:114087
DistanceSpacing: 1
BeatDivisor: 4
GridSize: 4
TimelineZoom: 3.599998

[Metadata]
Title:Last Resort
TitleUnicode:Last Resort
Artist:xi
ArtistUnicode:xi
Creator:Kroytz
Version:R3m's HEAVENLY
Source:SOUND VOLTEX IV HEAVENLY HAVEN
Tags:The 7th Konami Arcade Championship Original Song Contest Winner Bemani KAC SDVX Video Rhythm Game Instrumental DJPop SnowNiNo_ C00l Cool 1112deng Suzuki_1112 Otosaka-Yu Elsa Valentine xLolicore- Realazy toybot vikala R3m AncuL Murumoo Tails Reba Wonki Blasticide Lolicide bsc _Streamy_ jakads
BeatmapID:2296022
BeatmapSetID:800102

[Difficulty]
HPDrainRate:5
CircleSize:4.2
OverallDifficulty:10
ApproachRate:10
SliderMultiplier:2.1
SliderTickRate:1

[Events]
//Background and Video events
0,0,"BG.jpg",0,0
//Break Periods
2,3084,6244
2,27846,32910
//Storyboard Layer 0 (Background)
//Storyboard Layer 1 (Fail)
//Storyboard Layer 2 (Pass)
//Storyboard Layer 3 (Foreground)
//Storyboard Layer 4 (Overlay)
//Storyboard Sound Samples

[TimingPoints]
992,-100,4,2,31,80,0,0
992,238.095238095238,4,2,31,80,1,0
1944,-100,4,2,34,80,0,0
2182,-100,4,2,32,80,0,0
2301,-200,4,2,32,80,0,0
2539,-200,4,2,31,20,0,0
2658,-76.9230769230769,4,2,31,80,0,0
6706,-62.5,4,2,34,80,0,0
6884,-62.5,4,2,34,5,0,0
6944,-62.5,4,2,34,80,0,0
7122,-62.5,4,2,34,5,0,0
7182,-62.5,4,2,34,80,0,0
7361,-62.5,4,2,34,5,0,0
7420,-55.5555555555556,4,2,34,80,0,0
7599,-62.5,4,2,34,5,0,0
7658,-71.4285714285714,4,2,34,80,0,0
7837,-62.5,4,2,34,20,0,0
7896,-62.5,4,2,34,80,0,0
8075,-62.5,4,2,34,20,0,0
8134,-52.6315789473684,4,2,34,80,0,0
8313,-62.5,4,2,34,20,0,0
8372,-62.5,4,2,34,80,0,0
8551,-62.5,4,2,34,20,0,0
8611,-62.5,4,2,34,80,0,0
8789,-62.5,4,2,34,80,0,0
8849,-62.5,4,2,34,80,0,0
9027,-62.5,4,2,34,80,0,0
9087,-83.3333333333333,4,2,34,80,0,0
9265,-62.5,4,2,34,80,0,0
9325,-83.3333333333333,4,2,34,80,0,0
9503,-62.5,4,2,34,80,0,0
9563,-71.4285714285714,4,2,34,80,0,0
10515,-62.5,4,2,31,80,0,0
11468,-62.5,4,2,34,80,0,0
11587,-62.5,4,2,33,80,0,0
11706,-62.5,4,2,34,80,0,0
11825,-62.5,4,2,33,80,0,0
11944,-62.5,4,2,34,80,0,0
12182,-62.5,4,2,33,80,0,0
12301,-62.5,4,2,34,80,0,0
12420,-71.4285714285714,4,2,31,65,0,0
15991,-83.3333333333333,4,2,31,65,0,0
16230,-71.4285714285714,4,2,31,65,0,0
19444,-71.4285714285714,4,2,33,65,0,0
19563,-71.4285714285714,4,2,31,65,0,0
19593,-71.4285714285714,4,2,31,80,0,0
19682,-71.4285714285714,4,2,33,65,0,0
19801,-71.4285714285714,4,2,31,72,0,0
20039,-62.5,4,2,31,80,0,0
20991,-58.8235294117647,4,2,31,80,0,0
21944,-55.5555555555556,4,2,31,80,0,0
25753,-66.6666666666667,4,2,31,60,0,0
25991,-71.4285714285714,4,2,31,60,0,0
26230,-76.9230769230769,4,2,31,60,0,0
26468,-83.3333333333333,4,2,31,60,0,0
26587,-125,4,2,31,60,0,0
26706,-83.3333333333333,4,2,33,80,0,0
27420,-133.333333333333,4,2,34,80,0,0
27599,-133.333333333333,4,2,31,5,0,0
27658,-133.333333333333,4,2,31,80,0,0
33372,-71.4285714285714,4,2,34,80,0,0
34206,-71.4285714285714,4,2,31,80,0,0
34920,-71.4285714285714,4,2,32,80,0,0
34980,-71.4285714285714,4,2,33,80,0,0
35277,-50,4,2,31,80,0,0
35456,-100,4,2,31,80,0,0
35515,-100,4,2,32,80,0,0
35813,-100,4,2,32,5,0,0
35872,-100,4,2,32,80,0,0
36051,-100,4,2,32,5,0,0
36111,-100,4,2,32,80,0,0
36289,-100,4,2,32,5,0,0
36349,-100,4,2,32,80,0,0
38015,-83.3333333333333,4,2,32,80,0,0
38194,-83.3333333333333,4,2,32,5,0,0
38253,-83.3333333333333,4,2,32,80,0,0
39087,-83.3333333333333,4,2,31,80,0,0
39325,-71.4285714285714,4,2,32,80,0,0
39622,-83.3333333333333,4,2,32,5,0,0
39682,-83.3333333333333,4,2,32,80,0,0
39861,-83.3333333333333,4,2,32,5,0,0
39920,-76.9230769230769,4,2,32,80,0,0
40099,-76.9230769230769,4,2,32,5,0,0
40158,-76.9230769230769,4,2,32,80,0,0
40991,-76.9230769230769,4,2,31,80,0,0
41170,-76.9230769230769,4,2,31,5,0,0
41230,-76.9230769230769,4,2,32,80,0,0
41825,-76.9230769230769,4,2,31,80,0,0
42003,-76.9230769230769,4,2,31,5,0,0
42063,-76.9230769230769,4,2,31,80,0,0
42182,-71.4285714285714,4,2,31,80,0,0
42420,-55.5555555555556,4,2,31,78,0,0
42480,-55.5555555555556,4,2,31,76,0,0
42539,-55.5555555555556,4,2,31,74,0,0
42599,-55.5555555555556,4,2,31,72,0,0
42658,-55.5555555555556,4,2,31,70,0,0
42718,-55.5555555555556,4,2,31,68,0,0
42777,-55.5555555555556,4,2,31,66,0,0
42837,-55.5555555555556,4,2,31,64,0,0
42896,-55.5555555555556,4,2,31,60,0,0
43134,-55.5555555555556,4,2,2,60,0,0
43372,-133.333333333333,4,2,2,60,0,0
47777,-133.333333333333,4,2,2,80,0,0
47896,-133.333333333333,4,2,2,60,0,0
48015,-133.333333333333,4,2,2,80,0,0
48134,-133.333333333333,4,2,2,60,0,0
49563,-133.333333333333,4,2,2,60,0,0
50277,-133.333333333333,4,2,31,80,0,0
50515,-62.5,4,2,31,80,0,0
51944,-62.5,4,2,34,80,0,0
52420,-55.5555555555556,4,2,31,80,0,0
53849,-55.5555555555556,4,2,34,80,0,0
54325,-50,4,2,31,80,0,0
54682,-45.4545454545455,4,2,31,80,0,0
54980,-45.4545454545455,4,2,31,5,0,0
55039,-45.4545454545455,4,2,31,80,0,0
55277,-50,4,2,31,80,0,0
55634,-45.4545454545455,4,2,31,80,0,0
57301,-45.4545454545455,4,2,31,5,0,0
57361,-45.4545454545455,4,2,31,80,0,0
57480,-45.4545454545455,4,2,31,5,0,0
57539,-45.4545454545455,4,2,31,80,0,0
57777,-45.4545454545455,4,2,31,5,0,0
57837,-45.4545454545455,4,2,31,80,0,0
57956,-45.4545454545455,4,2,31,5,0,0
58015,-45.4545454545455,4,2,31,80,0,0
58134,-45.4545454545455,4,2,33,80,0,0
58849,-76.9230769230769,4,2,34,80,0,0
59087,-45.4545454545455,4,2,33,80,0,0
59801,-76.9230769230769,4,2,34,80,0,0
60039,-76.9230769230769,4,2,31,80,0,0
60991,-125,4,2,32,80,0,0
61468,-62.5,4,2,34,80,0,0
61587,-62.5,4,2,34,80,0,0
61646,-62.5,4,2,34,80,0,0
61825,-62.5,4,2,34,80,0,0
61884,-62.5,4,2,34,80,0,0
62063,-62.5,4,2,34,80,0,0
62122,-62.5,4,2,34,80,0,0
62420,-62.5,4,2,32,80,0,0
62658,-62.5,4,2,31,80,0,0
63730,-62.5,4,2,31,5,0,0
63849,-76.9230769230769,4,2,31,60,0,0
64325,-76.9230769230769,4,2,31,65,0,0
64801,-66.6666666666667,4,2,31,70,0,0
65277,-66.6666666666667,4,2,31,75,0,0
65753,-66.6666666666667,4,2,34,80,0,0
67658,-55.5555555555556,4,2,34,80,0,0
68611,-76.9230769230769,4,2,34,80,0,0
69563,-55.5555555555556,4,2,31,80,0,0
71468,-55.5555555555556,4,2,31,40,0,0
72420,-55.5555555555556,4,2,32,80,0,0
72896,-55.5555555555556,4,2,32,60,0,0
73134,-100,4,2,32,80,0,0
73313,-100,4,2,31,5,0,0
73372,-76.9230769230769,4,2,31,80,0,1
74087,-83.3333333333333,4,2,31,80,0,1
74622,-83.3333333333333,4,2,31,5,0,1
74682,-83.3333333333333,4,2,31,80,0,1
75277,-76.9230769230769,4,2,31,80,0,1
75991,-83.3333333333333,4,2,31,80,0,1
76349,-71.4285714285714,4,2,31,80,0,1
76527,-71.4285714285714,4,2,31,5,0,1
76587,-71.4285714285714,4,2,31,80,0,1
77182,-83.3333333333333,4,2,31,80,0,1
77896,-76.9230769230769,4,2,31,80,0,1
78134,-76.9230769230769,4,2,31,80,0,1
79920,-133.333333333333,4,2,31,80,0,1
80099,-133.333333333333,4,2,31,5,0,1
80158,-76.9230769230769,4,2,31,80,0,1
80337,-76.9230769230769,4,2,31,5,0,1
80396,-76.9230769230769,4,2,31,80,0,1
80991,-66.6666666666667,4,2,34,80,0,1
81111,-66.6666666666667,4,2,31,80,0,1
84444,-57.1428571428571,4,2,31,40,0,1
84563,-57.1428571428571,4,2,31,80,0,1
84682,-57.1428571428571,4,2,31,40,0,1
84801,-53.475935828877,4,2,31,80,0,1
86230,-53.475935828877,4,2,32,80,0,1
86468,-53.475935828877,4,2,31,40,0,1
86527,-53.475935828877,4,2,31,50,0,1
86587,-53.475935828877,4,2,31,60,0,1
86646,-53.475935828877,4,2,31,70,0,1
86706,-53.475935828877,4,2,34,80,0,1
87658,-37.037037037037,4,2,33,80,0,1
88134,-25,4,2,33,80,0,1
88611,-66.6666666666667,4,2,32,80,0,1
89563,-66.6666666666667,4,2,32,40,0,1
89682,-66.6666666666667,4,2,32,80,0,1
89920,-66.6666666666667,4,2,32,40,0,1
90039,-66.6666666666667,4,2,32,80,0,1
90277,-66.6666666666667,4,2,35,80,0,1
90515,-66.6666666666667,4,2,31,80,0,0
92420,-80,4,2,31,80,0,0
97182,-80,4,2,34,80,0,0
97301,-80,4,2,31,80,0,0
97420,-80,4,2,34,80,0,0
97539,-80,4,2,31,80,0,0
97658,-80,4,2,34,80,0,0
97896,-80,4,2,31,80,0,0
98134,-80,4,2,34,80,0,0
98849,-76.9230769230769,4,2,34,80,0,0
101944,-76.9230769230769,4,2,31,80,0,0
104801,-76.9230769230769,4,2,34,80,0,0
104920,-76.9230769230769,4,2,33,80,0,0
105039,-76.9230769230769,4,2,34,80,0,0
105158,-76.9230769230769,4,2,33,80,0,0
105277,-76.9230769230769,4,2,34,80,0,0
105515,-76.9230769230769,4,2,33,80,0,0
105634,-76.9230769230769,4,2,31,80,0,0
108611,-76.9230769230769,4,2,34,80,0,0
108730,-76.9230769230769,4,2,33,80,0,0
108849,-76.9230769230769,4,2,34,80,0,0
108968,-76.9230769230769,4,2,33,80,0,0
109087,-76.9230769230769,4,2,34,80,0,0
109325,-76.9230769230769,4,2,33,80,0,0
109444,-76.9230769230769,4,2,34,80,0,0
109563,-1000,4,2,31,80,0,0
109622,-1000,4,2,31,5,0,0
110039,-76.9230769230769,4,2,31,80,0,0
112896,-76.9230769230769,4,2,33,80,0,0
113372,-76.9230769230769,4,2,32,80,0,0
113611,-76.9230769230769,4,2,32,40,0,0
113849,-76.9230769230769,4,2,32,80,0,0
114087,-76.9230769230769,4,2,32,40,0,0
114325,-76.9230769230769,4,2,34,80,0,0
114444,-76.9230769230769,4,2,34,40,0,0
114563,-76.9230769230769,4,2,34,80,0,0
114682,-76.9230769230769,4,2,34,40,0,0
114801,-50,4,2,34,80,0,0
114920,-50,4,2,34,80,0,0
115277,-80,4,2,32,80,0,1
115515,-80,4,2,32,60,0,1
115634,-80,4,2,32,80,0,1
115872,-80,4,2,32,60,0,1
115991,-80,4,2,32,80,0,1
116230,-25,4,2,32,80,0,1
116349,-25,4,2,32,80,0,1
117122,-45.4545454545455,4,2,31,5,0,1
117420,-45.4545454545455,4,2,31,80,0,1
119027,-45.4545454545455,4,2,31,5,0,0
119087,-45.4545454545455,4,2,32,80,0,0

[Colours]
Combo1 : 61,70,78
Combo2 : 42,72,82
Combo3 : 74,130,131
Combo4 : 155,151,164

[HitObjects]
46,162,992,5,6,0:0:0:0:
46,162,1706,5,2,0:0:0:0:
54,213,1765,1,2,0:0:0:0:
63,265,1825,1,2,0:1:0:0:
72,316,1884,1,2,0:1:0:0:
81,367,1944,1,6,0:0:0:0:
347,275,2063,5,2,0:0:0:0:
388,248,2122,1,2,0:0:0:0:
402,202,2182,2,0,P|395:167|366:133,1,52.5,6|0,0:0|0:0,0:0:0:0:
220,166,2301,6,0,L|320:201,1,105,6|0,0:0|0:0,0:0:0:0:
159,109,2658,6,0,P|140:138|136:171,1,68.2499968757631,2|2,0:0|0:0,0:0:0:0:
333,76,2777,2,0,P|351:47|355:14,1,68.2499968757631,2|2,0:0|0:0,0:0:0:0:
31,85,2896,1,6,0:0:0:0:
204,260,6706,6,0,B|172:282|139:271|139:271|167:209|243:232|243:281|341:168,1,252,6|0,0:0|0:0,0:0:0:0:
397,162,6944,2,0,B|428:139|461:150|461:150|433:212|357:189|357:140|259:253,1,252,6|0,0:0|0:0,0:0:0:0:
258,313,7182,6,0,P|325:377|350:254,1,252,6|0,0:0|0:0,0:0:0:0:
388,266,7420,2,0,P|393:346|257:264,1,283.499991348267,6|0,0:0|0:0,0:0:0:0:
299,210,7658,6,0,L|230:0,1,220.499993270874,6|0,0:0|0:0,0:0:0:0:
146,60,7896,2,0,P|302:77|335:4,1,252,6|0,0:0|0:0,0:0:0:0:
353,5,8134,6,0,P|253:120|112:22,1,299.249992009163,6|0,0:0|0:0,0:0:0:0:
231,0,8372,2,0,L|312:252,1,252,6|0,0:0|0:0,0:0:0:0:
243,323,8611,6,0,B|227:361|204:370|183:340|136:361|136:361|186:344|180:310|203:299|243:323,1,252,14|0,0:0|0:0,0:0:0:0:
402,278,8849,2,0,B|437:299|460:294|460:257|510:246|510:246|459:262|445:230|419:235|402:278,1,252,14|0,0:0|0:0,0:0:0:0:
243,323,9087,6,0,B|222:346|203:346|196:320|158:322|158:322|197:323|201:297|221:295|243:323,1,188.999994232178,14|0,0:0|0:0,0:0:0:0:
402,278,9325,2,0,B|432:282|447:271|436:245|466:223|466:223|436:249|417:232|401:243|402:278,1,188.999994232178,14|0,0:0|0:0,0:0:0:0:
353,379,9563,5,14,0:0:0:0:
346,361,9642,2,0,L|303:226,1,97.9999970092774,2|8,0:0|0:0,0:0:0:0:
268,114,9801,5,14,0:0:0:0:
260,95,9880,2,0,L|217:-40,1,97.9999970092774,2|8,0:0|0:0,0:0:0:0:
508,113,10039,5,14,0:0:0:0:
512,144,10118,2,0,P|504:185|431:229,1,97.9999970092774,2|8,0:0|0:0,0:0:0:0:
188,314,10277,5,14,0:0:0:0:
164,317,10357,2,0,P|116:311|81:279,1,97.9999970092774,2|8,0:0|0:0,0:0:0:0:
230,1,10515,5,14,0:0:0:0:
278,231,11230,5,2,0:0:0:0:
232,175,11289,1,2,0:0:0:0:
268,117,11349,1,2,0:0:0:0:
335,134,11408,1,2,0:0:0:0:
340,203,11468,1,14,0:0:0:0:
79,72,11587,6,0,L|115:51,4,42,2|2|2|2|14,0:1|0:1|0:1|0:1|0:0,0:0:0:0:
38,360,11825,6,0,L|1:380,2,42,2|2|2,0:1|0:1|0:1,0:0:0:0:
99,309,11944,1,14,0:0:0:0:
73,248,12003,1,2,0:0:0:0:
47,186,12063,1,2,0:0:0:0:
21,125,12122,1,2,0:0:0:0:
79,72,12182,2,0,L|115:51,6,42,14|2|2|2|2|2|2,0:1|0:1|0:1|0:1|0:0|0:0|0:0,0:0:0:0:
136,130,12420,6,0,B|222:86|222:86|244:8,1,146.999995513916,14|0,0:0|0:0,0:0:0:0:
386,16,12658,2,0,B|414:56|414:56|511:67,1,146.999995513916
307,0,12896,5,0,0:0:0:0:
357,262,13015,1,0,0:0:0:0:
332,132,13134,1,0,0:0:0:0:
248,372,13491,5,2,0:0:0:0:
136,335,13611,2,0,B|72:318|72:318|65:304|65:304|1:287,1,146.999995513916
357,262,13849,2,0,B|421:250|421:250|430:238|430:238|494:226,1,146.999995513916,2|0,0:0|0:0,0:0:0:0:
136,130,14087,1,2,0:0:0:0:
236,348,14206,5,2,0:0:0:0:
242,360,14265,1,2,0:0:0:0:
248,372,14325,5,2,0:0:0:0:
40,332,14444,1,0,0:0:0:0:
418,326,14563,5,0,0:0:0:0:
194,283,14682,1,0,0:0:0:0:
463,249,14801,6,0,P|507:308|498:375,1,146.999995513916
289,208,15039,2,0,P|244:148|253:81,1,146.999995513916
454,0,15277,5,0,0:0:0:0:
357,262,15396,1,2,0:0:0:0:
512,99,15515,5,0,0:0:0:0:
347,272,15634,1,0,0:0:0:0:
345,30,15753,5,2,0:0:0:0:
168,185,15872,1,0,0:0:0:0:
197,191,15932,1,0,0:0:0:0:
226,197,15991,6,0,L|315:212,1,62.9999980773926,2|2,0:0|0:0,0:0:0:0:
77,47,16170,5,2,0:0:0:0:
47,33,16230,2,0,B|5:7|5:7|40:141,1,146.999995513916,6|0,0:0|0:0,0:0:0:0:
150,253,16468,2,0,B|192:279|192:279|157:145,1,146.999995513916
144,96,16706,5,0,0:0:0:0:
39,260,16825,1,0,0:0:0:0:
226,359,16944,5,0,0:0:0:0:
150,253,17063,1,0,0:0:0:0:
150,253,17301,6,0,B|192:279|192:279|157:145,1,146.999995513916,2|0,0:0|0:0,0:0:0:0:
144,96,17539,1,0,0:0:0:0:
298,308,17658,6,0,B|321:351|321:351|358:217,1,146.999995513916,2|0,0:0|0:0,0:0:0:0:
385,119,17896,1,2,0:0:0:0:
487,332,18015,5,2,0:0:0:0:
498,358,18075,1,2,0:0:0:0:
511,384,18134,5,2,0:0:0:0:
424,219,18253,1,0,0:0:0:0:
383,384,18372,5,0,0:0:0:0:
489,166,18491,1,0,0:0:0:0:
226,359,18611,5,0,0:0:0:0:
487,332,18730,1,0,0:0:0:0:
150,253,18849,5,0,0:0:0:0:
383,384,18968,1,0,0:0:0:0:
266,109,19087,5,0,0:0:0:0:
226,359,19206,1,2,0:0:0:0:
189,33,19325,1,2,0:0:0:0:
385,119,19444,6,0,L|430:105,6,36.749998878479,2|2|2|2|2|2|2,0:1|0:1|0:1|0:1|0:0|0:0|0:0,0:0:0:0:
374,195,19682,5,2,0:1:0:0:
318,211,19741,1,2,0:1:0:0:
259,202,19801,1,2,0:0:0:0:
212,165,19861,1,2,0:0:0:0:
156,148,19920,1,2,0:0:0:0:
98,161,19980,1,2,0:0:0:0:
57,207,20039,6,0,B|5:276|5:276|123:296|123:296|140:291|140:291|282:312,1,336,14|0,0:0|0:0,0:0:0:0:
443,364,20396,2,0,B|494:321|494:321|177:273,1,336,10|0,0:0|0:0,0:0:0:0:
31,373,20753,6,0,B|56:206|56:206,1,168,10|0,0:0|0:0,0:0:0:0:
338,128,20991,6,0,B|380:170|437:152|437:152|388:70|304:105|304:105|257:130|185:78,1,357.000006809235,10|0,0:0|0:0,0:0:0:0:
94,67,21349,2,0,B|51:24|-5:42|-5:42|43:124|127:89|127:89|174:64|246:116,1,357.000006809235,10|0,0:0|0:0,0:0:0:0:
450,233,21706,6,0,P|513:177|494:94,1,178.500003404617,10|0,0:0|0:0,0:0:0:0:
183,310,21944,6,0,B|165:365|165:365|254:351|254:351|290:334|290:334|328:342|328:342|417:328|417:328|382:273,1,377.999988464356,10|0,0:0|0:0,0:0:0:0:
102,185,22301,2,0,B|-23:212|-23:212|61:308|61:308|99:194,1,377.999988464356,10|0,0:0|0:0,0:0:0:0:
234,12,22658,6,0,B|267:63|267:63|202:263,1,188.999994232178,10|0,0:0|0:0,0:0:0:0:
183,310,22896,5,10,0:0:0:0:
94,67,23015,1,0,0:0:0:0:
178,323,23134,5,0,0:0:0:0:
405,152,23253,1,10,0:0:0:0:
173,336,23372,5,0,0:0:0:0:
512,384,23491,1,0,0:0:0:0:
512,384,23551,1,0,0:0:0:0:
512,384,23611,1,10,0:0:0:0:
189,226,23730,6,0,P|149:234|112:276,1,94.499997116089,2|2,0:0|0:0,0:0:0:0:
245,379,23849,5,6,0:0:0:0:
280,335,23908,1,2,0:0:0:0:
288,278,23968,1,2,0:0:0:0:
273,223,24027,1,2,0:0:0:0:
247,171,24087,1,2,0:0:0:0:
247,114,24146,1,2,0:0:0:0:
271,62,24206,1,2,0:0:0:0:
320,35,24265,1,2,0:0:0:0:
377,36,24325,1,2,0:0:0:0:
421,69,24384,1,2,0:0:0:0:
443,121,24444,1,2,0:0:0:0:
434,176,24503,1,2,0:0:0:0:
398,221,24563,1,2,0:0:0:0:
182,57,24682,5,2,0:0:0:0:
182,57,24741,1,2,0:0:0:0:
182,57,24801,1,6,0:0:0:0:
133,27,24861,1,2,0:0:0:0:
77,32,24920,1,2,0:0:0:0:
29,63,24980,1,2,0:0:0:0:
11,116,25039,1,2,0:0:0:0:
20,172,25099,1,2,0:0:0:0:
62,208,25158,1,2,0:0:0:0:
117,221,25218,1,2,0:0:0:0:
172,212,25277,1,2,0:0:0:0:
228,222,25337,1,2,0:0:0:0:
265,264,25396,1,2,0:1:0:0:
263,321,25456,1,2,0:1:0:0:
231,367,25515,6,0,P|179:376|127:340,1,94.499997116089,2|2,0:0|0:0,0:0:0:0:
273,150,25634,2,0,P|325:141|377:177,1,94.499997116089,2|2,0:1|0:1,0:0:0:0:
456,311,25753,1,14,0:0:0:0:
442,330,25813,1,0,0:0:0:0:
423,343,25872,1,0,0:0:0:0:
400,348,25932,1,0,0:0:0:0:
376,343,25991,1,0,0:0:0:0:
357,330,26051,1,0,0:0:0:0:
344,311,26111,1,0,0:0:0:0:
339,287,26170,1,0,0:0:0:0:
344,264,26230,1,0,0:0:0:0:
357,245,26289,1,0,0:0:0:0:
376,231,26349,1,0,0:0:0:0:
400,227,26408,1,0,0:0:0:0:
423,231,26468,1,0,0:0:0:0:
442,245,26527,1,0,0:0:0:0:
456,264,26587,6,0,P|464:295|458:326,1,42
301,384,26706,5,6,0:0:0:0:
256,340,26765,1,6,0:0:0:0:
240,278,26825,1,6,0:0:0:0:
258,218,26884,1,6,0:0:0:0:
307,178,26944,1,6,0:0:0:0:
336,122,27003,1,6,0:0:0:0:
335,58,27063,1,6,0:0:0:0:
291,13,27122,1,6,0:0:0:0:
228,1,27182,1,6,0:0:0:0:
171,27,27241,1,6,0:0:0:0:
142,83,27301,1,6,0:0:0:0:
148,146,27361,1,6,0:0:0:0:
166,209,27420,2,0,P|144:278|93:303,1,118.125004506111,10|0,0:1|0:0,0:0:0:0:
75,211,27658,5,6,0:0:0:0:
409,7,33372,5,6,0:0:0:0:
360,207,33491,1,0,0:0:0:0:
354,235,33551,1,0,0:0:0:0:
347,265,33611,2,0,L|327:361,1,73.4999977569581
473,201,33730,6,0,P|436:125|258:163,1,293.999991027832,6|0,0:0|0:0,0:0:0:0:
322,373,34087,1,0,0:0:0:0:
259,158,34206,6,0,P|206:110|135:118,1,146.999995513916,6|0,0:0|0:0,0:0:0:0:
151,331,34444,1,2,0:0:0:0:
122,30,34563,2,0,P|62:69|50:139,1,146.999995513916,6|0,0:0|0:0,0:0:0:0:
146,346,34801,1,6,0:0:0:0:
325,216,34920,6,0,P|347:173|343:135,1,73.4999977569581,6|6,0:0|0:0,0:0:0:0:
86,267,35039,2,0,P|64:310|68:348,1,73.4999977569581,6|6,0:0|0:0,0:0:0:0:
393,189,35158,2,0,P|382:141|348:112,1,73.4999977569581,6|6,0:0|0:0,0:0:0:0:
122,30,35277,1,6,0:0:0:0:
122,30,35515,5,0,0:0:0:0:
184,85,35634,6,0,B|221:52|264:63|264:63|232:34|193:44,1,157.5,2|0,0:0|0:0,0:0:0:0:
60,78,35872,2,0,B|27:87|14:128|14:128|46:97|95:108,1,157.5,2|0,0:0|0:0,0:0:0:0:
155,159,36111,2,0,L|201:338,1,157.5,2|0,0:0|0:0,0:0:0:0:
220,384,36349,1,8,0:1:0:0:
220,384,36408,1,0,0:0:0:0:
220,384,36468,1,2,0:0:0:0:
35,242,36587,1,0,0:0:0:0:
272,247,36706,1,10,0:1:0:0:
78,383,36825,1,0,0:0:0:0:
155,159,36944,1,2,0:0:0:0:
292,334,37063,6,0,L|314:419,1,52.5,2|0,0:0|0:0,0:0:0:0:
35,242,37182,1,2,0:0:0:0:
263,148,37301,5,0,0:0:0:0:
299,152,37361,1,0,0:0:0:0:
331,168,37420,1,0,0:0:0:0:
352,198,37480,1,0,0:0:0:0:
359,233,37539,2,0,P|367:265|400:306,1,52.5,2|0,0:0|0:0,0:0:0:0:
483,152,37658,2,0,P|451:142|399:151,1,52.5,10|0,0:1|0:0,0:0:0:0:
496,307,37777,1,2,0:0:0:0:
496,307,38015,6,0,B|516:346|516:346|362:372,1,188.999994232178,2|0,0:0|0:0,0:0:0:0:
272,247,38253,1,8,0:1:0:0:
411,73,38372,2,0,B|440:52|440:52|431:151,1,125.999996154785,2|0,0:0|0:0,0:0:0:0:
314,324,38611,5,10,0:1:0:0:
278,350,38670,1,0,0:0:0:0:
235,362,38730,1,0,0:0:0:0:
192,351,38789,1,0,0:0:0:0:
161,319,38849,1,2,0:0:0:0:
130,287,38908,1,0,0:0:0:0:
87,276,38968,1,2,0:0:0:0:
44,288,39027,1,0,0:0:0:0:
8,314,39087,5,6,0:0:0:0:
34,148,39206,1,0,0:0:0:0:
38,122,39265,1,0,0:0:0:0:
43,96,39325,1,0,0:0:0:0:
229,177,39444,6,0,P|290:138|264:2,1,220.499993270874,2|0,0:0|0:0,0:0:0:0:
256,15,39682,2,0,P|291:89|194:166,1,188.999994232178,2|0,0:0|0:0,0:0:0:0:
201,83,39920,6,0,L|402:119,1,204.749990627289,2|0,0:0|0:0,0:0:0:0:
472,239,40158,2,0,B|482:217|482:217|467:175,1,68.2499968757631,8|0,0:1|0:0,0:0:0:0:
512,33,40277,2,0,B|513:57|513:57|483:90,1,68.2499968757631,2|0,0:0|0:0,0:0:0:0:
275,253,40396,6,0,B|243:206|243:206|388:234,1,204.749990627289
441,340,40634,1,0,0:0:0:0:
441,340,40694,1,0,0:0:0:0:
441,340,40753,6,0,L|352:325,2,90.9999958343508,2|2|2,0:0|0:0|0:0,0:0:0:0:
252,356,40991,2,0,B|78:323|78:323|85:350,1,204.749990627289,6|0,0:0|0:0,0:0:0:0:
9,354,41230,5,2,0:0:0:0:
28,273,41309,5,2,0:0:0:0:
47,192,41388,5,2,0:0:0:0:
66,111,41468,5,6,0:0:0:0:
168,368,41587,1,6,0:0:0:0:
168,368,41825,6,0,L|206:158,1,204.749990627289,14|0,0:0|0:0,0:0:0:0:
222,96,42063,1,2,0:0:0:0:
222,96,42122,1,2,0:0:0:0:
222,96,42182,1,8,0:0:0:0:
308,350,42301,5,2,0:0:0:0:
308,350,42361,1,2,0:0:0:0:
308,350,42420,6,0,P|360:309|375:274,1,94.499997116089,8|0,0:0|0:0,0:0:0:0:
5,216,42539,2,0,P|14:262|43:300,1,94.499997116089,2|2,0:0|0:0,0:0:0:0:
331,194,42658,6,0,P|356:135|351:95,1,94.499997116089,8|0,0:0|0:0,0:0:0:0:
88,56,42777,2,0,P|72:100|78:147,1,94.499997116089,2|2,0:0|0:0,0:0:0:0:
168,368,42896,1,14,0:0:0:0:
168,368,43134,5,0,0:0:0:0:
168,368,43372,5,0,0:0:0:0:
104,315,43611,6,0,P|151:285|186:286,1,78.7500030040742
245,295,43849,2,0,P|283:288|313:263,1,78.7500030040742
331,194,44087,1,0,0:0:0:0:
331,194,44206,1,0,0:0:0:0:
409,339,44325,6,0,B|434:385|434:385|462:272,1,157.500006008148,2|0,0:0|0:0,0:0:0:0:
482,213,44682,1,0,0:0:0:0:
388,111,44801,6,0,B|324:97|324:97|289:108|289:108|223:94|223:94,1,157.500006008148,2|0,0:0|0:0,0:0:0:0:
163,80,45158,1,0,0:0:0:0:
253,177,45277,6,0,L|329:193,1,78.7500030040742
170,227,45515,2,0,L|93:210,1,78.7500030040742
275,277,45753,2,0,B|341:295|341:295|352:323|352:323|424:343,1,157.500006008148,2|0,0:0|0:0,0:0:0:0:
139,368,46230,5,8,0:0:0:0:
125,335,46349,1,0,0:0:0:0:
130,285,46468,1,0,0:0:0:0:
170,227,46587,1,0,0:0:0:0:
156,148,46706,6,0,P|115:107|57:219,1,236.250009012223,2|0,0:0|0:0,0:0:0:0:
245,295,47182,5,10,0:0:0:0:
279,281,47261,1,2,0:0:0:0:
304,247,47341,1,2,0:0:0:0:
311,199,47420,1,2,0:0:0:0:
322,148,47499,1,2,0:0:0:0:
364,99,47579,1,2,0:0:0:0:
436,91,47658,6,0,P|479:122|490:153,1,78.7500030040742,2|0,0:0|0:0,0:0:0:0:
309,40,47896,2,0,P|343:20|382:21,1,78.7500030040742
405,178,48134,6,0,L|428:279,1,78.7500030040742,10|0,0:0|0:0,0:0:0:0:
357,308,48372,2,0,L|374:384,1,78.7500030040742,2|0,0:0|0:0,0:0:0:0:
500,256,48611,6,0,B|411:275|411:275|346:258|346:258|294:300|294:300|206:319,1,315.000012016297,2|0,0:0|0:0,0:0:0:0:
57,342,49206,1,0,0:0:0:0:
136,269,49325,1,0,0:0:0:0:
151,384,49444,1,0,0:0:0:0:
137,169,49563,5,0,0:0:0:0:
153,139,49622,1,0,0:0:0:0:
167,107,49682,1,0,0:0:0:0:
182,76,49741,1,0,0:0:0:0:
225,22,49801,5,0,0:0:0:0:
239,48,49861,1,0,0:0:0:0:
252,78,49920,1,0,0:0:0:0:
265,105,49980,1,0,0:0:0:0:
298,164,50039,5,0,0:0:0:0:
309,137,50099,1,0,0:0:0:0:
319,111,50158,1,0,0:0:0:0:
329,86,50218,1,0,0:0:0:0:
358,26,50277,5,2,0:2:0:0:
376,65,50337,1,2,0:2:0:0:
394,105,50396,1,2,0:2:0:0:
415,143,50456,1,2,0:2:0:0:
433,181,50515,6,0,B|439:284|531:232|508:355|465:379|428:402|336:365|335:283|400:256,1,336,6|8,0:0|0:0,0:0:0:0:
492,252,50872,2,0,P|494:345|346:268,1,336,6|8,0:0|0:0,0:0:0:0:
512,121,51230,1,6,0:0:0:0:
512,121,51468,2,0,P|449:116|420:137,1,84,8|8,0:0|0:0,0:0:0:0:
330,216,51587,6,0,B|250:280|170:218|170:218|90:152|10:216,1,336,6|8,0:0|0:0,0:0:0:0:
73,338,51944,2,0,P|151:315|36:301,1,336,6|6,0:0|0:0,0:0:0:0:
154,374,52301,2,0,P|188:341|201:300,1,84,2|2,0:0|0:0,0:0:0:0:
70,171,52420,6,0,P|-1:229|156:373,1,377.999988464356,6|8,0:0|0:0,0:0:0:0:
264,151,52777,2,0,B|306:91|306:91|196:74|196:74|147:86|147:86|100:57|100:57|4:43,1,377.999988464356,6|8,0:0|0:0,0:0:0:0:
366,3,53134,1,6,0:0:0:0:
366,3,53372,2,0,L|401:143,1,94.499997116089,8|8,0:0|0:0,0:0:0:0:
434,280,53491,6,0,B|501:297|531:203|486:141|285:186|444:386,1,377.999988464356,6|8,0:0|0:0,0:0:0:0:
512,136,53849,2,0,P|401:127|316:288,1,283.499991348267,6|0,0:0|0:0,0:0:0:0:
323,335,54087,1,6,0:0:0:0:
124,115,54206,1,2,0:0:0:0:
115,107,54265,1,2,0:0:0:0:
104,98,54325,6,0,P|34:186|244:268,1,420,6|8,0:0|0:0,0:0:0:0:
92,88,54682,2,0,P|43:282|274:241,1,462.000014099122,6|0,0:0|0:0,0:0:0:0:
211,65,55039,1,2,0:0:0:0:
271,100,55099,1,2,0:0:0:0:
298,163,55158,1,2,0:0:0:0:
288,232,55218,1,2,0:0:0:0:
246,291,55277,6,0,B|152:343|152:343|235:34,1,420,6|8,0:0|0:0,0:0:0:0:
253,303,55634,2,0,B|129:374|129:374|217:47,1,462.000014099122,6|0,0:0|0:0,0:0:0:0:
443,99,55991,1,2,0:0:0:0:
458,167,56051,1,2,0:0:0:0:
473,235,56111,1,2,0:0:0:0:
488,301,56170,1,2,0:0:0:0:
503,369,56230,5,14,0:0:0:0:
364,88,56349,1,8,0:0:0:0:
227,362,56468,1,8,0:0:0:0:
372,71,56587,1,8,0:0:0:0:
219,379,56706,1,8,0:0:0:0:
105,31,56825,1,8,0:0:0:0:
26,384,56944,1,8,0:0:0:0:
110,12,57063,1,8,0:0:0:0:
290,307,57182,6,0,B|310:346|363:349|363:349|333:270|210:278,1,231.000007049561,10|0,0:0|0:0,0:0:0:0:
71,195,57361,2,0,B|51:156|-2:153|-2:153|28:232|151:224,1,231.000007049561,10|0,0:0|0:0,0:0:0:0:
232,118,57539,2,0,L|268:-3,1,115.50000352478,10|0,0:0|0:0,0:0:0:0:
142,119,57658,6,0,P|197:203|319:147,1,231.000007049561,10|0,0:0|0:0,0:0:0:0:
512,162,57837,2,0,P|457:78|335:134,1,231.000007049561,10|0,0:0|0:0,0:0:0:0:
489,312,58015,1,10,0:0:0:0:
489,312,58134,5,14,0:0:0:0:
441,345,58194,1,14,0:0:0:0:
386,363,58253,1,14,0:0:0:0:
329,349,58313,1,14,0:0:0:0:
287,309,58372,1,14,0:0:0:0:
255,260,58432,1,14,0:0:0:0:
218,216,58491,1,14,0:0:0:0:
163,196,58551,1,14,0:0:0:0:
105,205,58611,1,14,0:0:0:0:
64,245,58670,1,14,0:0:0:0:
52,302,58730,1,14,0:0:0:0:
75,354,58789,1,14,0:0:0:0:
123,384,58849,6,0,L|161:281,2,90.9999958343508,10|0|0,0:1|0:0|0:0,0:0:0:0:
75,354,59087,5,14,0:0:0:0:
52,302,59146,1,14,0:0:0:0:
64,245,59206,1,14,0:0:0:0:
105,205,59265,1,14,0:0:0:0:
163,196,59325,1,14,0:0:0:0:
218,216,59384,1,14,0:0:0:0:
273,236,59444,1,14,0:0:0:0:
331,227,59503,1,14,0:0:0:0:
372,187,59563,1,14,0:0:0:0:
384,130,59622,1,14,0:0:0:0:
361,78,59682,1,14,0:0:0:0:
310,50,59741,1,14,0:0:0:0:
252,63,59801,6,0,L|307:165,2,90.9999958343508,10|0|0,0:1|0:0|0:0,0:0:0:0:
413,0,60039,5,14,0:0:0:0:
463,47,60099,1,2,0:0:0:0:
477,112,60158,1,2,0:0:0:0:
473,180,60218,1,2,0:0:0:0:
439,239,60277,6,0,P|424:303|457:353,1,68.2499968757631,2|0,0:0|0:0,0:0:0:0:
492,384,60396,2,0,P|507:320|474:270,1,68.2499968757631,8|0,0:0|0:0,0:0:0:0:
358,374,60515,5,14,0:0:0:0:
284,356,60575,1,2,0:0:0:0:
211,338,60634,1,2,0:0:0:0:
137,320,60694,1,2,0:0:0:0:
65,300,60753,2,0,L|-3:282,1,68.2499968757631,2|0,0:0|0:0,0:0:0:0:
273,236,60872,2,0,L|341:254,1,68.2499968757631,10|0,0:0|0:0,0:0:0:0:
139,125,60991,6,0,L|71:107,3,42,14|0|4|0,0:0|0:0|0:0|0:0,0:0:0:0:
309,67,61230,2,0,L|377:85,3,42,14|0|4|0,0:0|0:0|0:0|0:0,0:0:0:0:
181,38,61468,6,0,B|-5:-6|-5:-6|14:76,1,252,14|8,0:0|0:0,0:0:0:0:
33,186,61706,2,0,B|219:230|219:230|200:148,1,252,14|8,0:0|0:0,0:0:0:0:
139,125,61944,2,0,L|57:103,1,84,14|0,0:0|0:0,0:0:0:0:
309,67,62063,2,0,L|390:88,1,84,8|8,0:0|0:0,0:0:0:0:
217,312,62182,1,14,0:0:0:0:
217,312,62241,1,0,0:0:0:0:
217,312,62301,1,14,0:0:0:0:
382,0,62420,5,14,0:0:0:0:
512,384,62539,1,14,0:0:0:0:
114,304,62658,1,14,0:0:0:0:
256,192,62718,12,0,63730,0:0:0:0:
179,179,63849,6,0,B|23:151|23:151|83:214,2,204.749990627289,14|10|2,0:0|0:0|0:0,0:0:0:0:
325,197,64265,1,2,0:0:0:0:
333,205,64325,2,0,B|488:232|488:232|456:198,2,204.749990627289,14|10|2,0:0|0:0|0:0,0:0:0:0:
222,99,64801,6,0,B|126:81|126:81|61:4|61:4|45:96,2,236.250009012223,14|10|2,0:0|0:0|0:0,0:0:0:0:
285,274,65218,1,2,0:0:0:0:
290,285,65277,2,0,B|385:302|385:302|450:379|450:379|466:287,2,236.250009012223,14|10|2,0:0|0:0|0:0,0:0:0:0:
195,310,65753,5,6,0:0:0:0:
189,295,65813,1,0,0:0:0:0:
186,279,65872,1,0,0:0:0:0:
186,263,65932,1,0,0:0:0:0:
189,247,65991,1,6,0:0:0:0:
196,232,66051,1,0,0:0:0:0:
206,220,66111,1,0,0:0:0:0:
218,211,66170,1,0,0:0:0:0:
232,205,66230,5,6,0:0:0:0:
187,220,66289,1,0,0:0:0:0:
141,211,66349,1,0,0:0:0:0:
107,178,66408,1,0,0:0:0:0:
96,132,66468,1,6,0:0:0:0:
112,88,66527,1,0,0:0:0:0:
150,59,66587,1,0,0:0:0:0:
198,55,66646,1,0,0:0:0:0:
239,78,66706,6,0,P|277:101|338:96,1,78.7500030040742,6|0,0:0|0:0,0:0:0:0:
453,82,66825,2,0,P|487:64|511:33,1,78.7500030040742
365,0,66944,6,0,L|381:94,1,78.7500030040742,6|0,0:0|0:0,0:0:0:0:
394,161,67063,2,0,L|410:255,1,78.7500030040742
423,322,67182,5,6,0:0:0:0:
407,320,67241,1,0,0:0:0:0:
391,318,67301,1,0,0:0:0:0:
375,318,67361,1,0,0:0:0:0:
359,321,67420,1,6,0:0:0:0:
343,326,67480,1,0,0:0:0:0:
329,333,67539,1,0,0:0:0:0:
315,341,67599,1,0,0:0:0:0:
302,354,67658,5,6,0:0:0:0:
320,310,67718,1,0,0:0:0:0:
310,264,67777,1,0,0:0:0:0:
273,233,67837,1,0,0:0:0:0:
226,229,67896,1,6,0:0:0:0:
183,250,67956,1,0,0:0:0:0:
151,284,68015,1,0,0:0:0:0:
105,298,68075,1,0,0:0:0:0:
58,291,68134,1,6,0:0:0:0:
21,259,68194,1,0,0:0:0:0:
0,216,68253,1,0,0:0:0:0:
5,168,68313,1,0,0:0:0:0:
31,129,68372,1,6,0:0:0:0:
73,107,68432,1,0,0:0:0:0:
119,105,68491,1,0,0:0:0:0:
161,126,68551,1,0,0:0:0:0:
190,167,68611,6,0,P|195:225|188:239,1,68.2499968757631,6|0,0:0|0:0,0:0:0:0:
6,59,68730,2,0,P|53:25|69:24,1,68.2499968757631
226,194,68849,2,0,P|201:246|188:255,1,68.2499968757631,6|0,0:0|0:0,0:0:0:0:
11,14,68968,2,0,P|69:8|82:16,1,68.2499968757631
351,213,69087,5,6,0:0:0:0:
426,222,69146,1,2,0:0:0:0:
491,179,69206,1,2,0:0:0:0:
512,107,69265,1,2,0:0:0:0:
483,36,69325,1,6,0:0:0:0:
415,2,69384,1,2,0:0:0:0:
340,19,69444,1,2,0:0:0:0:
293,80,69503,1,2,0:0:0:0:
298,157,69563,1,6,0:0:0:0:
363,113,71468,5,0,0:0:0:0:
414,112,71527,1,0,0:0:0:0:
364,103,71587,5,0,0:0:0:0:
412,121,71646,1,0,0:0:0:0:
370,94,71706,5,0,0:0:0:0:
406,129,71765,1,0,0:0:0:0:
378,89,71825,5,0,0:0:0:0:
398,135,71884,1,0,0:0:0:0:
387,86,71944,5,0,0:0:0:0:
389,137,72003,1,0,0:0:0:0:
396,87,72063,5,0,0:0:0:0:
380,137,72122,1,0,0:0:0:0:
406,93,72182,5,0,0:0:0:0:
370,131,72241,1,0,0:0:0:0:
410,101,72301,5,0,0:0:0:0:
366,123,72361,1,0,0:0:0:0:
388,112,72420,5,6,0:0:0:0:
86,358,72539,1,6,0:0:0:0:
429,279,72658,1,6,0:0:0:0:
429,279,72896,5,0,0:0:0:0:
404,258,72956,1,0,0:0:0:0:
378,236,73015,1,0,0:0:0:0:
355,213,73075,1,0,0:0:0:0:
330,193,73134,6,0,B|296:164|296:164|317:287,1,157.5,10|0,0:1|0:0,0:0:0:0:
185,168,73372,6,0,B|214:135|214:135|245:320|245:320|203:298,1,272.999987503052,6|8,0:0|0:0,0:0:0:0:
38,101,73730,2,0,B|146:84|146:84|181:45|181:45|303:21,1,272.999987503052,2|8,0:0|0:0,0:0:0:0:
410,284,74087,2,0,B|325:296|325:296|298:132,1,251.999992309571,2|8,0:0|0:0,0:0:0:0:
478,179,74444,2,0,L|508:366,1,188.999994232178,2|0,0:0|0:0,0:0:0:0:
510,379,74682,5,8,0:0:0:0:
355,159,74801,1,2,0:0:0:0:
271,384,74920,1,0,0:0:0:0:
483,196,75039,5,2,0:0:0:0:
487,166,75099,1,0,0:0:0:0:
491,136,75158,1,0,0:0:0:0:
495,105,75218,1,0,0:0:0:0:
498,76,75277,6,0,B|427:59|427:59|364:85|364:85|319:32|319:32|244:16,1,272.999987503052,2|8,0:0|0:0,0:0:0:0:
96,157,75634,2,0,B|297:195|297:195|380:143,1,272.999987503052,2|8,0:0|0:0,0:0:0:0:
32,76,75991,2,0,B|16:175|16:175|44:234|44:234|30:319,1,251.999992309571,2|8,0:0|0:0,0:0:0:0:
437,254,76349,2,0,B|291:226|291:226|230:263,1,220.499993270874,2|0,0:0|0:0,0:0:0:0:
167,308,76587,5,8,0:0:0:0:
397,358,76706,1,2,0:0:0:0:
191,175,76825,1,0,0:0:0:0:
512,177,76944,5,2,0:0:0:0:
498,135,77003,1,0,0:0:0:0:
469,100,77063,1,0,0:0:0:0:
428,83,77122,1,0,0:0:0:0:
357,86,77182,6,0,B|258:71|258:71|199:99|199:99|114:85,1,251.999992309571,6|8,0:0|0:0,0:0:0:0:
288,333,77539,2,0,B|304:367|304:367|135:332|135:332|166:307,1,251.999992309571,2|8,0:0|0:0,0:0:0:0:
400,183,77896,2,0,B|458:229|458:229|415:385|415:385|387:335,1,272.999987503052,2|8,0:0|0:0,0:0:0:0:
312,233,78194,5,0,0:0:0:0:
302,212,78253,2,0,P|296:169|319:121,1,68.2499968757631,2|0,0:0|0:0,0:0:0:0:
325,46,78372,2,0,P|358:57|383:80,1,68.2499968757631
457,149,78491,2,0,P|431:172|399:182,1,68.2499968757631,8|0,0:0|0:0,0:0:0:0:
217,231,78611,5,2,0:0:0:0:
472,73,78730,1,0,0:0:0:0:
224,145,78849,5,2,0:0:0:0:
190,138,78908,1,0,0:0:0:0:
162,116,78968,1,0,0:0:0:0:
144,87,79027,1,0,0:0:0:0:
145,52,79087,5,2,0:0:0:0:
122,108,79146,1,0,0:0:0:0:
72,145,79206,1,0,0:0:0:0:
27,186,79265,1,0,0:0:0:0:
11,245,79325,1,8,0:0:0:0:
26,303,79384,1,0,0:0:0:0:
69,347,79444,1,2,0:0:0:0:
128,358,79503,1,0,0:0:0:0:
188,343,79563,6,0,P|223:312|238:276,1,68.2499968757631
289,159,79682,2,0,P|257:146|223:144,1,68.2499968757631,8|0,0:0|0:0,0:0:0:0:
71,145,79801,2,0,P|76:178|92:208,1,68.2499968757631,2|0,0:0|0:0,0:0:0:0:
353,237,79920,6,0,P|386:201|379:111,1,118.125004506111
360,62,80158,6,0,L|457:279,1,204.749990627289,2|0,0:0|0:0,0:0:0:0:
475,314,80396,1,8,0:0:0:0:
512,77,80515,1,2,0:0:0:0:
289,159,80634,6,0,L|180:207,1,68.2499968757631,8|8,0:0|0:0,0:0:0:0:
443,248,80753,2,0,L|551:199,1,68.2499968757631,10|8,0:0|0:0,0:0:0:0:
241,141,80872,2,0,L|132:189,1,68.2499968757631,8|8,0:0|0:0,0:0:0:0:
276,381,80991,6,0,P|318:307|253:214,1,157.500006008148,14|0,0:1|0:0,0:0:0:0:
0,47,81230,1,2,0:0:0:0:
310,358,81349,6,0,P|324:274|231:208,1,157.500006008148,0|2,0:0|0:0,0:0:0:0:
6,75,81587,1,0,0:0:0:0:
334,324,81706,6,0,P|318:240|209:210,1,157.500006008148,2|0,0:0|0:0,0:0:0:0:
12,103,81944,1,2,0:0:0:0:
345,284,82063,6,0,P|301:210|188:220,1,157.500006008148,0|2,0:0|0:0,0:0:0:0:
18,131,82301,1,0,0:0:0:0:
265,33,82420,6,0,B|376:6|376:6|325:71,1,157.500006008148,2|0,0:0|0:0,0:0:0:0:
122,220,82658,2,0,B|11:247|11:247|37:212,1,157.500006008148,2|0,0:0|0:0,0:0:0:0:
424,73,82896,6,0,P|482:167|457:217,1,157.500006008148,6|0,0:0|0:0,0:0:0:0:
265,335,83134,1,2,0:0:0:0:
479,101,83253,6,0,P|482:211|435:242,1,157.500006008148,0|2,0:0|0:0,0:0:0:0:
233,344,83491,1,0,0:0:0:0:
512,152,83611,2,0,P|459:248|403:252,1,157.500006008148,2|0,0:0|0:0,0:0:0:0:
283,27,83849,1,2,0:0:0:0:
49,155,83968,2,0,P|3:94|23:21,1,157.500006008148,0|2,0:0|0:0,0:0:0:0:
283,27,84206,5,0,0:0:0:0:
233,344,84325,1,2,0:0:0:0:
93,84,84444,1,2,0:0:0:0:
93,84,84503,1,2,0:0:0:0:
93,84,84563,1,2,0:0:0:0:
426,168,84682,1,2,0:0:0:0:
426,168,84741,1,2,0:0:0:0:
426,168,84801,6,0,B|441:207|441:207|265:164,1,196.349996105118,14|0,0:0|0:0,0:0:0:0:
0,105,85039,1,10,0:0:0:0:
434,189,85158,6,0,B|449:228|449:228|273:185,1,196.349996105118,0|10,0:0|0:0,0:0:0:0:
8,126,85396,1,0,0:0:0:0:
502,101,85515,6,0,B|517:62|517:62|341:105,1,196.349996105118,10|0,0:0|0:0,0:0:0:0:
76,164,85753,1,14,0:0:0:0:
510,80,85872,6,0,B|525:41|525:41|349:84,1,196.349996105118,0|10,0:0|0:0,0:0:0:0:
84,143,86111,1,0,0:0:0:0:
340,295,86230,5,14,0:0:0:0:
274,5,86349,1,14,0:0:0:0:
150,270,86468,6,0,P|214:312|248:309,1,98.1749980525589,2|2,0:0|0:0,0:0:0:0:
443,264,86587,2,0,P|482:236|500:191,1,98.1749980525589,2|2,0:0|0:0,0:0:0:0:
274,5,86706,5,14,0:0:0:0:
241,53,86765,1,2,0:0:0:0:
234,112,86825,1,2,0:0:0:0:
256,165,86884,1,2,0:0:0:0:
300,204,86944,1,14,0:0:0:0:
325,256,87003,1,2,0:0:0:0:
321,315,87063,1,2,0:0:0:0:
284,360,87122,1,2,0:0:0:0:
225,368,87182,1,14,0:0:0:0:
169,348,87241,1,2,0:0:0:0:
138,296,87301,1,2,0:0:0:0:
133,236,87361,1,2,0:0:0:0:
167,188,87420,6,0,P|235:162|286:183,1,98.1749980525589,14|2,0:0|0:0,0:0:0:0:
445,360,87539,2,0,P|377:386|326:365,1,98.1749980525589,2|2,0:0|0:0,0:0:0:0:
420,104,87658,6,0,B|420:84|420:84|428:69|428:69|428:86|428:86|420:103,1,70.8750002703667,2|2,0:1|0:1,0:1:0:0:
445,125,87718,2,0,B|459:111|459:111|475:106|475:106|463:119|463:119|445:124,1,70.8750002703667,2|2,0:1|0:1,0:1:0:0:
447,157,87777,2,0,B|466:157|466:157|481:165|481:165|464:165|464:165|447:157,1,70.8750002703667,2|2,0:1|0:1,0:1:0:0:
425,181,87837,2,0,B|438:195|438:195|443:211|443:211|430:199|430:199|425:181,1,70.8750002703667,2|2,0:1|0:1,0:1:0:0:
393,183,87896,2,0,B|392:202|392:202|384:217|384:217|384:200|384:200|392:183,1,70.8750002703667,2|2,0:1|0:1,0:1:0:0:
369,161,87956,2,0,B|354:174|354:174|338:179|338:179|350:166|350:166|368:161,1,70.8750002703667,2|2,0:1|0:1,0:1:0:0:
367,129,88015,2,0,B|347:128|347:128|332:120|332:120|349:120|349:120|366:128,1,70.8750002703667,2|2,0:1|0:1,0:1:0:0:
389,105,88075,2,0,B|375:90|375:90|370:74|370:74|383:86|383:86|388:104,1,70.8750002703667,2|2,0:1|0:1,0:1:0:0:
423,91,88134,6,0,B|423:63|423:63|434:40|434:40|435:66|435:66|423:89,1,105,2|2,0:1|0:1,0:1:0:0:
456,117,88194,2,0,B|476:97|476:97|499:89|499:89|482:108|482:108|457:116,1,105,2|2,0:1|0:1,0:1:0:0:
460,160,88253,2,0,B|487:160|487:160|510:171|510:171|484:172|484:172|461:160,1,105,2|2,0:1|0:1,0:1:0:0:
434,193,88313,2,0,B|453:213|453:213|461:236|461:236|442:219|442:219|434:194,1,105,2|2,0:1|0:1,0:1:0:0:
390,196,88372,2,0,B|389:223|389:223|378:246|378:246|377:220|377:220|389:197,1,105,2|2,0:1|0:1,0:1:0:0:
357,170,88432,2,0,B|336:189|336:189|313:197|313:197|330:178|330:178|355:170,1,105,2|2,0:1|0:1,0:1:0:0:
353,127,88491,2,0,B|325:126|325:126|302:115|302:115|328:114|328:114|351:126,1,105,2|2,0:1|0:1,0:1:0:0:
379,94,88551,2,0,B|359:73|359:73|351:50|351:50|370:67|370:67|378:92,1,105,2|2,0:1|0:1,0:1:0:0:
407,143,88611,5,14,0:0:0:0:
107,5,88730,1,14,0:0:0:0:
103,327,88968,5,14,0:0:0:0:
244,8,89087,1,14,0:0:0:0:
348,367,89325,5,14,0:0:0:0:
0,201,89444,1,14,0:0:0:0:
370,23,89682,5,14,0:0:0:0:
492,383,89801,1,14,0:0:0:0:
71,234,90039,6,0,L|-21:191,1,78.7500030040742,14|0,0:0|0:0,0:0:0:0:
367,112,90158,2,0,L|459:69,1,78.7500030040742
199,350,90277,5,14,0:0:0:0:
178,315,90337,1,2,0:0:0:0:
168,269,90396,1,2,0:0:0:0:
175,222,90456,1,2,0:0:0:0:
201,183,90515,5,6,0:0:0:0:
0,384,90634,1,2,0:0:0:0:
106,48,90753,5,2,0:0:0:0:
284,287,90872,1,2,0:0:0:0:
359,126,90991,5,2,0:0:0:0:
367,112,91111,1,2,0:0:0:0:
466,341,91230,5,2,0:0:0:0:
474,355,91349,1,2,0:0:0:0:
195,316,91468,5,2,0:0:0:0:
178,315,91587,1,2,0:0:0:0:
161,314,91706,1,2,0:0:0:0:
284,287,91825,6,0,B|386:262|386:262|337:217,1,157.500006008148,2|2,0:0|0:0,0:0:0:0:
140,116,92063,1,2,0:0:0:0:
1,307,92182,2,0,B|-16:356|-16:356|85:330,1,157.500006008148,2|2,0:0|0:0,0:0:0:0:
233,143,92420,6,0,P|238:79|197:30,1,131.25,2|2,0:0|0:0,0:0:0:0:
9,2,92658,1,2,0:0:0:0:
163,211,92777,6,0,P|216:246|279:235,1,131.25,2|2,0:0|0:0,0:0:0:0:
397,87,93015,1,2,0:0:0:0:
140,117,93134,6,0,P|82:145|60:205,1,131.25,2|2,0:0|0:0,0:0:0:0:
213,372,93372,5,2,0:0:0:0:
252,377,93432,1,0,0:0:0:0:
290,369,93491,1,2,0:0:0:0:
321,345,93551,1,0,0:0:0:0:
340,310,93611,1,2,0:0:0:0:
360,276,93670,1,0,0:0:0:0:
394,255,93730,1,2,0:0:0:0:
432,250,93789,1,0,0:0:0:0:
469,262,93849,5,2,0:0:0:0:
254,293,93968,1,2,0:0:0:0:
512,179,94087,5,2,0:0:0:0:
297,210,94206,1,2,0:0:0:0:
286,202,94265,1,2,0:0:0:0:
275,194,94325,5,6,0:0:0:0:
437,352,94444,1,2,0:0:0:0:
307,104,94563,5,2,0:0:0:0:
469,262,94682,1,2,0:0:0:0:
352,24,94801,6,0,P|307:11|227:58,1,131.25,2|2,0:0|0:0,0:0:0:0:
74,243,95039,2,0,P|119:256|199:209,1,131.25,2|2,0:0|0:0,0:0:0:0:
110,116,95277,5,2,0:0:0:0:
166,348,95396,1,2,0:0:0:0:
160,54,95515,5,2,0:0:0:0:
242,368,95634,1,2,0:0:0:0:
418,125,95753,6,0,P|474:134|512:198,2,87.5,2|2|2,0:0|0:0|0:0,0:0:0:0:
326,189,95991,2,0,P|269:179|231:115,2,87.5,2|2|2,0:0|0:0|0:0,0:0:0:0:
431,214,96230,5,6,0:0:0:0:
419,251,96289,1,0,0:0:0:0:
394,282,96349,1,2,0:0:0:0:
361,303,96408,1,0,0:0:0:0:
321,308,96468,1,2,0:0:0:0:
282,302,96527,1,0,0:0:0:0:
245,286,96587,1,2,0:0:0:0:
219,256,96646,1,0,0:0:0:0:
202,219,96706,6,0,P|158:183|110:183,1,65.625,6|0,0:0|0:0,0:0:0:0:
54,342,96825,2,0,P|98:378|146:378,1,65.625,2|0,0:0|0:0,0:0:0:0:
66,206,96944,2,0,P|42:228|28:257,1,65.625,2|0,0:0|0:0,0:0:0:0:
189,354,97063,2,0,P|213:332|227:303,1,65.625,2|0,0:0|0:0,0:0:0:0:
83,84,97182,5,6,0:0:0:0:
311,12,97301,2,0,L|343:-1,4,32.8125,2|2|2|2|6,0:1|0:1|0:1|0:1|0:0,0:0:0:0:
323,282,97539,6,0,L|337:321,2,32.8125,2|2|2,0:1|0:1|0:1,0:0:0:0:
311,203,97658,1,6,0:0:0:0:
371,175,97718,1,2,0:0:0:0:
432,146,97777,1,2,0:0:0:0:
492,118,97837,1,2,0:0:0:0:
485,40,97896,2,0,L|472:0,6,32.8125,6|2|2|2|2|2|2,0:1|0:1|0:1|0:1|0:0|0:0|0:0,0:0:0:0:
492,118,98134,5,6,0:0:0:0:
432,146,98194,1,2,0:0:0:0:
366,145,98253,1,6,0:0:0:0:
314,104,98313,1,2,0:0:0:0:
275,51,98372,1,6,0:0:0:0:
215,22,98432,1,2,0:0:0:0:
149,22,98491,1,6,0:0:0:0:
92,56,98551,1,2,0:0:0:0:
57,112,98611,1,6,0:0:0:0:
55,177,98670,1,2,0:0:0:0:
86,235,98730,1,6,0:0:0:0:
141,268,98789,1,2,0:0:0:0:
209,268,98849,6,0,P|262:248|284:225,1,68.2499968757631,6|2,0:0|0:0,0:0:0:0:
336,23,98968,2,0,P|283:43|261:66,1,68.2499968757631,6|2,0:0|0:0,0:0:0:0:
174,283,99087,2,0,P|229:292|260:283,1,68.2499968757631,6|2,0:0|0:0,0:0:0:0:
371,8,99206,2,0,P|315:-1|284:7,1,68.2499968757631,6|2,0:0|0:0,0:0:0:0:
136,278,99325,2,0,P|179:313|210:321,1,68.2499968757631,6|2,0:0|0:0,0:0:0:0:
468,227,99444,5,6,0:0:0:0:
509,280,99503,1,2,0:0:0:0:
494,347,99563,1,6,0:0:0:0:
433,377,99622,1,2,0:0:0:0:
371,348,99682,1,6,0:0:0:0:
356,280,99741,1,2,0:0:0:0:
398,227,99801,1,6,0:0:0:0:
451,184,99861,1,2,0:0:0:0:
474,120,99920,1,6,0:0:0:0:
453,54,99980,1,2,0:0:0:0:
392,16,100039,5,6,0:0:0:0:
349,70,100099,1,2,0:0:0:0:
288,99,100158,1,6,0:0:0:0:
219,95,100218,1,2,0:0:0:0:
165,54,100277,1,6,0:0:0:0:
97,41,100337,1,2,0:0:0:0:
36,71,100396,1,6,0:0:0:0:
2,131,100456,1,2,0:0:0:0:
7,198,100515,1,6,0:0:0:0:
54,248,100575,1,2,0:0:0:0:
120,260,100634,1,6,0:0:0:0:
183,233,100694,1,2,0:0:0:0:
217,174,100753,6,0,P|226:123|193:70,1,68.2499968757631,6|2,0:0|0:0,0:0:0:0:
72,319,100872,2,0,P|63:370|96:423,1,68.2499968757631,6|2,0:0|0:0,0:0:0:0:
145,138,100991,6,0,L|79:118,1,68.2499968757631,6|2,0:0|0:0,0:0:0:0:
217,353,101111,2,0,L|309:381,1,68.2499968757631,6|2,0:0|0:0,0:0:0:0:
287,64,101230,2,0,L|221:44,1,68.2499968757631,6|2,0:0|0:0,0:0:0:0:
336,274,101349,2,0,L|401:293,1,68.2499968757631,6|2,0:0|0:0,0:0:0:0:
472,99,101468,1,6,0:0:0:0:
477,86,101527,1,2,0:0:0:0:
482,74,101587,1,6,0:0:0:0:
487,61,101646,1,2,0:0:0:0:
492,49,101706,1,6,0:0:0:0:
497,36,101765,1,2,0:0:0:0:
502,24,101825,1,6,0:0:0:0:
507,12,101884,1,2,0:0:0:0:
512,0,101944,5,14,0:0:0:0:
287,64,102063,1,2,0:0:0:0:
483,210,102182,1,2,0:0:0:0:
346,0,102301,5,14,0:0:0:0:
317,287,102420,1,2,0:0:0:0:
214,11,102539,1,2,0:0:0:0:
449,131,102658,5,14,0:0:0:0:
170,279,102777,1,2,0:0:0:0:
480,358,102896,1,2,0:0:0:0:
214,11,103015,5,14,0:0:0:0:
352,384,103134,1,2,0:0:0:0:
428,1,103253,1,2,0:0:0:0:
317,287,103372,5,2,0:0:0:0:
286,324,103432,1,2,0:0:0:0:
240,336,103491,1,2,0:0:0:0:
196,319,103551,1,2,0:0:0:0:
170,279,103611,1,2,0:0:0:0:
172,231,103670,1,2,0:0:0:0:
202,194,103730,1,2,0:0:0:0:
248,182,103789,1,2,0:0:0:0:
293,199,103849,5,14,0:0:0:0:
77,340,103968,1,2,0:0:0:0:
163,91,104087,5,2,0:0:0:0:
158,384,104206,1,10,0:0:0:0:
81,24,104325,5,2,0:0:0:0:
245,261,104444,1,10,0:0:0:0:
371,21,104563,5,2,0:0:0:0:
240,336,104682,1,10,0:0:0:0:
0,60,104801,5,14,0:0:0:0:
270,271,104920,6,0,L|328:287,4,34.1249984378815,2|2|2|2|14,0:1|0:1|0:1|0:1|0:0,0:0:0:0:
34,162,105158,2,0,L|-24:178,4,34.1249984378815,2|2|2|2|14,0:1|0:1|0:1|0:1|0:0,0:0:0:0:
91,79,105337,5,2,0:0:0:0:
110,84,105396,1,2,0:0:0:0:
129,89,105456,1,2,0:0:0:0:
148,94,105515,2,0,L|200:107,4,34.1249984378815,6|2|2|2|2,0:1|0:1|0:1|0:1|0:0,0:0:0:0:
255,19,105753,5,14,0:0:0:0:
157,240,105872,1,2,0:0:0:0:
364,143,105991,1,2,0:0:0:0:
1,224,106111,5,14,0:0:0:0:
270,271,106230,1,2,0:0:0:0:
91,79,106349,1,2,0:0:0:0:
129,351,106468,5,14,0:0:0:0:
136,0,106587,1,2,0:0:0:0:
358,260,106706,1,2,0:0:0:0:
0,316,106825,5,14,0:0:0:0:
255,19,106944,1,2,0:0:0:0:
315,384,107063,1,2,0:0:0:0:
243,114,107182,5,2,0:0:0:0:
297,107,107241,1,2,0:0:0:0:
340,140,107301,1,2,0:0:0:0:
355,192,107361,1,2,0:0:0:0:
339,243,107420,1,2,0:0:0:0:
359,294,107480,1,2,0:0:0:0:
405,320,107539,1,2,0:0:0:0:
458,308,107599,1,2,0:0:0:0:
487,262,107658,5,14,0:0:0:0:
165,350,107777,1,2,0:0:0:0:
455,120,107896,5,2,0:0:0:0:
315,384,108015,1,10,0:0:0:0:
341,47,108134,5,2,0:0:0:0:
486,384,108253,1,10,0:0:0:0:
223,12,108372,5,2,0:0:0:0:
487,262,108491,1,10,0:0:0:0:
138,365,108611,1,14,0:0:0:0:
455,120,108730,6,0,L|494:107,4,34.1249984378815,2|2|2|2|14,0:1|0:1|0:1|0:1|0:0,0:0:0:0:
158,66,108968,2,0,L|119:79,4,34.1249984378815,2|2|2|2|14,0:1|0:1|0:1|0:1|0:0,0:0:0:0:
155,154,109146,5,2,0:0:0:0:
150,173,109206,1,2,0:0:0:0:
145,192,109265,1,2,0:0:0:0:
140,211,109325,2,0,L|127:263,6,34.1249984378815,14|2|2|2|2|0|2,0:1|0:1|0:1|0:1|0:0|0:0|0:0,0:0:0:0:
43,160,109563,6,0,L|35:123,1,36.75,14|0,0:0|0:0,0:0:0:0:
20,46,110039,5,2,0:0:0:0:
68,20,110099,1,2,0:0:0:0:
121,24,110158,1,2,0:0:0:0:
161,61,110218,1,2,0:0:0:0:
174,113,110277,1,2,0:0:0:0:
157,165,110337,1,2,0:0:0:0:
119,203,110396,1,2,0:0:0:0:
109,257,110456,1,2,0:0:0:0:
121,309,110515,1,2,0:0:0:0:
159,346,110575,1,2,0:0:0:0:
211,362,110634,1,2,0:0:0:0:
264,358,110694,1,2,0:0:0:0:
310,328,110753,1,2,0:0:0:0:
328,277,110813,1,2,0:0:0:0:
322,222,110872,1,2,0:0:0:0:
297,173,110932,1,2,0:0:0:0:
283,119,110991,1,2,0:0:0:0:
299,67,111051,1,2,0:0:0:0:
345,36,111111,1,2,0:0:0:0:
399,33,111170,1,2,0:0:0:0:
446,60,111230,1,2,0:0:0:0:
471,107,111289,1,2,0:0:0:0:
470,162,111349,1,2,0:0:0:0:
433,201,111408,1,2,0:0:0:0:
406,248,111468,6,0,L|510:267,1,68.2499968757631,2|2,0:0|0:0,0:0:0:0:
299,67,111587,2,0,L|195:48,1,68.2499968757631,2|2,0:0|0:0,0:0:0:0:
310,328,111706,6,0,L|401:381,1,68.2499968757631,2|2,0:0|0:0,0:0:0:0:
208,136,111825,2,0,L|116:82,1,68.2499968757631,2|2,0:0|0:0,0:0:0:0:
219,349,111944,6,0,P|236:313|233:278,1,68.2499968757631,2|2,0:0|0:0,0:0:0:0:
73,82,112063,2,0,P|56:118|59:153,1,68.2499968757631,2|2,0:0|0:0,0:0:0:0:
292,233,112182,2,0,P|265:213|232:207,1,68.2499968757631,2|2,0:0|0:0,0:0:0:0:
0,196,112301,2,0,P|26:217|59:223,1,68.2499968757631,2|2,0:0|0:0,0:0:0:0:
299,67,112420,5,2,0:0:0:0:
345,36,112480,1,2,0:0:0:0:
399,33,112539,1,2,0:0:0:0:
446,60,112599,1,2,0:0:0:0:
471,107,112658,1,2,0:0:0:0:
470,162,112718,1,2,0:0:0:0:
433,201,112777,1,2,0:0:0:0:
406,248,112837,1,2,0:0:0:0:
408,300,112896,2,0,L|428:349,14,34.1249984378815,2|2|2|2|2|2|2|2|2|2|2|2|2|2|2,0:1|0:1|0:1|0:1|0:1|0:1|0:1|0:1|0:1|0:1|0:1|0:1|0:1|0:1|0:1,0:0:0:0:
483,274,113372,5,14,0:0:0:0:
219,349,113491,1,2,0:0:0:0:
0,196,113611,1,2,0:0:0:0:
6,142,113670,1,2,0:0:0:0:
36,96,113730,1,2,0:0:0:0:
82,67,113789,1,2,0:0:0:0:
136,62,113849,5,14,0:0:0:0:
219,349,113968,1,14,0:0:0:0:
478,281,114087,1,2,0:0:0:0:
490,228,114146,1,2,0:0:0:0:
478,174,114206,1,2,0:0:0:0:
445,131,114265,1,2,0:0:0:0:
396,108,114325,5,14,0:0:0:0:
219,349,114444,1,2,0:0:0:0:
136,62,114563,5,14,0:0:0:0:
214,364,114682,1,2,0:0:0:0:
277,20,114801,5,14,0:0:0:0:
85,298,114920,1,10,0:0:0:0:
283,1,115039,5,14,0:0:0:0:
347,357,115158,1,10,0:0:0:0:
74,0,115277,5,14,0:0:0:0:
438,376,115396,1,14,0:0:0:0:
0,286,115634,5,14,0:0:0:0:
512,90,115753,1,14,0:0:0:0:
0,140,115991,5,14,0:0:0:0:
512,236,116111,1,14,0:0:0:0:
121,112,116349,6,0,B|69:101|69:101|34:62|34:62|86:71|86:71|120:111,1,210,14|10,0:0|0:0,0:0:0:0:
391,272,116468,2,0,B|442:282|442:282|477:321|477:321|425:312|425:312|391:272,1,210,14|10,0:0|0:0,0:0:0:0:
100,192,116587,6,0,B|50:208|50:208|0:192|0:192|49:174|49:174|99:191,1,210,14|10,0:0|0:0,0:0:0:0:
412,192,116706,2,0,B|461:208|461:208|511:192|511:192|462:174|462:174|412:191,1,210,14|10,0:0|0:0,0:0:0:0:
120,270,116825,6,0,B|85:308|85:308|34:320|34:320|68:280|68:280|119:269,1,210,14|10,0:0|0:0,0:0:0:0:
391,114,116944,2,0,B|442:103|442:103|477:64|477:64|425:73|425:73|391:113,1,210,14|10,0:0|0:0,0:0:0:0:
256,192,117063,5,14,0:0:0:0:
256,192,117420,5,6,0:0:0:0:
256,192,117480,12,0,119027,0:0:0:0:
0,255,119087,5,6,0:0:0:0:
511,128,119206,1,6,0:0:0:0:
