osu file format v14

[General]
AudioFilename: audio.mp3
AudioLeadIn: 0
PreviewTime: 73241
Countdown: 0
SampleSet: Soft
StackLeniency: 0.2
Mode: 0
LetterboxInBreaks: 0
WidescreenStoryboard: 0

[Editor]
Bookmarks:992,6706,12420,20039,27658,33372,42896,50515,58134,63849,73372,80991,88611,98134,109563,119206
DistanceSpacing: 0.7
BeatDivisor: 4
GridSize: 4
TimelineZoom: 3.999998

[Metadata]
Title:Last Resort
TitleUnicode:Last Resort
Artist:xi
ArtistUnicode:xi
Creator:Kroytz
Version:Loli's INFINITE
Source:SOUND VOLTEX IV HEAVENLY HAVEN
Tags:The 7th Konami Arcade Championship Original Song Contest Winner Bemani KAC SDVX Video Rhythm Game Instrumental DJPop SnowNiNo_ C00l Cool 1112deng Suzuki_1112 Otosaka-Yu Elsa Valentine xLolicore- Realazy toybot vikala R3m AncuL Murumoo Tails Reba Wonki Blasticide Lolicide bsc _Streamy_ jakads
BeatmapID:1679788
BeatmapSetID:800102

[Difficulty]
HPDrainRate:5
CircleSize:4.5
OverallDifficulty:8.5
ApproachRate:9.6
SliderMultiplier:1.8
SliderTickRate:1

[Events]
//Background and Video events
0,0,"BG.jpg",0,0
//Break Periods
2,3084,5201
2,43084,48059
//Storyboard Layer 0 (Background)
//Storyboard Layer 1 (Fail)
//Storyboard Layer 2 (Pass)
//Storyboard Layer 3 (Foreground)
//Storyboard Layer 4 (Overlay)
//Storyboard Sound Samples

[TimingPoints]
992,-100,4,2,31,80,0,0
992,238.095238095238,4,2,31,80,1,0
1170,-100,4,2,31,5,0,0
1230,-100,4,2,31,80,0,0
1944,-100,4,2,34,80,0,0
2182,-100,4,2,32,80,0,0
2480,-100,4,2,32,5,0,0
2539,-100,4,2,31,40,0,0
2658,-100,4,2,31,80,0,0
2896,-125,4,2,31,80,0,0
6468,-125,4,2,31,20,0,0
6706,-71.4285714285714,4,2,34,80,0,0
6884,-71.4285714285714,4,2,34,20,0,0
6944,-71.4285714285714,4,2,34,80,0,0
7122,-71.4285714285714,4,2,34,20,0,0
7182,-71.4285714285714,4,2,34,80,0,0
7361,-71.4285714285714,4,2,34,20,0,0
7420,-71.4285714285714,4,2,34,80,0,0
7599,-71.4285714285714,4,2,34,20,0,0
7658,-71.4285714285714,4,2,34,80,0,0
7837,-71.4285714285714,4,2,34,20,0,0
7896,-71.4285714285714,4,2,34,80,0,0
8075,-71.4285714285714,4,2,34,20,0,0
8134,-71.4285714285714,4,2,34,80,0,0
8313,-71.4285714285714,4,2,34,20,0,0
8372,-71.4285714285714,4,2,34,80,0,0
8551,-71.4285714285714,4,2,34,20,0,0
8611,-83.3333333333333,4,2,34,80,0,0
10515,-125,4,2,31,80,0,0
10694,-125,4,2,31,5,0,0
10753,-125,4,2,31,40,0,0
10932,-125,4,2,31,5,0,0
10991,-125,4,2,31,40,0,0
11230,-100,4,2,31,80,0,0
11468,-100,4,2,34,80,0,0
11587,-100,4,2,33,80,0,0
11706,-100,4,2,34,80,0,0
11825,-100,4,2,33,80,0,0
11944,-100,4,2,34,80,0,0
12182,-100,4,2,33,80,0,0
12301,-100,4,2,34,80,0,0
12420,-125,4,2,31,65,0,0
19444,-125,4,2,33,65,0,0
19563,-125,4,2,31,65,0,0
19682,-125,4,2,33,65,0,0
19801,-125,4,2,31,72,0,0
20039,-100,4,2,31,80,0,0
20932,-100,4,2,31,80,0,0
20991,-100,4,2,31,80,0,0
21884,-100,4,2,31,80,0,0
21944,-100,4,2,31,80,0,0
22837,-100,4,2,31,80,0,0
22896,-100,4,2,31,80,0,0
25753,-100,4,2,31,60,0,0
26706,-100,4,2,33,80,0,0
27420,-100,4,2,34,80,0,0
27599,-100,4,2,34,5,0,0
27658,-125,4,2,31,80,0,0
27777,-125,4,2,31,40,0,0
33372,-100,4,2,34,80,0,0
33908,-100,4,2,34,40,0,0
33968,-100,4,2,34,80,0,0
34206,-100,4,2,31,80,0,0
34384,-100,4,2,31,40,0,0
34444,-100,4,2,31,80,0,0
34920,-100,4,2,32,80,0,0
34980,-100,4,2,33,80,0,0
35277,-100,4,2,31,80,0,0
35515,-100,4,2,32,80,0,0
36111,-100,4,2,32,80,0,0
36349,-100,4,2,32,80,0,0
38253,-100,4,2,32,80,0,0
38551,-100,4,2,32,80,0,0
38611,-100,4,2,32,80,0,0
39087,-100,4,2,31,80,0,0
39325,-100,4,2,32,80,0,0
40158,-100,4,2,32,80,0,0
40991,-100,4,2,31,80,0,0
41111,-100,4,2,31,40,0,0
41230,-100,4,2,32,80,0,0
41825,-100,4,2,31,80,0,0
41944,-100,4,2,31,40,0,0
42063,-100,4,2,31,80,0,0
42420,-100,4,2,31,78,0,0
42480,-100,4,2,31,76,0,0
42539,-100,4,2,31,74,0,0
42599,-100,4,2,31,72,0,0
42658,-100,4,2,31,70,0,0
42718,-100,4,2,31,68,0,0
42777,-100,4,2,31,66,0,0
42837,-100,4,2,31,64,0,0
42896,-100,4,2,31,60,0,0
49325,-100,4,2,31,5,0,0
49563,-100,4,2,31,60,0,0
50277,-100,4,2,31,80,0,0
50515,-100,4,2,31,80,0,0
51944,-100,4,2,34,80,0,0
52420,-100,4,2,31,80,0,0
53670,-100,4,2,31,80,0,0
53730,-100,4,2,31,80,0,0
53849,-100,4,2,34,80,0,0
54027,-100,4,2,34,80,0,0
54087,-100,4,2,34,80,0,0
54325,-100,4,2,31,80,0,0
54861,-100,4,2,31,80,0,0
54920,-100,4,2,31,80,0,0
55039,-100,4,2,31,80,0,0
55813,-100,4,2,31,80,0,0
55872,-100,4,2,31,80,0,0
57361,-100,4,2,31,80,0,0
57539,-100,4,2,31,80,0,0
57837,-100,4,2,31,80,0,0
58015,-100,4,2,31,80,0,0
58134,-90.9090909090909,4,2,33,80,0,0
58849,-90.9090909090909,4,2,34,80,0,0
59087,-90.9090909090909,4,2,33,80,0,0
59801,-90.9090909090909,4,2,34,80,0,0
60039,-90.9090909090909,4,2,31,80,0,0
60277,-111.111111111111,4,2,31,80,0,0
60515,-90.9090909090909,4,2,31,80,0,0
60991,-90.9090909090909,4,2,32,80,0,0
61468,-90.9090909090909,4,2,34,80,0,0
62420,-90.9090909090909,4,2,32,80,0,0
62658,-90.9090909090909,4,2,31,80,0,0
63611,-90.9090909090909,4,2,31,5,0,0
63849,-111.111111111111,4,2,31,60,0,0
64325,-111.111111111111,4,2,31,65,0,0
64801,-111.111111111111,4,2,31,70,0,0
65277,-111.111111111111,4,2,31,75,0,0
65753,-111.111111111111,4,2,34,80,0,0
69563,-111.111111111111,4,2,31,80,0,0
71230,-111.111111111111,4,2,31,5,0,0
71468,-111.111111111111,4,2,31,40,0,0
72420,-111.111111111111,4,2,32,80,0,0
72896,-111.111111111111,4,2,32,60,0,0
73134,-111.111111111111,4,2,32,80,0,0
73372,-83.3333333333333,4,2,31,80,0,1
74682,-83.3333333333333,4,2,31,80,0,1
76587,-83.3333333333333,4,2,31,80,0,1
78134,-83.3333333333333,4,2,31,80,0,1
79801,-100,4,2,31,80,0,1
80158,-90.9090909090909,4,2,31,80,0,1
80337,-90.9090909090909,4,2,31,5,0,1
80396,-90.9090909090909,4,2,31,80,0,1
80932,-90.9090909090909,4,2,31,80,0,0
80991,-83.3333333333333,4,2,34,80,0,1
81111,-83.3333333333333,4,2,31,80,0,1
82063,-90.9090909090909,4,2,31,80,0,1
82658,-83.3333333333333,4,2,31,80,0,1
84444,-83.3333333333333,4,2,31,40,0,1
84563,-83.3333333333333,4,2,31,80,0,1
84682,-83.3333333333333,4,2,31,40,0,1
84801,-83.3333333333333,4,2,31,80,0,1
86230,-83.3333333333333,4,2,32,80,0,1
86468,-83.3333333333333,4,2,31,40,0,1
86527,-83.3333333333333,4,2,31,50,0,1
86587,-83.3333333333333,4,2,31,60,0,1
86646,-83.3333333333333,4,2,31,70,0,1
86706,-83.3333333333333,4,2,34,80,0,1
87658,-83.3333333333333,4,2,33,80,0,1
88611,-83.3333333333333,4,2,32,80,0,0
88908,-83.3333333333333,4,2,32,40,0,0
88968,-83.3333333333333,4,2,32,80,0,0
89265,-83.3333333333333,4,2,32,40,0,0
89325,-83.3333333333333,4,2,32,80,0,0
89622,-83.3333333333333,4,2,32,40,0,0
89682,-83.3333333333333,4,2,32,80,0,0
89980,-83.3333333333333,4,2,32,40,0,0
90039,-83.3333333333333,4,2,32,80,0,0
90277,-83.3333333333333,4,2,35,80,0,0
90515,-100,4,2,31,80,0,0
97182,-100,4,2,34,80,0,0
97301,-100,4,2,31,80,0,0
97420,-100,4,2,34,80,0,0
97539,-100,4,2,31,80,0,0
97658,-100,4,2,34,80,0,0
97896,-100,4,2,31,80,0,0
98134,-83.3333333333333,4,2,34,80,0,0
101944,-90.9090909090909,4,2,31,80,0,0
104801,-90.9090909090909,4,2,34,80,0,0
104920,-90.9090909090909,4,2,33,80,0,0
105039,-90.9090909090909,4,2,34,80,0,0
105158,-90.9090909090909,4,2,33,80,0,0
105277,-90.9090909090909,4,2,34,80,0,0
105515,-90.9090909090909,4,2,33,80,0,0
105634,-90.9090909090909,4,2,31,80,0,0
108611,-90.9090909090909,4,2,34,80,0,0
108730,-90.9090909090909,4,2,33,80,0,0
108849,-90.9090909090909,4,2,34,80,0,0
108968,-90.9090909090909,4,2,33,80,0,0
109087,-90.9090909090909,4,2,34,80,0,0
109325,-90.9090909090909,4,2,33,80,0,0
109444,-90.9090909090909,4,2,34,80,0,0
109563,-111.111111111111,4,2,31,80,0,0
109920,-111.111111111111,4,2,31,40,0,0
110039,-90.9090909090908,4,2,31,80,0,0
112896,-90.9090909090908,4,2,33,80,0,0
113372,-90.9090909090908,4,2,32,80,0,1
113611,-90.9090909090908,4,2,32,40,0,1
113849,-90.9090909090908,4,2,32,80,0,1
114087,-90.9090909090908,4,2,32,40,0,1
114325,-90.9090909090908,4,2,34,80,0,1
114444,-90.9090909090908,4,2,34,40,0,1
114563,-90.9090909090908,4,2,34,80,0,1
114682,-90.9090909090908,4,2,34,40,0,1
114801,-90.9090909090908,4,2,34,80,0,1
114920,-90.9090909090908,4,2,34,80,0,1
115277,-90.9090909090908,4,2,32,80,0,1
115515,-90.9090909090908,4,2,32,60,0,1
115634,-90.9090909090908,4,2,32,80,0,1
115872,-90.9090909090908,4,2,32,60,0,1
115991,-90.9090909090908,4,2,32,80,0,1
116230,-90.9090909090908,4,2,32,60,0,1
116349,-90.9090909090908,4,2,32,80,0,1
117063,-90.9090909090908,4,2,32,80,0,0
117420,-90.9090909090908,4,2,31,80,0,0
117480,-90.9090909090908,4,2,31,80,0,0
118849,-90.9090909090908,4,2,31,5,0,0
119087,-90.9090909090908,4,2,32,80,0,0

[Colours]
Combo1 : 61,70,78
Combo2 : 42,72,82
Combo3 : 74,130,131
Combo4 : 155,151,164

[HitObjects]
463,283,992,6,0,P|399:271|344:343,1,135,6|0,0:0|0:0,0:0:0:0:
294,357,1230,2,0,P|305:315|288:257,1,90
208,174,1468,5,0,0:0:0:0:
199,175,1527,1,0,0:0:0:0:
190,176,1587,1,0,0:0:0:0:
181,178,1646,1,0,0:0:0:0:
172,180,1706,2,0,L|122:189,1,45,2|2,0:0|0:0,0:0:0:0:
88,48,1825,2,0,L|64:38,2,22.5,2|2|2,0:1|0:1|0:1,0:0:0:0:
148,107,1944,5,6,0:0:0:0:
50,222,2063,1,2,0:0:0:0:
57,243,2122,1,2,0:0:0:0:
57,265,2182,1,6,0:0:0:0:
194,379,2301,6,0,P|182:318|216:225,1,135,6|0,0:0|0:0,0:0:0:0:
200,248,2539,1,0,0:0:0:0:
304,174,2658,5,2,0:0:0:0:
313,175,2718,1,2,0:0:0:0:
322,176,2777,1,2,0:0:0:0:
331,178,2837,1,2,0:0:0:0:
342,180,2896,5,6,0:0:0:0:
256,192,5753,12,0,6468,0:0:0:0:
169,125,6706,6,0,B|186:73|143:39|143:39|85:51|78:118,1,188.999994232178,6|0,0:0|0:0,0:0:0:0:
151,197,6944,6,0,B|256:207|205:115|327:128,1,188.999994232178,6|0,0:0|0:0,0:0:0:0:
430,91,7182,6,0,B|379:78|379:78|327:124|369:203,1,188.999994232178,6|0,0:0|0:0,0:0:0:0:
444,285,7420,6,0,P|389:213|298:211,1,188.999994232178,6|0,0:0|0:0,0:0:0:0:
187,337,7658,6,0,B|132:354|132:354|68:312|94:214,1,188.999994232178,6|0,0:0|0:0,0:0:0:0:
0,73,7896,6,0,B|65:80|65:80|94:118|94:118|186:126,1,188.999994232178,6|0,0:0|0:0,0:0:0:0:
297,212,8134,6,0,B|257:157|257:157|265:8,1,188.999994232178,6|0,0:0|0:0,0:0:0:0:
382,19,8372,6,0,B|378:82|378:82|387:106|387:106|374:128|374:128|369:203,1,188.999994232178,6|0,0:0|0:0,0:0:0:0:
362,279,8611,1,14,0:0:0:0:
468,154,8789,5,0,0:0:0:0:
467,190,8849,1,14,0:0:0:0:
512,346,9027,5,0,0:0:0:0:
481,327,9087,1,14,0:0:0:0:
331,297,9265,5,0,0:0:0:0:
362,279,9325,2,0,P|402:337|339:371,1,161.999995056153,14|0,0:0|0:0,0:0:0:0:
268,347,9563,5,14,0:0:0:0:
226,357,9642,1,0,0:0:0:0:
184,342,9722,1,8,0:0:0:0:
158,307,9801,1,14,0:0:0:0:
129,274,9880,1,0,0:0:0:0:
86,265,9960,1,8,0:0:0:0:
46,281,10039,6,0,L|54:355,1,71.9999978027344,14|0,0:0|0:0,0:0:0:0:
167,194,10198,5,8,0:0:0:0:
238,204,10277,2,0,L|231:276,1,71.9999978027344,14|0,0:0|0:0,0:0:0:0:
40,110,10436,5,8,0:0:0:0:
47,181,10515,2,0,P|95:155|107:83,1,108,14|0,0:0|0:0,0:0:0:0:
72,41,10753,2,0,P|132:65|190:48,1,108
242,19,10991,1,0,0:0:0:0:
211,126,11111,2,0,P|233:121|259:122,1,36
426,26,11230,5,2,0:0:0:0:
382,19,11289,1,2,0:0:0:0:
342,38,11349,1,2,0:0:0:0:
320,76,11408,1,2,0:0:0:0:
323,120,11468,1,14,0:0:0:0:
436,176,11587,6,0,P|449:175|463:171,4,22.5,2|2|2|2|14,0:1|0:1|0:1|0:1|0:0,0:0:0:0:
384,282,11825,6,0,P|372:281|361:278,2,22.5,2|2|2,0:1|0:1|0:1,0:0:0:0:
317,365,11944,5,14,0:0:0:0:
352,360,12003,1,2,0:0:0:0:
388,356,12063,1,2,0:0:0:0:
423,351,12122,1,2,0:0:0:0:
459,346,12182,6,0,P|472:345|486:341,6,22.5,14|2|2|2|2|0|2,0:1|0:1|0:1|0:1|0:0|0:0|0:0,0:0:0:0:
384,282,12420,5,14,0:0:0:0:
457,172,12539,2,0,P|461:207|450:242,1,72
367,167,12777,5,0,0:0:0:0:
485,103,12896,2,0,P|450:99|408:116,1,72
373,53,13134,5,0,0:0:0:0:
457,172,13253,1,0,0:0:0:0:
457,172,13491,5,2,0:0:0:0:
373,53,13611,2,0,P|338:57|296:40,1,72
230,5,13849,5,2,0:0:0:0:
221,30,13968,1,0,0:0:0:0:
159,84,14087,1,2,0:0:0:0:
80,106,14206,1,2,0:0:0:0:
51,101,14265,1,2,0:0:0:0:
25,86,14325,1,2,0:0:0:0:
25,298,14444,5,0,0:0:0:0:
51,283,14503,1,0,0:0:0:0:
80,278,14563,1,0,0:0:0:0:
159,300,14682,1,0,0:0:0:0:
221,354,14801,1,0,0:0:0:0:
230,379,14920,1,0,0:0:0:0:
303,338,15039,6,0,P|337:327|373:331,1,72
434,374,15277,5,0,0:0:0:0:
365,234,15396,1,2,0:0:0:0:
434,298,15515,2,0,P|399:307|372:330,1,72
249,214,15753,5,2,0:0:0:0:
273,234,15813,1,0,0:0:0:0:
303,243,15872,1,0,0:0:0:0:
335,242,15932,1,0,0:0:0:0:
365,234,15991,1,2,0:0:0:0:
489,318,16111,5,0,0:0:0:0:
463,303,16170,1,2,0:0:0:0:
434,298,16230,1,6,0:0:0:0:
434,374,16349,5,0,0:0:0:0:
442,221,16468,2,0,L|448:137,1,72
453,73,16706,1,0,0:0:0:0:
277,8,16825,5,0,0:0:0:0:
310,77,16944,1,0,0:0:0:0:
381,109,17063,2,0,P|387:73|378:39,1,72
277,8,17301,5,2,0:0:0:0:
227,69,17420,1,0,0:0:0:0:
148,78,17539,1,0,0:0:0:0:
86,29,17658,5,2,0:0:0:0:
148,78,17777,1,0,0:0:0:0:
43,96,17896,1,2,0:0:0:0:
104,142,18015,5,2,0:0:0:0:
110,174,18075,1,2,0:0:0:0:
114,205,18134,1,2,0:0:0:0:
25,298,18253,5,0,0:0:0:0:
56,294,18313,1,0,0:0:0:0:
88,288,18372,1,0,0:0:0:0:
148,354,18491,1,0,0:0:0:0:
200,223,18611,2,0,L|211:323,1,72
304,362,18849,2,0,L|312:291,1,72
323,203,19087,5,0,0:0:0:0:
207,294,19206,1,2,0:0:0:0:
304,362,19325,2,0,L|392:350,1,72,2|2,0:0|0:1,0:0:0:0:
452,339,19563,1,2,0:0:0:0:
435,230,19682,6,0,L|403:236,2,18,2|2|2,0:1|0:1|0:1,0:0:0:0:
499,272,19801,5,2,0:0:0:0:
510,237,19861,1,2,0:0:0:0:
505,201,19920,1,2,0:0:0:0:
485,170,19980,1,2,0:0:0:0:
442,153,20039,6,0,P|430:105|446:60,1,90,14|0,0:0|0:0,0:0:0:0:
493,13,20277,1,0,0:0:0:0:
367,111,20396,6,0,P|409:99|440:67,1,90,10|0,0:0|0:0,0:0:0:0:
493,14,20634,1,0,0:0:0:0:
312,162,20753,6,0,P|294:118|341:41,1,135,10|0,0:0|0:0,0:0:0:0:
343,37,20991,6,0,L|225:27,1,90,10|0,0:0|0:0,0:0:0:0:
178,21,21230,1,0,0:0:0:0:
23,112,21349,6,0,L|141:102,1,90,10|0,0:0|0:0,0:0:0:0:
188,97,21587,1,0,0:0:0:0:
288,238,21706,6,0,P|260:180|196:174,1,135,10|0,0:0|0:0,0:0:0:0:
184,181,21944,6,0,P|151:211|85:212,1,90,10|0,0:0|0:0,0:0:0:0:
38,187,22182,1,0,0:0:0:0:
54,335,22301,6,0,P|86:305|130:297,1,90,10|0,0:0|0:0,0:0:0:0:
207,294,22539,1,0,0:0:0:0:
317,350,22658,6,0,L|478:336,1,135,10|0,0:0|0:0,0:0:0:0:
464,336,22896,6,0,B|474:293|474:293|460:242,1,90,10|0,0:0|0:0,0:0:0:0:
288,238,23134,2,0,B|278:195|278:195|290:150,1,90,0|10,0:0|0:0,0:0:0:0:
346,44,23372,5,0,0:0:0:0:
409,165,23491,2,0,L|359:160,1,45
290,150,23611,5,10,0:0:0:0:
423,36,23730,2,0,L|427:80,1,45,2|2,0:0|0:0,0:0:0:0:
409,165,23849,5,6,0:0:0:0:
398,194,23908,1,2,0:0:0:0:
404,225,23968,1,2,0:0:0:0:
427,245,24027,1,2,0:0:0:0:
461,248,24087,2,0,L|505:243,3,45,2|2|2|2,0:0|0:0|0:0|0:0,0:0:0:0:
464,336,24325,5,2,0:0:0:0:
450,338,24384,1,2,0:0:0:0:
436,340,24444,1,2,0:0:0:0:
422,342,24503,1,2,0:0:0:0:
408,344,24563,1,2,0:0:0:0:
203,338,24682,6,0,L|207:280,1,45,2|2,0:0|0:0,0:0:0:0:
125,252,24801,2,0,L|131:304,3,45,6|2|2|2,0:0|0:0|0:0|0:0,0:0:0:0:
209,217,25039,2,0,L|213:159,3,45,2|2|2|2,0:0|0:0|0:0|0:0,0:0:0:0:
135,141,25277,1,2,0:0:0:0:
135,141,25337,1,2,0:0:0:0:
135,141,25396,6,0,L|132:118,2,22.5,2|2|2,0:1|0:1|0:1,0:0:0:0:
221,69,25515,1,2,0:0:0:0:
221,69,25575,1,2,0:0:0:0:
221,69,25634,2,0,L|218:91,2,22.5,2|2|2,0:1|0:1|0:1,0:0:0:0:
312,41,25753,5,14,0:0:0:0:
325,38,25813,1,0,0:0:0:0:
338,36,25872,1,0,0:0:0:0:
351,34,25932,1,0,0:0:0:0:
364,32,25991,1,0,0:0:0:0:
377,29,26051,1,0,0:0:0:0:
390,27,26111,1,0,0:0:0:0:
403,24,26170,1,0,0:0:0:0:
416,22,26230,2,0,L|463:28,7,45
512,122,26706,5,6,0:0:0:0:
501,165,26765,1,6,0:0:0:0:
463,190,26825,1,6,0:0:0:0:
418,183,26884,1,6,0:0:0:0:
387,149,26944,2,0,L|384:104,1,45,6|6,0:0|0:0,0:0:0:0:
288,238,27063,2,0,L|285:285,1,45,6|6,0:0|0:0,0:0:0:0:
217,91,27182,5,6,0:0:0:0:
194,47,27241,1,6,0:0:0:0:
146,31,27301,1,6,0:0:0:0:
97,41,27361,1,6,0:0:0:0:
64,78,27420,2,0,L|80:231,1,135,10|0,0:1|0:0,0:0:0:0:
81,230,27658,6,0,L|91:321,1,72,6|0,0:0|0:0,0:0:0:0:
100,374,27896,1,0,0:0:0:0:
170,233,28015,6,0,P|192:271|294:276,1,144
345,241,28491,1,0,0:0:0:0:
345,241,28730,5,0,0:0:0:0:
370,266,28849,1,0,0:0:0:0:
404,275,28968,1,0,0:0:0:0:
479,192,29087,6,0,L|408:200,1,72
376,107,29325,1,0,0:0:0:0:
452,121,29444,1,0,0:0:0:0:
425,47,29563,5,0,0:0:0:0:
298,93,29682,2,0,L|292:133,2,36
312,18,29920,6,0,P|271:5|192:61,1,144
179,132,30277,1,0,0:0:0:0:
224,202,30396,6,0,P|174:153|105:162,1,144
105,162,30872,1,0,0:0:0:0:
42,209,30991,2,0,L|59:366,1,144
57,352,31468,5,0,0:0:0:0:
162,291,31587,2,0,L|168:242,2,36
155,371,31825,6,0,P|204:320|280:330,1,144
332,373,32301,1,0,0:0:0:0:
332,373,32539,5,0,0:0:0:0:
348,340,32658,1,0,0:0:0:0:
346,304,32777,1,0,0:0:0:0:
264,253,32896,6,0,L|273:338,1,72
337,227,33134,1,0,0:0:0:0:
346,304,33253,1,0,0:0:0:0:
279,177,33372,5,6,0:0:0:0:
308,156,33432,1,0,0:0:0:0:
343,151,33491,1,0,0:0:0:0:
377,161,33551,1,0,0:0:0:0:
403,186,33611,1,0,0:0:0:0:
443,370,33730,6,0,P|378:360|345:303,1,135,6|0,0:0|0:0,0:0:0:0:
420,299,33968,2,0,L|511:294,1,90
425,114,34206,6,0,P|472:164|450:246,1,135,6|0,0:0|0:0,0:0:0:0:
403,186,34444,1,2,0:0:0:0:
479,52,34563,2,0,P|457:100|418:115,1,90,6|0,0:0|0:0,0:0:0:0:
308,156,34801,1,6,0:0:0:0:
332,24,34920,5,6,0:0:0:0:
299,54,34980,1,6,0:0:0:0:
256,65,35039,1,6,0:0:0:0:
213,54,35099,1,6,0:0:0:0:
180,24,35158,2,0,L|116:24,1,45,6|6,0:0|0:0,0:0:0:0:
44,28,35277,6,0,P|31:82|53:126,1,90,6|0,0:0|0:0,0:0:0:0:
65,140,35456,1,0,0:0:0:0:
65,140,35515,1,0,0:0:0:0:
136,191,35634,1,2,0:0:0:0:
42,271,35753,1,10,0:1:0:0:
43,355,35872,1,2,0:0:0:0:
43,355,36111,6,0,B|146:367|96:285|211:300,1,180,2|8,0:0|0:1,0:0:0:0:
273,330,36408,1,0,0:0:0:0:
290,344,36468,2,0,P|335:355|385:341,1,90,2|0,0:0|0:0,0:0:0:0:
419,277,36706,6,0,P|406:232|368:196,1,90,10|0,0:1|0:0,0:0:0:0:
298,190,36944,1,2,0:0:0:0:
298,190,37063,1,2,0:0:0:0:
387,66,37182,6,0,P|398:108|429:141,1,90,2|0,0:0|0:0,0:0:0:0:
455,147,37361,1,0,0:0:0:0:
455,147,37420,1,0,0:0:0:0:
453,22,37539,1,2,0:0:0:0:
316,102,37658,1,10,0:1:0:0:
322,24,37777,1,2,0:0:0:0:
322,24,38015,6,0,B|218:9|263:87|156:73,1,180,2|8,0:0|0:1,0:0:0:0:
57,113,38372,2,0,P|31:59|88:41,1,135,2|0,0:0|0:0,0:0:0:0:
158,73,38611,5,10,0:1:0:0:
156,86,38670,1,0,0:0:0:0:
154,99,38730,1,0,0:0:0:0:
152,112,38789,1,0,0:0:0:0:
150,125,38849,1,2,0:0:0:0:
148,138,38908,1,0,0:0:0:0:
146,151,38968,1,2,0:0:0:0:
144,164,39027,1,0,0:0:0:0:
141,177,39087,6,0,L|30:197,1,90,6|0,0:0|0:0,0:0:0:0:
27,202,39265,1,0,0:0:0:0:
27,202,39325,1,0,0:0:0:0:
41,313,39444,1,2,0:0:0:0:
141,177,39563,1,10,0:1:0:0:
158,298,39682,1,2,0:0:0:0:
158,298,39920,6,0,B|219:304|219:304|252:344|252:344|328:350,1,180,2|8,0:0|0:1,0:0:0:0:
345,352,40218,1,0,0:0:0:0:
371,354,40277,1,2,0:0:0:0:
398,355,40337,1,0,0:0:0:0:
424,355,40396,6,0,P|444:317|432:274,1,90,0|10,0:0|0:1,0:0:0:0:
298,190,40634,1,0,0:0:0:0:
496,149,40753,5,2,0:0:0:0:
497,94,40833,1,2,0:0:0:0:
467,48,40912,1,2,0:0:0:0:
415,33,40991,6,0,L|316:40,1,90,6|0,0:0|0:0,0:0:0:0:
210,134,41230,1,2,0:0:0:0:
150,125,41309,1,2,0:0:0:0:
90,117,41388,1,2,0:0:0:0:
30,108,41468,5,6,0:0:0:0:
99,247,41587,1,6,0:0:0:0:
99,247,41825,6,0,L|188:240,1,90,14|0,0:0|0:0,0:0:0:0:
316,289,42063,1,2,0:0:0:0:
324,318,42122,1,2,0:0:0:0:
318,349,42182,1,8,0:0:0:0:
241,294,42301,5,2,0:0:0:0:
334,213,42420,1,8,0:0:0:0:
362,226,42480,1,0,0:0:0:0:
382,249,42539,2,0,P|391:271|392:300,1,45
463,331,42658,6,0,P|465:308|473:287,1,45,8|0,0:0|0:0,0:0:0:0:
491,197,42777,1,0,0:0:0:0:
471,209,42837,1,0,0:0:0:0:
449,215,42896,1,14,0:0:0:0:
256,192,48611,12,0,49325,0:0:0:0:
456,167,49563,6,0,P|451:137|440:109,3,45
410,62,49801,2,0,P|387:38|359:19,3,45
306,27,50039,5,0,0:0:0:0:
289,33,50099,1,0,0:0:0:0:
272,38,50158,1,0,0:0:0:0:
254,44,50218,1,0,0:0:0:0:
242,57,50277,5,2,0:2:0:0:
201,54,50337,1,2,0:2:0:0:
160,51,50396,1,2,0:2:0:0:
119,46,50456,1,2,0:2:0:0:
79,41,50515,6,0,L|88:137,1,90,6|0,0:0|0:0,0:0:0:0:
97,206,50753,1,8,0:0:0:0:
160,51,50872,6,0,L|169:147,1,90,6|0,0:0|0:0,0:0:0:0:
178,216,51111,1,8,0:0:0:0:
242,57,51230,6,0,L|251:153,1,90,6|0,0:0|0:0,0:0:0:0:
260,222,51468,1,8,0:0:0:0:
261,230,51527,1,8,0:0:0:0:
262,238,51587,6,0,L|271:334,1,90,6|0,0:0|0:0,0:0:0:0:
344,233,51825,5,8,0:0:0:0:
345,241,51884,1,0,0:0:0:0:
346,249,51944,2,0,L|355:345,1,90,6|0,0:0|0:0,0:0:0:0:
439,349,52182,5,6,0:0:0:0:
430,259,52301,1,2,0:0:0:0:
429,251,52361,1,2,0:0:0:0:
428,243,52420,6,0,L|436:153,1,90,6|0,0:0|0:0,0:0:0:0:
446,77,52658,1,8,0:0:0:0:
344,233,52777,6,0,L|352:143,1,90,6|0,0:0|0:0,0:0:0:0:
362,67,53015,1,8,0:0:0:0:
260,222,53134,6,0,L|268:132,1,90,6|0,0:0|0:0,0:0:0:0:
278,56,53372,1,8,0:0:0:0:
277,48,53432,1,8,0:0:0:0:
276,40,53491,6,0,L|125:35,1,135,6|0,0:0|0:0,0:0:0:0:
71,32,53730,1,8,0:0:0:0:
64,197,53849,6,0,P|106:143|176:144,1,135,6|0,0:0|0:0,0:0:0:0:
192,206,54087,1,6,0:0:0:0:
119,287,54206,1,2,0:0:0:0:
82,269,54265,1,2,0:0:0:0:
41,271,54325,6,0,B|31:362,1,90,6|0,0:0|0:0,0:0:0:0:
64,197,54563,1,8,0:0:0:0:
105,358,54682,6,0,P|168:341|190:280,1,135,6|0,0:0|0:0,0:0:0:0:
192,206,54920,1,0,0:0:0:0:
241,382,55039,5,2,0:0:0:0:
257,349,55099,1,2,0:0:0:0:
287,331,55158,1,2,0:0:0:0:
322,324,55218,1,2,0:0:0:0:
354,338,55277,6,0,L|464:343,1,90,6|0,0:0|0:0,0:0:0:0:
495,281,55515,1,8,0:0:0:0:
433,163,55634,6,0,P|421:224|343:252,1,135,6|0,0:0|0:0,0:0:0:0:
294,224,55872,1,0,0:0:0:0:
389,100,55991,5,2,0:0:0:0:
424,88,56051,1,2,0:0:0:0:
460,92,56111,1,2,0:0:0:0:
489,112,56170,1,2,0:0:0:0:
507,143,56230,5,14,0:0:0:0:
433,163,56349,1,8,0:0:0:0:
389,100,56468,1,8,0:0:0:0:
400,24,56587,1,8,0:0:0:0:
475,7,56706,5,8,0:0:0:0:
326,43,56825,1,8,0:0:0:0:
433,163,56944,1,8,0:0:0:0:
294,224,57063,1,8,0:0:0:0:
289,197,57122,1,0,0:0:0:0:
285,170,57182,6,0,L|188:182,1,90,10|0,0:0|0:0,0:0:0:0:
133,263,57361,2,0,L|222:251,1,90,10|0,0:0|0:0,0:0:0:0:
195,181,57539,1,10,0:0:0:0:
190,154,57599,1,0,0:0:0:0:
186,127,57658,6,0,P|141:120|91:144,1,90,10|0,0:0|0:0,0:0:0:0:
0,215,57837,2,0,P|43:222|85:207,1,90,10|0,0:0|0:0,0:0:0:0:
100,135,58015,1,10,0:0:0:0:
133,263,58134,5,14,0:0:0:0:
147,264,58194,1,14,0:0:0:0:
160,269,58253,1,14,0:0:0:0:
171,277,58313,1,14,0:0:0:0:
180,288,58372,2,0,L|174:351,1,49.5000015106202,14|14,0:0|0:0,0:0:0:0:
80,372,58491,2,0,L|84:322,1,49.5000015106202,14|14,0:0|0:0,0:0:0:0:
195,181,58611,5,14,0:0:0:0:
226,204,58670,1,14,0:0:0:0:
265,207,58730,1,14,0:0:0:0:
301,192,58789,1,14,0:0:0:0:
325,160,58849,2,0,L|319:94,2,66.0000020141602,10|0|0,0:1|0:0|0:0,0:0:0:0:
198,75,59087,5,14,0:0:0:0:
196,89,59146,1,14,0:0:0:0:
194,103,59206,1,14,0:0:0:0:
192,117,59265,1,14,0:0:0:0:
190,131,59325,2,0,L|196:201,1,49.5000015106202,14|14,0:0|0:0,0:0:0:0:
260,256,59444,2,0,L|264:206,1,49.5000015106202,14|14,0:0|0:0,0:0:0:0:
316,61,59563,5,14,0:0:0:0:
339,29,59622,1,14,0:0:0:0:
377,17,59682,1,14,0:0:0:0:
415,24,59741,1,14,0:0:0:0:
442,53,59801,2,0,L|436:136,2,66.0000020141602,10|0|0,0:1|0:0|0:0,0:0:0:0:
368,113,60039,5,14,0:0:0:0:
366,132,60099,1,0,0:0:0:0:
366,151,60158,2,0,L|362:213,1,49.5000015106202
436,193,60277,6,0,L|487:197,3,40.4999987640381,2|0|8|0,0:0|0:0|0:0|0:0,0:0:0:0:
455,283,60515,5,14,0:0:0:0:
420,280,60575,1,0,0:0:0:0:
385,278,60634,2,0,L|318:274,1,49.5000015106202
260,256,60753,6,0,L|257:305,1,49.5000015106202,2|0,0:0|0:0,0:0:0:0:
175,337,60872,2,0,L|177:287,1,49.5000015106202,10|0,0:0|0:0,0:0:0:0:
180,205,60991,6,0,B|133:192|133:192|84:206,1,99.0000030212403,14|4,0:0|0:0,0:0:0:0:
81,286,61170,1,0,0:0:0:0:
81,286,61230,2,0,B|129:300|129:300|176:287,1,99.0000030212403,14|4,0:0|0:0,0:0:0:0:
319,348,61468,1,14,0:0:0:0:
266,181,61646,5,0,0:0:0:0:
260,256,61706,1,14,0:0:0:0:
442,118,61884,5,0,0:0:0:0:
436,193,61944,1,14,0:0:0:0:
455,382,62063,5,8,0:0:0:0:
431,350,62122,1,8,0:0:0:0:
396,335,62182,1,14,0:0:0:0:
357,335,62241,1,0,0:0:0:0:
319,348,62301,2,0,L|321:298,1,49.5000015106202,2|0,0:0|0:0,0:0:0:0:
436,193,62420,5,14,0:0:0:0:
455,382,62539,1,14,0:0:0:0:
260,256,62658,1,14,0:0:0:0:
256,192,62777,12,0,63611,0:0:0:0:
180,205,63849,5,14,0:0:0:0:
264,323,64027,1,10,0:0:0:0:
128,340,64206,1,2,0:0:0:0:
116,338,64265,1,2,0:0:0:0:
103,336,64325,5,14,0:0:0:0:
245,248,64503,1,10,0:0:0:0:
113,164,64682,1,2,0:0:0:0:
180,205,64801,5,14,0:0:0:0:
200,365,64980,1,10,0:0:0:0:
103,243,65158,1,2,0:0:0:0:
113,164,65277,5,14,0:0:0:0:
257,45,65456,1,10,0:0:0:0:
245,248,65634,1,2,0:0:0:0:
73,164,65753,6,0,P|102:161|127:168,3,40.4999987640381,6|0|0|0,0:0|0:0|0:0|0:0,0:0:0:0:
153,100,65991,2,0,P|173:118|189:148,3,40.4999987640381,6|0|0|0,0:0|0:0|0:0|0:0,0:0:0:0:
207,234,66230,6,0,P|187:216|171:186,3,40.4999987640381,6|0|0|0,0:0|0:0|0:0|0:0,0:0:0:0:
287,170,66468,2,0,P|258:173|233:166,3,40.4999987640381,6|0|0|0,0:0|0:0|0:0|0:0,0:0:0:0:
262,98,66706,5,6,0:0:0:0:
293,93,66765,1,0,0:0:0:0:
324,101,66825,1,0,0:0:0:0:
348,121,66884,1,0,0:0:0:0:
360,149,66944,6,0,P|389:152|414:145,3,40.4999987640381,6|0|0|0,0:0|0:0|0:0|0:0,0:0:0:0:
488,83,67182,2,0,P|476:99|468:118,3,40.4999987640381,6|0|0|0,0:0|0:0|0:0|0:0,0:0:0:0:
481,227,67420,2,0,P|473:208|462:192,3,40.4999987640381,6|0|0|0,0:0|0:0|0:0|0:0,0:0:0:0:
400,150,67658,1,6,0:0:0:0:
407,71,67777,6,0,L|399:31,2,40.4999987640381,0|0|6,0:0|0:0|0:0,0:0:0:0:
391,229,68015,2,0,L|398:268,2,40.4999987640381,0|0|6,0:0|0:0|0:0,0:0:0:0:
400,151,68253,6,0,L|343:147,2,40.4999987640381,0|0|6,0:0|0:0|0:0,0:0:0:0:
461,191,68491,2,0,L|501:193,2,40.4999987640381,0|0|6,0:0|0:0|0:0,0:0:0:0:
398,268,68730,5,0,0:0:0:0:
365,266,68789,1,0,0:0:0:0:
332,264,68849,1,6,0:0:0:0:
248,346,68968,6,0,L|190:343,1,40.4999987640381
48,337,69087,5,6,0:0:0:0:
49,329,69146,1,2,0:0:0:0:
50,320,69206,1,2,0:0:0:0:
51,312,69265,1,2,0:0:0:0:
52,303,69325,1,6,0:0:0:0:
53,295,69384,1,2,0:0:0:0:
54,287,69444,1,2,0:0:0:0:
55,279,69503,1,2,0:0:0:0:
56,270,69563,5,6,0:0:0:0:
256,192,69682,12,0,71230,0:0:0:0:
464,337,71468,5,0,0:0:0:0:
463,329,71527,1,0,0:0:0:0:
462,320,71587,1,0,0:0:0:0:
461,312,71646,1,0,0:0:0:0:
460,303,71706,1,0,0:0:0:0:
459,295,71765,1,0,0:0:0:0:
458,287,71825,1,0,0:0:0:0:
457,279,71884,1,0,0:0:0:0:
456,270,71944,6,0,L|464:212,7,40.4999987640381
472,159,72420,5,6,0:0:0:0:
441,4,72539,1,6,0:0:0:0:
322,111,72658,1,6,0:0:0:0:
322,111,72896,5,0,0:0:0:0:
313,110,72956,1,0,0:0:0:0:
304,109,73015,1,0,0:0:0:0:
295,108,73075,1,0,0:0:0:0:
286,107,73134,6,0,L|220:99,3,40.4999987640381,10|0|0|0,0:1|0:0|0:0|0:0,0:0:0:0:
171,93,73372,6,0,B|102:83|102:83|56:154|99:222,1,215.999993408203,6|8,0:0|0:0,0:0:0:0:
208,342,73730,6,0,B|204:314|204:277|256:255|256:255|309:278|309:314|303:351,1,215.999993408203,2|8,0:0|0:0,0:0:0:0:
478,368,74087,6,0,B|467:302|467:302|489:246|489:246|470:149,1,215.999993408203,2|8,0:0|0:0,0:0:0:0:
363,26,74444,6,0,B|238:10|298:111|163:92,1,215.999993408203,2|8,0:0|0:0,0:0:0:0:
20,53,74801,2,0,P|52:106|43:160,1,107.999996704102,2|0,0:0|0:0,0:0:0:0:
0,276,75039,6,0,P|32:270|60:274,1,53.9999983520508,2|0,0:0|0:0,0:0:0:0:
124,285,75158,2,0,P|152:293|176:312,1,53.9999983520508
256,367,75277,6,0,B|298:327|298:327|480:352,1,215.999993408203,2|8,0:0|0:0,0:0:0:0:
471,158,75634,6,0,B|499:216|499:216|339:193,1,215.999993408203,2|8,0:0|0:0,0:0:0:0:
170,92,75991,6,0,B|244:81|244:81|277:32|277:32|368:21,1,215.999993408203,2|8,0:0|0:0,0:0:0:0:
485,271,76349,6,0,P|447:178|348:194,1,215.999993408203,2|8,0:0|0:0,0:0:0:0:
256,367,76706,2,0,P|277:315|254:250,1,107.999996704102,2|0,0:0|0:0,0:0:0:0:
170,92,76944,6,0,P|172:125|165:157,1,53.9999983520508,2|0,0:0|0:0,0:0:0:0:
98,245,77063,2,0,P|73:265|45:273,1,53.9999983520508
7,81,77182,6,0,P|51:52|114:62,1,107.999996704102,6|0,0:0|0:0,0:0:0:0:
170,92,77420,1,8,0:0:0:0:
98,245,77539,6,0,P|150:249|195:220,1,107.999996704102,2|0,0:0|0:0,0:0:0:0:
242,162,77777,1,8,0:0:0:0:
287,17,77896,6,0,P|302:68|358:93,1,107.999996704102,2|0,0:0|0:0,0:0:0:0:
420,260,78134,5,8,0:0:0:0:
420,260,78194,1,0,0:0:0:0:
420,260,78253,2,0,P|421:313|385:351,1,107.999996704102,2|0,0:0|0:0,0:0:0:0:
311,368,78432,1,0,0:0:0:0:
311,368,78491,6,0,L|195:361,1,107.999996704102,8|2,0:0|0:0,0:0:0:0:
98,245,78730,1,0,0:0:0:0:
242,162,78849,2,0,L|237:220,3,53.9999983520508,2|0|0|0,0:0|0:0|0:0|0:0,0:0:0:0:
210,91,79087,5,2,0:0:0:0:
252,84,79146,1,0,0:0:0:0:
292,100,79206,1,0,0:0:0:0:
317,134,79265,1,0,0:0:0:0:
320,177,79325,6,0,L|392:181,1,53.9999983520508,8|0,0:0|0:0,0:0:0:0:
476,100,79444,2,0,L|422:97,1,53.9999983520508,2|0,0:0|0:0,0:0:0:0:
291,36,79563,5,0,0:0:0:0:
280,60,79622,1,0,0:0:0:0:
261,79,79682,1,8,0:0:0:0:
236,90,79741,1,0,0:0:0:0:
210,91,79801,1,2,0:0:0:0:
58,35,79920,2,0,P|74:78|65:131,1,90,0|8,0:0|0:0,0:0:0:0:
23,222,80158,6,0,P|30:293|106:323,1,148.50000453186,2|0,0:0|0:0,0:0:0:0:
161,297,80396,1,8,0:0:0:0:
255,364,80515,2,0,P|298:330|355:332,1,99.0000030212403,2|8,0:0|0:0,0:0:0:0:
492,300,80753,6,0,P|462:291|437:267,1,49.5000015106202,10|8,0:0|0:0,0:0:0:0:
372,178,80872,2,0,P|360:153|359:111,1,49.5000015106202,8|8,0:0|0:0,0:0:0:0:
378,4,80991,5,14,0:1:0:0:
433,131,81111,2,0,P|459:91|444:24,1,107.999996704102,0|2,0:0|0:0,0:0:0:0:
300,199,81349,5,0,0:0:0:0:
466,211,81468,2,0,P|425:178|372:178,1,107.999996704102,2|0,0:0|0:0,0:0:0:0:
223,173,81706,5,2,0:0:0:0:
354,249,81825,2,0,P|305:272|250:253,1,107.999996704102,0|2,0:0|0:0,0:0:0:0:
135,158,82063,6,0,B|137:104|196:86|196:86|242:124|219:183,1,198.000006042481
60,314,82420,2,0,P|19:299|41:261,1,99.0000030212403,2|0,0:0|0:0,0:0:0:0:
255,257,82658,6,0,P|209:260|171:247,1,53.9999983520508,2|0,0:0|0:0,0:0:0:0:
69,195,82777,2,0,P|61:167|65:128,1,53.9999983520508
133,9,82896,5,6,0:0:0:0:
135,158,83015,2,0,P|142:211|84:269,1,107.999996704102,0|2,0:0|0:0,0:0:0:0:
16,85,83253,5,0,0:0:0:0:
202,128,83372,2,0,P|165:90|113:87,1,107.999996704102,2|0,0:0|0:0,0:0:0:0:
69,195,83611,5,2,0:0:0:0:
133,9,83730,1,0,0:0:0:0:
154,10,83789,1,0,0:0:0:0:
174,13,83849,2,0,P|200:23|222:39,1,53.9999983520508,2|0,0:0|0:0,0:0:0:0:
202,128,83968,6,0,B|314:142|276:36|392:56,1,215.999993408203
458,176,84325,2,0,P|417:142|365:138,1,107.999996704102,2|2,0:0|0:0,0:0:0:0:
306,185,84503,1,2,0:0:0:0:
306,185,84563,1,2,0:0:0:0:
415,287,84682,1,2,0:0:0:0:
430,283,84741,1,2,0:0:0:0:
446,279,84801,5,14,0:0:0:0:
365,357,84920,2,0,P|334:308|337:259,1,107.999996704102,0|10,0:0|0:0,0:0:0:0:
365,138,85158,5,0,0:0:0:0:
502,241,85277,2,0,P|467:280|415:287,1,107.999996704102,10|0,0:0|0:0,0:0:0:0:
458,176,85515,5,10,0:0:0:0:
365,357,85634,2,0,P|312:326|261:338,1,107.999996704102,0|14,0:0|0:0,0:0:0:0:
132,339,85872,6,0,B|50:326|50:326|68:194,1,215.999993408203
32,29,86230,2,0,P|63:75|124:84,1,107.999996704102,14|14,0:0|0:0,0:0:0:0:
254,124,86468,6,0,P|228:121|202:128,3,53.9999983520508,2|2|2|2,0:0|0:0|0:0|0:0,0:0:0:0:
295,56,86706,5,14,0:0:0:0:
328,97,86765,1,2,0:0:0:0:
329,151,86825,1,2,0:0:0:0:
295,192,86884,1,2,0:0:0:0:
241,201,86944,6,0,P|239:233|243:264,1,53.9999983520508,14|2,0:0|0:0,0:0:0:0:
365,357,87063,2,0,P|367:330|365:303,1,53.9999983520508,2|2,0:0|0:0,0:0:0:0:
329,151,87182,5,14,0:0:0:0:
349,167,87241,1,2,0:0:0:0:
373,177,87301,1,2,0:0:0:0:
399,181,87361,1,2,0:0:0:0:
425,179,87420,2,0,P|456:171|476:152,1,53.9999983520508,14|2,0:0|0:0,0:0:0:0:
501,86,87539,2,0,P|503:48|495:18,1,53.9999983520508,2|2,0:0|0:0,0:0:0:0:
419,45,87658,6,0,B|418:65|420:85,10,26.9999991760254,2|2|2|2|2|2|2|2|2|2|2,0:1|0:1|0:1|0:1|0:1|0:1|0:1|0:1|0:1|0:1|0:1,0:0:0:0:
425,152,88015,6,0,B|426:172|424:178,2,26.9999991760254,2|2|2,0:1|0:1|0:1,0:0:0:0:
443,252,88134,6,0,B|442:272|444:278,2,26.9999991760254,2|2|2,0:1|0:1|0:1,0:0:0:0:
365,303,88253,6,0,B|366:323|364:329,2,26.9999991760254,2|2|2,0:1|0:1|0:1,0:0:0:0:
285,366,88372,5,2,0:1:0:0:
241,362,88432,1,2,0:1:0:0:
198,358,88491,1,2,0:1:0:0:
154,354,88551,1,2,0:1:0:0:
110,350,88611,5,14,0:0:0:0:
36,198,88730,2,0,P|94:177|102:71,1,161.999995056153,14|0,0:0|0:0,0:0:0:0:
51,46,88968,1,14,0:0:0:0:
237,136,89087,6,0,B|289:157|289:157|323:106|287:40,1,161.999995056153,14|0,0:0|0:0,0:0:0:0:
236,8,89325,1,14,0:0:0:0:
388,250,89444,6,0,P|363:176|288:157,1,161.999995056153,14|0,0:0|0:0,0:0:0:0:
245,218,89682,1,14,0:0:0:0:
501,86,89801,6,0,B|470:130|470:130|488:260,1,161.999995056153,14|0,0:0|0:0,0:0:0:0:
445,300,90039,2,0,P|387:325|332:300,1,107.999996704102,14|0,0:0|0:0,0:0:0:0:
211,374,90277,5,14,0:0:0:0:
189,355,90337,1,2,0:0:0:0:
164,346,90396,1,2,0:0:0:0:
136,343,90456,1,2,0:0:0:0:
110,350,90515,5,6,0:0:0:0:
176,189,90634,1,2,0:0:0:0:
110,350,90753,1,2,0:0:0:0:
36,198,90872,1,2,0:0:0:0:
37,341,90991,6,0,P|67:291|121:274,1,90,2|2,0:0|0:0,0:0:0:0:
233,253,91230,2,0,P|195:229|176:189,1,90,2|2,0:0|0:0,0:0:0:0:
187,75,91468,5,2,0:0:0:0:
249,180,91587,1,2,0:0:0:0:
249,180,91706,1,2,0:0:0:0:
265,18,91825,2,0,P|300:46|355:43,1,90,2|2,0:0|0:0,0:0:0:0:
474,16,92063,1,2,0:0:0:0:
446,148,92182,2,0,P|419:114|417:70,1,90,2|2,0:0|0:0,0:0:0:0:
314,223,92420,6,0,L|410:209,1,90,2|2,0:0|0:0,0:0:0:0:
512,335,92658,1,2,0:0:0:0:
404,284,92777,2,0,L|314:296,1,90,2|2,0:0|0:0,0:0:0:0:
243,366,93015,5,2,0:0:0:0:
221,359,93075,1,0,0:0:0:0:
199,362,93134,2,0,L|109:349,1,90,2|2,0:0|0:0,0:0:0:0:
36,198,93372,6,0,B|80:205|80:205|128:183,1,90,2|2,0:0|0:0,0:0:0:0:
225,101,93611,1,2,0:0:0:0:
221,123,93670,1,0,0:0:0:0:
224,145,93730,1,2,0:0:0:0:
234,164,93789,1,0,0:0:0:0:
249,180,93849,6,0,B|290:198|290:198|334:191,1,90,2|2,0:0|0:0,0:0:0:0:
429,58,94087,2,0,B|388:40|388:40|344:47,1,90,2|2,0:0|0:0,0:0:0:0:
267,36,94265,1,2,0:0:0:0:
248,23,94325,6,0,L|146:38,1,90,6|2,0:0|0:0,0:0:0:0:
25,88,94563,1,2,0:0:0:0:
121,186,94682,2,0,P|130:142|117:97,1,90,2|2,0:0|0:0,0:0:0:0:
79,29,94920,1,2,0:0:0:0:
31,197,95039,2,0,L|128:185,1,90,2|2,0:0|0:0,0:0:0:0:
219,293,95277,6,0,P|173:274|123:287,1,90,2|2,0:0|0:0,0:0:0:0:
109,349,95456,1,0,0:0:0:0:
109,349,95515,1,2,0:0:0:0:
120,185,95634,1,2,0:0:0:0:
150,195,95694,1,0,0:0:0:0:
180,193,95753,6,0,P|209:183|231:163,5,60,2|2|2|2|2|2,0:0|0:0|0:0|0:0|0:0|0:0,0:0:0:0:
168,118,96230,5,6,0:0:0:0:
193,95,96289,1,0,0:0:0:0:
225,86,96349,1,2,0:0:0:0:
258,90,96408,1,0,0:0:0:0:
286,108,96468,6,0,P|310:114|342:112,1,45,2|0,0:0|0:0,0:0:0:0:
399,103,96587,2,0,P|423:93|443:77,1,45,2|0,0:0|0:0,0:0:0:0:
499,28,96706,5,6,0:0:0:0:
500,36,96765,1,0,0:0:0:0:
501,44,96825,1,2,0:0:0:0:
503,52,96884,1,0,0:0:0:0:
505,60,96944,2,0,P|508:86|502:117,3,45,2|0|2|0,0:0|0:0|0:0|0:0,0:0:0:0:
452,157,97182,5,6,0:0:0:0:
474,190,97241,1,0,0:0:0:0:
480,230,97301,1,2,0:1:0:0:
464,267,97361,1,2,0:1:0:0:
433,293,97420,6,0,P|404:300|378:300,1,45,6|0,0:0|0:0,0:0:0:0:
315,269,97539,2,0,P|296:258|278:232,1,45,2|2,0:1|0:1,0:0:0:0:
230,163,97658,5,6,0:0:0:0:
217,174,97718,1,2,0:0:0:0:
206,187,97777,1,2,0:0:0:0:
198,201,97837,1,2,0:0:0:0:
192,217,97896,1,6,0:1:0:0:
189,234,97956,1,2,0:1:0:0:
189,251,98015,1,2,0:0:0:0:
193,267,98075,1,2,0:0:0:0:
199,283,98134,6,0,P|200:316|173:351,5,53.9999983520508,6|2|6|2|6|2,0:0|0:0|0:0|0:0|0:0|0:0,0:0:0:0:
123,366,98491,2,0,P|88:366|55:348,5,53.9999983520508,6|2|6|2|6|2,0:0|0:0|0:0|0:0|0:0|0:0,0:0:0:0:
20,305,98849,6,0,P|19:272|46:237,1,53.9999983520508,6|2,0:0|0:0,0:0:0:0:
92,214,98968,2,0,P|118:212|144:220,1,53.9999983520508,6|2,0:0|0:0,0:0:0:0:
199,283,99087,6,0,P|231:289|266:283,1,53.9999983520508,6|2,0:0|0:0,0:0:0:0:
323,255,99206,2,0,P|343:229|350:197,1,53.9999983520508,6|2,0:0|0:0,0:0:0:0:
356,134,99325,2,0,P|354:100|334:66,1,53.9999983520508,6|2,0:0|0:0,0:0:0:0:
293,26,99444,2,0,P|261:20|226:26,3,53.9999983520508,6|2|6|2,0:0|0:0|0:0|0:0,0:0:0:0:
346,81,99682,5,6,0:0:0:0:
361,84,99741,1,2,0:0:0:0:
377,84,99801,2,0,P|409:90|444:84,3,53.9999983520508,6|2|6|2,0:0|0:0|0:0|0:0,0:0:0:0:
435,167,100039,6,0,P|462:162|489:164,3,53.9999983520508,6|2|6|2,0:0|0:0|0:0|0:0,0:0:0:0:
467,238,100277,2,0,P|458:263|443:286,1,53.9999983520508,6|2,0:0|0:0,0:0:0:0:
390,231,100396,2,0,P|371:211|359:186,3,53.9999983520508,6|2|6|2,0:0|0:0|0:0|0:0,0:0:0:0:
435,167,100634,5,6,0:0:0:0:
461,162,100694,1,2,0:0:0:0:
488,163,100753,2,0,L|497:104,3,53.9999983520508,6|2|6|2,0:0|0:0|0:0|0:0,0:0:0:0:
430,87,100991,6,0,L|423:33,1,53.9999983520508,6|2,0:0|0:0,0:0:0:0:
352,133,101111,2,0,L|360:195,1,53.9999983520508,6|2,0:0|0:0,0:0:0:0:
487,346,101230,5,6,0:0:0:0:
473,310,101289,1,2,0:0:0:0:
443,285,101349,1,6,0:0:0:0:
406,273,101408,1,2,0:0:0:0:
369,281,101468,6,0,L|369:342,1,53.9999983520508,6|2,0:0|0:0,0:0:0:0:
255,372,101587,2,0,L|255:318,1,53.9999983520508,6|2,0:0|0:0,0:0:0:0:
143,281,101706,5,6,0:0:0:0:
106,273,101765,1,2,0:0:0:0:
69,285,101825,1,6,0:0:0:0:
39,310,101884,1,2,0:0:0:0:
25,346,101944,6,0,P|61:363|122:351,1,99.0000030212403,14|2,0:0|0:0,0:0:0:0:
143,281,102182,1,2,0:0:0:0:
255,318,102301,6,0,L|255:197,1,99.0000030212403,14|2,0:0|0:0,0:0:0:0:
254,141,102539,1,2,0:0:0:0:
346,49,102658,6,0,P|393:38|438:56,1,99.0000030212403,14|2,0:0|0:0,0:0:0:0:
496,109,102896,1,2,0:0:0:0:
254,141,103015,6,0,L|254:20,1,99.0000030212403,14|2,0:0|0:0,0:0:0:0:
255,219,103253,1,2,0:0:0:0:
346,49,103372,5,2,0:0:0:0:
342,83,103432,1,2,0:0:0:0:
351,116,103491,1,2,0:0:0:0:
374,141,103551,1,2,0:0:0:0:
406,154,103611,2,0,P|430:153|454:144,3,49.5000015106202,2|2|2|2,0:0|0:0|0:0|0:0,0:0:0:0:
496,109,103849,6,0,P|498:57|461:12,1,99.0000030212403,14|2,0:0|0:0,0:0:0:0:
325,201,104087,2,0,P|375:158|422:156,1,99.0000030212403,2|10,0:0|0:0,0:0:0:0:
475,294,104325,6,0,P|429:277|402:237,1,99.0000030212403,2|10,0:0|0:0,0:0:0:0:
240,130,104563,2,0,P|251:177|238:224,1,99.0000030212403,2|10,0:0|0:0,0:0:0:0:
117,353,104801,5,14,0:0:0:0:
82,347,104861,1,0,0:0:0:0:
48,342,104920,2,0,L|6:337,2,24.7500007553101,2|2|2,0:1|0:1|0:1,0:0:0:0:
35,261,105039,5,14,0:0:0:0:
70,267,105099,1,0,0:0:0:0:
104,272,105158,2,0,L|146:277,2,24.7500007553101,2|2|2,0:1|0:1|0:1,0:0:0:0:
143,199,105277,5,14,0:0:0:0:
123,195,105337,1,2,0:0:0:0:
103,192,105396,1,2,0:0:0:0:
83,189,105456,1,2,0:0:0:0:
63,186,105515,2,0,L|23:181,2,24.7500007553101,6|2|2,0:1|0:1|0:1,0:0:0:0:
46,104,105634,6,0,L|106:112,1,49.5000015106202,2|2,0:0|0:0,0:0:0:0:
232,44,105753,6,0,L|133:33,1,99.0000030212403,14|2,0:0|0:0,0:0:0:0:
60,25,105991,1,2,0:0:0:0:
245,212,106111,6,0,B|262:166|262:166|248:99,1,99.0000030212403,14|2,0:0|0:0,0:0:0:0:
232,44,106349,1,2,0:0:0:0:
35,261,106468,6,0,L|139:276,1,99.0000030212403,14|2,0:0|0:0,0:0:0:0:
209,280,106706,1,2,0:0:0:0:
329,340,106825,6,0,P|370:311|424:314,1,99.0000030212403,14|2,0:0|0:0,0:0:0:0:
487,346,107063,1,2,0:0:0:0:
325,201,107182,6,0,P|320:176|321:151,3,49.5000015106202,2|2|2|2,0:0|0:0|0:0|0:0,0:0:0:0:
360,88,107420,5,2,0:0:0:0:
397,105,107480,1,2,0:0:0:0:
436,105,107539,1,2,0:0:0:0:
471,85,107599,1,2,0:0:0:0:
490,50,107658,6,0,B|482:166,1,99.0000030212403,14|2,0:0|0:0,0:0:0:0:
487,346,107896,1,2,0:0:0:0:
237,230,108015,6,0,P|276:200|325:201,1,99.0000030212403,10|2,0:0|0:0,0:0:0:0:
507,219,108253,1,10,0:0:0:0:
281,286,108372,5,2,0:0:0:0:
360,88,108491,1,10,0:0:0:0:
512,224,108611,1,14,0:0:0:0:
329,340,108730,6,0,L|324:365,4,24.7500007553101,2|2|2|2|14,0:1|0:1|0:1|0:1|0:0,0:0:0:0:
237,230,108968,2,0,L|232:205,4,24.7500007553101,2|2|2|2|14,0:1|0:1|0:1|0:1|0:0,0:0:0:0:
185,318,109206,5,2,0:0:0:0:
145,314,109265,1,2,0:0:0:0:
105,310,109325,2,0,L|100:334,6,24.7500007553101,14|2|2|2|2|0|2,0:1|0:1|0:1|0:1|0:0|0:0|0:0,0:0:0:0:
30,296,109563,6,0,B|-9:163|100:211|56:49,1,242.999992584229,14|0,0:0|0:0,0:0:0:0:
145,21,110039,6,0,P|168:18|203:23,7,49.5000015106202,2|2|2|2|2|2|2|2,0:0|0:0|0:0|0:0|0:0|0:0|0:0|0:0,0:0:0:0:
231,85,110515,2,0,P|255:88|280:85,7,49.5000015106202,2|2|2|2|2|2|2|2,0:0|0:0|0:0|0:0|0:0|0:0|0:0|0:0,0:0:0:0:
317,20,110991,2,0,P|342:17|367:21,7,49.5000015106202,2|2|2|2|2|2|2|2,0:0|0:0|0:0|0:0|0:0|0:0|0:0|0:0,0:0:0:0:
437,49,111468,5,2,0:0:0:0:
450,63,111527,1,2,0:0:0:0:
459,79,111587,1,2,0:0:0:0:
465,97,111646,1,2,0:0:0:0:
468,115,111706,1,2,0:0:0:0:
467,134,111765,1,2,0:0:0:0:
462,151,111825,1,2,0:0:0:0:
454,168,111884,1,2,0:0:0:0:
443,183,111944,6,0,P|437:213|445:249,7,49.5000015106202,2|2|2|2|2|2|2|2,0:0|0:0|0:0|0:0|0:0|0:0|0:0|0:0,0:0:0:0:
408,305,112420,5,2,0:0:0:0:
388,289,112480,1,2,0:0:0:0:
365,280,112539,1,2,0:0:0:0:
341,277,112599,1,2,0:0:0:0:
317,281,112658,1,2,0:0:0:0:
294,291,112718,1,2,0:0:0:0:
276,307,112777,1,2,0:0:0:0:
262,328,112837,1,2,0:0:0:0:
255,352,112896,6,0,L|218:349,14,24.7500007553101,2|2|2|2|2|2|2|2|2|2|2|2|2|2|2,0:1|0:1|0:1|0:1|0:1|0:1|0:1|0:1|0:1|0:1|0:1|0:1|0:1|0:1|0:1,0:0:0:0:
159,341,113372,6,0,L|53:334,1,99.0000030212403,14|14,0:0|0:0,0:0:0:0:
29,144,113611,1,2,0:0:0:0:
38,182,113670,1,2,0:0:0:0:
63,212,113730,1,2,0:0:0:0:
100,224,113789,1,2,0:0:0:0:
139,220,113849,6,0,L|237:226,1,99.0000030212403,14|14,0:0|0:0,0:0:0:0:
385,118,114087,1,2,0:0:0:0:
345,116,114146,1,2,0:0:0:0:
305,114,114206,1,2,0:0:0:0:
265,112,114265,1,2,0:0:0:0:
225,111,114325,5,14,0:0:0:0:
111,103,114444,2,0,L|116:54,2,49.5000015106202,2|2|14,0:0|0:0|0:0,0:0:0:0:
242,275,114682,2,0,L|237:226,1,49.5000015106202,2|2,0:0|0:0,0:0:0:0:
225,111,114801,5,14,0:0:0:0:
159,341,114920,1,10,0:0:0:0:
179,173,115039,5,14,0:0:0:0:
253,373,115158,1,10,0:0:0:0:
67,302,115277,5,14,0:0:0:0:
236,225,115396,2,0,P|255:171|238:122,1,99.0000030212403,14|8,0:0|0:0,0:0:0:0:
188,10,115634,5,14,0:0:0:0:
80,185,115753,2,0,L|179:173,1,99.0000030212403,14|8,0:0|0:0,0:0:0:0:
358,234,115991,5,14,0:0:0:0:
189,79,116111,2,0,B|169:125|169:125|179:173,1,99.0000030212403,14|0,0:0|0:0,0:0:0:0:
299,308,116349,6,0,L|348:312,1,49.5000015106202,14|10,0:0|0:0,0:0:0:0:
419,322,116468,2,0,L|468:326,1,49.5000015106202,14|10,0:0|0:0,0:0:0:0:
308,229,116587,6,0,L|357:233,1,49.5000015106202,14|10,0:0|0:0,0:0:0:0:
428,243,116706,2,0,L|477:247,1,49.5000015106202,14|10,0:0|0:0,0:0:0:0:
315,152,116825,6,0,L|364:156,1,49.5000015106202,14|10,0:0|0:0,0:0:0:0:
435,166,116944,2,0,L|484:170,1,49.5000015106202,14|10,0:0|0:0,0:0:0:0:
325,73,117063,5,14,0:0:0:0:
325,73,117420,5,6,0:0:0:0:
256,192,117480,12,0,118849,0:0:0:0:
256,192,119087,5,6,0:0:0:0:
256,192,119206,1,6,0:0:0:0:
