osu file format v14

[General]
AudioFilename: audio.mp3
AudioLeadIn: 0
PreviewTime: 73241
Countdown: 0
SampleSet: Soft
StackLeniency: 0.3
Mode: 0
LetterboxInBreaks: 0
WidescreenStoryboard: 0

[Editor]
Bookmarks: 992,2896,6706,12420,20039,27658,33372,35277,42896,50515,58134,63849,69563,73372,80991,90515,98134,105753,113372
DistanceSpacing: 0.4
BeatDivisor: 4
GridSize: 32
TimelineZoom: 4.399997

[Metadata]
Title:Last Resort
TitleUnicode:Last Resort
Artist:xi
ArtistUnicode:xi
Creator:Kroytz
Version:Cool's HYPER
Source:SOUND VOLTEX IV HEAVENLY HAVEN
Tags:The 7th Konami Arcade Championship Original Song Contest Winner Bemani KAC SDVX Video Rhythm Game Instrumental DJPop SnowNiNo_ C00l Cool 1112deng Suzuki_1112 Otosaka-Yu Elsa Valentine xLolicore- Realazy toybot vikala R3m AncuL Murumoo Tails Reba Wonki Blasticide Lolicide bsc _Streamy_ jakads
BeatmapID:1736572
BeatmapSetID:800102

[Difficulty]
HPDrainRate:4.5
CircleSize:3.6
OverallDifficulty:8
ApproachRate:9.4
SliderMultiplier:1.8
SliderTickRate:1

[Events]
//Background and Video events
0,0,"BG.jpg",0,0
//Break Periods
2,3096,6094
2,27858,32820
2,43096,49011
//Storyboard Layer 0 (Background)
//Storyboard Layer 1 (Fail)
//Storyboard Layer 2 (Pass)
//Storyboard Layer 3 (Foreground)
//Storyboard Layer 4 (Overlay)
//Storyboard Sound Samples

[TimingPoints]
992,238.095238095238,4,2,31,80,1,0
992,-100,4,2,31,80,0,0
1944,-100,4,2,34,80,0,0
2182,-100,4,2,32,80,0,0
2539,-100,4,2,31,40,0,0
2658,-100,4,2,31,80,0,0
6706,-111.111111111111,4,2,34,80,0,0
6884,-111.111111111111,4,2,34,5,0,0
6944,-111.111111111111,4,2,34,80,0,0
7122,-111.111111111111,4,2,34,5,0,0
7182,-111.111111111111,4,2,34,80,0,0
7361,-111.111111111111,4,2,34,5,0,0
7420,-111.111111111111,4,2,34,80,0,0
7599,-111.111111111111,4,2,34,5,0,0
7658,-111.111111111111,4,2,34,80,0,0
7837,-111.111111111111,4,2,34,20,0,0
7896,-111.111111111111,4,2,34,80,0,0
8075,-111.111111111111,4,2,34,20,0,0
8134,-111.111111111111,4,2,34,80,0,0
8313,-111.111111111111,4,2,34,20,0,0
8372,-111.111111111111,4,2,34,80,0,0
8551,-111.111111111111,4,2,34,20,0,0
8611,-111.111111111111,4,2,34,80,0,0
10515,-111.111111111111,4,2,31,80,0,0
10753,-111.111111111111,4,2,31,40,0,0
11230,-111.111111111111,4,2,31,80,0,0
11468,-111.111111111111,4,2,34,80,0,0
11587,-111.111111111111,4,2,33,80,0,0
11706,-111.111111111111,4,2,34,80,0,0
11825,-111.111111111111,4,2,33,80,0,0
11944,-111.111111111111,4,2,34,80,0,0
12182,-111.111111111111,4,2,33,80,0,0
12301,-111.111111111111,4,2,34,80,0,0
12420,-142.857142857143,4,2,31,65,0,0
19444,-142.857142857143,4,2,33,65,0,0
19563,-142.857142857143,4,2,31,65,0,0
19682,-142.857142857143,4,2,33,65,0,0
19801,-142.857142857143,4,2,31,72,0,0
20039,-111.111111111111,4,2,31,80,0,0
25753,-166.666666666666,4,2,31,60,0,0
26230,-111.111111111111,4,2,31,80,0,0
26706,-111.111111111111,4,2,33,80,0,0
27420,-111.111111111111,4,2,34,80,0,0
27658,-166.666666666666,4,2,31,80,0,0
33372,-166.666666666666,4,2,34,80,0,0
34206,-166.666666666666,4,2,31,80,0,0
34920,-166.666666666666,4,2,32,80,0,0
34980,-166.666666666666,4,2,33,80,0,0
35277,-125,4,2,31,80,0,0
35515,-125,4,2,32,80,0,0
36051,-125,4,2,32,5,0,0
36111,-125,4,2,32,80,0,0
36289,-125,4,2,32,5,0,0
36349,-125,4,2,32,80,0,0
36706,-200,4,2,32,80,0,0
37122,-200,4,2,32,5,0,0
37182,-125,4,2,32,80,0,0
37777,-111.111111111111,4,2,32,80,0,0
38015,-142.857142857143,4,2,32,80,0,0
38194,-142.857142857143,4,2,32,5,0,0
38253,-142.857142857143,4,2,32,80,0,0
38551,-142.857142857143,4,2,32,5,0,0
38611,-166.666666666667,4,2,32,80,0,0
39087,-125,4,2,31,80,0,0
39325,-125,4,2,32,80,0,0
40099,-125,4,2,32,5,0,0
40158,-125,4,2,32,80,0,0
40991,-125,4,2,31,80,0,0
41170,-125,4,2,31,5,0,0
41230,-125,4,2,32,80,0,0
41825,-125,4,2,31,80,0,0
42003,-125,4,2,31,5,0,0
42063,-125,4,2,31,80,0,0
42420,-125,4,2,31,78,0,0
42480,-125,4,2,31,76,0,0
42539,-125,4,2,31,74,0,0
42599,-125,4,2,31,72,0,0
42658,-125,4,2,31,70,0,0
42718,-125,4,2,31,68,0,0
42777,-125,4,2,31,66,0,0
42837,-125,4,2,31,64,0,0
42896,-166.666666666667,4,2,31,60,0,0
49563,-111.111111111111,4,2,31,55,0,0
50277,-111.111111111111,4,2,31,80,0,0
50515,-100,4,2,31,80,0,0
51944,-125,4,2,34,80,0,0
52420,-100,4,2,31,80,0,0
53849,-125,4,2,34,80,0,0
54325,-100,4,2,31,80,0,0
54682,-166.666666666667,4,2,31,80,0,0
54980,-166.666666666667,4,2,31,5,0,0
55039,-100,4,2,31,80,0,0
55634,-166.666666666667,4,2,31,80,0,0
55991,-100,4,2,31,80,0,0
57361,-100,4,2,31,80,0,0
57539,-100,4,2,31,80,0,0
57837,-100,4,2,31,80,0,0
58015,-100,4,2,31,80,0,0
58134,-100,4,2,33,80,0,0
58849,-100,4,2,34,80,0,0
59087,-100,4,2,33,80,0,0
59801,-100,4,2,34,80,0,0
60039,-100,4,2,31,80,0,0
60991,-100,4,2,32,80,0,0
61468,-100,4,2,34,80,0,0
62420,-100,4,2,32,80,0,0
62658,-100,4,2,31,80,0,0
63730,-100,4,2,31,5,0,0
63849,-125,4,2,31,60,0,0
64325,-125,4,2,31,65,0,0
64801,-125,4,2,31,70,0,0
65277,-125,4,2,31,75,0,0
65753,-100,4,2,34,80,0,0
69087,-200,4,2,34,80,0,0
69563,-100,4,2,31,80,0,0
71468,-100,4,2,31,40,0,0
72420,-100,4,2,32,80,0,0
72896,-333.333333333333,4,2,32,60,0,0
73134,-333.333333333333,4,2,32,80,0,0
73313,-333.333333333333,4,2,31,5,0,0
73372,-83.3333333333333,4,2,31,80,0,1
73551,-83.3333333333333,4,2,31,80,0,1
73611,-83.3333333333333,4,2,31,80,0,1
73908,-83.3333333333333,4,2,31,80,0,1
73968,-83.3333333333333,4,2,31,80,0,1
74265,-83.3333333333333,4,2,31,80,0,1
74325,-83.3333333333333,4,2,31,80,0,1
74563,-100,4,2,31,80,0,1
74682,-100,4,2,31,80,0,1
75277,-83.3333333333333,4,2,31,80,0,1
76349,-100,4,2,31,80,0,1
76587,-100,4,2,31,80,0,1
77182,-83.3333333333333,4,2,31,80,0,1
78134,-83.3333333333333,4,2,31,80,0,1
78611,-100,4,2,31,80,0,1
79087,-83.3333333333333,4,2,31,80,0,1
80158,-125,4,2,31,80,0,0
80515,-125,4,2,31,80,0,0
80753,-83.3333333333333,4,2,31,80,0,0
80991,-83.3333333333333,4,2,34,80,0,1
81111,-83.3333333333333,4,2,31,80,0,1
82301,-100,4,2,31,80,0,1
82896,-83.3333333333333,4,2,31,80,0,1
84325,-100,4,2,31,80,0,1
84444,-100,4,2,31,40,0,1
84563,-100,4,2,31,80,0,1
84682,-100,4,2,31,40,0,1
84801,-83.3333333333333,4,2,31,80,0,1
86230,-83.3333333333333,4,2,32,80,0,1
86468,-83.3333333333333,4,2,31,40,0,1
86527,-83.3333333333333,4,2,31,50,0,1
86587,-83.3333333333333,4,2,31,60,0,1
86646,-83.3333333333333,4,2,31,70,0,1
86706,-83.3333333333333,4,2,34,80,0,1
87658,-83.3333333333333,4,2,33,80,0,1
88611,-83.3333333333333,4,2,32,80,0,0
89563,-83.3333333333333,4,2,32,40,0,0
89682,-83.3333333333333,4,2,32,80,0,0
89920,-83.3333333333333,4,2,32,40,0,0
90039,-83.3333333333333,4,2,32,80,0,0
90277,-83.3333333333333,4,2,35,80,0,0
90515,-111.111111111111,4,2,31,80,0,0
93849,-142.857142857143,4,2,31,80,0,0
94325,-111.111111111111,4,2,31,80,0,0
97182,-111.111111111111,4,2,34,80,0,0
97301,-111.111111111111,4,2,31,80,0,0
97420,-111.111111111111,4,2,34,80,0,0
97539,-111.111111111111,4,2,31,80,0,0
97658,-111.111111111111,4,2,34,80,0,0
97896,-111.111111111111,4,2,31,80,0,0
98134,-90.9090909090908,4,2,34,80,0,0
101468,-125,4,2,34,80,0,0
101944,-111.111111111111,4,2,31,80,0,0
104801,-111.111111111111,4,2,34,80,0,0
104920,-111.111111111111,4,2,33,80,0,0
105039,-111.111111111111,4,2,34,80,0,0
105158,-111.111111111111,4,2,33,80,0,0
105277,-111.111111111111,4,2,34,80,0,0
105515,-111.111111111111,4,2,33,80,0,0
105634,-111.111111111111,4,2,31,80,0,0
105753,-111.111111111111,4,2,31,80,0,0
108611,-111.111111111111,4,2,34,80,0,0
108730,-111.111111111111,4,2,33,80,0,0
108849,-111.111111111111,4,2,34,80,0,0
108968,-111.111111111111,4,2,33,80,0,0
109087,-111.111111111111,4,2,34,80,0,0
109325,-111.111111111111,4,2,33,80,0,0
109444,-111.111111111111,4,2,34,80,0,0
109563,-111.111111111111,4,2,31,80,0,0
109622,-111.111111111111,4,2,31,5,0,0
110039,-111.111111111111,4,2,31,80,0,0
112420,-83.3333333333333,4,2,31,80,0,0
112896,-83.3333333333333,4,2,33,80,0,0
113372,-111.111111111111,4,2,32,80,0,0
113611,-111.111111111111,4,2,32,40,0,0
113849,-111.111111111111,4,2,32,80,0,0
114087,-111.111111111111,4,2,32,40,0,0
114325,-111.111111111111,4,2,34,80,0,0
114444,-111.111111111111,4,2,34,40,0,0
114563,-111.111111111111,4,2,34,80,0,0
114682,-111.111111111111,4,2,34,40,0,0
114801,-111.111111111111,4,2,34,80,0,0
115277,-90.9090909090909,4,2,32,80,0,0
115515,-90.9090909090909,4,2,32,60,0,0
115634,-90.9090909090909,4,2,32,80,0,0
115872,-90.9090909090909,4,2,32,60,0,0
115991,-90.9090909090909,4,2,32,80,0,0
117122,-90.9090909090909,4,2,31,5,0,0
117420,-90.9090909090909,4,2,31,80,0,0
118968,-90.9090909090909,4,2,31,5,0,0
119087,-90.9090909090909,4,2,32,80,0,0

[Colours]
Combo1 : 48,55,61
Combo2 : 42,72,82
Combo3 : 74,130,131
Combo4 : 155,151,164

[HitObjects]
22,63,992,6,0,B|72:82|72:82|167:52,1,135,6|0,0:0|0:0,0:0:0:0:
177,46,1230,1,0,0:0:0:0:
260,13,1349,1,0,0:0:0:0:
341,52,1468,2,0,L|395:45,2,45
251,128,1706,6,0,L|248:171,6,22.5,2|0|2|0|2|2|2,0:1|0:1|0:1|0:1|0:1|0:1|0:1,0:0:0:0:
322,196,1944,2,0,P|335:219|356:235,1,45,6|0,0:0|0:0,0:0:0:0:
175,182,2063,2,0,P|156:200|131:211,1,45,2|2,0:0|0:0,0:0:0:0:
233,336,2182,2,0,L|241:247,1,90,6|6,0:0|0:0,0:0:0:0:
467,208,2658,6,0,L|471:145,3,45,2|2|2|2,0:0|0:0|0:0|0:0,0:0:0:0:
460,288,2896,1,6,0:0:0:0:
215,84,6706,6,0,L|88:96,1,121.499996292114,6|0,0:0|0:0,0:0:0:0:
28,121,6944,2,0,L|155:133,1,121.499996292114,6|0,0:0|0:0,0:0:0:0:
213,165,7182,2,0,L|86:177,1,121.499996292114,6|0,0:0|0:0,0:0:0:0:
26,202,7420,2,0,L|153:214,1,121.499996292114,6|0,0:0|0:0,0:0:0:0:
283,226,7658,6,0,P|302:175|285:110,1,121.499996292114,6|0,0:0|0:0,0:0:0:0:
271,40,7896,2,0,P|305:81|369:99,1,121.499996292114,6|0,0:0|0:0,0:0:0:0:
438,122,8134,2,0,P|384:131|337:177,1,121.499996292114,6|0,0:0|0:0,0:0:0:0:
283,226,8372,1,6,0:0:0:0:
138,122,8551,5,0,0:0:0:0:
138,122,8611,2,0,L|131:34,1,80.9999975280762,14|0,0:0|0:0,0:0:0:0:
26,202,8789,1,0,0:0:0:0:
26,202,8849,2,0,L|33:114,1,80.9999975280762,14|0,0:0|0:0,0:0:0:0:
151,279,9027,5,0,0:0:0:0:
151,279,9087,2,0,L|144:191,1,80.9999975280762,14|0,0:0|0:0,0:0:0:0:
13,360,9265,1,0,0:0:0:0:
13,360,9325,2,0,L|20:272,1,80.9999975280762,14|0,0:0|0:0,0:0:0:0:
130,361,9503,5,0,0:0:0:0:
130,361,9563,6,0,B|158:365|158:365|208:350,2,53.9999983520508,14|2|8,0:0|0:0|0:0,0:0:0:0:
231,276,9801,6,0,B|259:272|259:272|309:287,2,53.9999983520508,14|2|8,0:0|0:0|0:0,0:0:0:0:
327,356,10039,6,0,B|355:360|355:360|405:345,2,53.9999983520508,14|2|8,0:0|0:0|0:0,0:0:0:0:
433,274,10277,6,0,B|461:270|461:270|511:285,2,53.9999983520508,14|2|8,0:0|0:0|0:0,0:0:0:0:
455,354,10515,5,14,0:0:0:0:
358,192,10753,5,0,0:0:0:0:
318,118,10991,2,0,P|356:107|396:115,1,80.9999975280763
276,193,11230,6,0,L|271:248,3,40.4999987640381,2|2|2|2,0:0|0:0|0:0|0:0,0:0:0:0:
230,122,11468,6,0,P|214:118|194:120,6,20.2499993820191,14|0|0|0|2|2|2,0:0|0:0|0:0|0:0|0:1|0:1|0:1,0:0:0:0:
168,188,11706,2,0,P|156:199|149:217,6,20.2499993820191,14|0|0|0|2|2|2,0:0|0:0|0:0|0:0|0:1|0:1|0:1,0:0:0:0:
194,274,11944,2,0,P|198:289|210:305,6,20.2499993820191,14|0|2|0|2|0|2,0:0|0:0|0:0|0:0|0:0|0:0|0:0,0:0:0:0:
281,294,12182,2,0,P|296:298|316:295,6,20.2499993820191,14|2|2|2|2|0|2,0:1|0:1|0:1|0:1|0:0|0:0|0:0,0:0:0:0:
396,340,12420,6,0,P|406:307|397:264,1,62.9999980773926,14|0,0:0|0:0,0:0:0:0:
363,198,12658,1,0,0:0:0:0:
450,206,12777,2,0,L|528:211,2,62.9999980773926
276,193,13134,1,0,0:0:0:0:
162,40,13372,6,0,L|167:124,1,62.9999980773926,0|2,0:0|0:0,0:0:0:0:
115,174,13611,1,0,0:0:0:0:
32,73,13730,2,0,L|37:157,1,62.9999980773926,0|2,0:0|0:0,0:0:0:0:
0,213,13968,1,0,0:0:0:0:
115,174,14087,1,2,0:0:0:0:
82,257,14206,2,0,L|80:294,1,31.4999990386963,2|2,0:0|0:0,0:0:0:0:
72,367,14325,1,2,0:0:0:0:
170,325,14444,6,0,P|209:320|252:335,1,62.9999980773926
322,367,14682,1,0,0:0:0:0:
374,288,14801,2,0,L|370:199,1,62.9999980773926
336,136,15039,6,0,P|370:141|410:125,1,62.9999980773926
470,9,15277,2,0,P|448:35|442:79,1,62.9999980773926,0|2,0:0|0:0,0:0:0:0:
512,188,15515,2,0,P|499:156|465:128,1,62.9999980773926
354,50,15753,5,2,0:0:0:0:
338,49,15813,1,0,0:0:0:0:
322,48,15872,1,0,0:0:0:0:
306,48,15932,1,0,0:0:0:0:
289,47,15991,2,0,L|250:45,2,31.4999990386963,2|2|0,0:0|0:0|0:0,0:0:0:0:
162,1,16230,6,0,P|154:28|160:72,1,62.9999980773926,6|0,0:0|0:0,0:0:0:0:
195,145,16468,1,0,0:0:0:0:
103,135,16587,2,0,L|21:130,2,62.9999980773926
284,154,16944,1,0,0:0:0:0:
222,356,17182,6,0,L|226:289,1,62.9999980773926,0|2,0:0|0:0,0:0:0:0:
303,247,17420,1,0,0:0:0:0:
377,335,17539,2,0,L|381:268,1,62.9999980773926,0|2,0:0|0:0,0:0:0:0:
449,220,17777,1,0,0:0:0:0:
303,247,17896,1,2,0:0:0:0:
361,161,18015,2,0,L|362:120,1,31.4999990386963,2|2,0:0|0:0,0:0:0:0:
364,46,18134,1,2,0:0:0:0:
264,15,18253,6,0,P|232:15|202:25,1,62.9999980773926
102,10,18491,2,0,P|86:37|80:68,1,62.9999980773926
59,164,18730,2,0,P|90:163|120:153,1,62.9999980773926
221,169,18968,2,0,P|236:141|242:110,1,62.9999980773926
159,222,19206,6,0,L|154:303,1,62.9999980773926,2|2,0:0|0:0,0:0:0:0:
149,361,19444,2,0,L|148:378,4,15.7499995193482,2|2|2|2|2,0:1|0:1|0:1|0:1|0:0,0:0:0:0:
269,257,19682,2,0,L|268:241,2,15.7499995193482,2|2|2,0:1|0:1|0:1,0:0:0:0:
276,333,19801,5,2,0:0:0:0:
291,335,19861,1,2,0:0:0:0:
306,335,19920,1,2,0:0:0:0:
321,333,19980,1,2,0:0:0:0:
340,326,20039,6,0,B|382:315|382:315|436:328,1,80.9999975280763,14|0,0:0|0:0,0:0:0:0:
378,227,20277,1,0,0:0:0:0:
338,120,20396,2,0,B|380:131|380:131|417:123,1,80.9999975280763,10|0,0:0|0:0,0:0:0:0:
384,38,20634,5,0,0:0:0:0:
378,227,20753,1,10,0:0:0:0:
172,58,20991,6,0,B|130:69|130:69|76:56,1,80.9999975280763,10|0,0:0|0:0,0:0:0:0:
134,157,21230,1,0,0:0:0:0:
173,263,21349,2,0,B|131:252|131:252|95:261,1,80.9999975280763,10|0,0:0|0:0,0:0:0:0:
128,346,21587,5,0,0:0:0:0:
134,157,21706,1,10,0:0:0:0:
261,303,21944,6,0,P|270:263|259:225,1,80.9999975280763,10|0,0:0|0:0,0:0:0:0:
221,155,22182,1,0,0:0:0:0:
301,134,22301,2,0,P|339:122|367:94,1,80.9999975280763,10|0,0:0|0:0,0:0:0:0:
379,230,22539,5,0,0:0:0:0:
221,155,22658,1,10,0:0:0:0:
426,156,22896,6,0,P|451:180|465:224,1,80.9999975280763,10|0,0:0|0:0,0:0:0:0:
420,311,23134,2,0,P|386:320|341:310,1,80.9999975280763,0|10,0:0|0:0,0:0:0:0:
297,213,23372,2,0,P|303:189|320:167,2,40.4999987640381
258,294,23611,5,10,0:0:0:0:
379,230,23730,1,2,0:0:0:0:
208,214,23849,6,0,P|186:209|161:209,3,40.4999987640381,6|2|2|2,0:0|0:0|0:0|0:0,0:0:0:0:
123,294,24087,2,0,P|101:299|82:298,3,40.4999987640381,2|2|2|2,0:0|0:0|0:0|0:0,0:0:0:0:
25,191,24325,2,0,P|17:209|14:229,3,40.4999987640381,2|2|2|2,0:0|0:0|0:0|0:0,0:0:0:0:
113,107,24563,1,2,0:0:0:0:
304,214,24801,6,0,P|326:209|351:209,3,40.4999987640381,6|2|2|2,0:0|0:0|0:0|0:0,0:0:0:0:
389,294,25039,2,0,P|411:299|429:298,3,40.4999987640381,2|2|2|2,0:0|0:0|0:0|0:0,0:0:0:0:
486,191,25277,2,0,P|492:210|494:230,3,40.4999987640381,2|2|2|2,0:0|0:0|0:1|0:1,0:0:0:0:
399,107,25515,1,2,0:0:0:0:
304,214,25753,6,0,P|287:217|270:218,7,26.9999991760254,14|0|0|0|0|0|0|0,0:0|0:0|0:0|0:0|0:0|0:0|0:0|0:0,0:0:0:0:
214,158,26230,6,0,L|216:111,3,40.4999987640381
212,285,26468,2,0,L|210:325,3,40.4999987640381
138,244,26706,5,6,0:0:0:0:
142,212,26765,1,6,0:0:0:0:
110,223,26825,5,6,0:0:0:0:
114,191,26884,1,6,0:0:0:0:
82,202,26944,5,6,0:0:0:0:
86,170,27003,1,6,0:0:0:0:
54,181,27063,5,6,0:0:0:0:
58,149,27122,1,6,0:0:0:0:
26,156,27182,6,0,L|22:106,2,40.4999987640381,6|6|6,0:0|0:0|0:0,0:0:0:0:
34,268,27420,1,10,0:1:0:0:
256,174,27658,5,6,0:0:0:0:
323,217,33372,6,0,L|320:286,1,53.9999983520508,6|0,0:0|0:0,0:0:0:0:
318,352,33611,1,0,0:0:0:0:
189,217,33730,2,0,L|192:286,1,53.9999983520508,6|0,0:0|0:0,0:0:0:0:
194,352,33968,1,0,0:0:0:0:
307,131,34206,6,0,P|266:116|213:129,1,80.9999975280763,6|0,0:0|0:0,0:0:0:0:
206,132,34444,1,2,0:0:0:0:
258,29,34563,1,6,0:0:0:0:
170,12,34801,6,0,P|168:30|174:59,3,26.9999991760254,6|0|6|6,0:0|0:0|0:0|0:0,0:0:0:0:
342,42,35039,2,0,P|342:29|341:16,3,26.9999991760254,6|6|6|6,0:0|0:0|0:0|0:0,0:0:0:0:
256,117,35277,6,0,L|252:268,1,144,6|0,0:0|0:0,0:0:0:0:
336,215,35634,2,0,P|371:207|413:214,1,72,2|10,0:0|0:1,0:0:0:0:
171,212,35872,2,0,P|136:204|94:211,1,72,2|0,0:0|0:0,0:0:0:0:
196,335,36111,6,0,B|250:350|250:350|313:336,1,108,2|0,0:0|0:0,0:0:0:0:
326,331,36349,1,8,0:1:0:0:
252,260,36468,1,2,0:0:0:0:
41,263,36706,6,0,P|13:290|73:276,1,157.5,10|0,0:1|0:0,0:0:0:0:
100,208,37182,6,0,P|107:167|91:113,1,72,2|0,0:0|0:0,0:0:0:0:
57,53,37420,1,0,0:0:0:0:
148,60,37539,2,0,L|222:63,1,72,2|10,0:0|0:1,0:0:0:0:
305,105,37777,6,0,B|314:64|314:64|306:18,1,80.9999975280763,2|0,0:0|0:0,0:0:0:0:
226,145,38015,1,2,0:0:0:0:
400,203,38253,6,0,B|428:170|434:124|407:94|407:94|385:114|389:140,1,157.499995193482,8|0,0:1|0:0,0:0:0:0:
393,282,38611,1,10,0:1:0:0:
377,286,38670,1,0,0:0:0:0:
361,290,38730,1,0,0:0:0:0:
345,294,38789,1,0,0:0:0:0:
305,312,38849,6,0,L|302:364,2,26.9999991760254,2|0|2,0:0|0:0|0:0,0:0:0:0:
226,263,39087,6,0,B|186:254|186:254|134:262,1,72,6|0,0:0|0:0,0:0:0:0:
74,288,39325,1,0,0:0:0:0:
62,198,39444,2,0,L|55:121,1,72,2|10,0:0|0:1,0:0:0:0:
144,93,39682,2,0,L|151:16,1,72,2|0,0:0|0:0,0:0:0:0:
242,3,39920,1,2,0:0:0:0:
316,193,40158,6,0,L|318:232,3,36,8|0|2|0,0:1|0:0|0:0|0:0,0:0:0:0:
311,110,40396,1,0,0:0:0:0:
424,168,40515,2,0,L|422:207,1,36,10|0,0:1|0:0,0:0:0:0:
418,287,40634,5,0,0:0:0:0:
418,301,40694,1,0,0:0:0:0:
417,315,40753,2,0,L|416:365,2,48,0|2|2,0:0|0:0|0:0,0:0:0:0:
329,323,40991,6,0,P|276:302|218:317,1,108,6|0,0:0|0:0,0:0:0:0:
201,330,41230,2,0,L|197:378,2,48,2|2|2,0:0|0:0|0:0,0:0:0:0:
164,249,41468,6,0,P|143:241|111:240,1,36,6|0,0:0|0:0,0:0:0:0:
242,218,41587,2,0,P|263:210|295:209,1,36,6|0,0:0|0:0,0:0:0:0:
181,37,41825,6,0,L|176:150,1,108,14|0,0:0|0:0,0:0:0:0:
176,152,42063,1,2,0:0:0:0:
175,159,42122,1,2,0:0:0:0:
175,166,42182,1,8,0:0:0:0:
286,114,42301,5,2,0:0:0:0:
332,126,42361,1,2,0:0:0:0:
357,160,42420,2,0,P|382:160|404:152,3,36,8|0|2|2,0:0|0:0|0:0|0:0,0:0:0:0:
408,235,42658,2,0,P|420:256|438:271,3,36,8|0|2|2,0:0|0:0|0:0|0:0,0:0:0:0:
358,305,42896,1,14,0:0:0:0:
301,350,49563,6,0,P|306:362|321:375,6,20.2499993820191
211,350,49801,2,0,P|206:362|191:375,6,20.2499993820191
179,276,50039,2,0,P|168:283|149:287,6,20.2499993820191
333,276,50277,6,0,B|353:285|353:285|380:288,3,40.4999987640381,2|2|2|2,0:2|0:2|0:2|0:2,0:0:0:0:
256,228,50515,6,0,L|259:128,1,90,6|0,0:0|0:0,0:0:0:0:
258,138,50753,1,8,0:0:0:0:
170,189,50872,2,0,L|173:89,1,90,6|0,0:0|0:0,0:0:0:0:
172,99,51111,1,8,0:0:0:0:
84,150,51230,2,0,L|87:50,1,90,6|0,0:0|0:0,0:0:0:0:
86,60,51468,1,8,0:0:0:0:
3,112,51587,2,0,L|6:12,1,90,6|0,0:0|0:0,0:0:0:0:
5,22,51825,1,8,0:0:0:0:
122,233,51944,6,0,P|85:239|50:228,1,72,6|0,0:0|0:0,0:0:0:0:
46,344,52182,2,0,P|81:332|118:339,1,72,6|2,0:0|0:0,0:0:0:0:
196,286,52361,1,2,0:0:0:0:
196,286,52420,6,0,L|297:291,1,90,6|0,0:0|0:0,0:0:0:0:
286,290,52658,1,8,0:0:0:0:
347,198,52777,2,0,L|246:203,1,90,6|0,0:0|0:0,0:0:0:0:
257,202,53015,1,8,0:0:0:0:
196,110,53134,2,0,L|297:115,1,90,6|0,0:0|0:0,0:0:0:0:
286,114,53372,1,8,0:0:0:0:
347,22,53491,2,0,L|246:27,1,90,6|0,0:0|0:0,0:0:0:0:
257,26,53730,1,8,0:0:0:0:
431,56,53849,6,0,P|438:23|426:-20,1,72,6|0,0:0|0:0,0:0:0:0:
383,137,54087,2,0,P|375:166|386:207,1,72,6|2,0:0|0:0,0:0:0:0:
452,313,54265,1,2,0:0:0:0:
452,313,54325,6,0,B|404:299|404:299|313:325,1,135,6|0,0:0|0:0,0:0:0:0:
303,330,54563,1,8,0:0:0:0:
252,258,54682,6,0,L|252:145,1,107.999996704102,6|0,0:0|0:0,0:0:0:0:
122,264,55039,2,0,L|113:209,3,45,2|2|2|2,0:0|0:0|0:0|0:0,0:0:0:0:
60,313,55277,6,0,B|108:299|108:299|199:325,1,135,6|0,0:0|0:0,0:0:0:0:
209,330,55515,1,8,0:0:0:0:
252,258,55634,6,0,L|252:145,1,107.999996704102,6|0,0:0|0:0,0:0:0:0:
230,30,55991,2,0,P|257:26|289:35,3,45,2|2|2|2,0:0|0:0|0:0|0:0,0:0:0:0:
174,101,56230,5,14,0:0:0:0:
174,101,56349,1,8,0:0:0:0:
341,184,56468,1,8,0:0:0:0:
341,184,56587,1,8,0:0:0:0:
157,271,56706,1,8,0:0:0:0:
157,271,56825,1,8,0:0:0:0:
325,355,56944,1,8,0:0:0:0:
325,355,57063,1,8,0:0:0:0:
250,283,57182,6,0,B|250:242|250:242|259:218|259:218|250:189|250:189|251:128,2,135,10|10|10,0:0|0:0|0:0,0:0:0:0:
77,213,57658,2,0,B|78:254|78:254|68:282|68:282|78:306|78:306|78:348,2,135,10|10|10,0:0|0:0|0:0,0:0:0:0:
115,122,58134,5,14,0:0:0:0:
97,114,58194,1,14,0:0:0:0:
78,112,58253,1,14,0:0:0:0:
59,114,58313,1,14,0:0:0:0:
38,118,58372,2,0,L|27:68,6,45,14|14|14|14|14|14|14,0:0|0:0|0:0|0:0|0:0|0:0|0:0,0:0:0:0:
77,213,58849,1,10,0:1:0:0:
201,125,59087,5,14,0:0:0:0:
219,117,59146,1,14,0:0:0:0:
238,115,59206,1,14,0:0:0:0:
257,117,59265,1,14,0:0:0:0:
278,121,59325,2,0,L|289:71,6,45,14|14|14|14|14|14|14,0:0|0:0|0:0|0:0|0:0|0:0|0:0,0:0:0:0:
239,210,59801,6,0,P|268:220|298:220,1,60,10|0,0:1|0:0,0:0:0:0:
403,196,59960,5,0,0:0:0:0:
403,196,60039,2,0,L|407:133,2,45,14|2|2,0:0|0:0|0:0,0:0:0:0:
325,295,60277,2,0,L|328:361,2,45,2|0|10,0:0|0:0|0:0,0:0:0:0:
241,254,60456,5,0,0:0:0:0:
241,254,60515,2,0,L|237:191,2,45,14|2|2,0:0|0:0|0:0,0:0:0:0:
328,340,60753,2,0,L|331:406,2,45,2|0|10,0:0|0:0|0:0,0:0:0:0:
314,171,60991,6,0,L|310:118,3,45,14|0|4|0,0:0|0:0|0:0|0:0,0:0:0:0:
231,82,61230,2,0,L|201:38,3,45,14|0|4|0,0:0|0:0|0:0|0:0,0:0:0:0:
86,52,61468,6,0,B|77:84|77:84|88:130,2,67.5,14|0|0,0:0|0:0|0:0,0:0:0:0:
164,170,61706,2,0,B|174:202|174:202|171:238,2,67.5,14|0|8,0:0|0:0|0:0,0:0:0:0:
0,209,61944,6,0,L|96:214,1,90,14|8,0:0|0:0,0:0:0:0:
200,338,62182,2,0,P|177:342|155:341,3,45,14|0|14|0,0:0|0:0|0:0|0:0,0:0:0:0:
82,293,62420,5,14,0:0:0:0:
257,263,62539,1,14,0:0:0:0:
164,170,62658,1,14,0:0:0:0:
256,192,62688,12,0,63730,0:0:0:0:
369,261,63849,6,0,P|357:313|325:355,1,108,14|10,0:0|0:0,0:0:0:0:
325,355,64206,1,2,0:0:0:0:
143,261,64325,2,0,P|154:313|186:355,1,108,14|10,0:0|0:0,0:0:0:0:
186,355,64682,1,2,0:0:0:0:
306,195,64801,6,0,P|315:142|342:90,1,108,14|10,0:0|0:0,0:0:0:0:
340,94,65158,1,2,0:0:0:0:
205,194,65277,2,0,P|195:141|168:89,1,108,14|10,0:0|0:0,0:0:0:0:
170,93,65634,1,2,0:0:0:0:
334,5,65753,6,0,P|357:7|378:14,3,45,6|0|0|0,0:0|0:0|0:0|0:0,0:0:0:0:
177,5,65991,2,0,P|154:7|133:14,3,45,6|0|0|0,0:0|0:0|0:0|0:0,0:0:0:0:
340,94,66230,6,0,P|361:101|380:113,3,45,6|0|0|0,0:0|0:0|0:0|0:0,0:0:0:0:
170,93,66468,2,0,P|148:100|129:112,3,45,6|0|0|0,0:0|0:0|0:0|0:0,0:0:0:0:
318,183,66706,6,0,P|336:195|351:212,3,45,6|0|0|0,0:0|0:0|0:0|0:0,0:0:0:0:
194,183,66944,2,0,P|175:195|160:212,3,45,6|0|0|0,0:0|0:0|0:0|0:0,0:0:0:0:
298,272,67182,6,0,P|312:288|323:308,3,45,6|0|0|0,0:0|0:0|0:0|0:0,0:0:0:0:
214,272,67420,2,0,P|199:288|188:308,3,45,6|0|0|0,0:0|0:0|0:0|0:0,0:0:0:0:
404,349,67658,6,0,P|410:327|410:304,3,45,6|0|0|0,0:0|0:0|0:0|0:0,0:0:0:0:
451,229,67896,2,0,P|445:207|434:187,3,45,6|0|0|0,0:0|0:0|0:0|0:0,0:0:0:0:
346,167,68134,6,0,P|339:145|339:122,3,45,6|0|0|0,0:0|0:0|0:0|0:0,0:0:0:0:
299,47,68372,2,0,P|304:25|315:5,3,45,6|0|0|0,0:0|0:0|0:0|0:0,0:0:0:0:
166,167,68611,6,0,P|172:145|172:122,3,45,6|0|0|0,0:0|0:0|0:0|0:0,0:0:0:0:
213,47,68849,2,0,P|207:25|196:5,3,45,6|0|0|0,0:0|0:0|0:0|0:0,0:0:0:0:
235,212,69087,5,6,0:0:0:0:
236,223,69146,1,2,0:0:0:0:
237,234,69206,1,2,0:0:0:0:
238,245,69265,1,2,0:0:0:0:
247,250,69325,5,6,0:0:0:0:
246,261,69384,1,2,0:0:0:0:
245,272,69444,1,2,0:0:0:0:
244,283,69503,1,2,0:0:0:0:
241,338,69563,5,6,0:0:0:0:
256,192,69622,12,0,71468,0:0:0:0:
102,262,72420,5,6,0:0:0:0:
102,262,72539,1,6,0:0:0:0:
102,262,72658,1,6,0:0:0:0:
11,224,72896,6,0,L|13:170,1,53.9999983520508,0|10,0:0|0:1,0:0:0:0:
6,306,73372,6,0,B|67:315|67:315|177:273,1,161.999995056153,6|0,0:0|0:0,0:0:0:0:
231,243,73611,1,8,0:0:0:0:
177,155,73730,2,0,B|238:146|238:146|348:188,1,161.999995056153,2|0,0:0|0:0,0:0:0:0:
402,218,73968,1,8,0:0:0:0:
492,297,74087,2,0,P|519:235|484:134,1,161.999995056153,2|0,0:0|0:0,0:0:0:0:
409,120,74325,5,8,0:0:0:0:
395,316,74444,1,2,0:0:0:0:
231,243,74563,1,0,0:0:0:0:
190,335,74682,6,0,B|235:345|235:345|299:327,2,90,8|2|0,0:0|0:0|0:0,0:0:0:0:
54,254,75039,1,2,0:0:0:0:
225,152,75158,1,0,0:0:0:0:
222,117,75218,1,0,0:0:0:0:
218,83,75277,6,0,B|160:63|160:63|51:91,1,161.999995056153,2|0,0:0|0:0,0:0:0:0:
16,169,75515,1,8,0:0:0:0:
54,254,75634,2,0,B|112:274|112:274|221:246,1,161.999995056153,2|0,0:0|0:0,0:0:0:0:
292,223,75872,1,8,0:0:0:0:
388,320,75991,6,0,L|381:146,1,161.999995056153,2|0,0:0|0:0,0:0:0:0:
376,75,76230,1,8,0:0:0:0:
476,218,76349,2,0,L|479:292,1,45,2|0,0:0|0:0,0:0:0:0:
485,348,76468,1,0,0:0:0:0:
388,320,76587,6,0,P|344:313|301:324,1,90,8|2,0:0|0:0,0:0:0:0:
203,248,76825,2,0,P|174:282|162:325,1,90,0|2,0:0|0:0,0:0:0:0:
49,367,77063,1,0,0:0:0:0:
51,331,77122,1,0,0:0:0:0:
55,299,77182,6,0,B|57:253|57:253|65:224|65:224|60:193|60:193|64:111,1,161.999995056153,6|0,0:0|0:0,0:0:0:0:
68,54,77420,1,8,0:0:0:0:
203,248,77539,2,0,B|200:202|200:202|192:173|192:173|197:142|197:142|193:60,1,161.999995056153,2|0,0:0|0:0,0:0:0:0:
190,3,77777,1,8,0:0:0:0:
274,171,77896,6,0,B|332:174|332:174|363:155|363:155|447:161,1,161.999995056153,2|0,0:0|0:0,0:0:0:0:
512,171,78134,1,8,0:0:0:0:
378,75,78253,1,2,0:0:0:0:
390,242,78372,2,0,L|393:311,2,53.9999983520508,0|0|8,0:0|0:0|0:0,0:0:0:0:
356,373,78611,6,0,P|402:380|454:359,1,90,2|0,0:0|0:0,0:0:0:0:
307,300,78849,2,0,P|260:292|209:314,1,90,2|0,0:0|0:0,0:0:0:0:
138,381,79087,5,2,0:0:0:0:
114,368,79146,1,0,0:0:0:0:
87,362,79206,1,0,0:0:0:0:
60,363,79265,1,0,0:0:0:0:
31,371,79325,2,0,L|27:308,3,53.9999983520508,8|0|2|0,0:0|0:0|0:0|0:0,0:0:0:0:
69,227,79563,5,2,0:0:0:0:
54,219,79622,1,0,0:0:0:0:
38,215,79682,1,0,0:0:0:0:
22,215,79741,1,0,0:0:0:0:
10,217,79801,2,0,L|6:163,3,53.9999983520508,2|0|0|0,0:0|0:0|0:0|0:0,0:0:0:0:
137,138,80039,1,8,0:0:0:0:
201,67,80158,6,0,P|155:45|98:52,1,108,2|0,0:0|0:0,0:0:0:0:
76,62,80396,1,8,0:0:0:0:
223,151,80515,6,0,L|231:239,1,72,2|8,0:0|0:0,0:0:0:0:
321,173,80753,2,0,L|332:296,1,107.999996704102,10|8,0:0|0:0,0:0:0:0:
341,371,80932,1,8,0:0:0:0:
341,371,80991,6,0,B|282:351|282:351|167:383,1,161.999995056153,14|0,0:1|0:0,0:0:0:0:
87,384,81230,2,0,L|94:266,1,107.999996704102,2|0,0:0|0:0,0:0:0:0:
223,151,81468,2,0,L|229:258,1,107.999996704102,2|0,0:0|0:0,0:0:0:0:
35,187,81706,2,0,P|90:170|150:187,1,107.999996704102,2|0,0:0|0:0,0:0:0:0:
229,258,81944,1,2,0:0:0:0:
269,63,82063,2,0,B|215:50|215:50|147:74,1,107.999996704102,0|2,0:0|0:0,0:0:0:0:
358,108,82301,6,0,P|368:65|348:3,2,90,0|2|0,0:0|0:0|0:0,0:0:0:0:
320,200,82658,1,2,0:0:0:0:
342,201,82718,1,0,0:0:0:0:
364,202,82777,1,0,0:0:0:0:
386,204,82837,1,0,0:0:0:0:
408,207,82896,6,0,B|431:258|431:258|406:368,1,161.999995056153,6|0,0:0|0:0,0:0:0:0:
324,374,83134,2,0,L|209:382,1,107.999996704102,2|0,0:0|0:0,0:0:0:0:
130,184,83372,2,0,L|237:191,1,107.999996704102,2|0,0:0|0:0,0:0:0:0:
55,228,83611,6,0,P|43:175|62:126,1,107.999996704102,2|0,0:0|0:0,0:0:0:0:
186,100,83849,1,2,0:0:0:0:
104,306,83968,2,0,B|53:318|53:318|-2:302,1,107.999996704102,0|2,0:0|0:0,0:0:0:0:
192,275,84206,1,0,0:0:0:0:
272,327,84325,2,0,P|280:358|278:394,2,45,2|0|2,0:0|0:0|0:0,0:0:0:0:
231,175,84563,5,2,0:0:0:0:
257,177,84622,1,0,0:0:0:0:
283,170,84682,1,2,0:0:0:0:
306,158,84741,1,2,0:0:0:0:
330,136,84801,6,0,B|391:120|391:120|483:162,1,161.999995056153,14|0,0:0|0:0,0:0:0:0:
512,231,85039,2,0,L|505:356,1,107.999996704102,10|0,0:0|0:0,0:0:0:0:
340,268,85277,2,0,L|333:160,1,107.999996704102,10|0,0:0|0:0,0:0:0:0:
381,55,85515,2,0,P|328:43|273:60,1,107.999996704102,10|0,0:0|0:0,0:0:0:0:
113,166,85753,6,0,L|103:46,1,107.999996704102,14|0,0:0|0:0,0:0:0:0:
230,174,85991,2,0,L|222:282,1,107.999996704102,10|0,0:0|0:0,0:0:0:0:
194,91,86230,5,14,0:0:0:0:
91,280,86349,1,14,0:0:0:0:
27,142,86468,6,0,L|21:88,2,53.9999983520508,2|2|2,0:0|0:0|0:0,0:0:0:0:
29,163,86646,1,2,0:0:0:0:
31,184,86706,5,12,0:0:0:0:
71,170,86765,1,2,0:0:0:0:
113,166,86825,1,2,0:0:0:0:
150,187,86884,1,2,0:0:0:0:
177,221,86944,1,14,0:0:0:0:
94,365,87063,6,2,P|65:364|30:347,4,53.9999983520508,2|2|6|2|2,0:0|0:0|0:0|0:0|0:0,0:0:0:0:
175,314,87420,5,14,0:0:0:0:
0,273,87539,1,2,0:0:0:0:
95,253,87658,6,0,L|91:280,30,26.9999991760254,2|2|2|2|2|2|2|2|2|2|2|2|2|2|2|2|2|2|2|2|2|2|2|2|2|2|2|2|2|2|2,0:1|0:1|0:1|0:1|0:1|0:1|0:1|0:1|0:1|0:1|0:1|0:1|0:1|0:1|0:1|0:1|0:1|0:1|0:1|0:1|0:1|0:1|0:1|0:1|0:1|0:1|0:1|0:1|0:1|0:1|0:1,0:0:0:0:
113,166,88611,5,14,0:0:0:0:
175,314,88730,1,14,0:0:0:0:
113,166,88968,5,14,0:0:0:0:
0,273,89087,1,14,0:0:0:0:
113,166,89325,5,14,0:0:0:0:
76,359,89444,1,14,0:0:0:0:
232,170,89682,5,14,0:0:0:0:
269,363,89801,1,14,0:0:0:0:
236,79,90039,6,0,P|277:90|319:144,1,107.999996704102,14|0,0:0|0:0,0:0:0:0:
107,77,90277,2,0,P|65:88|23:142,1,107.999996704102,14|2,0:0|0:0,0:0:0:0:
166,240,90515,5,6,0:0:0:0:
166,247,90634,1,2,0:0:0:0:
167,255,90753,1,2,0:0:0:0:
168,263,90872,1,2,0:0:0:0:
169,271,90991,6,0,L|177:381,1,80.9999975280763,2|2,0:0|0:0,0:0:0:0:
337,302,91230,2,0,L|342:221,1,80.9999975280763,2|2,0:0|0:0,0:0:0:0:
155,100,91468,2,0,L|163:210,1,80.9999975280763,2|2,0:0|0:0,0:0:0:0:
323,131,91706,2,0,L|328:50,1,80.9999975280763,2|2,0:0|0:0,0:0:0:0:
146,10,91944,5,2,0:0:0:0:
146,10,92063,1,2,0:0:0:0:
247,175,92182,1,2,0:0:0:0:
247,175,92301,1,2,0:0:0:0:
79,147,92420,6,0,P|40:140|-15:155,1,80.9999975280763,2|2,0:0|0:0,0:0:0:0:
52,264,92658,2,0,P|26:294|11:349,1,80.9999975280763,2|2,0:0|0:0,0:0:0:0:
247,175,92896,6,0,P|286:178|335:207,1,80.9999975280763,2|2,0:0|0:0,0:0:0:0:
242,293,93134,2,0,P|258:328|258:385,1,80.9999975280763,2|2,0:0|0:0,0:0:0:0:
153,237,93372,5,2,0:0:0:0:
167,82,93491,2,0,L|170:32,5,40.4999987640381,2|0|2|0|2|0,0:0|0:0|0:0|0:0|0:0|0:0,0:0:0:0:
290,60,93849,2,0,L|317:18,5,31.4999990386963,2|0|2|0|2|0,0:0|0:0|0:0|0:0|0:0|0:0,0:0:0:0:
407,102,94206,1,2,0:0:0:0:
407,102,94265,1,2,0:0:0:0:
407,102,94325,6,0,L|410:202,1,80.9999975280763,6|2,0:0|0:0,0:0:0:0:
417,359,94563,2,0,L|415:279,1,80.9999975280763,2|2,0:0|0:0,0:0:0:0:
290,60,94801,2,0,L|287:160,1,80.9999975280763,2|2,0:0|0:0,0:0:0:0:
280,317,95039,2,0,L|282:237,1,80.9999975280763,2|2,0:0|0:0,0:0:0:0:
113,189,95277,6,0,P|155:174|214:186,1,80.9999975280763,2|2,0:0|0:0,0:0:0:0:
73,272,95515,2,0,P|29:263|-15:224,1,80.9999975280763,2|2,0:0|0:0,0:0:0:0:
165,266,95753,6,0,B|172:297|172:297|169:345,2,53.9999983520508,2|2|2,0:0|0:0|0:0,0:0:0:0:
280,317,95991,2,0,B|270:347|270:347|243:387,2,53.9999983520508,2|2|2,0:0|0:0|0:0,0:0:0:0:
361,211,96230,6,0,L|246:201,1,80.9999975280763,6|2,0:0|0:0,0:0:0:0:
280,203,96408,1,0,0:0:0:0:
280,203,96468,1,2,0:0:0:0:
432,144,96587,2,0,L|547:134,1,80.9999975280763,2|6,0:0|0:0,0:0:0:0:
512,136,96765,1,0,0:0:0:0:
512,136,96825,1,2,0:0:0:0:
451,234,96944,5,2,0:0:0:0:
353,122,97063,1,2,0:0:0:0:
387,296,97182,1,6,0:0:0:0:
280,203,97301,6,0,L|244:199,4,20.2499993820191,2|0|2|0|6,0:1|0:0|0:1|0:0|0:0,0:0:0:0:
180,189,97539,2,0,L|144:185,4,20.2499993820191,2|0|2|0|6,0:1|0:0|0:1|0:0|0:0,0:0:0:0:
75,146,97777,5,2,0:0:0:0:
69,160,97837,1,2,0:0:0:0:
68,178,97896,2,0,P|68:197|72:207,4,20.2499993820191,6|0|2|0|2,0:1|0:0|0:1|0:0|0:0,0:0:0:0:
113,63,98134,6,0,P|90:53|65:52,7,49.5000015106202,6|2|6|2|6|2|6|2,0:0|0:0|0:0|0:0|0:0|0:0|0:0|0:0,0:0:0:0:
241,49,98611,2,0,P|226:28|204:15,7,49.5000015106202,6|2|6|2|6|2|6|2,0:0|0:0|0:0|0:0|0:0|0:0|0:0|0:0,0:0:0:0:
358,100,99087,2,0,P|355:75|343:52,7,49.5000015106202,6|2|6|2|6|2|6|2,0:0|0:0|0:0|0:0|0:0|0:0|0:0|0:0,0:0:0:0:
433,202,99563,2,0,P|443:178|444:154,7,49.5000015106202,6|2|6|2|6|2|6|2,0:0|0:0|0:0|0:0|0:0|0:0|0:0|0:0,0:0:0:0:
329,191,100039,6,0,L|214:199,1,99.0000030212403,6|6,0:0|0:0,0:0:0:0:
230,197,100277,1,6,0:0:0:0:
137,315,100396,2,0,P|136:265|114:222,1,99.0000030212403,6|6,0:0|0:0,0:0:0:0:
25,180,100634,1,6,0:0:0:0:
25,180,100694,1,2,0:0:0:0:
25,180,100753,1,6,0:0:0:0:
35,291,100872,1,6,0:0:0:0:
103,137,100991,6,0,L|108:67,7,49.5000015106202,6|2|6|2|6|2|6|2,0:0|0:0|0:0|0:0|0:0|0:0|0:0|0:0,0:0:0:0:
227,161,101468,2,0,L|232:231,7,36,6|2|6|2|6|2|6|2,0:0|0:0|0:0|0:0|0:0|0:0|0:0|0:0,0:3:0:0:
351,137,101944,6,0,B|392:130|392:130|447:143,1,80.9999975280763,14|2,0:0|0:0,0:0:0:0:
430,139,102182,1,2,0:0:0:0:
511,239,102301,2,0,B|472:248|472:248|431:241,1,80.9999975280763,14|2,0:0|0:0,0:0:0:0:
431,241,102539,1,2,0:0:0:0:
343,350,102658,5,14,0:0:0:0:
334,258,102777,1,2,0:0:0:0:
343,347,102896,1,2,0:0:0:0:
334,258,103015,1,14,0:0:0:0:
251,316,103134,6,0,L|150:323,1,80.9999975280763,2|2,0:0|0:0,0:0:0:0:
57,348,103372,6,0,P|54:328|56:308,3,40.4999987640381,2|2|2|2,0:0|0:0|0:0|0:0,0:0:0:0:
6,228,103611,2,0,P|13:209|24:192,3,40.4999987640381,2|2|2|2,0:0|0:0|0:0|0:0,0:0:0:0:
55,76,103849,6,0,P|94:67|146:78,1,80.9999975280763,14|2,0:0|0:0,0:0:0:0:
276,106,104087,2,0,P|236:110|191:139,1,80.9999975280763,2|10,0:0|0:0,0:0:0:0:
96,164,104325,2,0,P|131:182|164:224,1,80.9999975280763,2|10,0:0|0:0,0:0:0:0:
267,215,104563,2,0,P|239:244|223:294,1,80.9999975280763,2|10,0:0|0:0,0:0:0:0:
135,298,104801,5,14,0:0:0:0:
140,317,104861,1,0,0:0:0:0:
140,337,104920,2,0,P|140:353|136:369,4,20.2499993820191,2|2|2|2|14,0:1|0:1|0:1|0:1|0:0,0:0:0:0:
50,261,105158,2,0,P|50:245|53:228,4,20.2499993820191,2|2|2|2|14,0:1|0:1|0:1|0:1|0:0,0:0:0:0:
234,363,105396,2,0,L|288:367,5,40.4999987640381,2|2|6|2|2|2,0:0|0:0|0:1|0:1|0:0|0:0,0:0:0:0:
299,367,105753,6,0,L|385:372,1,80.9999975280763,14|2,0:0|0:0,0:0:0:0:
379,371,105991,1,2,0:0:0:0:
512,290,106111,2,0,L|426:295,1,80.9999975280763,14|2,0:0|0:0,0:0:0:0:
431,294,106349,1,2,0:0:0:0:
340,184,106468,5,14,0:0:0:0:
347,286,106587,1,2,0:0:0:0:
340,184,106706,1,2,0:0:0:0:
347,286,106825,1,14,0:0:0:0:
255,238,106944,6,0,P|222:234|171:244,1,80.9999975280763,2|2,0:0|0:0,0:0:0:0:
70,298,107182,5,2,0:0:0:0:
68,284,107241,1,2,0:0:0:0:
66,271,107301,1,2,0:0:0:0:
62,259,107361,1,2,0:0:0:0:
57,247,107420,2,0,P|46:228|29:213,2,40.4999987640381,2|2|2,0:0|0:0|0:0,0:0:0:0:
114,374,107658,6,0,B|73:385|73:385|31:374,1,80.9999975280763,14|2,0:0|0:0,0:0:0:0:
191,339,107896,2,0,B|231:327|231:327|273:339,1,80.9999975280763,2|10,0:0|0:0,0:0:0:0:
424,374,108134,2,0,B|464:385|464:385|506:374,1,80.9999975280763,2|10,0:0|0:0,0:0:0:0:
347,339,108372,2,0,B|306:327|306:327|264:339,1,80.9999975280763,2|10,0:0|0:0,0:0:0:0:
269,246,108611,5,14,0:0:0:0:
201,186,108730,2,0,P|195:172|193:154,4,20.2499993820191,2|2|2|2|14,0:1|0:1|0:1|0:1|0:0,0:0:0:0:
338,194,108968,2,0,P|344:181|348:163,4,20.2499993820191,2|2|2|2|14,0:1|0:1|0:1|0:1|0:0,0:0:0:0:
273,122,109206,2,0,L|275:67,5,40.4999987640381,2|2|14|2|2|2,0:0|0:0|0:1|0:1|0:0|0:0,0:0:0:0:
279,0,109563,5,14,0:0:0:0:
279,0,110039,6,0,L|277:53,7,40.4999987640381,2|2|2|2|2|2|2|2,0:0|0:0|0:0|0:0|0:0|0:0|0:0|0:0,0:0:0:0:
273,122,110515,2,0,L|271:175,7,40.4999987640381,2|2|2|2|2|2|2|2,0:0|0:0|0:0|0:0|0:0|0:0|0:0|0:0,0:0:0:0:
267,244,110991,2,0,L|265:297,7,40.4999987640381,2|2|2|2|2|2|2|2,0:0|0:0|0:0|0:0|0:0|0:0|0:0|0:0,0:0:0:0:
333,343,111468,6,0,P|346:361|365:374,7,40.4999987640381,2|2|2|2|2|2|2|2,0:0|0:0|0:0|0:0|0:0|0:0|0:0|0:0,0:0:0:0:
425,298,111944,2,0,P|447:295|467:285,7,40.4999987640381,2|2|2|2|2|2|2|2,0:0|0:0|0:0|0:0|0:0|0:0|0:0|0:0,0:0:0:0:
432,195,112420,6,0,P|443:170|445:142,7,53.9999983520508,2|2|2|2|2|2|2|2,0:0|0:0|0:0|0:0|0:0|0:0|0:0|0:0,0:0:0:0:
346,137,112896,6,0,P|336:124|323:114,14,26.9999991760254,2|2|2|2|2|2|2|2|2|2|2|2|2|2|2,0:1|0:1|0:1|0:1|0:1|0:1|0:1|0:1|0:1|0:1|0:1|0:1|0:1|0:1|0:1,0:0:0:0:
226,74,113372,6,0,P|217:113|226:158,1,80.9999975280763,14|14,0:0|0:0,0:0:0:0:
277,236,113611,2,0,P|297:246|332:245,2,40.4999987640381,2|2|2,0:0|0:0|0:0,0:0:0:0:
109,136,113849,2,0,P|120:174|151:208,1,80.9999975280763,14|14,0:0|0:0,0:0:0:0:
277,236,114087,2,0,P|297:246|332:245,2,40.4999987640381,2|2|2,0:0|0:0|0:0,0:0:0:0:
38,248,114325,6,0,P|67:275|110:290,1,80.9999975280763,14|2,0:0|0:0,0:0:0:0:
169,362,114563,2,0,P|200:336|239:325,1,80.9999975280763,14|2,0:0|0:0,0:0:0:0:
277,236,114801,5,14,0:0:0:0:
277,236,114920,1,10,0:0:0:0:
277,236,115039,1,14,0:0:0:0:
277,236,115158,1,10,0:0:0:0:
412,349,115277,6,0,L|405:241,1,99.0000030212403,14|14,0:0|0:0,0:0:0:0:
405,250,115515,1,8,0:0:0:0:
277,236,115634,2,0,L|283:128,1,99.0000030212403,14|14,0:0|0:0,0:0:0:0:
284,137,115872,1,8,0:0:0:0:
396,154,115991,2,0,L|389:46,1,99.0000030212403,14|14,0:0|0:0,0:0:0:0:
153,35,116349,5,14,0:0:0:0:
273,46,116468,1,14,0:0:0:0:
147,120,116587,1,14,0:0:0:0:
273,46,116706,1,14,0:0:0:0:
196,195,116825,1,14,0:0:0:0:
273,46,116944,1,14,0:0:0:0:
277,236,117063,1,6,0:0:0:0:
153,35,117420,5,6,0:0:0:0:
256,192,117450,12,0,118968,0:0:0:0:
153,35,119087,5,6,0:0:0:0:
277,236,119206,1,6,0:0:0:0:
