osu file format v14

[General]
AudioFilename: audio.mp3
AudioLeadIn: 0
PreviewTime: 73241
Countdown: 0
SampleSet: Soft
StackLeniency: 0.2
Mode: 3
LetterboxInBreaks: 0
SpecialStyle: 0
WidescreenStoryboard: 0

[Editor]
DistanceSpacing: 0.6
BeatDivisor: 4
GridSize: 4
TimelineZoom: 3.199999

[Metadata]
Title:Last Resort
TitleUnicode:Last Resort
Artist:xi
ArtistUnicode:xi
Creator:Kroytz
Version:AncuL's MAXIMUM
Source:SOUND VOLTEX IV HEAVENLY HAVEN
Tags:The 7th Konami Arcade Championship Original Song Contest Winner Bemani KAC SDVX Video Rhythm Game Instrumental DJPop SnowNiNo_ C00l Cool 1112deng Suzuki_1112 Otosaka-Yu Elsa Valentine xLolicore- Realazy toybot vikala R3m AncuL Murumoo Tails Reba Wonki Blasticide Lolicide bsc _Streamy_ jakads
BeatmapID:1679784
BeatmapSetID:800102

[Difficulty]
HPDrainRate:8.6
CircleSize:7
OverallDifficulty:8.3
ApproachRate:10
SliderMultiplier:2.22
SliderTickRate:1

[Events]
//Background and Video events
0,0,"BG2.jpg",0,0
//Break Periods
//Storyboard Layer 0 (Background)
//Storyboard Layer 1 (Fail)
//Storyboard Layer 2 (Pass)
//Storyboard Layer 3 (Foreground)
//Storyboard Layer 4 (Overlay)
//Storyboard Sound Samples
Sample,12170,0,"soft-hitclap31.wav",70
Sample,57587,0,"soft-hitclap31.wav",70
Sample,58182,0,"soft-hitfinish33.wav",70
Sample,58182,0,"soft-hitwhistle31.wav",70
Sample,58301,0,"soft-hitfinish33.wav",70
Sample,58301,0,"soft-hitwhistle31.wav",70
Sample,58420,0,"soft-hitfinish33.wav",70
Sample,58420,0,"soft-hitwhistle31.wav",70
Sample,58539,0,"soft-hitfinish33.wav",70
Sample,58539,0,"soft-hitwhistle31.wav",70
Sample,58658,0,"soft-hitfinish33.wav",70
Sample,58658,0,"soft-hitwhistle31.wav",70
Sample,58777,0,"soft-hitfinish33.wav",70
Sample,58777,0,"soft-hitwhistle31.wav",70
Sample,59134,0,"soft-hitfinish33.wav",70
Sample,59134,0,"soft-hitclap31.wav",70
Sample,59253,0,"soft-hitfinish33.wav",70
Sample,59253,0,"soft-hitclap31.wav",70
Sample,59372,0,"soft-hitfinish33.wav",70
Sample,59372,0,"soft-hitclap31.wav",70
Sample,59491,0,"soft-hitfinish33.wav",70
Sample,59491,0,"soft-hitclap31.wav",70
Sample,59610,0,"soft-hitfinish33.wav",70
Sample,59610,0,"soft-hitclap31.wav",70
Sample,59729,0,"soft-hitfinish33.wav",70
Sample,59729,0,"soft-hitclap31.wav",70
Sample,60087,0,"soft-hitclap31.wav",70
Sample,60206,0,"soft-hitclap31.wav",70
Sample,60563,0,"soft-hitclap31.wav",70
Sample,60682,0,"soft-hitclap31.wav",70
Sample,69134,0,"soft-hitclap31.wav",70
Sample,69253,0,"soft-hitclap31.wav",70
Sample,69372,0,"soft-hitclap31.wav",70
Sample,69491,0,"soft-hitclap31.wav",70
Sample,98182,0,"soft-hitfinish34.wav",70
Sample,98301,0,"soft-hitfinish34.wav",70
Sample,98420,0,"soft-hitfinish34.wav",70
Sample,98539,0,"soft-hitwhistle31.wav",70
Sample,98658,0,"soft-hitwhistle31.wav",70
Sample,98777,0,"soft-hitfinish34.wav",70
Sample,98896,0,"soft-hitfinish34.wav",70
Sample,99015,0,"soft-hitfinish34.wav",70
Sample,99134,0,"soft-hitwhistle31.wav",70
Sample,99253,0,"soft-hitwhistle31.wav",70
Sample,99372,0,"soft-hitfinish34.wav",70
Sample,99491,0,"soft-hitfinish34.wav",70
Sample,99610,0,"soft-hitwhistle31.wav",70
Sample,99729,0,"soft-hitfinish34.wav",70
Sample,99849,0,"soft-hitfinish34.wav",70
Sample,99968,0,"soft-hitwhistle31.wav",70
Sample,100087,0,"soft-hitwhistle31.wav",70
Sample,100206,0,"soft-hitwhistle31.wav",70
Sample,100325,0,"soft-hitfinish34.wav",70
Sample,100444,0,"soft-hitwhistle31.wav",70
Sample,100563,0,"soft-hitfinish34.wav",70
Sample,100682,0,"soft-hitfinish34.wav",70
Sample,100801,0,"soft-hitfinish34.wav",70
Sample,100920,0,"soft-hitwhistle31.wav",70
Sample,101039,0,"soft-hitfinish34.wav",70
Sample,101158,0,"soft-hitwhistle31.wav",70
Sample,101277,0,"soft-hitfinish34.wav",70
Sample,101396,0,"soft-hitfinish34.wav",70
Sample,101515,0,"soft-hitfinish34.wav",70
Sample,101634,0,"soft-hitfinish34.wav",70
Sample,101753,0,"soft-hitfinish34.wav",70
Sample,101872,0,"soft-hitwhistle31.wav",70
Sample,105265,0,"soft-hitwhistle31.wav",70
Sample,109075,0,"soft-hitfinish34.wav",70
Sample,110027,0,"soft-hitwhistle31.wav",23
Sample,110087,0,"soft-hitwhistle31.wav",23
Sample,110087,0,"soft-hitwhistle31.wav",23
Sample,110146,0,"soft-hitwhistle31.wav",23
Sample,110206,0,"soft-hitwhistle31.wav",23
Sample,110206,0,"soft-hitwhistle31.wav",23
Sample,110265,0,"soft-hitwhistle31.wav",23
Sample,110325,0,"soft-hitwhistle31.wav",23
Sample,110325,0,"soft-hitwhistle31.wav",23
Sample,110384,0,"soft-hitwhistle31.wav",23
Sample,110444,0,"soft-hitwhistle31.wav",23
Sample,110444,0,"soft-hitwhistle31.wav",23
Sample,110503,0,"soft-hitwhistle31.wav",23
Sample,110563,0,"soft-hitwhistle31.wav",23
Sample,110563,0,"soft-hitwhistle31.wav",23
Sample,110622,0,"soft-hitwhistle31.wav",23
Sample,110682,0,"soft-hitwhistle31.wav",23
Sample,110682,0,"soft-hitwhistle31.wav",23
Sample,110741,0,"soft-hitwhistle31.wav",23
Sample,110801,0,"soft-hitwhistle31.wav",23
Sample,110801,0,"soft-hitwhistle31.wav",23
Sample,110860,0,"soft-hitwhistle31.wav",23
Sample,110920,0,"soft-hitwhistle31.wav",23
Sample,110920,0,"soft-hitwhistle31.wav",23
Sample,110979,0,"soft-hitwhistle31.wav",23
Sample,111039,0,"soft-hitwhistle31.wav",23
Sample,111039,0,"soft-hitwhistle31.wav",23
Sample,111099,0,"soft-hitwhistle31.wav",23
Sample,111158,0,"soft-hitwhistle31.wav",23
Sample,111158,0,"soft-hitwhistle31.wav",23
Sample,111218,0,"soft-hitwhistle31.wav",23
Sample,111277,0,"soft-hitwhistle31.wav",23
Sample,111277,0,"soft-hitwhistle31.wav",23
Sample,111337,0,"soft-hitwhistle31.wav",23
Sample,111396,0,"soft-hitwhistle31.wav",23
Sample,111396,0,"soft-hitwhistle31.wav",23
Sample,111515,0,"soft-hitwhistle31.wav",35
Sample,111634,0,"soft-hitwhistle31.wav",35
Sample,111753,0,"soft-hitwhistle31.wav",35
Sample,111872,0,"soft-hitwhistle31.wav",35
Sample,111991,0,"soft-hitwhistle31.wav",35
Sample,112110,0,"soft-hitwhistle31.wav",35
Sample,112229,0,"soft-hitwhistle31.wav",35
Sample,112349,0,"soft-hitwhistle31.wav",35
Sample,112468,0,"soft-hitwhistle31.wav",35
Sample,112587,0,"soft-hitwhistle31.wav",35
Sample,112706,0,"soft-hitwhistle31.wav",35
Sample,112825,0,"soft-hitwhistle31.wav",35
Sample,113599,0,"soft-hitwhistle31.wav",23
Sample,113599,0,"soft-hitwhistle31.wav",23
Sample,113599,0,"soft-hitwhistle31.wav",23
Sample,113658,0,"soft-hitwhistle31.wav",23
Sample,113718,0,"soft-hitwhistle31.wav",23
Sample,113718,0,"soft-hitwhistle31.wav",23
Sample,113718,0,"soft-hitwhistle31.wav",23
Sample,113777,0,"soft-hitwhistle31.wav",23
Sample,114075,0,"soft-hitwhistle31.wav",23
Sample,114075,0,"soft-hitwhistle31.wav",23
Sample,114075,0,"soft-hitwhistle31.wav",23
Sample,114134,0,"soft-hitwhistle31.wav",23
Sample,114194,0,"soft-hitwhistle31.wav",23
Sample,114194,0,"soft-hitwhistle31.wav",23
Sample,114194,0,"soft-hitwhistle31.wav",23
Sample,114253,0,"soft-hitwhistle31.wav",23
Sample,114432,0,"soft-hitwhistle31.wav",23
Sample,114432,0,"soft-hitwhistle31.wav",23
Sample,114432,0,"soft-hitwhistle31.wav",23
Sample,114491,0,"soft-hitwhistle31.wav",23
Sample,114670,0,"soft-hitwhistle31.wav",23
Sample,114670,0,"soft-hitwhistle31.wav",23
Sample,114670,0,"soft-hitwhistle31.wav",23
Sample,114729,0,"soft-hitwhistle31.wav",23
Sample,114849,0,"soft-hitclap31.wav",70
Sample,114968,0,"soft-hitclap31.wav",70
Sample,115087,0,"soft-hitclap31.wav",70
Sample,115206,0,"soft-hitclap31.wav",70
Sample,115503,0,"soft-hitclap31.wav",23
Sample,115503,0,"soft-hitclap31.wav",23
Sample,115860,0,"soft-hitclap31.wav",23
Sample,115860,0,"soft-hitclap31.wav",23
Sample,117408,0,"soft-hitfinish31.wav",23
Sample,119075,0,"soft-hitfinish32.wav",23
Sample,119194,0,"soft-hitfinish32.wav",23

[TimingPoints]
992,-100,4,2,34,40,0,0
992,238.095238095238,4,2,34,40,1,0
73372,-100,4,2,34,40,0,1
80932,-100,4,2,34,40,0,0
80991,-100,4,2,34,40,0,1
90515,-100,4,2,34,40,0,0
113372,-100,4,2,34,40,0,1
119206,-100,4,2,34,40,0,0

[Colours]
Combo1 : 255,192,0
Combo2 : 0,202,0
Combo3 : 18,124,255
Combo4 : 242,24,57

[HitObjects]
36,192,992,5,0,0:0:0:70:soft-hitwhistle31.wav
182,192,992,1,0,0:0:0:70:soft-hitfinish31.wav
256,192,992,1,0,0:0:0:0:
402,192,992,1,0,0:0:0:0:
475,192,992,1,0,0:0:0:0:
402,192,1230,128,0,1468:0:0:0:0:
256,192,1349,128,0,1587:0:0:0:0:
109,192,1468,128,0,1706:0:0:0:0:
475,192,1587,128,0,1825:0:0:0:0:
36,192,1706,1,0,0:0:0:70:soft-hitwhistle31.wav
329,192,1706,1,0,0:0:0:0:
402,192,1706,1,0,0:0:0:0:
182,192,1765,1,0,0:0:0:70:soft-hitwhistle31.wav
256,192,1765,1,0,0:0:0:0:
36,192,1825,1,0,0:0:0:70:soft-hitwhistle31.wav
109,192,1825,1,0,0:0:0:0:
402,192,1855,1,0,0:0:0:70:soft-hitwhistle31.wav
329,192,1884,1,0,0:0:0:70:soft-hitwhistle31.wav
256,192,1914,1,0,0:0:0:70:soft-hitwhistle31.wav
36,192,1944,1,0,0:0:0:70:soft-hitwhistle31.wav
109,192,1944,128,0,2063:0:0:0:70:soft-hitfinish34.wav
182,192,1944,1,0,0:0:0:0:
402,192,1944,1,0,0:0:0:0:
475,192,1944,1,0,0:0:0:0:
182,192,2063,1,0,0:0:0:70:soft-hitwhistle31.wav
329,192,2063,1,0,0:0:0:0:
402,192,2063,128,0,2182:0:0:0:0:
36,192,2122,1,0,0:0:0:70:soft-hitwhistle31.wav
475,192,2122,1,0,0:0:0:0:
182,192,2182,128,0,2301:0:0:0:70:soft-hitwhistle31.wav
256,192,2182,1,0,0:0:0:70:soft-hitfinish32.wav
329,192,2182,1,0,0:0:0:0:
36,192,2301,1,0,0:0:0:70:soft-hitwhistle31.wav
109,192,2301,1,0,0:0:0:70:soft-hitfinish32.wav
256,192,2301,128,0,2539:0:0:0:0:
402,192,2301,1,0,0:0:0:0:
475,192,2301,1,0,0:0:0:0:
109,192,2539,128,0,2658:0:0:0:0:
36,192,2658,1,0,0:0:0:70:soft-hitwhistle31.wav
182,192,2658,1,0,0:0:0:0:
475,192,2658,1,0,0:0:0:0:
329,192,2718,1,0,0:0:0:70:soft-hitwhistle31.wav
402,192,2718,1,0,0:0:0:0:
109,192,2777,1,0,0:0:0:70:soft-hitwhistle31.wav
256,192,2777,1,0,0:0:0:0:
329,192,2837,1,0,0:0:0:70:soft-hitwhistle31.wav
402,192,2837,1,0,0:0:0:0:
36,192,2896,1,0,0:0:0:70:soft-hitwhistle31.wav
109,192,2896,1,0,0:0:0:70:soft-hitfinish31.wav
182,192,2896,128,0,3253:0:0:0:0:
256,192,2896,1,0,0:0:0:0:
475,192,2896,1,0,0:0:0:0:
402,192,3134,128,0,3611:0:0:0:0:
475,192,3134,128,0,3611:0:0:0:0:
182,192,3372,128,0,3611:0:0:0:0:
256,192,3372,128,0,3611:0:0:0:0:
36,192,3611,128,0,3769:0:0:0:0:
109,192,3611,128,0,3769:0:0:0:0:
182,192,3769,128,0,3849:0:0:0:0:
329,192,3769,128,0,3849:0:0:0:0:
256,192,3849,128,0,4007:0:0:0:0:
402,192,3849,128,0,4007:0:0:0:0:
109,192,4007,1,0,0:0:0:0:
256,192,4087,128,0,4245:0:0:0:0:
402,192,4087,128,0,4245:0:0:0:0:
109,192,4245,1,0,0:0:0:0:
182,192,4325,128,0,4484:0:0:0:0:
329,192,4325,128,0,4484:0:0:0:0:
36,192,4484,1,0,0:0:0:0:
182,192,4563,128,0,4722:0:0:0:0:
402,192,4563,128,0,4722:0:0:0:0:
109,192,4722,1,0,0:0:0:0:
256,192,4801,128,0,4960:0:0:0:0:
475,192,4801,128,0,4960:0:0:0:0:
36,192,4960,1,0,0:0:0:0:
256,192,5039,128,0,5198:0:0:0:0:
402,192,5039,128,0,5198:0:0:0:0:
36,192,5198,1,0,0:0:0:0:
109,192,5277,128,0,5436:0:0:0:0:
329,192,5277,128,0,5436:0:0:0:0:
475,192,5436,1,0,0:0:0:0:
109,192,5515,128,0,5674:0:0:0:0:
256,192,5515,128,0,5674:0:0:0:0:
402,192,5674,1,0,0:0:0:0:
256,192,5753,128,0,5991:0:0:0:0:
475,192,5753,128,0,5991:0:0:0:0:
36,192,5991,1,0,0:0:0:0:
109,192,6071,1,0,0:0:0:0:
256,192,6150,1,0,0:0:0:0:
329,192,6230,1,0,0:0:0:0:
475,192,6230,128,0,6388:0:0:0:0:
182,192,6388,1,0,0:0:0:0:
256,192,6468,1,0,0:0:0:0:
475,192,6468,128,0,6626:0:0:0:0:
109,192,6626,1,0,0:0:0:0:
36,192,6706,128,0,6944:0:0:0:70:soft-hitwhistle31.wav
182,192,6706,1,0,0:0:0:70:soft-hitfinish34.wav
256,192,6706,1,0,0:0:0:0:
402,192,6706,128,0,6944:0:0:0:0:
475,192,6706,1,0,0:0:0:0:
109,192,6944,128,0,7182:0:0:0:70:soft-hitwhistle31.wav
182,192,6944,1,0,0:0:0:70:soft-hitfinish34.wav
256,192,6944,1,0,0:0:0:0:
329,192,6944,128,0,7182:0:0:0:0:
475,192,6944,1,0,0:0:0:0:
36,192,7182,128,0,7420:0:0:0:70:soft-hitwhistle31.wav
182,192,7182,1,0,0:0:0:70:soft-hitfinish34.wav
256,192,7182,1,0,0:0:0:0:
402,192,7182,1,0,0:0:0:0:
475,192,7182,128,0,7420:0:0:0:0:
109,192,7420,1,0,0:0:0:70:soft-hitwhistle31.wav
182,192,7420,128,0,7658:0:0:0:70:soft-hitfinish34.wav
256,192,7420,1,0,0:0:0:0:
329,192,7420,128,0,7658:0:0:0:0:
402,192,7420,1,0,0:0:0:0:
36,192,7658,1,0,0:0:0:70:soft-hitwhistle31.wav
109,192,7658,1,0,0:0:0:70:soft-hitfinish34.wav
256,192,7658,128,0,7896:0:0:0:0:
402,192,7658,1,0,0:0:0:0:
475,192,7658,128,0,7896:0:0:0:0:
36,192,7896,128,0,8134:0:0:0:70:soft-hitwhistle31.wav
109,192,7896,1,0,0:0:0:70:soft-hitfinish34.wav
182,192,7896,1,0,0:0:0:0:
329,192,7896,128,0,7976:0:0:0:0:
402,192,7896,1,0,0:0:0:0:
256,192,7976,128,0,8055:0:0:0:0:
329,192,8055,128,0,8134:0:0:0:0:
182,192,8134,128,0,8293:0:0:0:70:soft-hitwhistle31.wav
256,192,8134,1,0,0:0:0:70:soft-hitfinish34.wav
402,192,8134,1,0,0:0:0:0:
475,192,8134,128,0,8372:0:0:0:0:
109,192,8293,128,0,8372:0:0:0:0:
36,192,8372,128,0,8611:0:0:0:70:soft-hitwhistle31.wav
182,192,8372,1,0,0:0:0:70:soft-hitfinish34.wav
256,192,8372,1,0,0:0:0:0:
329,192,8372,1,0,0:0:0:0:
402,192,8372,128,0,8531:0:0:0:0:
329,192,8531,128,0,8611:0:0:0:0:
109,192,8611,1,0,0:0:0:70:soft-hitwhistle31.wav
182,192,8611,1,0,0:0:0:70:soft-hitfinish34.wav
256,192,8611,128,0,8769:0:0:0:70:soft-hitclap31.wav
402,192,8611,1,0,0:0:0:0:
475,192,8611,128,0,8849:0:0:0:0:
182,192,8769,128,0,8849:0:0:0:0:
36,192,8849,128,0,9087:0:0:0:70:soft-hitwhistle31.wav
109,192,8849,1,0,0:0:0:70:soft-hitfinish34.wav
256,192,8849,128,0,9087:0:0:0:70:soft-hitclap31.wav
329,192,8849,1,0,0:0:0:0:
402,192,8849,1,0,0:0:0:0:
402,192,9007,128,0,9087:0:0:0:0:
109,192,9087,128,0,9245:0:0:0:70:soft-hitwhistle31.wav
182,192,9087,1,0,0:0:0:70:soft-hitfinish34.wav
329,192,9087,1,0,0:0:0:70:soft-hitclap31.wav
475,192,9087,128,0,9325:0:0:0:0:
256,192,9245,128,0,9325:0:0:0:0:
36,192,9325,128,0,9563:0:0:0:70:soft-hitwhistle31.wav
109,192,9325,1,0,0:0:0:70:soft-hitfinish34.wav
182,192,9325,1,0,0:0:0:70:soft-hitclap31.wav
329,192,9325,1,0,0:0:0:0:
402,192,9325,128,0,9563:0:0:0:0:
329,192,9484,128,0,9563:0:0:0:0:
109,192,9563,128,0,9722:0:0:0:70:soft-hitwhistle31.wav
182,192,9563,1,0,0:0:0:70:soft-hitfinish34.wav
256,192,9563,1,0,0:0:0:70:soft-hitclap31.wav
475,192,9563,1,0,0:0:0:0:
182,192,9722,1,0,0:0:0:70:soft-hitclap31.wav
329,192,9722,1,0,0:0:0:0:
402,192,9722,1,0,0:0:0:0:
36,192,9801,1,0,0:0:0:70:soft-hitwhistle31.wav
109,192,9801,128,0,9880:0:0:0:70:soft-hitfinish34.wav
256,192,9801,1,0,0:0:0:70:soft-hitclap31.wav
475,192,9801,1,0,0:0:0:0:
182,192,9880,128,0,9960:0:0:0:0:
36,192,9960,1,0,0:0:0:70:soft-hitclap31.wav
256,192,9960,128,0,10039:0:0:0:0:
402,192,9960,1,0,0:0:0:0:
109,192,10039,1,0,0:0:0:70:soft-hitwhistle31.wav
182,192,10039,1,0,0:0:0:70:soft-hitfinish34.wav
329,192,10039,128,0,10198:0:0:0:70:soft-hitclap31.wav
475,192,10039,128,0,10198:0:0:0:0:
109,192,10198,128,0,10277:0:0:0:70:soft-hitclap31.wav
182,192,10198,1,0,0:0:0:0:
256,192,10198,1,0,0:0:0:0:
36,192,10277,1,0,0:0:0:70:soft-hitwhistle31.wav
329,192,10277,128,0,10436:0:0:0:70:soft-hitfinish34.wav
402,192,10277,128,0,10436:0:0:0:70:soft-hitclap31.wav
475,192,10277,1,0,0:0:0:0:
36,192,10436,1,0,0:0:0:70:soft-hitclap31.wav
109,192,10436,1,0,0:0:0:0:
256,192,10436,128,0,10515:0:0:0:0:
36,192,10515,1,0,0:0:0:70:soft-hitwhistle31.wav
109,192,10515,1,0,0:0:0:70:soft-hitfinish31.wav
329,192,10515,1,0,0:0:0:70:soft-hitclap31.wav
402,192,10515,1,0,0:0:0:0:
475,192,10515,1,0,0:0:0:0:
256,192,10753,1,0,0:0:0:0:
402,192,10753,128,0,11230:0:0:0:0:
36,192,10991,1,0,0:0:0:0:
182,192,10991,128,0,11230:0:0:0:0:
36,192,11230,1,0,0:0:0:70:soft-hitwhistle31.wav
109,192,11230,1,0,0:0:0:0:
475,192,11230,1,0,0:0:0:0:
256,192,11289,1,0,0:0:0:70:soft-hitwhistle31.wav
329,192,11289,1,0,0:0:0:0:
109,192,11349,1,0,0:0:0:70:soft-hitwhistle31.wav
182,192,11349,1,0,0:0:0:0:
402,192,11408,1,0,0:0:0:70:soft-hitwhistle31.wav
475,192,11408,1,0,0:0:0:0:
36,192,11468,128,0,11587:0:0:0:70:soft-hitwhistle31.wav
109,192,11468,1,0,0:0:0:70:soft-hitfinish34.wav
182,192,11468,128,0,11587:0:0:0:70:soft-hitclap31.wav
256,192,11468,1,0,0:0:0:0:
329,192,11468,1,0,0:0:0:0:
475,192,11587,1,0,0:0:0:70:soft-hitwhistle31.wav
402,192,11616,1,0,0:0:0:70:soft-hitwhistle31.wav
329,192,11646,1,0,0:0:0:70:soft-hitwhistle31.wav
256,192,11676,1,0,0:0:0:70:soft-hitwhistle31.wav
36,192,11706,1,0,0:0:0:70:soft-hitwhistle31.wav
109,192,11706,1,0,0:0:0:70:soft-hitfinish34.wav
182,192,11706,1,0,0:0:0:70:soft-hitclap31.wav
402,192,11706,128,0,11825:0:0:0:0:
475,192,11706,128,0,11825:0:0:0:0:
36,192,11825,1,0,0:0:0:70:soft-hitwhistle31.wav
109,192,11855,1,0,0:0:0:70:soft-hitwhistle31.wav
182,192,11884,1,0,0:0:0:70:soft-hitwhistle31.wav
256,192,11914,1,0,0:0:0:70:soft-hitwhistle31.wav
36,192,11944,1,0,0:0:0:70:soft-hitwhistle31.wav
109,192,11944,1,0,0:0:0:70:soft-hitfinish34.wav
329,192,11944,1,0,0:0:0:70:soft-hitclap31.wav
402,192,11944,1,0,0:0:0:0:
475,192,11944,1,0,0:0:0:0:
182,192,12003,1,0,0:0:0:70:soft-hitwhistle31.wav
256,192,12003,1,0,0:0:0:0:
402,192,12063,1,0,0:0:0:70:soft-hitwhistle31.wav
475,192,12063,1,0,0:0:0:0:
109,192,12122,1,0,0:0:0:70:soft-hitwhistle31.wav
182,192,12122,1,0,0:0:0:0:
36,192,12182,1,0,0:0:0:70:soft-hitwhistle31.wav
256,192,12182,1,0,0:0:0:70:soft-hitfinish34.wav
329,192,12182,1,0,0:0:0:0:
402,192,12182,1,0,0:0:0:0:
475,192,12182,128,0,12420:0:0:0:0:
109,192,12212,1,0,0:0:0:70:soft-hitwhistle31.wav
182,192,12241,1,0,0:0:0:70:soft-hitwhistle31.wav
256,192,12271,1,0,0:0:0:70:soft-hitwhistle31.wav
329,192,12301,1,0,0:0:0:70:soft-hitwhistle31.wav
182,192,12361,1,0,0:0:0:70:soft-hitwhistle31.wav
36,192,12420,1,0,0:0:0:70:soft-hitwhistle31.wav
109,192,12420,1,0,0:0:0:70:soft-hitfinish31.wav
256,192,12420,1,0,0:0:0:70:soft-hitclap31.wav
329,192,12420,1,0,0:0:0:0:
402,192,12420,1,0,0:0:0:0:
182,192,12539,128,0,12658:0:0:0:0:
329,192,12658,128,0,13015:0:0:0:0:
182,192,12777,128,0,13015:0:0:0:0:
36,192,12896,128,0,13134:0:0:0:0:
256,192,13015,128,0,13372:0:0:0:0:
402,192,13134,128,0,13372:0:0:0:0:
36,192,13253,128,0,13372:0:0:0:0:
36,192,13491,1,0,0:0:0:70:soft-hitwhistle31.wav
256,192,13491,1,0,0:0:0:0:
402,192,13491,1,0,0:0:0:0:
329,192,13611,128,0,13849:0:0:0:0:
182,192,13730,128,0,13968:0:0:0:0:
36,192,13849,128,0,14087:0:0:0:70:soft-hitwhistle31.wav
109,192,13849,1,0,0:0:0:0:
475,192,13849,1,0,0:0:0:0:
256,192,13968,128,0,14206:0:0:0:0:
329,192,14087,1,0,0:0:0:70:soft-hitwhistle31.wav
402,192,14087,1,0,0:0:0:0:
475,192,14087,128,0,14325:0:0:0:0:
109,192,14206,128,0,14325:0:0:0:70:soft-hitwhistle31.wav
182,192,14206,1,0,0:0:0:0:
329,192,14265,1,0,0:0:0:70:soft-hitwhistle31.wav
402,192,14265,1,0,0:0:0:0:
36,192,14325,1,0,0:0:0:70:soft-hitwhistle31.wav
182,192,14325,1,0,0:0:0:0:
256,192,14325,1,0,0:0:0:0:
402,192,14444,128,0,14801:0:0:0:0:
256,192,14563,128,0,14682:0:0:0:0:
109,192,14682,128,0,14920:0:0:0:0:
256,192,14801,128,0,15039:0:0:0:0:
36,192,14920,128,0,15277:0:0:0:0:
329,192,15039,128,0,15277:0:0:0:0:
182,192,15158,128,0,15277:0:0:0:0:
475,192,15277,128,0,15515:0:0:0:0:
36,192,15396,1,0,0:0:0:70:soft-hitwhistle31.wav
109,192,15396,1,0,0:0:0:0:
329,192,15396,128,0,15515:0:0:0:0:
402,192,15515,128,0,15753:0:0:0:0:
256,192,15634,128,0,15753:0:0:0:0:
36,192,15753,1,0,0:0:0:70:soft-hitwhistle31.wav
182,192,15753,1,0,0:0:0:0:
329,192,15753,128,0,15932:0:0:0:0:
475,192,15932,128,0,16170:0:0:0:0:
36,192,15991,128,0,16170:0:0:0:70:soft-hitwhistle31.wav
109,192,15991,1,0,0:0:0:0:
182,192,16051,1,0,0:0:0:70:soft-hitwhistle31.wav
329,192,16051,1,0,0:0:0:0:
182,192,16170,1,0,0:0:0:70:soft-hitwhistle31.wav
329,192,16170,1,0,0:0:0:0:
36,192,16230,1,0,0:0:0:70:soft-hitwhistle31.wav
109,192,16230,1,0,0:0:0:70:soft-hitfinish31.wav
256,192,16230,1,0,0:0:0:0:
402,192,16230,1,0,0:0:0:0:
475,192,16230,1,0,0:0:0:0:
182,192,16349,128,0,16468:0:0:0:0:
329,192,16468,128,0,16825:0:0:0:0:
182,192,16587,128,0,16825:0:0:0:0:
36,192,16706,128,0,16944:0:0:0:0:
256,192,16825,128,0,17182:0:0:0:0:
402,192,16944,128,0,17182:0:0:0:0:
36,192,17063,128,0,17182:0:0:0:0:
182,192,17182,1,0,0:0:0:0:
36,192,17301,1,0,0:0:0:70:soft-hitwhistle31.wav
256,192,17301,1,0,0:0:0:0:
402,192,17301,1,0,0:0:0:0:
329,192,17420,128,0,17658:0:0:0:0:
182,192,17539,128,0,17777:0:0:0:0:
36,192,17658,128,0,17896:0:0:0:70:soft-hitwhistle31.wav
109,192,17658,1,0,0:0:0:0:
475,192,17658,1,0,0:0:0:0:
256,192,17777,128,0,18015:0:0:0:0:
402,192,17896,1,0,0:0:0:70:soft-hitwhistle31.wav
475,192,17896,128,0,18134:0:0:0:0:
109,192,18015,128,0,18134:0:0:0:70:soft-hitwhistle31.wav
182,192,18015,1,0,0:0:0:0:
329,192,18075,1,0,0:0:0:70:soft-hitwhistle31.wav
402,192,18075,1,0,0:0:0:0:
36,192,18134,1,0,0:0:0:70:soft-hitwhistle31.wav
182,192,18134,1,0,0:0:0:0:
256,192,18134,1,0,0:0:0:0:
402,192,18253,128,0,18611:0:0:0:0:
256,192,18372,128,0,18491:0:0:0:0:
109,192,18491,128,0,18730:0:0:0:0:
256,192,18611,128,0,18849:0:0:0:0:
36,192,18730,128,0,19087:0:0:0:0:
329,192,18849,128,0,19087:0:0:0:0:
182,192,18968,128,0,19087:0:0:0:0:
475,192,19087,128,0,19206:0:0:0:0:
36,192,19206,1,0,0:0:0:70:soft-hitwhistle31.wav
109,192,19206,1,0,0:0:0:0:
329,192,19206,128,0,19325:0:0:0:0:
36,192,19325,1,0,0:0:0:70:soft-hitwhistle31.wav
109,192,19325,1,0,0:0:0:0:
402,192,19325,128,0,19444:0:0:0:0:
36,192,19444,1,0,0:0:0:70:soft-hitwhistle31.wav
256,192,19444,128,0,19563:0:0:0:0:
109,192,19474,1,0,0:0:0:70:soft-hitwhistle31.wav
182,192,19503,1,0,0:0:0:70:soft-hitwhistle31.wav
329,192,19533,1,0,0:0:0:70:soft-hitwhistle31.wav
36,192,19563,128,0,19622:0:0:0:70:soft-hitwhistle31.wav
402,192,19563,1,0,0:0:0:0:
475,192,19563,1,0,0:0:0:0:
182,192,19622,128,0,19682:0:0:0:0:
36,192,19682,128,0,19741:0:0:0:70:soft-hitwhistle31.wav
402,192,19682,1,0,0:0:0:0:
329,192,19712,1,0,0:0:0:70:soft-hitwhistle31.wav
256,192,19741,1,0,0:0:0:70:soft-hitwhistle31.wav
475,192,19741,128,0,19801:0:0:0:0:
182,192,19771,1,0,0:0:0:70:soft-hitwhistle31.wav
36,192,19801,1,0,0:0:0:70:soft-hitwhistle31.wav
109,192,19801,1,0,0:0:0:0:
402,192,19801,1,0,0:0:0:0:
256,192,19861,1,0,0:0:0:70:soft-hitwhistle31.wav
475,192,19861,1,0,0:0:0:0:
109,192,19920,1,0,0:0:0:0:
329,192,19920,1,0,0:0:0:0:
182,192,19980,1,0,0:0:0:70:soft-hitwhistle31.wav
402,192,19980,1,0,0:0:0:0:
36,192,20039,1,0,0:0:0:70:soft-hitwhistle31.wav
109,192,20039,1,0,0:0:0:70:soft-hitfinish31.wav
256,192,20039,1,0,0:0:0:70:soft-hitclap31.wav
329,192,20039,1,0,0:0:0:0:
475,192,20039,1,0,0:0:0:0:
182,192,20158,128,0,20396:0:0:0:0:
402,192,20158,128,0,20277:0:0:0:0:
36,192,20277,128,0,20396:0:0:0:0:
329,192,20277,128,0,20515:0:0:0:0:
109,192,20396,128,0,20515:0:0:0:70:soft-hitclap31.wav
402,192,20396,1,0,0:0:0:70:soft-hitwhistle31.wav
475,192,20396,128,0,20515:0:0:0:0:
36,192,20515,128,0,20753:0:0:0:0:
256,192,20515,128,0,20634:0:0:0:0:
182,192,20634,128,0,20753:0:0:0:0:
329,192,20634,128,0,20872:0:0:0:0:
109,192,20753,1,0,0:0:0:70:soft-hitclap31.wav
402,192,20753,128,0,20872:0:0:0:70:soft-hitwhistle31.wav
475,192,20753,128,0,20872:0:0:0:0:
36,192,20872,128,0,20991:0:0:0:0:
182,192,20872,128,0,20991:0:0:0:0:
109,192,20991,1,0,0:0:0:70:soft-hitwhistle31.wav
329,192,20991,1,0,0:0:0:70:soft-hitclap31.wav
475,192,20991,1,0,0:0:0:0:
256,192,21111,128,0,21349:0:0:0:0:
402,192,21111,128,0,21230:0:0:0:0:
109,192,21230,128,0,21468:0:0:0:0:
475,192,21230,128,0,21349:0:0:0:0:
36,192,21349,128,0,21468:0:0:0:70:soft-hitwhistle31.wav
329,192,21349,128,0,21587:0:0:0:70:soft-hitclap31.wav
402,192,21349,1,0,0:0:0:0:
182,192,21468,128,0,21706:0:0:0:0:
475,192,21468,128,0,21587:0:0:0:0:
36,192,21587,128,0,21825:0:0:0:0:
256,192,21587,128,0,21706:0:0:0:0:
329,192,21706,1,0,0:0:0:70:soft-hitwhistle31.wav
402,192,21706,128,0,21825:0:0:0:70:soft-hitclap31.wav
475,192,21706,128,0,21825:0:0:0:0:
109,192,21825,128,0,21944:0:0:0:0:
256,192,21825,128,0,21944:0:0:0:0:
36,192,21944,1,0,0:0:0:70:soft-hitwhistle31.wav
182,192,21944,1,0,0:0:0:70:soft-hitclap31.wav
475,192,21944,1,0,0:0:0:0:
109,192,22063,128,0,22182:0:0:0:0:
402,192,22063,128,0,22301:0:0:0:0:
36,192,22182,128,0,22420:0:0:0:0:
256,192,22182,128,0,22301:0:0:0:0:
109,192,22301,1,0,0:0:0:70:soft-hitclap31.wav
182,192,22301,128,0,22420:0:0:0:70:soft-hitwhistle31.wav
475,192,22301,128,0,22539:0:0:0:0:
256,192,22420,128,0,22658:0:0:0:0:
329,192,22420,128,0,22539:0:0:0:0:
36,192,22539,128,0,22777:0:0:0:0:
109,192,22539,128,0,22658:0:0:0:0:
182,192,22658,1,0,0:0:0:70:soft-hitclap31.wav
329,192,22658,128,0,22896:0:0:0:70:soft-hitwhistle31.wav
402,192,22658,128,0,22777:0:0:0:0:
109,192,22777,128,0,22896:0:0:0:0:
36,192,22896,1,0,0:0:0:70:soft-hitwhistle31.wav
256,192,22896,128,0,23015:0:0:0:70:soft-hitclap31.wav
475,192,22896,128,0,23134:0:0:0:0:
109,192,23015,128,0,23134:0:0:0:0:
182,192,23134,128,0,23253:0:0:0:0:
329,192,23134,128,0,23372:0:0:0:0:
36,192,23253,128,0,23372:0:0:0:70:soft-hitclap31.wav
256,192,23253,1,0,0:0:0:70:soft-hitwhistle31.wav
475,192,23253,1,0,0:0:0:0:
109,192,23372,128,0,23551:0:0:0:0:
402,192,23372,128,0,23491:0:0:0:0:
329,192,23491,128,0,23611:0:0:0:0:
182,192,23551,128,0,23611:0:0:0:0:
36,192,23611,1,0,0:0:0:70:soft-hitwhistle31.wav
402,192,23611,128,0,23730:0:0:0:70:soft-hitclap31.wav
475,192,23611,128,0,23730:0:0:0:0:
36,192,23730,1,0,0:0:0:70:soft-hitwhistle31.wav
109,192,23730,1,0,0:0:0:0:
256,192,23730,128,0,23849:0:0:0:0:
182,192,23789,1,0,0:0:0:70:soft-hitwhistle31.wav
36,192,23849,1,0,0:0:0:70:soft-hitwhistle31.wav
109,192,23849,1,0,0:0:0:70:soft-hitfinish31.wav
329,192,23849,1,0,0:0:0:0:
402,192,23849,1,0,0:0:0:0:
475,192,23849,1,0,0:0:0:0:
182,192,23908,1,0,0:0:0:70:soft-hitwhistle31.wav
256,192,23968,1,0,0:0:0:70:soft-hitwhistle31.wav
402,192,23968,1,0,0:0:0:0:
475,192,23968,1,0,0:0:0:0:
109,192,24027,1,0,0:0:0:70:soft-hitwhistle31.wav
36,192,24087,1,0,0:0:0:70:soft-hitwhistle31.wav
256,192,24087,1,0,0:0:0:0:
329,192,24087,1,0,0:0:0:0:
475,192,24146,1,0,0:0:0:70:soft-hitwhistle31.wav
36,192,24206,1,0,0:0:0:70:soft-hitwhistle31.wav
182,192,24206,1,0,0:0:0:0:
402,192,24206,1,0,0:0:0:0:
256,192,24265,1,0,0:0:0:70:soft-hitwhistle31.wav
109,192,24325,1,0,0:0:0:70:soft-hitwhistle31.wav
402,192,24325,1,0,0:0:0:0:
475,192,24325,1,0,0:0:0:0:
182,192,24384,1,0,0:0:0:70:soft-hitwhistle31.wav
36,192,24444,1,0,0:0:0:70:soft-hitwhistle31.wav
256,192,24444,1,0,0:0:0:0:
475,192,24444,1,0,0:0:0:0:
329,192,24503,1,0,0:0:0:70:soft-hitwhistle31.wav
36,192,24563,1,0,0:0:0:70:soft-hitwhistle31.wav
182,192,24563,1,0,0:0:0:0:
402,192,24563,1,0,0:0:0:0:
109,192,24682,1,0,0:0:0:70:soft-hitwhistle31.wav
182,192,24682,1,0,0:0:0:0:
475,192,24682,1,0,0:0:0:0:
329,192,24741,1,0,0:0:0:70:soft-hitwhistle31.wav
36,192,24801,1,0,0:0:0:70:soft-hitwhistle31.wav
109,192,24801,1,0,0:0:0:70:soft-hitfinish31.wav
182,192,24801,1,0,0:0:0:0:
256,192,24801,1,0,0:0:0:0:
475,192,24801,1,0,0:0:0:0:
329,192,24861,1,0,0:0:0:70:soft-hitwhistle31.wav
36,192,24920,1,0,0:0:0:70:soft-hitwhistle31.wav
256,192,24920,1,0,0:0:0:0:
402,192,24920,1,0,0:0:0:0:
109,192,24980,1,0,0:0:0:70:soft-hitwhistle31.wav
182,192,25039,1,0,0:0:0:70:soft-hitwhistle31.wav
402,192,25039,1,0,0:0:0:0:
475,192,25039,1,0,0:0:0:0:
256,192,25099,1,0,0:0:0:70:soft-hitwhistle31.wav
36,192,25158,1,0,0:0:0:70:soft-hitwhistle31.wav
329,192,25158,1,0,0:0:0:0:
475,192,25158,1,0,0:0:0:0:
182,192,25218,1,0,0:0:0:70:soft-hitwhistle31.wav
36,192,25277,1,0,0:0:0:70:soft-hitwhistle31.wav
256,192,25277,1,0,0:0:0:0:
402,192,25277,1,0,0:0:0:0:
182,192,25337,1,0,0:0:0:70:soft-hitwhistle31.wav
109,192,25396,1,0,0:0:0:70:soft-hitwhistle31.wav
402,192,25396,1,0,0:0:0:0:
329,192,25426,1,0,0:0:0:70:soft-hitwhistle31.wav
256,192,25456,1,0,0:0:0:70:soft-hitwhistle31.wav
182,192,25486,1,0,0:0:0:70:soft-hitwhistle31.wav
36,192,25515,1,0,0:0:0:70:soft-hitwhistle31.wav
109,192,25515,1,0,0:0:0:70:soft-hitwhistle31.wav
475,192,25515,1,0,0:0:0:0:
36,192,25634,1,0,0:0:0:70:soft-hitwhistle31.wav
402,192,25634,1,0,0:0:0:0:
109,192,25664,1,0,0:0:0:70:soft-hitwhistle31.wav
182,192,25694,1,0,0:0:0:70:soft-hitwhistle31.wav
256,192,25724,1,0,0:0:0:70:soft-hitwhistle31.wav
36,192,25753,1,0,0:0:0:70:soft-hitwhistle31.wav
109,192,25753,1,0,0:0:0:70:soft-hitfinish31.wav
329,192,25753,1,0,0:0:0:70:soft-hitclap31.wav
402,192,25753,1,0,0:0:0:0:
475,192,25753,1,0,0:0:0:0:
256,192,25813,1,0,0:0:0:0:
182,192,25872,1,0,0:0:0:0:
109,192,25932,1,0,0:0:0:0:
402,192,25991,1,0,0:0:0:0:
329,192,26051,1,0,0:0:0:0:
256,192,26111,1,0,0:0:0:0:
182,192,26170,1,0,0:0:0:0:
109,192,26230,1,0,0:0:0:0:
182,192,26289,1,0,0:0:0:0:
256,192,26349,1,0,0:0:0:0:
329,192,26408,1,0,0:0:0:0:
402,192,26468,1,0,0:0:0:0:
182,192,26527,1,0,0:0:0:0:
329,192,26587,1,0,0:0:0:0:
475,192,26646,1,0,0:0:0:0:
36,192,26706,1,0,0:0:0:70:soft-hitwhistle31.wav
182,192,26706,1,0,0:0:0:70:soft-hitfinish33.wav
256,192,26706,1,0,0:0:0:0:
329,192,26765,1,0,0:0:0:70:soft-hitfinish33.wav
475,192,26765,1,0,0:0:0:70:soft-hitwhistle31.wav
36,192,26825,1,0,0:0:0:70:soft-hitwhistle31.wav
109,192,26825,1,0,0:0:0:70:soft-hitfinish33.wav
256,192,26825,1,0,0:0:0:0:
402,192,26884,1,0,0:0:0:70:soft-hitfinish33.wav
475,192,26884,1,0,0:0:0:70:soft-hitwhistle31.wav
109,192,26944,1,0,0:0:0:70:soft-hitwhistle31.wav
182,192,26944,1,0,0:0:0:70:soft-hitfinish33.wav
329,192,26944,1,0,0:0:0:0:
402,192,27003,1,0,0:0:0:70:soft-hitfinish33.wav
475,192,27003,1,0,0:0:0:70:soft-hitwhistle31.wav
36,192,27063,1,0,0:0:0:70:soft-hitwhistle31.wav
109,192,27063,1,0,0:0:0:70:soft-hitfinish33.wav
256,192,27063,1,0,0:0:0:0:
329,192,27122,1,0,0:0:0:70:soft-hitfinish33.wav
475,192,27122,1,0,0:0:0:70:soft-hitwhistle31.wav
36,192,27182,1,0,0:0:0:70:soft-hitwhistle31.wav
109,192,27182,1,0,0:0:0:70:soft-hitfinish33.wav
182,192,27182,1,0,0:0:0:0:
329,192,27241,1,0,0:0:0:70:soft-hitfinish33.wav
402,192,27241,1,0,0:0:0:70:soft-hitwhistle31.wav
475,192,27241,1,0,0:0:0:0:
36,192,27301,1,0,0:0:0:70:soft-hitwhistle31.wav
109,192,27301,1,0,0:0:0:70:soft-hitfinish33.wav
182,192,27301,1,0,0:0:0:0:
329,192,27361,1,0,0:0:0:70:soft-hitfinish33.wav
402,192,27361,1,0,0:0:0:70:soft-hitwhistle31.wav
475,192,27361,1,0,0:0:0:0:
36,192,27420,128,0,27658:0:0:0:70:soft-hitwhistle31.wav
256,192,27420,128,0,27539:0:0:0:0:
182,192,27658,1,0,0:0:0:70:soft-hitwhistle31.wav
256,192,27658,1,0,0:0:0:70:soft-hitfinish31.wav
329,192,27658,1,0,0:0:0:0:
402,192,27658,1,0,0:0:0:0:
475,192,27658,1,0,0:0:0:0:
109,192,27896,128,0,28015:0:0:0:0:
475,192,28015,128,0,28253:0:0:0:0:
329,192,28253,128,0,28491:0:0:0:0:
182,192,28491,128,0,28730:0:0:0:0:
402,192,28730,128,0,28849:0:0:0:0:
256,192,28849,128,0,28968:0:0:0:0:
109,192,28968,128,0,29087:0:0:0:0:
36,192,29087,128,0,29206:0:0:0:0:
109,192,29206,128,0,29325:0:0:0:0:
329,192,29325,128,0,29444:0:0:0:0:
36,192,29444,128,0,29563:0:0:0:0:
109,192,29563,1,0,0:0:0:0:
256,192,29563,1,0,0:0:0:0:
402,192,29563,128,0,29682:0:0:0:0:
182,192,29682,1,0,0:0:0:0:
329,192,29741,1,0,0:0:0:0:
256,192,29801,128,0,29920:0:0:0:0:
109,192,29920,128,0,30158:0:0:0:0:
182,192,30158,128,0,30277:0:0:0:0:
36,192,30277,128,0,30396:0:0:0:0:
109,192,30396,1,0,0:0:0:0:
256,192,30396,1,0,0:0:0:0:
475,192,30396,128,0,30515:0:0:0:0:
36,192,30634,1,0,0:0:0:0:
182,192,30634,1,0,0:0:0:0:
329,192,30634,128,0,30753:0:0:0:0:
182,192,30872,1,0,0:0:0:0:
36,192,30991,1,0,0:0:0:0:
329,192,30991,128,0,31111:0:0:0:0:
475,192,30991,1,0,0:0:0:0:
109,192,31230,1,0,0:0:0:0:
256,192,31230,1,0,0:0:0:0:
402,192,31230,128,0,31349:0:0:0:0:
36,192,31468,1,0,0:0:0:0:
329,192,31468,1,0,0:0:0:0:
475,192,31468,1,0,0:0:0:0:
109,192,31587,1,0,0:0:0:0:
182,192,31646,1,0,0:0:0:0:
256,192,31706,1,0,0:0:0:0:
329,192,31825,1,0,0:0:0:0:
475,192,31825,128,0,31944:0:0:0:0:
256,192,32063,1,0,0:0:0:0:
402,192,32063,128,0,32182:0:0:0:0:
109,192,32301,1,0,0:0:0:0:
329,192,32301,128,0,32420:0:0:0:0:
402,192,32539,128,0,32658:0:0:0:0:
256,192,32658,128,0,32777:0:0:0:0:
109,192,32777,128,0,32896:0:0:0:0:
36,192,32896,128,0,33015:0:0:0:0:
109,192,33015,128,0,33134:0:0:0:0:
329,192,33134,128,0,33253:0:0:0:0:
475,192,33253,128,0,33372:0:0:0:0:
36,192,33372,1,0,0:0:0:70:soft-hitwhistle31.wav
109,192,33372,1,0,0:0:0:70:soft-hitfinish34.wav
182,192,33372,1,0,0:0:0:0:
256,192,33372,1,0,0:0:0:0:
402,192,33372,1,0,0:0:0:0:
182,192,33491,1,0,0:0:0:0:
329,192,33551,1,0,0:0:0:0:
182,192,33611,1,0,0:0:0:0:
36,192,33730,1,0,0:0:0:70:soft-hitwhistle31.wav
256,192,33730,128,0,34087:0:0:0:70:soft-hitfinish34.wav
402,192,33730,1,0,0:0:0:0:
475,192,33730,1,0,0:0:0:0:
109,192,33968,128,0,34206:0:0:0:0:
36,192,34087,128,0,34206:0:0:0:0:
182,192,34206,1,0,0:0:0:70:soft-hitwhistle31.wav
256,192,34206,1,0,0:0:0:70:soft-hitfinish31.wav
329,192,34206,1,0,0:0:0:0:
475,192,34206,128,0,34444:0:0:0:0:
36,192,34444,1,0,0:0:0:70:soft-hitwhistle31.wav
182,192,34444,1,0,0:0:0:0:
402,192,34444,128,0,34503:0:0:0:0:
36,192,34563,1,0,0:0:0:70:soft-hitwhistle31.wav
182,192,34563,1,0,0:0:0:70:soft-hitfinish31.wav
256,192,34563,1,0,0:0:0:0:
402,192,34563,128,0,34722:0:0:0:0:
109,192,34642,1,0,0:0:0:0:
182,192,34722,1,0,0:0:0:0:
36,192,34801,1,0,0:0:0:70:soft-hitwhistle31.wav
256,192,34801,1,0,0:0:0:70:soft-hitfinish31.wav
329,192,34801,1,0,0:0:0:0:
475,192,34801,1,0,0:0:0:0:
36,192,34920,1,0,0:0:0:70:soft-hitwhistle31.wav
402,192,34920,1,0,0:0:0:70:soft-hitfinish32.wav
475,192,34920,1,0,0:0:0:0:
109,192,34980,1,0,0:0:0:70:soft-hitfinish33.wav
256,192,34980,1,0,0:0:0:70:soft-hitwhistle31.wav
329,192,35039,1,0,0:0:0:70:soft-hitwhistle31.wav
402,192,35039,1,0,0:0:0:70:soft-hitfinish33.wav
475,192,35039,1,0,0:0:0:0:
36,192,35099,1,0,0:0:0:70:soft-hitfinish33.wav
182,192,35099,1,0,0:0:0:70:soft-hitwhistle31.wav
329,192,35158,1,0,0:0:0:70:soft-hitwhistle31.wav
402,192,35158,1,0,0:0:0:70:soft-hitfinish33.wav
475,192,35158,1,0,0:0:0:0:
36,192,35218,1,0,0:0:0:70:soft-hitfinish33.wav
182,192,35218,1,0,0:0:0:70:soft-hitwhistle31.wav
109,192,35277,1,0,0:0:0:70:soft-hitwhistle31.wav
256,192,35277,1,0,0:0:0:70:soft-hitfinish31.wav
402,192,35277,1,0,0:0:0:0:
475,192,35277,1,0,0:0:0:0:
329,192,35456,128,0,35634:0:0:0:0:
475,192,35456,1,0,0:0:0:0:
36,192,35515,128,0,35634:0:0:0:0:
182,192,35515,1,0,0:0:0:0:
109,192,35634,1,0,0:0:0:70:soft-hitwhistle31.wav
402,192,35634,128,0,35753:0:0:0:0:
475,192,35634,128,0,35991:0:0:0:0:
36,192,35753,1,0,0:0:0:70:soft-hitclap31.wav
182,192,35753,1,0,0:0:0:70:soft-hitclap35.wav
256,192,35753,1,0,0:0:0:0:
109,192,35872,128,0,35991:0:0:0:70:soft-hitwhistle31.wav
329,192,35872,128,0,35991:0:0:0:0:
402,192,35872,128,0,35991:0:0:0:0:
36,192,36111,1,0,0:0:0:70:soft-hitwhistle31.wav
256,192,36111,128,0,36468:0:0:0:0:
402,192,36111,128,0,36349:0:0:0:0:
36,192,36349,1,0,0:0:0:70:soft-hitclap31.wav
182,192,36349,1,0,0:0:0:0:
475,192,36349,128,0,36706:0:0:0:0:
109,192,36468,1,0,0:0:0:70:soft-hitwhistle31.wav
329,192,36468,128,0,36587:0:0:0:0:
402,192,36468,1,0,0:0:0:0:
182,192,36587,128,0,36825:0:0:0:0:
36,192,36706,1,0,0:0:0:70:soft-hitwhistle31.wav
329,192,36706,1,0,0:0:0:70:soft-hitclap31.wav
402,192,36706,128,0,36944:0:0:0:70:soft-hitclap35.wav
109,192,36825,128,0,36944:0:0:0:0:
36,192,36944,1,0,0:0:0:70:soft-hitwhistle31.wav
256,192,36944,128,0,37182:0:0:0:0:
329,192,36944,1,0,0:0:0:0:
36,192,37063,128,0,37182:0:0:0:70:soft-hitwhistle31.wav
182,192,37063,1,0,0:0:0:0:
475,192,37063,1,0,0:0:0:0:
109,192,37182,1,0,0:0:0:70:soft-hitwhistle31.wav
329,192,37182,128,0,37420:0:0:0:0:
475,192,37182,1,0,0:0:0:0:
182,192,37301,128,0,37420:0:0:0:0:
475,192,37420,1,0,0:0:0:0:
402,192,37480,1,0,0:0:0:0:
36,192,37539,128,0,37658:0:0:0:70:soft-hitwhistle31.wav
182,192,37539,1,0,0:0:0:0:
329,192,37539,128,0,37658:0:0:0:0:
109,192,37658,1,0,0:0:0:70:soft-hitclap31.wav
256,192,37658,128,0,37777:0:0:0:70:soft-hitclap35.wav
475,192,37658,128,0,37896:0:0:0:0:
36,192,37777,128,0,37896:0:0:0:70:soft-hitwhistle31.wav
182,192,37777,128,0,37896:0:0:0:0:
402,192,37777,128,0,37896:0:0:0:0:
109,192,38015,128,0,38611:0:0:0:70:soft-hitwhistle31.wav
329,192,38015,1,0,0:0:0:0:
475,192,38015,128,0,38372:0:0:0:0:
36,192,38253,128,0,38372:0:0:0:70:soft-hitclap31.wav
256,192,38253,1,0,0:0:0:0:
402,192,38253,1,0,0:0:0:0:
182,192,38372,1,0,0:0:0:70:soft-hitwhistle31.wav
256,192,38372,128,0,38611:0:0:0:0:
402,192,38372,128,0,38611:0:0:0:0:
36,192,38611,128,0,38730:0:0:0:70:soft-hitwhistle31.wav
329,192,38611,1,0,0:0:0:70:soft-hitclap31.wav
475,192,38611,1,0,0:0:0:70:soft-hitclap35.wav
182,192,38670,128,0,38789:0:0:0:0:
329,192,38730,128,0,38849:0:0:0:0:
475,192,38789,128,0,38908:0:0:0:0:
36,192,38849,1,0,0:0:0:70:soft-hitwhistle31.wav
109,192,38849,1,0,0:0:0:0:
402,192,38849,128,0,38968:0:0:0:0:
329,192,38908,128,0,39027:0:0:0:0:
36,192,38968,1,0,0:0:0:70:soft-hitwhistle31.wav
109,192,38968,1,0,0:0:0:0:
256,192,38968,128,0,39087:0:0:0:0:
36,192,39087,1,0,0:0:0:70:soft-hitwhistle31.wav
109,192,39087,128,0,39265:0:0:0:70:soft-hitfinish31.wav
182,192,39087,1,0,0:0:0:0:
475,192,39087,1,0,0:0:0:0:
256,192,39265,1,0,0:0:0:0:
402,192,39265,1,0,0:0:0:0:
182,192,39325,128,0,39444:0:0:0:0:
475,192,39325,128,0,39444:0:0:0:0:
36,192,39444,128,0,39563:0:0:0:70:soft-hitwhistle31.wav
256,192,39444,128,0,39801:0:0:0:0:
402,192,39444,1,0,0:0:0:0:
109,192,39563,1,0,0:0:0:70:soft-hitclap31.wav
329,192,39563,1,0,0:0:0:70:soft-hitclap35.wav
475,192,39563,1,0,0:0:0:0:
36,192,39682,128,0,39801:0:0:0:70:soft-hitwhistle31.wav
182,192,39682,128,0,39801:0:0:0:0:
402,192,39682,128,0,39801:0:0:0:0:
36,192,39920,1,0,0:0:0:70:soft-hitwhistle31.wav
329,192,39920,128,0,40158:0:0:0:0:
475,192,39920,128,0,40158:0:0:0:0:
36,192,40158,1,0,0:0:0:70:soft-hitclap31.wav
256,192,40158,1,0,0:0:0:0:
402,192,40158,1,0,0:0:0:0:
182,192,40218,1,0,0:0:0:0:
109,192,40277,1,0,0:0:0:70:soft-hitwhistle31.wav
329,192,40277,1,0,0:0:0:0:
475,192,40277,1,0,0:0:0:0:
36,192,40337,1,0,0:0:0:0:
182,192,40396,128,0,40634:0:0:0:0:
402,192,40396,128,0,40634:0:0:0:0:
36,192,40515,1,0,0:0:0:70:soft-hitwhistle31.wav
109,192,40515,1,0,0:0:0:70:soft-hitclap31.wav
329,192,40515,1,0,0:0:0:70:soft-hitclap35.wav
256,192,40634,128,0,40753:0:0:0:0:
475,192,40634,128,0,40753:0:0:0:0:
36,192,40694,1,0,0:0:0:0:
182,192,40753,1,0,0:0:0:70:soft-hitwhistle31.wav
402,192,40753,1,0,0:0:0:0:
109,192,40833,1,0,0:0:0:70:soft-hitwhistle31.wav
182,192,40833,1,0,0:0:0:0:
256,192,40912,1,0,0:0:0:70:soft-hitwhistle31.wav
402,192,40912,1,0,0:0:0:0:
36,192,40991,1,0,0:0:0:70:soft-hitwhistle31.wav
109,192,40991,1,0,0:0:0:70:soft-hitfinish31.wav
182,192,40991,1,0,0:0:0:0:
475,192,40991,1,0,0:0:0:0:
329,192,41230,1,0,0:0:0:70:soft-hitwhistle31.wav
402,192,41230,1,0,0:0:0:0:
329,192,41309,1,0,0:0:0:70:soft-hitwhistle31.wav
402,192,41309,1,0,0:0:0:0:
109,192,41388,1,0,0:0:0:70:soft-hitwhistle31.wav
256,192,41388,1,0,0:0:0:0:
36,192,41468,1,0,0:0:0:70:soft-hitwhistle31.wav
182,192,41468,1,0,0:0:0:70:soft-hitfinish32.wav
329,192,41468,1,0,0:0:0:0:
402,192,41468,1,0,0:0:0:0:
475,192,41468,1,0,0:0:0:0:
36,192,41587,1,0,0:0:0:70:soft-hitwhistle31.wav
109,192,41587,1,0,0:0:0:70:soft-hitfinish32.wav
256,192,41587,1,0,0:0:0:0:
329,192,41587,1,0,0:0:0:0:
402,192,41587,1,0,0:0:0:0:
109,192,41825,1,0,0:0:0:70:soft-hitwhistle31.wav
256,192,41825,128,0,42063:0:0:0:70:soft-hitfinish31.wav
475,192,41825,128,0,42063:0:0:0:70:soft-hitclap31.wav
36,192,42063,1,0,0:0:0:70:soft-hitwhistle31.wav
109,192,42063,1,0,0:0:0:0:
182,192,42122,1,0,0:0:0:70:soft-hitwhistle31.wav
329,192,42122,1,0,0:0:0:0:
36,192,42182,1,0,0:0:0:70:soft-hitclap31.wav
109,192,42182,128,0,42301:0:0:0:0:
402,192,42182,128,0,42301:0:0:0:0:
256,192,42301,1,0,0:0:0:70:soft-hitwhistle31.wav
475,192,42301,1,0,0:0:0:0:
182,192,42361,1,0,0:0:0:70:soft-hitwhistle31.wav
329,192,42361,1,0,0:0:0:0:
109,192,42420,1,0,0:0:0:70:soft-hitclap31.wav
402,192,42420,128,0,42539:0:0:0:0:
475,192,42420,1,0,0:0:0:0:
329,192,42480,128,0,42599:0:0:0:0:
109,192,42539,1,0,0:0:0:70:soft-hitwhistle31.wav
256,192,42539,128,0,42658:0:0:0:0:
36,192,42599,1,0,0:0:0:70:soft-hitwhistle31.wav
182,192,42599,128,0,42718:0:0:0:0:
329,192,42658,128,0,42718:0:0:0:70:soft-hitclap31.wav
402,192,42658,1,0,0:0:0:0:
475,192,42658,1,0,0:0:0:0:
256,192,42718,128,0,42777:0:0:0:0:
182,192,42777,128,0,42837:0:0:0:70:soft-hitwhistle31.wav
475,192,42777,1,0,0:0:0:0:
109,192,42837,128,0,42896:0:0:0:70:soft-hitwhistle31.wav
402,192,42837,1,0,0:0:0:0:
36,192,42896,1,0,0:0:0:70:soft-hitwhistle31.wav
182,192,42896,1,0,0:0:0:70:soft-hitfinish31.wav
256,192,42896,128,0,44325:0:0:0:0:
329,192,42896,1,0,0:0:0:0:
475,192,42896,1,0,0:0:0:0:
329,192,44325,128,0,44801:0:0:0:0:
182,192,44801,128,0,45753:0:0:0:0:
402,192,45753,128,0,46587:0:0:0:0:
402,192,46706,128,0,48134:0:0:0:0:
109,192,47182,128,0,47281:0:0:0:0:
182,192,47261,128,0,47361:0:0:0:0:
256,192,47341,128,0,47440:0:0:0:0:
182,192,47420,128,0,47519:0:0:0:0:
256,192,47499,128,0,47599:0:0:0:0:
329,192,47579,128,0,47678:0:0:0:0:
475,192,47658,128,0,48134:0:0:0:0:
329,192,48134,128,0,48372:0:0:0:0:
256,192,48372,128,0,48611:0:0:0:0:
182,192,48611,128,0,49563:0:0:0:0:
329,192,49563,1,0,0:0:0:0:
475,192,49622,1,0,0:0:0:0:
329,192,49682,1,0,0:0:0:0:
475,192,49741,1,0,0:0:0:0:
256,192,49801,1,0,0:0:0:0:
402,192,49861,1,0,0:0:0:0:
256,192,49920,1,0,0:0:0:0:
402,192,49980,1,0,0:0:0:0:
182,192,50039,1,0,0:0:0:0:
329,192,50099,1,0,0:0:0:0:
182,192,50158,1,0,0:0:0:0:
329,192,50218,1,0,0:0:0:0:
36,192,50277,1,0,0:0:0:70:soft-hitwhistle31.wav
109,192,50277,1,0,0:0:0:0:
256,192,50337,1,0,0:0:0:70:soft-hitwhistle31.wav
329,192,50337,1,0,0:0:0:0:
36,192,50396,1,0,0:0:0:70:soft-hitwhistle31.wav
109,192,50396,1,0,0:0:0:0:
256,192,50456,1,0,0:0:0:70:soft-hitwhistle31.wav
329,192,50456,1,0,0:0:0:0:
36,192,50515,128,0,51944:0:0:0:70:soft-hitwhistle31.wav
109,192,50515,1,0,0:0:0:70:soft-hitfinish31.wav
182,192,50515,1,0,0:0:0:0:
402,192,50515,1,0,0:0:0:0:
475,192,50515,1,0,0:0:0:0:
109,192,50753,1,0,0:0:0:70:soft-hitclap31.wav
329,192,50753,1,0,0:0:0:0:
475,192,50753,1,0,0:0:0:0:
109,192,50872,1,0,0:0:0:70:soft-hitwhistle31.wav
182,192,50872,1,0,0:0:0:70:soft-hitfinish31.wav
256,192,50872,1,0,0:0:0:0:
402,192,50872,1,0,0:0:0:0:
475,192,50872,1,0,0:0:0:0:
109,192,51111,1,0,0:0:0:70:soft-hitclap31.wav
256,192,51111,1,0,0:0:0:0:
475,192,51111,1,0,0:0:0:0:
182,192,51230,1,0,0:0:0:70:soft-hitwhistle31.wav
256,192,51230,1,0,0:0:0:70:soft-hitfinish31.wav
329,192,51230,1,0,0:0:0:0:
402,192,51230,1,0,0:0:0:0:
475,192,51230,1,0,0:0:0:0:
109,192,51468,1,0,0:0:0:70:soft-hitclap31.wav
329,192,51468,1,0,0:0:0:0:
256,192,51527,1,0,0:0:0:70:soft-hitclap31.wav
109,192,51587,1,0,0:0:0:70:soft-hitwhistle31.wav
182,192,51587,1,0,0:0:0:70:soft-hitfinish31.wav
329,192,51587,1,0,0:0:0:0:
402,192,51587,1,0,0:0:0:0:
475,192,51587,1,0,0:0:0:0:
182,192,51825,1,0,0:0:0:70:soft-hitclap31.wav
329,192,51825,1,0,0:0:0:0:
402,192,51825,1,0,0:0:0:0:
109,192,51944,128,0,52301:0:0:0:70:soft-hitwhistle31.wav
182,192,51944,1,0,0:0:0:70:soft-hitfinish34.wav
256,192,51944,1,0,0:0:0:0:
329,192,51944,1,0,0:0:0:0:
475,192,51944,1,0,0:0:0:0:
36,192,52182,1,0,0:0:0:70:soft-hitwhistle31.wav
182,192,52182,1,0,0:0:0:70:soft-hitfinish34.wav
256,192,52182,1,0,0:0:0:0:
402,192,52182,1,0,0:0:0:0:
475,192,52182,1,0,0:0:0:0:
329,192,52301,1,0,0:0:0:70:soft-hitwhistle31.wav
402,192,52301,1,0,0:0:0:0:
109,192,52361,1,0,0:0:0:70:soft-hitwhistle31.wav
182,192,52361,1,0,0:0:0:0:
36,192,52420,1,0,0:0:0:70:soft-hitwhistle31.wav
256,192,52420,1,0,0:0:0:70:soft-hitfinish31.wav
329,192,52420,1,0,0:0:0:0:
402,192,52420,1,0,0:0:0:0:
475,192,52420,128,0,53849:0:0:0:0:
36,192,52658,1,0,0:0:0:70:soft-hitclap31.wav
256,192,52658,1,0,0:0:0:0:
329,192,52658,1,0,0:0:0:0:
36,192,52777,1,0,0:0:0:70:soft-hitwhistle31.wav
109,192,52777,1,0,0:0:0:70:soft-hitfinish31.wav
182,192,52777,1,0,0:0:0:0:
256,192,52777,1,0,0:0:0:0:
402,192,52777,1,0,0:0:0:0:
109,192,53015,1,0,0:0:0:70:soft-hitclap31.wav
182,192,53015,1,0,0:0:0:0:
402,192,53015,1,0,0:0:0:0:
36,192,53134,1,0,0:0:0:70:soft-hitwhistle31.wav
109,192,53134,1,0,0:0:0:70:soft-hitfinish31.wav
256,192,53134,1,0,0:0:0:0:
329,192,53134,1,0,0:0:0:0:
402,192,53134,1,0,0:0:0:0:
182,192,53372,1,0,0:0:0:70:soft-hitclap31.wav
329,192,53372,1,0,0:0:0:0:
36,192,53432,1,0,0:0:0:70:soft-hitclap31.wav
109,192,53491,1,0,0:0:0:70:soft-hitwhistle31.wav
182,192,53491,1,0,0:0:0:70:soft-hitfinish31.wav
256,192,53491,1,0,0:0:0:0:
329,192,53491,1,0,0:0:0:0:
402,192,53491,1,0,0:0:0:0:
36,192,53730,1,0,0:0:0:70:soft-hitclap31.wav
109,192,53730,1,0,0:0:0:0:
256,192,53730,1,0,0:0:0:0:
36,192,53849,1,0,0:0:0:70:soft-hitfinish34.wav
182,192,53849,1,0,0:0:0:70:soft-hitwhistle31.wav
256,192,53849,1,0,0:0:0:0:
329,192,53849,1,0,0:0:0:0:
402,192,53849,128,0,54206:0:0:0:0:
36,192,54087,1,0,0:0:0:70:soft-hitfinish34.wav
109,192,54087,1,0,0:0:0:70:soft-hitwhistle31.wav
182,192,54087,1,0,0:0:0:0:
256,192,54087,1,0,0:0:0:0:
475,192,54087,1,0,0:0:0:0:
109,192,54206,1,0,0:0:0:70:soft-hitwhistle31.wav
182,192,54206,1,0,0:0:0:0:
329,192,54265,1,0,0:0:0:70:soft-hitwhistle31.wav
402,192,54265,1,0,0:0:0:0:
36,192,54325,1,0,0:0:0:70:soft-hitwhistle31.wav
109,192,54325,128,0,55158:0:0:0:70:soft-hitfinish31.wav
182,192,54325,1,0,0:0:0:0:
256,192,54325,1,0,0:0:0:0:
475,192,54325,1,0,0:0:0:0:
36,192,54563,1,0,0:0:0:70:soft-hitclap31.wav
329,192,54563,1,0,0:0:0:0:
475,192,54563,1,0,0:0:0:0:
36,192,54682,1,0,0:0:0:70:soft-hitwhistle31.wav
182,192,54682,1,0,0:0:0:70:soft-hitfinish31.wav
256,192,54682,1,0,0:0:0:0:
329,192,54682,1,0,0:0:0:0:
402,192,54682,1,0,0:0:0:0:
402,192,55039,1,0,0:0:0:70:soft-hitwhistle31.wav
475,192,55039,1,0,0:0:0:0:
256,192,55099,1,0,0:0:0:70:soft-hitwhistle31.wav
329,192,55099,1,0,0:0:0:0:
402,192,55158,1,0,0:0:0:70:soft-hitwhistle31.wav
475,192,55158,1,0,0:0:0:0:
182,192,55218,1,0,0:0:0:70:soft-hitwhistle31.wav
256,192,55218,1,0,0:0:0:0:
36,192,55277,128,0,55753:0:0:0:70:soft-hitwhistle31.wav
109,192,55277,1,0,0:0:0:70:soft-hitfinish31.wav
329,192,55277,1,0,0:0:0:0:
402,192,55277,1,0,0:0:0:0:
475,192,55277,1,0,0:0:0:0:
109,192,55515,1,0,0:0:0:70:soft-hitclap31.wav
256,192,55515,1,0,0:0:0:0:
402,192,55515,1,0,0:0:0:0:
109,192,55634,1,0,0:0:0:70:soft-hitwhistle31.wav
182,192,55634,1,0,0:0:0:70:soft-hitfinish31.wav
256,192,55634,1,0,0:0:0:0:
329,192,55634,1,0,0:0:0:0:
475,192,55634,1,0,0:0:0:0:
182,192,55753,1,0,0:0:0:0:
402,192,55753,128,0,56111:0:0:0:0:
109,192,55991,1,0,0:0:0:70:soft-hitwhistle31.wav
182,192,55991,1,0,0:0:0:0:
256,192,56051,1,0,0:0:0:70:soft-hitwhistle31.wav
329,192,56051,1,0,0:0:0:0:
36,192,56111,1,0,0:0:0:70:soft-hitwhistle31.wav
109,192,56111,1,0,0:0:0:0:
256,192,56170,1,0,0:0:0:70:soft-hitwhistle31.wav
329,192,56170,1,0,0:0:0:0:
36,192,56230,1,0,0:0:0:70:soft-hitwhistle31.wav
109,192,56230,1,0,0:0:0:70:soft-hitfinish31.wav
182,192,56230,1,0,0:0:0:70:soft-hitclap31.wav
402,192,56230,1,0,0:0:0:0:
475,192,56230,1,0,0:0:0:0:
36,192,56349,1,0,0:0:0:70:soft-hitclap31.wav
256,192,56349,1,0,0:0:0:0:
402,192,56349,1,0,0:0:0:0:
36,192,56468,1,0,0:0:0:70:soft-hitclap31.wav
182,192,56468,1,0,0:0:0:0:
329,192,56468,1,0,0:0:0:0:
36,192,56587,1,0,0:0:0:70:soft-hitclap31.wav
256,192,56587,1,0,0:0:0:0:
475,192,56587,1,0,0:0:0:0:
109,192,56706,1,0,0:0:0:70:soft-hitclap31.wav
329,192,56706,1,0,0:0:0:0:
402,192,56706,1,0,0:0:0:0:
36,192,56825,1,0,0:0:0:70:soft-hitclap31.wav
182,192,56825,1,0,0:0:0:0:
402,192,56825,1,0,0:0:0:0:
109,192,56944,1,0,0:0:0:70:soft-hitclap31.wav
256,192,56944,1,0,0:0:0:0:
402,192,56944,1,0,0:0:0:0:
36,192,57063,1,0,0:0:0:70:soft-hitclap31.wav
182,192,57063,1,0,0:0:0:0:
402,192,57063,1,0,0:0:0:0:
256,192,57122,1,0,0:0:0:70:soft-hitclap31.wav
36,192,57182,1,0,0:0:0:70:soft-hitwhistle31.wav
109,192,57182,1,0,0:0:0:70:soft-hitclap31.wav
182,192,57182,1,0,0:0:0:0:
329,192,57182,1,0,0:0:0:0:
475,192,57182,1,0,0:0:0:0:
36,192,57361,1,0,0:0:0:70:soft-hitwhistle31.wav
109,192,57361,1,0,0:0:0:70:soft-hitclap31.wav
182,192,57361,1,0,0:0:0:0:
329,192,57361,1,0,0:0:0:0:
475,192,57361,1,0,0:0:0:0:
36,192,57539,1,0,0:0:0:70:soft-hitwhistle31.wav
109,192,57539,1,0,0:0:0:70:soft-hitclap31.wav
182,192,57539,1,0,0:0:0:0:
329,192,57539,1,0,0:0:0:0:
475,192,57539,1,0,0:0:0:0:
256,192,57599,1,0,0:0:0:70:soft-hitwhistle31.wav
36,192,57658,1,0,0:0:0:70:soft-hitwhistle31.wav
109,192,57658,1,0,0:0:0:70:soft-hitclap31.wav
329,192,57658,1,0,0:0:0:0:
402,192,57658,1,0,0:0:0:0:
475,192,57658,1,0,0:0:0:0:
36,192,57837,1,0,0:0:0:70:soft-hitwhistle31.wav
109,192,57837,1,0,0:0:0:70:soft-hitclap31.wav
329,192,57837,1,0,0:0:0:0:
402,192,57837,1,0,0:0:0:0:
475,192,57837,1,0,0:0:0:0:
36,192,58015,1,0,0:0:0:70:soft-hitwhistle31.wav
109,192,58015,1,0,0:0:0:70:soft-hitclap31.wav
329,192,58015,1,0,0:0:0:0:
402,192,58015,1,0,0:0:0:0:
475,192,58015,1,0,0:0:0:0:
36,192,58134,1,0,0:0:0:70:soft-hitwhistle31.wav
256,192,58134,1,0,0:0:0:70:soft-hitfinish33.wav
329,192,58134,1,0,0:0:0:70:soft-hitclap31.wav
475,192,58134,1,0,0:0:0:0:
109,192,58194,1,0,0:0:0:70:soft-hitclap31.wav
182,192,58253,1,0,0:0:0:70:soft-hitwhistle31.wav
256,192,58253,1,0,0:0:0:70:soft-hitfinish33.wav
402,192,58253,1,0,0:0:0:70:soft-hitclap31.wav
109,192,58313,1,0,0:0:0:70:soft-hitclap31.wav
36,192,58372,1,0,0:0:0:70:soft-hitwhistle31.wav
329,192,58372,1,0,0:0:0:70:soft-hitfinish33.wav
475,192,58372,1,0,0:0:0:70:soft-hitclap31.wav
256,192,58432,1,0,0:0:0:70:soft-hitclap31.wav
36,192,58491,1,0,0:0:0:70:soft-hitwhistle31.wav
182,192,58491,1,0,0:0:0:70:soft-hitfinish33.wav
402,192,58491,1,0,0:0:0:70:soft-hitclap31.wav
256,192,58551,1,0,0:0:0:70:soft-hitclap31.wav
109,192,58611,1,0,0:0:0:70:soft-hitwhistle31.wav
329,192,58611,1,0,0:0:0:70:soft-hitfinish33.wav
475,192,58611,1,0,0:0:0:70:soft-hitclap31.wav
402,192,58670,1,0,0:0:0:70:soft-hitclap31.wav
36,192,58730,1,0,0:0:0:70:soft-hitwhistle31.wav
109,192,58730,1,0,0:0:0:70:soft-hitfinish33.wav
256,192,58730,1,0,0:0:0:70:soft-hitclap31.wav
329,192,58789,1,0,0:0:0:70:soft-hitclap31.wav
36,192,58849,128,0,59087:0:0:0:70:soft-hitwhistle31.wav
182,192,58849,1,0,0:0:0:70:soft-hitclap31.wav
402,192,58849,1,0,0:0:0:0:
475,192,58849,128,0,59027:0:0:0:0:
109,192,58928,128,0,59087:0:0:0:0:
256,192,58928,1,0,0:0:0:0:
182,192,59007,128,0,59087:0:0:0:0:
329,192,59007,1,0,0:0:0:0:
256,192,59087,1,0,0:0:0:70:soft-hitclap31.wav
402,192,59087,1,0,0:0:0:70:soft-hitfinish33.wav
475,192,59087,1,0,0:0:0:70:soft-hitwhistle31.wav
182,192,59146,1,0,0:0:0:70:soft-hitwhistle31.wav
36,192,59206,1,0,0:0:0:70:soft-hitclap31.wav
109,192,59206,1,0,0:0:0:70:soft-hitfinish33.wav
402,192,59206,1,0,0:0:0:70:soft-hitwhistle31.wav
256,192,59265,1,0,0:0:0:70:soft-hitwhistle31.wav
182,192,59325,1,0,0:0:0:70:soft-hitclap31.wav
329,192,59325,1,0,0:0:0:70:soft-hitfinish33.wav
475,192,59325,1,0,0:0:0:70:soft-hitwhistle31.wav
109,192,59384,1,0,0:0:0:70:soft-hitwhistle31.wav
36,192,59444,1,0,0:0:0:70:soft-hitclap31.wav
256,192,59444,1,0,0:0:0:70:soft-hitfinish33.wav
475,192,59444,1,0,0:0:0:70:soft-hitwhistle31.wav
402,192,59503,1,0,0:0:0:70:soft-hitwhistle31.wav
109,192,59563,1,0,0:0:0:70:soft-hitclap31.wav
182,192,59563,1,0,0:0:0:70:soft-hitfinish33.wav
329,192,59563,1,0,0:0:0:70:soft-hitwhistle31.wav
256,192,59622,1,0,0:0:0:70:soft-hitwhistle31.wav
36,192,59682,1,0,0:0:0:70:soft-hitclap31.wav
182,192,59682,1,0,0:0:0:70:soft-hitfinish33.wav
475,192,59682,1,0,0:0:0:70:soft-hitwhistle31.wav
329,192,59741,1,0,0:0:0:70:soft-hitwhistle31.wav
109,192,59801,128,0,60039:0:0:0:70:soft-hitclap31.wav
256,192,59801,128,0,59880:0:0:0:70:soft-hitwhistle31.wav
402,192,59801,1,0,0:0:0:0:
475,192,59801,1,0,0:0:0:0:
182,192,59880,128,0,60039:0:0:0:0:
329,192,59880,128,0,59960:0:0:0:0:
256,192,59960,128,0,60039:0:0:0:0:
402,192,59960,128,0,60039:0:0:0:0:
36,192,60039,1,0,0:0:0:70:soft-hitwhistle31.wav
329,192,60039,1,0,0:0:0:70:soft-hitfinish31.wav
475,192,60039,1,0,0:0:0:70:soft-hitclap31.wav
109,192,60099,1,0,0:0:0:70:soft-hitwhistle31.wav
182,192,60099,1,0,0:0:0:0:
329,192,60158,1,0,0:0:0:70:soft-hitwhistle31.wav
402,192,60158,1,0,0:0:0:70:soft-hitclap31.wav
109,192,60218,1,0,0:0:0:70:soft-hitwhistle31.wav
182,192,60218,1,0,0:0:0:0:
36,192,60277,1,0,0:0:0:70:soft-hitwhistle31.wav
329,192,60277,128,0,60337:0:0:0:70:soft-hitclap31.wav
475,192,60277,1,0,0:0:0:0:
256,192,60337,128,0,60396:0:0:0:0:
36,192,60396,1,0,0:0:0:70:soft-hitclap31.wav
109,192,60396,128,0,60456:0:0:0:0:
182,192,60456,128,0,60515:0:0:0:0:
256,192,60515,1,0,0:0:0:70:soft-hitwhistle31.wav
329,192,60515,1,0,0:0:0:70:soft-hitfinish31.wav
475,192,60515,1,0,0:0:0:70:soft-hitclap31.wav
109,192,60575,1,0,0:0:0:70:soft-hitwhistle31.wav
182,192,60575,1,0,0:0:0:0:
329,192,60634,1,0,0:0:0:70:soft-hitwhistle31.wav
475,192,60634,1,0,0:0:0:70:soft-hitclap31.wav
109,192,60694,1,0,0:0:0:70:soft-hitwhistle31.wav
182,192,60694,1,0,0:0:0:0:
36,192,60753,1,0,0:0:0:70:soft-hitwhistle31.wav
256,192,60753,1,0,0:0:0:0:
402,192,60753,128,0,60813:0:0:0:0:
329,192,60813,128,0,60872:0:0:0:0:
36,192,60872,1,0,0:0:0:70:soft-hitwhistle31.wav
109,192,60872,1,0,0:0:0:70:soft-hitclap31.wav
256,192,60872,128,0,60932:0:0:0:0:
182,192,60932,128,0,60991:0:0:0:0:
36,192,60991,1,0,0:0:0:70:soft-hitwhistle31.wav
109,192,60991,1,0,0:0:0:70:soft-hitfinish32.wav
329,192,60991,1,0,0:0:0:70:soft-hitclap31.wav
402,192,60991,1,0,0:0:0:0:
475,192,60991,1,0,0:0:0:0:
182,192,61051,1,0,0:0:0:0:
36,192,61111,1,0,0:0:0:70:soft-hitfinish32.wav
256,192,61111,1,0,0:0:0:0:
402,192,61111,1,0,0:0:0:0:
109,192,61170,1,0,0:0:0:0:
182,192,61230,1,0,0:0:0:70:soft-hitwhistle31.wav
256,192,61230,1,0,0:0:0:70:soft-hitfinish32.wav
475,192,61230,1,0,0:0:0:70:soft-hitclap31.wav
402,192,61289,1,0,0:0:0:0:
109,192,61349,1,0,0:0:0:70:soft-hitfinish32.wav
182,192,61349,1,0,0:0:0:0:
329,192,61349,1,0,0:0:0:0:
36,192,61408,1,0,0:0:0:0:
109,192,61468,1,0,0:0:0:70:soft-hitwhistle31.wav
256,192,61468,1,0,0:0:0:70:soft-hitfinish34.wav
402,192,61468,1,0,0:0:0:70:soft-hitclap31.wav
475,192,61468,1,0,0:0:0:0:
109,192,61646,1,0,0:0:0:70:soft-hitclap31.wav
256,192,61646,1,0,0:0:0:0:
402,192,61646,1,0,0:0:0:0:
36,192,61706,1,0,0:0:0:70:soft-hitwhistle31.wav
182,192,61706,1,0,0:0:0:70:soft-hitfinish34.wav
329,192,61706,1,0,0:0:0:70:soft-hitclap31.wav
36,192,61825,1,0,0:0:0:70:soft-hitclap31.wav
109,192,61825,1,0,0:0:0:0:
329,192,61825,1,0,0:0:0:0:
36,192,61944,1,0,0:0:0:70:soft-hitwhistle31.wav
256,192,61944,1,0,0:0:0:70:soft-hitfinish34.wav
402,192,61944,1,0,0:0:0:70:soft-hitclap31.wav
475,192,61944,1,0,0:0:0:0:
109,192,62063,1,0,0:0:0:70:soft-hitclap31.wav
182,192,62063,1,0,0:0:0:0:
402,192,62063,1,0,0:0:0:0:
256,192,62122,1,0,0:0:0:70:soft-hitclap31.wav
475,192,62122,1,0,0:0:0:0:
36,192,62182,1,0,0:0:0:70:soft-hitwhistle31.wav
182,192,62182,1,0,0:0:0:70:soft-hitfinish34.wav
329,192,62182,1,0,0:0:0:70:soft-hitclap31.wav
475,192,62241,1,0,0:0:0:0:
109,192,62301,1,0,0:0:0:70:soft-hitwhistle31.wav
256,192,62301,1,0,0:0:0:70:soft-hitclap31.wav
402,192,62301,1,0,0:0:0:0:
182,192,62361,1,0,0:0:0:0:
36,192,62420,1,0,0:0:0:70:soft-hitwhistle31.wav
109,192,62420,1,0,0:0:0:70:soft-hitfinish32.wav
256,192,62420,1,0,0:0:0:70:soft-hitclap31.wav
329,192,62420,1,0,0:0:0:0:
109,192,62539,1,0,0:0:0:70:soft-hitwhistle31.wav
182,192,62539,1,0,0:0:0:70:soft-hitfinish32.wav
329,192,62539,1,0,0:0:0:70:soft-hitclap31.wav
402,192,62539,1,0,0:0:0:0:
36,192,62658,1,0,0:0:0:70:soft-hitwhistle31.wav
182,192,62658,128,0,63789:0:0:0:70:soft-hitfinish31.wav
256,192,62658,1,0,0:0:0:70:soft-hitclap31.wav
402,192,62658,128,0,63789:0:0:0:0:
475,192,62658,128,0,63789:0:0:0:0:
36,192,63372,128,0,63789:0:0:0:0:
36,192,63849,1,0,0:0:0:70:soft-hitclap31.wav
109,192,63849,1,0,0:0:0:70:soft-hitfinish31.wav
182,192,63849,1,0,0:0:0:70:soft-hitwhistle31.wav
402,192,63849,1,0,0:0:0:0:
475,192,63849,1,0,0:0:0:0:
36,192,64027,1,0,0:0:0:70:soft-hitclap31.wav
109,192,64027,1,0,0:0:0:70:soft-hitfinish31.wav
256,192,64027,1,0,0:0:0:70:soft-hitwhistle31.wav
475,192,64027,1,0,0:0:0:0:
109,192,64206,1,0,0:0:0:70:soft-hitwhistle31.wav
182,192,64206,1,0,0:0:0:0:
329,192,64206,1,0,0:0:0:0:
402,192,64206,1,0,0:0:0:0:
256,192,64265,1,0,0:0:0:70:soft-hitwhistle31.wav
36,192,64325,1,0,0:0:0:70:soft-hitclap31.wav
182,192,64325,1,0,0:0:0:70:soft-hitfinish31.wav
329,192,64325,1,0,0:0:0:70:soft-hitwhistle31.wav
402,192,64325,1,0,0:0:0:0:
475,192,64325,1,0,0:0:0:0:
109,192,64503,1,0,0:0:0:70:soft-hitclap31.wav
256,192,64503,1,0,0:0:0:70:soft-hitfinish31.wav
329,192,64503,1,0,0:0:0:70:soft-hitwhistle31.wav
402,192,64503,1,0,0:0:0:0:
36,192,64682,1,0,0:0:0:70:soft-hitwhistle31.wav
182,192,64682,1,0,0:0:0:0:
256,192,64682,1,0,0:0:0:0:
329,192,64682,1,0,0:0:0:0:
475,192,64741,1,0,0:0:0:70:soft-hitwhistle31.wav
36,192,64801,1,0,0:0:0:70:soft-hitwhistle31.wav
109,192,64801,1,0,0:0:0:70:soft-hitfinish31.wav
256,192,64801,1,0,0:0:0:70:soft-hitclap31.wav
329,192,64801,1,0,0:0:0:0:
402,192,64801,1,0,0:0:0:0:
109,192,64980,1,0,0:0:0:70:soft-hitwhistle31.wav
182,192,64980,1,0,0:0:0:70:soft-hitfinish31.wav
329,192,64980,1,0,0:0:0:70:soft-hitclap31.wav
475,192,64980,1,0,0:0:0:0:
182,192,65158,1,0,0:0:0:70:soft-hitwhistle31.wav
256,192,65158,1,0,0:0:0:0:
402,192,65158,1,0,0:0:0:0:
475,192,65158,1,0,0:0:0:0:
109,192,65218,1,0,0:0:0:70:soft-hitwhistle31.wav
36,192,65277,1,0,0:0:0:70:soft-hitwhistle31.wav
256,192,65277,1,0,0:0:0:70:soft-hitfinish31.wav
329,192,65277,1,0,0:0:0:70:soft-hitclap31.wav
402,192,65277,1,0,0:0:0:0:
475,192,65277,1,0,0:0:0:0:
36,192,65456,1,0,0:0:0:70:soft-hitwhistle31.wav
182,192,65456,1,0,0:0:0:70:soft-hitfinish31.wav
329,192,65456,1,0,0:0:0:70:soft-hitclap31.wav
402,192,65456,1,0,0:0:0:0:
36,192,65634,1,0,0:0:0:70:soft-hitwhistle31.wav
109,192,65634,1,0,0:0:0:0:
256,192,65634,1,0,0:0:0:0:
475,192,65634,1,0,0:0:0:0:
329,192,65694,1,0,0:0:0:70:soft-hitwhistle31.wav
36,192,65753,1,0,0:0:0:70:soft-hitwhistle31.wav
182,192,65753,1,0,0:0:0:70:soft-hitfinish34.wav
256,192,65753,1,0,0:0:0:0:
402,192,65753,1,0,0:0:0:0:
475,192,65753,1,0,0:0:0:0:
109,192,65813,1,0,0:0:0:0:
329,192,65872,1,0,0:0:0:70:soft-hitclap31.wav
475,192,65872,1,0,0:0:0:0:
256,192,65932,1,0,0:0:0:70:soft-hitclap31.wav
36,192,65991,1,0,0:0:0:70:soft-hitwhistle31.wav
109,192,65991,1,0,0:0:0:70:soft-hitfinish34.wav
402,192,65991,1,0,0:0:0:0:
329,192,66051,1,0,0:0:0:0:
36,192,66111,1,0,0:0:0:70:soft-hitclap31.wav
182,192,66111,1,0,0:0:0:0:
256,192,66170,1,0,0:0:0:0:
109,192,66230,1,0,0:0:0:70:soft-hitwhistle31.wav
402,192,66230,1,0,0:0:0:70:soft-hitfinish34.wav
475,192,66230,1,0,0:0:0:0:
329,192,66289,1,0,0:0:0:70:soft-hitclap31.wav
36,192,66349,1,0,0:0:0:70:soft-hitclap31.wav
256,192,66349,1,0,0:0:0:0:
109,192,66408,1,0,0:0:0:0:
329,192,66468,1,0,0:0:0:70:soft-hitwhistle31.wav
402,192,66468,1,0,0:0:0:70:soft-hitfinish34.wav
475,192,66468,1,0,0:0:0:0:
182,192,66527,1,0,0:0:0:0:
256,192,66587,1,0,0:0:0:70:soft-hitclap31.wav
475,192,66587,1,0,0:0:0:0:
329,192,66646,1,0,0:0:0:70:soft-hitclap31.wav
36,192,66706,1,0,0:0:0:70:soft-hitwhistle31.wav
109,192,66706,1,0,0:0:0:70:soft-hitfinish34.wav
402,192,66706,1,0,0:0:0:0:
329,192,66765,1,0,0:0:0:0:
256,192,66825,1,0,0:0:0:70:soft-hitclap31.wav
475,192,66825,1,0,0:0:0:0:
182,192,66884,1,0,0:0:0:70:soft-hitclap31.wav
36,192,66944,1,0,0:0:0:70:soft-hitwhistle31.wav
329,192,66944,1,0,0:0:0:70:soft-hitfinish34.wav
402,192,66944,1,0,0:0:0:0:
256,192,67003,1,0,0:0:0:0:
109,192,67063,1,0,0:0:0:70:soft-hitclap31.wav
475,192,67063,1,0,0:0:0:0:
402,192,67122,1,0,0:0:0:70:soft-hitclap31.wav
36,192,67182,1,0,0:0:0:70:soft-hitwhistle31.wav
109,192,67182,1,0,0:0:0:70:soft-hitfinish34.wav
182,192,67182,1,0,0:0:0:0:
329,192,67241,1,0,0:0:0:0:
256,192,67301,1,0,0:0:0:70:soft-hitclap31.wav
475,192,67301,1,0,0:0:0:0:
182,192,67361,1,0,0:0:0:70:soft-hitclap31.wav
36,192,67420,1,0,0:0:0:70:soft-hitwhistle31.wav
256,192,67420,1,0,0:0:0:70:soft-hitfinish34.wav
402,192,67420,1,0,0:0:0:0:
109,192,67480,1,0,0:0:0:0:
329,192,67539,1,0,0:0:0:70:soft-hitclap31.wav
475,192,67539,1,0,0:0:0:0:
256,192,67599,1,0,0:0:0:70:soft-hitclap31.wav
36,192,67658,1,0,0:0:0:70:soft-hitwhistle31.wav
182,192,67658,1,0,0:0:0:70:soft-hitfinish34.wav
402,192,67658,1,0,0:0:0:0:
329,192,67718,1,0,0:0:0:0:
109,192,67777,1,0,0:0:0:70:soft-hitclap31.wav
256,192,67837,1,0,0:0:0:70:soft-hitclap31.wav
402,192,67837,1,0,0:0:0:0:
36,192,67896,1,0,0:0:0:70:soft-hitwhistle31.wav
182,192,67896,1,0,0:0:0:70:soft-hitfinish34.wav
475,192,67896,1,0,0:0:0:0:
329,192,67956,1,0,0:0:0:0:
402,192,68015,1,0,0:0:0:70:soft-hitclap31.wav
36,192,68075,1,0,0:0:0:70:soft-hitclap31.wav
256,192,68075,1,0,0:0:0:0:
182,192,68134,1,0,0:0:0:70:soft-hitwhistle31.wav
329,192,68134,1,0,0:0:0:70:soft-hitfinish34.wav
475,192,68134,1,0,0:0:0:0:
109,192,68194,1,0,0:0:0:0:
36,192,68253,1,0,0:0:0:70:soft-hitclap31.wav
402,192,68313,1,0,0:0:0:70:soft-hitclap31.wav
475,192,68313,1,0,0:0:0:0:
36,192,68372,1,0,0:0:0:70:soft-hitwhistle31.wav
182,192,68372,1,0,0:0:0:70:soft-hitfinish34.wav
329,192,68372,1,0,0:0:0:0:
256,192,68432,1,0,0:0:0:0:
402,192,68491,1,0,0:0:0:70:soft-hitclap31.wav
36,192,68551,1,0,0:0:0:70:soft-hitclap31.wav
109,192,68551,1,0,0:0:0:0:
256,192,68611,1,0,0:0:0:70:soft-hitwhistle31.wav
329,192,68611,1,0,0:0:0:70:soft-hitfinish34.wav
475,192,68611,1,0,0:0:0:0:
109,192,68670,1,0,0:0:0:0:
182,192,68730,1,0,0:0:0:70:soft-hitclap31.wav
329,192,68730,1,0,0:0:0:0:
402,192,68789,1,0,0:0:0:70:soft-hitclap31.wav
475,192,68789,1,0,0:0:0:0:
36,192,68849,1,0,0:0:0:70:soft-hitwhistle31.wav
109,192,68849,1,0,0:0:0:70:soft-hitfinish34.wav
256,192,68849,1,0,0:0:0:0:
402,192,68908,1,0,0:0:0:0:
182,192,68968,1,0,0:0:0:70:soft-hitclap31.wav
329,192,68968,1,0,0:0:0:0:
402,192,69027,1,0,0:0:0:70:soft-hitclap31.wav
475,192,69027,1,0,0:0:0:0:
36,192,69087,1,0,0:0:0:70:soft-hitwhistle31.wav
109,192,69087,1,0,0:0:0:70:soft-hitfinish32.wav
256,192,69087,1,0,0:0:0:70:soft-hitclap31.wav
329,192,69146,1,0,0:0:0:70:soft-hitwhistle31.wav
475,192,69146,1,0,0:0:0:0:
109,192,69206,1,0,0:0:0:70:soft-hitwhistle31.wav
182,192,69206,1,0,0:0:0:70:soft-hitclap31.wav
329,192,69265,1,0,0:0:0:70:soft-hitwhistle31.wav
475,192,69265,1,0,0:0:0:0:
36,192,69325,1,0,0:0:0:70:soft-hitwhistle31.wav
109,192,69325,1,0,0:0:0:70:soft-hitfinish32.wav
182,192,69325,1,0,0:0:0:70:soft-hitclap31.wav
256,192,69384,1,0,0:0:0:70:soft-hitwhistle31.wav
402,192,69384,1,0,0:0:0:0:
109,192,69444,1,0,0:0:0:70:soft-hitwhistle31.wav
182,192,69444,1,0,0:0:0:70:soft-hitclap31.wav
256,192,69503,1,0,0:0:0:70:soft-hitwhistle31.wav
402,192,69503,1,0,0:0:0:0:
36,192,69563,128,0,71468:0:0:0:70:soft-hitwhistle31.wav
109,192,69563,1,0,0:0:0:70:soft-hitfinish31.wav
182,192,69563,128,0,71468:0:0:0:70:soft-hitclap31.wav
329,192,69563,1,0,0:0:0:0:
475,192,69563,1,0,0:0:0:0:
475,192,71468,128,0,72420:0:0:0:0:
36,192,72420,1,0,0:0:0:70:soft-hitwhistle31.wav
109,192,72420,1,0,0:0:0:70:soft-hitfinish32.wav
256,192,72420,1,0,0:0:0:0:
329,192,72420,1,0,0:0:0:0:
402,192,72420,1,0,0:0:0:0:
36,192,72539,1,0,0:0:0:70:soft-hitwhistle31.wav
109,192,72539,1,0,0:0:0:70:soft-hitfinish32.wav
256,192,72539,1,0,0:0:0:0:
329,192,72539,1,0,0:0:0:0:
402,192,72539,1,0,0:0:0:0:
36,192,72658,1,0,0:0:0:70:soft-hitwhistle31.wav
109,192,72658,1,0,0:0:0:70:soft-hitfinish32.wav
256,192,72658,1,0,0:0:0:0:
329,192,72658,1,0,0:0:0:0:
402,192,72658,1,0,0:0:0:0:
109,192,72896,128,0,73015:0:0:0:0:
329,192,72896,1,0,0:0:0:0:
256,192,73015,1,0,0:0:0:0:
402,192,73075,1,0,0:0:0:0:
36,192,73134,1,0,0:0:0:70:soft-hitclap31.wav
109,192,73134,1,0,0:0:0:70:soft-hitclap35.wav
475,192,73134,1,0,0:0:0:0:
182,192,73194,1,0,0:0:0:0:
256,192,73253,1,0,0:0:0:0:
329,192,73313,1,0,0:0:0:0:
36,192,73372,1,0,0:0:0:70:soft-hitwhistle31.wav
182,192,73372,1,0,0:0:0:70:soft-hitfinish31.wav
256,192,73372,1,0,0:0:0:0:
402,192,73372,1,0,0:0:0:0:
475,192,73372,1,0,0:0:0:0:
256,192,73491,128,0,73611:0:0:0:0:
329,192,73491,1,0,0:0:0:0:
475,192,73491,128,0,73611:0:0:0:0:
36,192,73611,1,0,0:0:0:70:soft-hitclap31.wav
109,192,73611,1,0,0:0:0:0:
182,192,73730,1,0,0:0:0:70:soft-hitwhistle31.wav
256,192,73730,1,0,0:0:0:0:
402,192,73730,1,0,0:0:0:0:
475,192,73730,1,0,0:0:0:0:
182,192,73849,128,0,73968:0:0:0:0:
329,192,73849,1,0,0:0:0:0:
402,192,73849,128,0,73968:0:0:0:0:
109,192,74087,1,0,0:0:0:70:soft-hitwhistle31.wav
256,192,74087,1,0,0:0:0:0:
329,192,74087,1,0,0:0:0:0:
402,192,74087,1,0,0:0:0:0:
109,192,74206,128,0,74325:0:0:0:0:
329,192,74206,128,0,74325:0:0:0:0:
475,192,74206,1,0,0:0:0:0:
182,192,74325,1,0,0:0:0:70:soft-hitclap31.wav
402,192,74325,1,0,0:0:0:0:
36,192,74444,128,0,74682:0:0:0:70:soft-hitwhistle31.wav
256,192,74444,128,0,74682:0:0:0:0:
329,192,74444,1,0,0:0:0:0:
475,192,74444,1,0,0:0:0:0:
182,192,74682,128,0,74801:0:0:0:70:soft-hitclap31.wav
402,192,74682,1,0,0:0:0:0:
36,192,74801,128,0,74920:0:0:0:70:soft-hitwhistle31.wav
109,192,74801,1,0,0:0:0:0:
329,192,74801,1,0,0:0:0:0:
402,192,74801,1,0,0:0:0:0:
182,192,74920,128,0,75039:0:0:0:0:
475,192,74920,1,0,0:0:0:0:
36,192,75039,1,0,0:0:0:70:soft-hitwhistle31.wav
109,192,75039,1,0,0:0:0:0:
256,192,75039,1,0,0:0:0:0:
475,192,75039,1,0,0:0:0:0:
182,192,75099,1,0,0:0:0:0:
329,192,75158,1,0,0:0:0:0:
402,192,75158,1,0,0:0:0:0:
109,192,75218,1,0,0:0:0:0:
256,192,75218,1,0,0:0:0:0:
36,192,75277,1,0,0:0:0:70:soft-hitwhistle31.wav
182,192,75277,1,0,0:0:0:0:
402,192,75277,1,0,0:0:0:0:
475,192,75277,1,0,0:0:0:0:
182,192,75396,128,0,75515:0:0:0:0:
329,192,75396,1,0,0:0:0:0:
475,192,75396,128,0,75515:0:0:0:0:
36,192,75515,1,0,0:0:0:70:soft-hitclap31.wav
256,192,75515,1,0,0:0:0:0:
109,192,75634,1,0,0:0:0:70:soft-hitwhistle31.wav
182,192,75634,1,0,0:0:0:0:
329,192,75634,1,0,0:0:0:0:
402,192,75634,1,0,0:0:0:0:
109,192,75753,128,0,75872:0:0:0:0:
256,192,75753,1,0,0:0:0:0:
402,192,75753,128,0,75872:0:0:0:0:
36,192,75991,1,0,0:0:0:70:soft-hitwhistle31.wav
109,192,75991,1,0,0:0:0:0:
329,192,75991,1,0,0:0:0:0:
402,192,75991,1,0,0:0:0:0:
36,192,76111,128,0,76230:0:0:0:0:
256,192,76111,1,0,0:0:0:0:
329,192,76111,128,0,76230:0:0:0:0:
182,192,76230,1,0,0:0:0:70:soft-hitclap31.wav
402,192,76230,1,0,0:0:0:0:
36,192,76349,1,0,0:0:0:70:soft-hitwhistle31.wav
109,192,76349,1,0,0:0:0:0:
256,192,76349,128,0,76587:0:0:0:0:
475,192,76349,128,0,76587:0:0:0:0:
182,192,76587,128,0,76706:0:0:0:70:soft-hitclap31.wav
329,192,76587,1,0,0:0:0:0:
36,192,76706,128,0,76825:0:0:0:70:soft-hitwhistle31.wav
329,192,76706,1,0,0:0:0:0:
475,192,76706,1,0,0:0:0:0:
109,192,76825,1,0,0:0:0:0:
256,192,76825,128,0,76944:0:0:0:0:
36,192,76944,128,0,77063:0:0:0:70:soft-hitwhistle31.wav
109,192,76944,128,0,77063:0:0:0:0:
402,192,76944,1,0,0:0:0:0:
475,192,76944,1,0,0:0:0:0:
329,192,77063,1,0,0:0:0:0:
402,192,77063,1,0,0:0:0:0:
109,192,77122,1,0,0:0:0:0:
182,192,77122,1,0,0:0:0:0:
36,192,77182,1,0,0:0:0:70:soft-hitwhistle31.wav
256,192,77182,1,0,0:0:0:70:soft-hitfinish31.wav
329,192,77182,128,0,77420:0:0:0:0:
475,192,77182,1,0,0:0:0:0:
182,192,77301,1,0,0:0:0:0:
256,192,77301,128,0,77420:0:0:0:0:
475,192,77301,128,0,77420:0:0:0:0:
36,192,77420,1,0,0:0:0:70:soft-hitclap31.wav
109,192,77420,1,0,0:0:0:0:
182,192,77539,1,0,0:0:0:70:soft-hitwhistle31.wav
256,192,77539,128,0,77777:0:0:0:0:
402,192,77539,1,0,0:0:0:0:
475,192,77539,1,0,0:0:0:0:
109,192,77658,1,0,0:0:0:0:
182,192,77658,128,0,77777:0:0:0:0:
402,192,77658,128,0,77777:0:0:0:0:
109,192,77896,1,0,0:0:0:70:soft-hitwhistle31.wav
182,192,77896,128,0,78134:0:0:0:0:
329,192,77896,1,0,0:0:0:0:
475,192,77896,1,0,0:0:0:0:
36,192,78015,1,0,0:0:0:0:
109,192,78015,128,0,78134:0:0:0:0:
329,192,78015,128,0,78134:0:0:0:0:
475,192,78134,1,0,0:0:0:70:soft-hitclap31.wav
109,192,78194,1,0,0:0:0:0:
182,192,78253,1,0,0:0:0:70:soft-hitwhistle31.wav
329,192,78253,128,0,78491:0:0:0:0:
402,192,78253,1,0,0:0:0:0:
475,192,78253,128,0,78491:0:0:0:0:
36,192,78313,1,0,0:0:0:0:
182,192,78372,1,0,0:0:0:0:
109,192,78432,1,0,0:0:0:0:
256,192,78491,128,0,78611:0:0:0:70:soft-hitclap31.wav
402,192,78491,1,0,0:0:0:0:
36,192,78611,1,0,0:0:0:70:soft-hitwhistle31.wav
109,192,78611,128,0,78730:0:0:0:0:
402,192,78611,1,0,0:0:0:0:
475,192,78611,1,0,0:0:0:0:
182,192,78730,1,0,0:0:0:0:
329,192,78730,128,0,78849:0:0:0:0:
36,192,78849,1,0,0:0:0:70:soft-hitwhistle31.wav
182,192,78849,1,0,0:0:0:0:
402,192,78849,1,0,0:0:0:0:
475,192,78849,1,0,0:0:0:0:
256,192,78908,1,0,0:0:0:0:
109,192,78968,1,0,0:0:0:0:
329,192,78968,1,0,0:0:0:0:
402,192,79027,1,0,0:0:0:0:
36,192,79087,1,0,0:0:0:70:soft-hitwhistle31.wav
256,192,79087,1,0,0:0:0:0:
475,192,79087,1,0,0:0:0:0:
182,192,79146,1,0,0:0:0:0:
402,192,79146,1,0,0:0:0:0:
36,192,79206,1,0,0:0:0:0:
329,192,79206,1,0,0:0:0:0:
109,192,79265,1,0,0:0:0:0:
256,192,79265,1,0,0:0:0:0:
182,192,79325,1,0,0:0:0:70:soft-hitclap31.wav
475,192,79325,1,0,0:0:0:0:
402,192,79384,1,0,0:0:0:0:
36,192,79444,1,0,0:0:0:70:soft-hitwhistle31.wav
256,192,79444,1,0,0:0:0:0:
329,192,79444,1,0,0:0:0:0:
402,192,79503,1,0,0:0:0:0:
182,192,79563,1,0,0:0:0:0:
475,192,79563,1,0,0:0:0:0:
36,192,79622,1,0,0:0:0:0:
256,192,79622,1,0,0:0:0:0:
109,192,79682,1,0,0:0:0:70:soft-hitclap31.wav
329,192,79682,1,0,0:0:0:0:
182,192,79741,1,0,0:0:0:0:
402,192,79741,1,0,0:0:0:0:
36,192,79801,1,0,0:0:0:70:soft-hitwhistle31.wav
109,192,79801,1,0,0:0:0:0:
475,192,79801,1,0,0:0:0:0:
329,192,79861,1,0,0:0:0:0:
256,192,79920,1,0,0:0:0:0:
182,192,79980,1,0,0:0:0:0:
109,192,80039,1,0,0:0:0:70:soft-hitclap31.wav
256,192,80039,1,0,0:0:0:0:
402,192,80039,1,0,0:0:0:0:
36,192,80158,1,0,0:0:0:70:soft-hitwhistle31.wav
182,192,80158,128,0,80396:0:0:0:0:
329,192,80158,128,0,80396:0:0:0:0:
475,192,80158,1,0,0:0:0:0:
109,192,80396,128,0,80515:0:0:0:70:soft-hitclap31.wav
402,192,80396,1,0,0:0:0:0:
36,192,80515,1,0,0:0:0:70:soft-hitwhistle31.wav
182,192,80515,1,0,0:0:0:0:
256,192,80515,1,0,0:0:0:0:
402,192,80515,128,0,80634:0:0:0:0:
109,192,80634,1,0,0:0:0:70:soft-hitclap31.wav
182,192,80634,1,0,0:0:0:0:
329,192,80694,1,0,0:0:0:70:soft-hitclap31.wav
402,192,80694,1,0,0:0:0:0:
36,192,80753,1,0,0:0:0:70:soft-hitwhistle31.wav
109,192,80753,1,0,0:0:0:70:soft-hitclap31.wav
256,192,80753,1,0,0:0:0:0:
475,192,80753,1,0,0:0:0:0:
329,192,80813,1,0,0:0:0:70:soft-hitclap31.wav
182,192,80872,1,0,0:0:0:70:soft-hitclap31.wav
402,192,80872,1,0,0:0:0:0:
109,192,80932,1,0,0:0:0:70:soft-hitclap31.wav
256,192,80932,1,0,0:0:0:0:
36,192,80991,1,0,0:0:0:70:soft-hitfinish31.wav
182,192,80991,1,0,0:0:0:70:soft-hitwhistle31.wav
329,192,80991,1,0,0:0:0:0:
402,192,80991,1,0,0:0:0:0:
475,192,80991,128,0,82658:0:0:0:0:
182,192,81111,128,0,81230:0:0:0:0:
329,192,81111,128,0,81230:0:0:0:0:
36,192,81230,1,0,0:0:0:70:soft-hitwhistle31.wav
256,192,81230,1,0,0:0:0:0:
402,192,81230,1,0,0:0:0:0:
109,192,81349,1,0,0:0:0:0:
329,192,81349,1,0,0:0:0:0:
109,192,81468,128,0,81587:0:0:0:70:soft-hitwhistle31.wav
182,192,81468,1,0,0:0:0:0:
329,192,81468,128,0,81587:0:0:0:0:
402,192,81587,1,0,0:0:0:0:
109,192,81706,1,0,0:0:0:70:soft-hitwhistle31.wav
256,192,81706,1,0,0:0:0:0:
109,192,81825,128,0,81944:0:0:0:0:
256,192,81825,128,0,81944:0:0:0:0:
182,192,81944,1,0,0:0:0:70:soft-hitwhistle31.wav
329,192,81944,1,0,0:0:0:0:
402,192,81944,1,0,0:0:0:0:
36,192,82063,128,0,82301:0:0:0:0:
256,192,82063,1,0,0:0:0:0:
109,192,82182,1,0,0:0:0:70:soft-hitwhistle31.wav
256,192,82182,1,0,0:0:0:0:
402,192,82182,1,0,0:0:0:0:
182,192,82301,128,0,82420:0:0:0:0:
329,192,82301,1,0,0:0:0:0:
36,192,82420,1,0,0:0:0:70:soft-hitwhistle31.wav
109,192,82420,1,0,0:0:0:0:
402,192,82420,128,0,82539:0:0:0:0:
182,192,82539,1,0,0:0:0:0:
256,192,82539,128,0,82658:0:0:0:0:
36,192,82658,128,0,82896:0:0:0:70:soft-hitwhistle31.wav
109,192,82658,1,0,0:0:0:0:
329,192,82658,1,0,0:0:0:0:
402,192,82718,1,0,0:0:0:0:
182,192,82777,1,0,0:0:0:0:
256,192,82777,1,0,0:0:0:0:
329,192,82837,1,0,0:0:0:0:
402,192,82837,1,0,0:0:0:0:
109,192,82896,1,0,0:0:0:70:soft-hitwhistle31.wav
182,192,82896,1,0,0:0:0:70:soft-hitfinish31.wav
256,192,82896,1,0,0:0:0:0:
475,192,82896,128,0,83253:0:0:0:0:
182,192,83015,128,0,83134:0:0:0:0:
329,192,83015,1,0,0:0:0:0:
36,192,83134,1,0,0:0:0:70:soft-hitwhistle31.wav
256,192,83134,1,0,0:0:0:0:
402,192,83134,1,0,0:0:0:0:
109,192,83253,1,0,0:0:0:0:
329,192,83253,128,0,83611:0:0:0:0:
109,192,83372,128,0,83491:0:0:0:70:soft-hitwhistle31.wav
256,192,83372,1,0,0:0:0:0:
475,192,83372,1,0,0:0:0:0:
402,192,83491,1,0,0:0:0:0:
36,192,83611,128,0,83730:0:0:0:70:soft-hitwhistle31.wav
182,192,83611,1,0,0:0:0:0:
475,192,83611,1,0,0:0:0:0:
256,192,83730,1,0,0:0:0:0:
402,192,83730,1,0,0:0:0:0:
36,192,83789,1,0,0:0:0:0:
182,192,83789,1,0,0:0:0:0:
109,192,83849,1,0,0:0:0:70:soft-hitwhistle31.wav
329,192,83849,1,0,0:0:0:0:
475,192,83849,1,0,0:0:0:0:
256,192,83908,1,0,0:0:0:0:
182,192,83968,1,0,0:0:0:0:
402,192,83968,1,0,0:0:0:0:
475,192,83968,128,0,84206:0:0:0:0:
36,192,84087,1,0,0:0:0:70:soft-hitwhistle31.wav
182,192,84087,1,0,0:0:0:0:
329,192,84087,1,0,0:0:0:0:
256,192,84206,128,0,84325:0:0:0:0:
402,192,84206,1,0,0:0:0:0:
36,192,84325,1,0,0:0:0:70:soft-hitwhistle31.wav
109,192,84325,128,0,84444:0:0:0:0:
475,192,84325,1,0,0:0:0:0:
256,192,84444,1,0,0:0:0:70:soft-hitwhistle31.wav
402,192,84444,128,0,84563:0:0:0:0:
109,192,84503,1,0,0:0:0:70:soft-hitwhistle31.wav
182,192,84503,1,0,0:0:0:0:
36,192,84563,1,0,0:0:0:70:soft-hitwhistle31.wav
329,192,84563,1,0,0:0:0:0:
475,192,84563,1,0,0:0:0:0:
182,192,84622,1,0,0:0:0:0:
109,192,84682,1,0,0:0:0:70:soft-hitwhistle31.wav
256,192,84682,1,0,0:0:0:0:
402,192,84682,1,0,0:0:0:0:
329,192,84741,1,0,0:0:0:70:soft-hitwhistle31.wav
475,192,84741,1,0,0:0:0:0:
36,192,84801,1,0,0:0:0:70:soft-hitfinish31.wav
109,192,84801,1,0,0:0:0:70:soft-hitwhistle31.wav
182,192,84801,1,0,0:0:0:70:soft-hitclap31.wav
256,192,84801,1,0,0:0:0:0:
402,192,84920,1,0,0:0:0:0:
36,192,85039,1,0,0:0:0:70:soft-hitwhistle31.wav
182,192,85039,1,0,0:0:0:70:soft-hitclap31.wav
329,192,85039,1,0,0:0:0:0:
475,192,85039,1,0,0:0:0:0:
36,192,85158,1,0,0:0:0:0:
256,192,85158,1,0,0:0:0:0:
329,192,85158,1,0,0:0:0:0:
182,192,85277,1,0,0:0:0:70:soft-hitwhistle31.wav
256,192,85277,1,0,0:0:0:70:soft-hitclap31.wav
402,192,85277,1,0,0:0:0:0:
475,192,85277,1,0,0:0:0:0:
109,192,85396,1,0,0:0:0:0:
329,192,85396,1,0,0:0:0:0:
109,192,85515,1,0,0:0:0:70:soft-hitclap31.wav
256,192,85515,1,0,0:0:0:70:soft-hitwhistle31.wav
329,192,85515,1,0,0:0:0:0:
475,192,85515,1,0,0:0:0:0:
182,192,85634,1,0,0:0:0:0:
36,192,85753,1,0,0:0:0:70:soft-hitclap31.wav
109,192,85753,1,0,0:0:0:70:soft-hitwhistle31.wav
329,192,85753,1,0,0:0:0:0:
402,192,85753,1,0,0:0:0:0:
475,192,85753,1,0,0:0:0:0:
36,192,85872,128,0,86111:0:0:0:0:
256,192,85872,1,0,0:0:0:0:
182,192,85991,1,0,0:0:0:70:soft-hitclap31.wav
329,192,85991,1,0,0:0:0:70:soft-hitwhistle31.wav
475,192,85991,1,0,0:0:0:0:
256,192,86111,128,0,86230:0:0:0:0:
402,192,86111,1,0,0:0:0:0:
36,192,86230,1,0,0:0:0:70:soft-hitwhistle31.wav
109,192,86230,1,0,0:0:0:70:soft-hitfinish32.wav
182,192,86230,1,0,0:0:0:70:soft-hitclap31.wav
402,192,86230,1,0,0:0:0:0:
475,192,86230,1,0,0:0:0:0:
36,192,86349,1,0,0:0:0:70:soft-hitwhistle31.wav
109,192,86349,1,0,0:0:0:70:soft-hitfinish32.wav
256,192,86349,1,0,0:0:0:70:soft-hitclap31.wav
329,192,86349,1,0,0:0:0:0:
475,192,86349,1,0,0:0:0:0:
182,192,86468,1,0,0:0:0:70:soft-hitwhistle31.wav
402,192,86468,1,0,0:0:0:0:
256,192,86527,1,0,0:0:0:70:soft-hitwhistle31.wav
36,192,86587,1,0,0:0:0:70:soft-hitwhistle31.wav
109,192,86587,1,0,0:0:0:0:
402,192,86646,1,0,0:0:0:70:soft-hitwhistle31.wav
475,192,86646,1,0,0:0:0:0:
36,192,86706,1,0,0:0:0:70:soft-hitwhistle31.wav
182,192,86706,1,0,0:0:0:70:soft-hitfinish34.wav
256,192,86706,1,0,0:0:0:0:
329,192,86706,1,0,0:0:0:0:
402,192,86765,1,0,0:0:0:0:
36,192,86825,1,0,0:0:0:70:soft-hitwhistle31.wav
109,192,86825,1,0,0:0:0:0:
182,192,86825,1,0,0:0:0:0:
329,192,86884,1,0,0:0:0:0:
109,192,86944,1,0,0:0:0:70:soft-hitwhistle31.wav
402,192,86944,1,0,0:0:0:70:soft-hitfinish34.wav
475,192,86944,1,0,0:0:0:0:
182,192,87003,1,0,0:0:0:0:
36,192,87063,1,0,0:0:0:70:soft-hitwhistle31.wav
329,192,87063,1,0,0:0:0:0:
475,192,87063,1,0,0:0:0:0:
182,192,87122,1,0,0:0:0:0:
36,192,87182,1,0,0:0:0:70:soft-hitwhistle31.wav
109,192,87182,1,0,0:0:0:70:soft-hitfinish34.wav
256,192,87182,1,0,0:0:0:0:
402,192,87182,1,0,0:0:0:0:
329,192,87241,1,0,0:0:0:0:
109,192,87301,1,0,0:0:0:70:soft-hitwhistle31.wav
182,192,87301,1,0,0:0:0:0:
475,192,87301,1,0,0:0:0:0:
329,192,87361,1,0,0:0:0:0:
36,192,87420,1,0,0:0:0:70:soft-hitwhistle31.wav
402,192,87420,1,0,0:0:0:70:soft-hitfinish34.wav
475,192,87420,1,0,0:0:0:0:
182,192,87480,1,0,0:0:0:0:
36,192,87539,1,0,0:0:0:70:soft-hitwhistle31.wav
329,192,87539,1,0,0:0:0:0:
402,192,87539,1,0,0:0:0:0:
256,192,87599,1,0,0:0:0:0:
36,192,87658,1,0,0:0:0:70:soft-hitwhistle31.wav
109,192,87658,1,0,0:0:0:0:
182,192,87658,1,0,0:0:0:0:
475,192,87658,1,0,0:0:0:0:
402,192,87688,1,0,0:0:0:70:soft-hitwhistle31.wav
329,192,87718,1,0,0:0:0:70:soft-hitwhistle31.wav
256,192,87747,1,0,0:0:0:70:soft-hitwhistle31.wav
36,192,87777,1,0,0:0:0:70:soft-hitwhistle31.wav
182,192,87807,1,0,0:0:0:70:soft-hitwhistle31.wav
329,192,87837,1,0,0:0:0:70:soft-hitwhistle31.wav
402,192,87866,1,0,0:0:0:70:soft-hitwhistle31.wav
475,192,87896,1,0,0:0:0:70:soft-hitwhistle31.wav
182,192,87926,1,0,0:0:0:70:soft-hitwhistle31.wav
109,192,87956,1,0,0:0:0:70:soft-hitwhistle31.wav
36,192,87986,1,0,0:0:0:70:soft-hitwhistle31.wav
329,192,88015,1,0,0:0:0:70:soft-hitwhistle31.wav
256,192,88045,1,0,0:0:0:70:soft-hitwhistle31.wav
182,192,88075,1,0,0:0:0:70:soft-hitwhistle31.wav
109,192,88105,1,0,0:0:0:70:soft-hitwhistle31.wav
36,192,88134,1,0,0:0:0:70:soft-hitwhistle31.wav
475,192,88134,1,0,0:0:0:0:
402,192,88164,1,0,0:0:0:70:soft-hitwhistle31.wav
329,192,88194,1,0,0:0:0:70:soft-hitwhistle31.wav
256,192,88224,1,0,0:0:0:70:soft-hitwhistle31.wav
109,192,88253,1,0,0:0:0:70:soft-hitwhistle31.wav
475,192,88283,1,0,0:0:0:70:soft-hitwhistle31.wav
402,192,88313,1,0,0:0:0:70:soft-hitwhistle31.wav
182,192,88343,1,0,0:0:0:70:soft-hitwhistle31.wav
36,192,88372,1,0,0:0:0:70:soft-hitwhistle31.wav
329,192,88402,1,0,0:0:0:70:soft-hitwhistle31.wav
402,192,88432,1,0,0:0:0:70:soft-hitwhistle31.wav
475,192,88462,1,0,0:0:0:70:soft-hitwhistle31.wav
36,192,88491,1,0,0:0:0:70:soft-hitwhistle31.wav
109,192,88521,1,0,0:0:0:70:soft-hitwhistle31.wav
182,192,88551,1,0,0:0:0:70:soft-hitwhistle31.wav
256,192,88581,1,0,0:0:0:70:soft-hitwhistle31.wav
36,192,88611,1,0,0:0:0:70:soft-hitwhistle31.wav
329,192,88611,1,0,0:0:0:70:soft-hitclap31.wav
402,192,88611,1,0,0:0:0:0:
475,192,88611,1,0,0:0:0:0:
36,192,88730,1,0,0:0:0:70:soft-hitwhistle31.wav
329,192,88730,1,0,0:0:0:70:soft-hitclap31.wav
402,192,88730,1,0,0:0:0:0:
475,192,88730,1,0,0:0:0:0:
36,192,88968,1,0,0:0:0:70:soft-hitwhistle31.wav
109,192,88968,1,0,0:0:0:70:soft-hitclap31.wav
329,192,88968,1,0,0:0:0:0:
402,192,88968,1,0,0:0:0:0:
36,192,89087,1,0,0:0:0:70:soft-hitwhistle31.wav
109,192,89087,1,0,0:0:0:70:soft-hitclap31.wav
329,192,89087,1,0,0:0:0:0:
402,192,89087,1,0,0:0:0:0:
36,192,89325,1,0,0:0:0:70:soft-hitwhistle31.wav
109,192,89325,1,0,0:0:0:70:soft-hitclap31.wav
256,192,89325,1,0,0:0:0:0:
475,192,89325,1,0,0:0:0:0:
36,192,89444,1,0,0:0:0:70:soft-hitwhistle31.wav
109,192,89444,1,0,0:0:0:70:soft-hitclap31.wav
256,192,89444,1,0,0:0:0:0:
475,192,89444,1,0,0:0:0:0:
182,192,89563,1,0,0:0:0:0:
109,192,89682,1,0,0:0:0:70:soft-hitwhistle31.wav
329,192,89682,1,0,0:0:0:70:soft-hitclap31.wav
402,192,89682,1,0,0:0:0:0:
475,192,89682,1,0,0:0:0:0:
109,192,89801,1,0,0:0:0:70:soft-hitwhistle31.wav
329,192,89801,1,0,0:0:0:70:soft-hitclap31.wav
402,192,89801,1,0,0:0:0:0:
475,192,89801,1,0,0:0:0:0:
36,192,89920,1,0,0:0:0:0:
109,192,90039,1,0,0:0:0:70:soft-hitwhistle31.wav
182,192,90039,1,0,0:0:0:70:soft-hitclap31.wav
329,192,90039,1,0,0:0:0:0:
402,192,90039,128,0,90277:0:0:0:0:
475,192,90039,1,0,0:0:0:0:
182,192,90277,1,0,0:0:0:70:soft-hitwhistle31.wav
329,192,90277,1,0,0:0:0:70:soft-hitfinish34.wav
475,192,90277,1,0,0:0:0:70:soft-hitclap35.wav
36,192,90337,1,0,0:0:0:70:soft-hitwhistle31.wav
109,192,90337,1,0,0:0:0:0:
256,192,90396,1,0,0:0:0:70:soft-hitwhistle31.wav
402,192,90396,1,0,0:0:0:0:
475,192,90396,1,0,0:0:0:0:
182,192,90456,1,0,0:0:0:70:soft-hitwhistle31.wav
329,192,90456,1,0,0:0:0:0:
36,192,90515,1,0,0:0:0:70:soft-hitwhistle31.wav
109,192,90515,1,0,0:0:0:70:soft-hitfinish31.wav
256,192,90515,1,0,0:0:0:0:
402,192,90515,1,0,0:0:0:0:
475,192,90515,1,0,0:0:0:0:
109,192,90634,1,0,0:0:0:70:soft-hitwhistle31.wav
329,192,90634,1,0,0:0:0:0:
475,192,90634,1,0,0:0:0:0:
36,192,90753,1,0,0:0:0:70:soft-hitwhistle31.wav
182,192,90753,1,0,0:0:0:0:
402,192,90753,1,0,0:0:0:0:
182,192,90872,1,0,0:0:0:70:soft-hitwhistle31.wav
256,192,90872,1,0,0:0:0:0:
402,192,90872,1,0,0:0:0:0:
109,192,90991,1,0,0:0:0:70:soft-hitwhistle31.wav
329,192,90991,1,0,0:0:0:0:
475,192,90991,1,0,0:0:0:0:
36,192,91111,1,0,0:0:0:70:soft-hitwhistle31.wav
109,192,91111,1,0,0:0:0:0:
256,192,91111,1,0,0:0:0:0:
329,192,91170,1,0,0:0:0:0:
182,192,91230,1,0,0:0:0:70:soft-hitwhistle31.wav
402,192,91230,1,0,0:0:0:0:
475,192,91230,1,0,0:0:0:0:
36,192,91349,1,0,0:0:0:70:soft-hitwhistle31.wav
256,192,91349,1,0,0:0:0:0:
475,192,91349,1,0,0:0:0:0:
109,192,91468,1,0,0:0:0:70:soft-hitwhistle31.wav
329,192,91468,1,0,0:0:0:0:
402,192,91468,128,0,91587:0:0:0:0:
109,192,91587,128,0,91706:0:0:0:70:soft-hitwhistle31.wav
182,192,91587,1,0,0:0:0:0:
256,192,91587,1,0,0:0:0:0:
36,192,91706,1,0,0:0:0:70:soft-hitwhistle31.wav
256,192,91706,128,0,91825:0:0:0:0:
475,192,91706,1,0,0:0:0:0:
109,192,91825,1,0,0:0:0:70:soft-hitwhistle31.wav
329,192,91825,1,0,0:0:0:0:
475,192,91825,128,0,92063:0:0:0:0:
36,192,91944,1,0,0:0:0:70:soft-hitwhistle31.wav
256,192,91944,1,0,0:0:0:0:
402,192,91944,1,0,0:0:0:0:
36,192,92063,1,0,0:0:0:70:soft-hitwhistle31.wav
182,192,92063,1,0,0:0:0:0:
329,192,92063,1,0,0:0:0:0:
256,192,92182,1,0,0:0:0:70:soft-hitwhistle31.wav
402,192,92182,128,0,92301:0:0:0:0:
475,192,92182,128,0,92301:0:0:0:0:
36,192,92301,1,0,0:0:0:70:soft-hitwhistle31.wav
109,192,92301,1,0,0:0:0:0:
256,192,92301,1,0,0:0:0:0:
36,192,92420,128,0,92539:0:0:0:70:soft-hitwhistle31.wav
182,192,92420,128,0,92539:0:0:0:0:
329,192,92420,1,0,0:0:0:0:
329,192,92539,1,0,0:0:0:70:soft-hitwhistle31.wav
402,192,92539,1,0,0:0:0:0:
475,192,92539,1,0,0:0:0:0:
36,192,92658,1,0,0:0:0:70:soft-hitwhistle31.wav
109,192,92658,1,0,0:0:0:0:
256,192,92658,1,0,0:0:0:0:
109,192,92777,128,0,92896:0:0:0:70:soft-hitwhistle31.wav
256,192,92777,128,0,92896:0:0:0:0:
402,192,92777,1,0,0:0:0:0:
36,192,92896,1,0,0:0:0:70:soft-hitwhistle31.wav
329,192,92896,1,0,0:0:0:0:
475,192,92896,1,0,0:0:0:0:
109,192,93015,1,0,0:0:0:70:soft-hitwhistle31.wav
182,192,93015,1,0,0:0:0:0:
329,192,93015,1,0,0:0:0:0:
402,192,93075,1,0,0:0:0:0:
36,192,93134,1,0,0:0:0:70:soft-hitwhistle31.wav
256,192,93134,1,0,0:0:0:0:
475,192,93134,128,0,93253:0:0:0:0:
36,192,93253,1,0,0:0:0:70:soft-hitwhistle31.wav
182,192,93253,1,0,0:0:0:0:
329,192,93253,1,0,0:0:0:0:
109,192,93372,1,0,0:0:0:70:soft-hitwhistle31.wav
256,192,93372,1,0,0:0:0:0:
475,192,93372,128,0,93491:0:0:0:0:
109,192,93491,1,0,0:0:0:70:soft-hitwhistle31.wav
329,192,93491,1,0,0:0:0:0:
402,192,93491,128,0,93611:0:0:0:0:
36,192,93611,1,0,0:0:0:70:soft-hitwhistle31.wav
182,192,93611,1,0,0:0:0:0:
256,192,93611,1,0,0:0:0:0:
475,192,93670,1,0,0:0:0:0:
36,192,93730,1,0,0:0:0:70:soft-hitwhistle31.wav
109,192,93730,1,0,0:0:0:0:
402,192,93730,1,0,0:0:0:0:
256,192,93789,1,0,0:0:0:0:
182,192,93849,1,0,0:0:0:70:soft-hitwhistle31.wav
329,192,93849,1,0,0:0:0:0:
475,192,93849,1,0,0:0:0:0:
109,192,93908,1,0,0:0:0:0:
256,192,93968,1,0,0:0:0:70:soft-hitwhistle31.wav
402,192,93968,1,0,0:0:0:0:
475,192,93968,1,0,0:0:0:0:
182,192,94027,1,0,0:0:0:0:
36,192,94087,1,0,0:0:0:70:soft-hitwhistle31.wav
109,192,94087,1,0,0:0:0:0:
329,192,94087,1,0,0:0:0:0:
256,192,94146,1,0,0:0:0:0:
36,192,94206,1,0,0:0:0:70:soft-hitwhistle31.wav
402,192,94206,1,0,0:0:0:0:
475,192,94206,1,0,0:0:0:0:
182,192,94265,1,0,0:0:0:70:soft-hitwhistle31.wav
329,192,94265,1,0,0:0:0:0:
36,192,94325,1,0,0:0:0:70:soft-hitfinish31.wav
109,192,94325,1,0,0:0:0:70:soft-hitwhistle31.wav
256,192,94325,1,0,0:0:0:0:
402,192,94325,1,0,0:0:0:0:
475,192,94325,1,0,0:0:0:0:
182,192,94444,1,0,0:0:0:70:soft-hitwhistle31.wav
329,192,94444,1,0,0:0:0:0:
402,192,94444,1,0,0:0:0:0:
36,192,94503,1,0,0:0:0:0:
109,192,94563,1,0,0:0:0:70:soft-hitwhistle31.wav
256,192,94563,1,0,0:0:0:0:
402,192,94563,1,0,0:0:0:0:
475,192,94622,1,0,0:0:0:0:
36,192,94682,1,0,0:0:0:70:soft-hitwhistle31.wav
109,192,94682,1,0,0:0:0:0:
329,192,94682,1,0,0:0:0:0:
182,192,94801,1,0,0:0:0:70:soft-hitwhistle31.wav
402,192,94801,1,0,0:0:0:0:
475,192,94801,1,0,0:0:0:0:
109,192,94861,1,0,0:0:0:0:
36,192,94920,1,0,0:0:0:70:soft-hitwhistle31.wav
256,192,94920,1,0,0:0:0:0:
402,192,94920,1,0,0:0:0:0:
182,192,94980,1,0,0:0:0:0:
109,192,95039,1,0,0:0:0:70:soft-hitwhistle31.wav
329,192,95039,1,0,0:0:0:0:
475,192,95039,1,0,0:0:0:0:
109,192,95158,1,0,0:0:0:70:soft-hitwhistle31.wav
182,192,95158,1,0,0:0:0:0:
402,192,95158,1,0,0:0:0:0:
36,192,95277,1,0,0:0:0:70:soft-hitwhistle31.wav
256,192,95277,1,0,0:0:0:0:
402,192,95277,1,0,0:0:0:0:
475,192,95277,1,0,0:0:0:0:
36,192,95396,1,0,0:0:0:70:soft-hitwhistle31.wav
182,192,95396,1,0,0:0:0:0:
329,192,95396,1,0,0:0:0:0:
402,192,95456,1,0,0:0:0:0:
109,192,95515,1,0,0:0:0:70:soft-hitwhistle31.wav
256,192,95515,1,0,0:0:0:0:
475,192,95515,1,0,0:0:0:0:
36,192,95634,1,0,0:0:0:70:soft-hitwhistle31.wav
182,192,95634,1,0,0:0:0:0:
256,192,95634,1,0,0:0:0:0:
329,192,95694,1,0,0:0:0:0:
109,192,95753,1,0,0:0:0:70:soft-hitwhistle31.wav
402,192,95753,1,0,0:0:0:0:
475,192,95753,1,0,0:0:0:0:
36,192,95833,1,0,0:0:0:70:soft-hitwhistle31.wav
402,192,95833,1,0,0:0:0:0:
475,192,95833,1,0,0:0:0:0:
109,192,95912,1,0,0:0:0:70:soft-hitwhistle31.wav
256,192,95912,1,0,0:0:0:0:
329,192,95912,1,0,0:0:0:0:
36,192,95991,1,0,0:0:0:70:soft-hitwhistle31.wav
182,192,95991,1,0,0:0:0:0:
402,192,95991,1,0,0:0:0:0:
36,192,96071,1,0,0:0:0:70:soft-hitwhistle31.wav
182,192,96071,1,0,0:0:0:0:
475,192,96071,1,0,0:0:0:0:
109,192,96150,1,0,0:0:0:70:soft-hitwhistle31.wav
256,192,96150,1,0,0:0:0:0:
329,192,96150,1,0,0:0:0:0:
36,192,96230,1,0,0:0:0:70:soft-hitwhistle31.wav
182,192,96230,1,0,0:0:0:70:soft-hitfinish31.wav
402,192,96230,1,0,0:0:0:0:
475,192,96230,1,0,0:0:0:0:
256,192,96289,1,0,0:0:0:0:
109,192,96349,1,0,0:0:0:70:soft-hitwhistle31.wav
329,192,96349,1,0,0:0:0:0:
402,192,96349,1,0,0:0:0:0:
475,192,96408,1,0,0:0:0:0:
36,192,96468,1,0,0:0:0:70:soft-hitwhistle31.wav
182,192,96468,1,0,0:0:0:0:
329,192,96468,1,0,0:0:0:0:
256,192,96527,1,0,0:0:0:0:
109,192,96587,1,0,0:0:0:70:soft-hitwhistle31.wav
402,192,96587,1,0,0:0:0:0:
475,192,96587,1,0,0:0:0:0:
182,192,96646,1,0,0:0:0:0:
36,192,96706,1,0,0:0:0:70:soft-hitfinish31.wav
109,192,96706,1,0,0:0:0:70:soft-hitwhistle31.wav
256,192,96706,1,0,0:0:0:0:
329,192,96706,1,0,0:0:0:0:
475,192,96706,1,0,0:0:0:0:
36,192,96825,1,0,0:0:0:70:soft-hitwhistle31.wav
182,192,96825,1,0,0:0:0:0:
402,192,96825,1,0,0:0:0:0:
256,192,96884,1,0,0:0:0:0:
109,192,96944,1,0,0:0:0:70:soft-hitwhistle31.wav
329,192,96944,1,0,0:0:0:0:
475,192,96944,1,0,0:0:0:0:
36,192,97003,1,0,0:0:0:0:
182,192,97063,1,0,0:0:0:70:soft-hitwhistle31.wav
256,192,97063,1,0,0:0:0:0:
329,192,97063,1,0,0:0:0:0:
36,192,97182,1,0,0:0:0:70:soft-hitwhistle31.wav
109,192,97182,1,0,0:0:0:70:soft-hitfinish34.wav
256,192,97182,1,0,0:0:0:0:
402,192,97182,1,0,0:0:0:0:
475,192,97182,1,0,0:0:0:0:
36,192,97301,1,0,0:0:0:70:soft-hitwhistle31.wav
402,192,97301,1,0,0:0:0:0:
329,192,97331,1,0,0:0:0:70:soft-hitwhistle31.wav
256,192,97361,1,0,0:0:0:70:soft-hitwhistle31.wav
182,192,97390,1,0,0:0:0:70:soft-hitwhistle31.wav
36,192,97420,1,0,0:0:0:70:soft-hitfinish34.wav
109,192,97420,1,0,0:0:0:70:soft-hitwhistle31.wav
475,192,97420,1,0,0:0:0:0:
109,192,97539,1,0,0:0:0:70:soft-hitwhistle31.wav
402,192,97539,1,0,0:0:0:0:
182,192,97569,1,0,0:0:0:70:soft-hitwhistle31.wav
256,192,97599,1,0,0:0:0:70:soft-hitwhistle31.wav
329,192,97628,1,0,0:0:0:70:soft-hitwhistle31.wav
36,192,97658,1,0,0:0:0:70:soft-hitwhistle31.wav
402,192,97658,1,0,0:0:0:70:soft-hitfinish34.wav
475,192,97658,1,0,0:0:0:0:
109,192,97718,1,0,0:0:0:70:soft-hitwhistle31.wav
256,192,97718,1,0,0:0:0:0:
182,192,97777,1,0,0:0:0:70:soft-hitwhistle31.wav
329,192,97777,1,0,0:0:0:0:
475,192,97777,1,0,0:0:0:0:
36,192,97837,1,0,0:0:0:70:soft-hitwhistle31.wav
109,192,97837,1,0,0:0:0:0:
182,192,97896,1,0,0:0:0:70:soft-hitwhistle31.wav
256,192,97896,1,0,0:0:0:70:soft-hitfinish34.wav
475,192,97896,1,0,0:0:0:0:
402,192,97926,1,0,0:0:0:70:soft-hitwhistle31.wav
329,192,97956,1,0,0:0:0:70:soft-hitwhistle31.wav
36,192,97986,1,0,0:0:0:70:soft-hitwhistle31.wav
109,192,98015,1,0,0:0:0:70:soft-hitwhistle31.wav
182,192,98015,1,0,0:0:0:0:
402,192,98075,1,0,0:0:0:70:soft-hitwhistle31.wav
36,192,98134,1,0,0:0:0:70:soft-hitwhistle31.wav
109,192,98134,1,0,0:0:0:70:soft-hitfinish34.wav
256,192,98134,1,0,0:0:0:0:
329,192,98134,1,0,0:0:0:0:
475,192,98134,1,0,0:0:0:0:
182,192,98194,1,0,0:0:0:70:soft-hitwhistle31.wav
36,192,98253,1,0,0:0:0:70:soft-hitwhistle31.wav
329,192,98253,1,0,0:0:0:70:soft-hitfinish34.wav
475,192,98253,1,0,0:0:0:0:
182,192,98313,1,0,0:0:0:70:soft-hitwhistle31.wav
109,192,98372,1,0,0:0:0:70:soft-hitwhistle31.wav
256,192,98372,1,0,0:0:0:70:soft-hitfinish34.wav
402,192,98372,1,0,0:0:0:0:
475,192,98432,1,0,0:0:0:70:soft-hitwhistle31.wav
36,192,98491,1,0,0:0:0:70:soft-hitwhistle31.wav
182,192,98491,1,0,0:0:0:70:soft-hitfinish34.wav
402,192,98491,1,0,0:0:0:0:
329,192,98551,1,0,0:0:0:70:soft-hitfinish34.wav
36,192,98611,1,0,0:0:0:70:soft-hitfinish34.wav
182,192,98611,1,0,0:0:0:70:soft-hitwhistle31.wav
402,192,98611,1,0,0:0:0:0:
329,192,98670,1,0,0:0:0:70:soft-hitfinish34.wav
109,192,98730,1,0,0:0:0:70:soft-hitfinish34.wav
256,192,98730,1,0,0:0:0:70:soft-hitwhistle31.wav
475,192,98730,1,0,0:0:0:0:
182,192,98789,1,0,0:0:0:70:soft-hitwhistle31.wav
36,192,98849,1,0,0:0:0:70:soft-hitfinish34.wav
329,192,98849,1,0,0:0:0:70:soft-hitwhistle31.wav
475,192,98849,1,0,0:0:0:0:
256,192,98908,1,0,0:0:0:70:soft-hitwhistle31.wav
36,192,98968,1,0,0:0:0:70:soft-hitfinish34.wav
109,192,98968,1,0,0:0:0:70:soft-hitwhistle31.wav
402,192,98968,1,0,0:0:0:0:
182,192,99027,1,0,0:0:0:70:soft-hitwhistle31.wav
256,192,99087,1,0,0:0:0:70:soft-hitfinish34.wav
402,192,99087,1,0,0:0:0:70:soft-hitwhistle31.wav
475,192,99087,1,0,0:0:0:0:
109,192,99146,1,0,0:0:0:70:soft-hitfinish34.wav
36,192,99206,1,0,0:0:0:70:soft-hitwhistle31.wav
182,192,99206,1,0,0:0:0:70:soft-hitfinish34.wav
329,192,99206,1,0,0:0:0:0:
402,192,99265,1,0,0:0:0:70:soft-hitfinish34.wav
109,192,99325,1,0,0:0:0:70:soft-hitwhistle31.wav
256,192,99325,1,0,0:0:0:70:soft-hitfinish34.wav
475,192,99325,1,0,0:0:0:0:
329,192,99384,1,0,0:0:0:70:soft-hitwhistle31.wav
36,192,99444,1,0,0:0:0:70:soft-hitfinish34.wav
109,192,99444,1,0,0:0:0:0:
402,192,99444,1,0,0:0:0:0:
256,192,99503,1,0,0:0:0:70:soft-hitwhistle31.wav
182,192,99563,1,0,0:0:0:70:soft-hitfinish34.wav
329,192,99563,1,0,0:0:0:0:
475,192,99563,1,0,0:0:0:0:
402,192,99622,1,0,0:0:0:70:soft-hitfinish34.wav
36,192,99682,1,0,0:0:0:70:soft-hitwhistle31.wav
109,192,99682,1,0,0:0:0:70:soft-hitfinish34.wav
256,192,99682,1,0,0:0:0:0:
329,192,99741,1,0,0:0:0:70:soft-hitwhistle31.wav
402,192,99741,1,0,0:0:0:0:
36,192,99801,1,0,0:0:0:70:soft-hitwhistle31.wav
182,192,99801,1,0,0:0:0:70:soft-hitfinish34.wav
475,192,99801,1,0,0:0:0:0:
329,192,99861,1,0,0:0:0:70:soft-hitwhistle31.wav
109,192,99920,1,0,0:0:0:70:soft-hitwhistle31.wav
256,192,99920,1,0,0:0:0:70:soft-hitfinish34.wav
402,192,99920,1,0,0:0:0:0:
182,192,99980,1,0,0:0:0:70:soft-hitfinish34.wav
36,192,100039,1,0,0:0:0:70:soft-hitwhistle31.wav
109,192,100039,1,0,0:0:0:70:soft-hitfinish34.wav
329,192,100039,1,0,0:0:0:0:
475,192,100039,1,0,0:0:0:0:
256,192,100099,1,0,0:0:0:70:soft-hitfinish34.wav
182,192,100158,1,0,0:0:0:70:soft-hitfinish34.wav
402,192,100158,1,0,0:0:0:70:soft-hitwhistle31.wav
475,192,100158,1,0,0:0:0:0:
329,192,100218,1,0,0:0:0:70:soft-hitfinish34.wav
36,192,100277,1,0,0:0:0:70:soft-hitfinish34.wav
109,192,100277,1,0,0:0:0:70:soft-hitwhistle31.wav
256,192,100277,1,0,0:0:0:0:
402,192,100337,1,0,0:0:0:70:soft-hitwhistle31.wav
109,192,100396,1,0,0:0:0:70:soft-hitwhistle31.wav
256,192,100396,1,0,0:0:0:70:soft-hitfinish34.wav
475,192,100396,1,0,0:0:0:0:
329,192,100456,1,0,0:0:0:70:soft-hitfinish34.wav
36,192,100515,1,0,0:0:0:70:soft-hitfinish34.wav
182,192,100515,1,0,0:0:0:70:soft-hitwhistle31.wav
475,192,100515,1,0,0:0:0:0:
256,192,100575,1,0,0:0:0:70:soft-hitwhistle31.wav
36,192,100634,1,0,0:0:0:70:soft-hitfinish34.wav
329,192,100634,1,0,0:0:0:70:soft-hitwhistle31.wav
402,192,100634,1,0,0:0:0:0:
109,192,100694,1,0,0:0:0:70:soft-hitwhistle31.wav
256,192,100694,1,0,0:0:0:0:
182,192,100753,1,0,0:0:0:70:soft-hitfinish34.wav
402,192,100753,1,0,0:0:0:70:soft-hitwhistle31.wav
475,192,100753,1,0,0:0:0:0:
109,192,100813,1,0,0:0:0:70:soft-hitwhistle31.wav
36,192,100872,1,0,0:0:0:70:soft-hitfinish34.wav
256,192,100872,1,0,0:0:0:70:soft-hitwhistle31.wav
475,192,100872,1,0,0:0:0:0:
182,192,100932,1,0,0:0:0:70:soft-hitfinish34.wav
329,192,100932,1,0,0:0:0:0:
36,192,100991,1,0,0:0:0:70:soft-hitwhistle31.wav
402,192,100991,1,0,0:0:0:70:soft-hitfinish34.wav
475,192,100991,1,0,0:0:0:0:
256,192,101051,1,0,0:0:0:70:soft-hitwhistle31.wav
36,192,101111,1,0,0:0:0:70:soft-hitwhistle31.wav
182,192,101111,1,0,0:0:0:70:soft-hitfinish34.wav
402,192,101111,1,0,0:0:0:0:
329,192,101170,1,0,0:0:0:70:soft-hitfinish34.wav
109,192,101230,1,0,0:0:0:70:soft-hitwhistle31.wav
256,192,101230,1,0,0:0:0:70:soft-hitfinish34.wav
475,192,101230,1,0,0:0:0:0:
329,192,101289,1,0,0:0:0:70:soft-hitwhistle31.wav
402,192,101289,1,0,0:0:0:0:
36,192,101349,1,0,0:0:0:70:soft-hitwhistle31.wav
182,192,101349,1,0,0:0:0:70:soft-hitfinish34.wav
256,192,101408,1,0,0:0:0:70:soft-hitwhistle31.wav
329,192,101408,1,0,0:0:0:0:
36,192,101468,1,0,0:0:0:70:soft-hitwhistle31.wav
402,192,101468,1,0,0:0:0:70:soft-hitfinish34.wav
475,192,101468,1,0,0:0:0:0:
109,192,101527,1,0,0:0:0:70:soft-hitwhistle31.wav
182,192,101587,1,0,0:0:0:70:soft-hitwhistle31.wav
329,192,101587,1,0,0:0:0:70:soft-hitfinish34.wav
475,192,101587,1,0,0:0:0:0:
109,192,101646,1,0,0:0:0:70:soft-hitwhistle31.wav
36,192,101706,1,0,0:0:0:70:soft-hitwhistle31.wav
256,192,101706,1,0,0:0:0:70:soft-hitfinish34.wav
402,192,101706,1,0,0:0:0:0:
182,192,101765,1,0,0:0:0:70:soft-hitwhistle31.wav
109,192,101825,1,0,0:0:0:70:soft-hitwhistle31.wav
402,192,101825,1,0,0:0:0:70:soft-hitfinish34.wav
475,192,101825,1,0,0:0:0:0:
256,192,101884,1,0,0:0:0:70:soft-hitfinish34.wav
36,192,101944,1,0,0:0:0:70:soft-hitfinish31.wav
182,192,101944,1,0,0:0:0:70:soft-hitclap31.wav
329,192,101944,1,0,0:0:0:70:soft-hitwhistle31.wav
475,192,101944,1,0,0:0:0:0:
109,192,102063,1,0,0:0:0:70:soft-hitwhistle31.wav
256,192,102063,1,0,0:0:0:0:
402,192,102063,1,0,0:0:0:0:
109,192,102182,1,0,0:0:0:70:soft-hitwhistle31.wav
256,192,102182,1,0,0:0:0:0:
402,192,102182,1,0,0:0:0:0:
36,192,102301,1,0,0:0:0:70:soft-hitfinish31.wav
182,192,102301,1,0,0:0:0:70:soft-hitclap31.wav
256,192,102301,1,0,0:0:0:70:soft-hitwhistle31.wav
402,192,102301,1,0,0:0:0:0:
475,192,102301,1,0,0:0:0:0:
109,192,102420,1,0,0:0:0:70:soft-hitwhistle31.wav
329,192,102420,1,0,0:0:0:0:
475,192,102420,1,0,0:0:0:0:
109,192,102539,1,0,0:0:0:70:soft-hitwhistle31.wav
329,192,102539,1,0,0:0:0:0:
475,192,102539,1,0,0:0:0:0:
36,192,102658,1,0,0:0:0:70:soft-hitwhistle31.wav
109,192,102658,1,0,0:0:0:70:soft-hitclap31.wav
256,192,102658,1,0,0:0:0:70:soft-hitfinish31.wav
329,192,102658,1,0,0:0:0:0:
402,192,102658,1,0,0:0:0:0:
36,192,102777,1,0,0:0:0:70:soft-hitwhistle31.wav
182,192,102777,1,0,0:0:0:0:
475,192,102777,1,0,0:0:0:0:
36,192,102896,1,0,0:0:0:70:soft-hitwhistle31.wav
182,192,102896,1,0,0:0:0:0:
475,192,102896,1,0,0:0:0:0:
109,192,103015,1,0,0:0:0:70:soft-hitwhistle31.wav
182,192,103015,1,0,0:0:0:70:soft-hitclap31.wav
256,192,103015,1,0,0:0:0:70:soft-hitfinish31.wav
329,192,103015,1,0,0:0:0:0:
475,192,103015,1,0,0:0:0:0:
36,192,103134,1,0,0:0:0:70:soft-hitwhistle31.wav
256,192,103134,1,0,0:0:0:0:
402,192,103134,1,0,0:0:0:0:
36,192,103253,1,0,0:0:0:70:soft-hitwhistle31.wav
256,192,103253,1,0,0:0:0:0:
402,192,103253,1,0,0:0:0:0:
36,192,103372,1,0,0:0:0:70:soft-hitwhistle31.wav
109,192,103372,1,0,0:0:0:0:
182,192,103372,1,0,0:0:0:0:
329,192,103432,1,0,0:0:0:70:soft-hitwhistle31.wav
475,192,103432,1,0,0:0:0:0:
36,192,103491,1,0,0:0:0:70:soft-hitwhistle31.wav
109,192,103491,1,0,0:0:0:0:
256,192,103491,1,0,0:0:0:0:
402,192,103551,1,0,0:0:0:70:soft-hitwhistle31.wav
475,192,103551,1,0,0:0:0:0:
36,192,103611,1,0,0:0:0:70:soft-hitwhistle31.wav
109,192,103611,1,0,0:0:0:0:
329,192,103611,1,0,0:0:0:0:
182,192,103670,1,0,0:0:0:70:soft-hitwhistle31.wav
475,192,103670,1,0,0:0:0:0:
36,192,103730,1,0,0:0:0:70:soft-hitwhistle31.wav
256,192,103730,1,0,0:0:0:0:
329,192,103730,1,0,0:0:0:0:
109,192,103789,1,0,0:0:0:70:soft-hitwhistle31.wav
402,192,103789,1,0,0:0:0:0:
36,192,103849,1,0,0:0:0:70:soft-hitwhistle31.wav
182,192,103849,1,0,0:0:0:70:soft-hitfinish31.wav
256,192,103849,1,0,0:0:0:70:soft-hitclap31.wav
329,192,103849,1,0,0:0:0:0:
475,192,103849,1,0,0:0:0:0:
109,192,103968,1,0,0:0:0:70:soft-hitwhistle31.wav
182,192,103968,1,0,0:0:0:0:
402,192,103968,1,0,0:0:0:0:
36,192,104087,1,0,0:0:0:70:soft-hitwhistle31.wav
256,192,104087,1,0,0:0:0:0:
329,192,104087,1,0,0:0:0:0:
475,192,104146,1,0,0:0:0:0:
36,192,104206,1,0,0:0:0:70:soft-hitwhistle31.wav
182,192,104206,1,0,0:0:0:70:soft-hitclap31.wav
402,192,104206,1,0,0:0:0:0:
256,192,104265,1,0,0:0:0:0:
109,192,104325,1,0,0:0:0:70:soft-hitwhistle31.wav
329,192,104325,1,0,0:0:0:0:
475,192,104325,1,0,0:0:0:0:
36,192,104444,1,0,0:0:0:70:soft-hitwhistle31.wav
256,192,104444,1,0,0:0:0:70:soft-hitclap31.wav
475,192,104444,1,0,0:0:0:0:
182,192,104563,1,0,0:0:0:70:soft-hitwhistle31.wav
329,192,104563,1,0,0:0:0:0:
402,192,104563,1,0,0:0:0:0:
36,192,104682,1,0,0:0:0:70:soft-hitwhistle31.wav
182,192,104682,1,0,0:0:0:70:soft-hitclap31.wav
475,192,104682,1,0,0:0:0:0:
36,192,104801,1,0,0:0:0:70:soft-hitwhistle31.wav
109,192,104801,1,0,0:0:0:70:soft-hitclap31.wav
256,192,104801,1,0,0:0:0:70:soft-hitfinish34.wav
402,192,104801,1,0,0:0:0:0:
475,192,104801,1,0,0:0:0:0:
182,192,104920,1,0,0:0:0:70:soft-hitwhistle31.wav
475,192,104920,1,0,0:0:0:0:
256,192,104950,1,0,0:0:0:70:soft-hitwhistle31.wav
329,192,104980,1,0,0:0:0:70:soft-hitwhistle31.wav
402,192,105009,1,0,0:0:0:70:soft-hitwhistle31.wav
36,192,105039,1,0,0:0:0:70:soft-hitwhistle31.wav
109,192,105039,1,0,0:0:0:70:soft-hitclap31.wav
182,192,105039,1,0,0:0:0:70:soft-hitfinish34.wav
475,192,105039,1,0,0:0:0:0:
256,192,105158,1,0,0:0:0:70:soft-hitwhistle31.wav
402,192,105158,1,0,0:0:0:0:
182,192,105188,1,0,0:0:0:70:soft-hitwhistle31.wav
109,192,105218,1,0,0:0:0:70:soft-hitwhistle31.wav
36,192,105247,1,0,0:0:0:70:soft-hitwhistle31.wav
256,192,105277,1,0,0:0:0:70:soft-hitfinish34.wav
329,192,105277,1,0,0:0:0:70:soft-hitclap31.wav
402,192,105277,1,0,0:0:0:0:
475,192,105277,1,0,0:0:0:0:
36,192,105337,1,0,0:0:0:70:soft-hitwhistle31.wav
109,192,105337,1,0,0:0:0:0:
256,192,105396,1,0,0:0:0:70:soft-hitwhistle31.wav
329,192,105396,1,0,0:0:0:0:
475,192,105396,1,0,0:0:0:0:
109,192,105456,1,0,0:0:0:70:soft-hitwhistle31.wav
182,192,105456,1,0,0:0:0:0:
36,192,105515,1,0,0:0:0:70:soft-hitwhistle31.wav
402,192,105515,1,0,0:0:0:70:soft-hitfinish34.wav
475,192,105515,1,0,0:0:0:0:
329,192,105545,1,0,0:0:0:70:soft-hitwhistle31.wav
256,192,105575,1,0,0:0:0:70:soft-hitwhistle31.wav
182,192,105605,1,0,0:0:0:70:soft-hitwhistle31.wav
36,192,105634,1,0,0:0:0:70:soft-hitwhistle31.wav
109,192,105634,1,0,0:0:0:0:
402,192,105634,1,0,0:0:0:0:
256,192,105694,1,0,0:0:0:70:soft-hitwhistle31.wav
329,192,105694,1,0,0:0:0:0:
36,192,105753,1,0,0:0:0:70:soft-hitwhistle31.wav
109,192,105753,1,0,0:0:0:70:soft-hitfinish31.wav
182,192,105753,1,0,0:0:0:70:soft-hitclap31.wav
402,192,105753,1,0,0:0:0:0:
475,192,105753,1,0,0:0:0:0:
36,192,105872,1,0,0:0:0:70:soft-hitwhistle31.wav
256,192,105872,1,0,0:0:0:0:
329,192,105872,1,0,0:0:0:0:
36,192,105991,1,0,0:0:0:70:soft-hitwhistle31.wav
256,192,105991,1,0,0:0:0:0:
329,192,105991,1,0,0:0:0:0:
109,192,106111,1,0,0:0:0:70:soft-hitwhistle31.wav
329,192,106111,1,0,0:0:0:70:soft-hitfinish31.wav
402,192,106111,1,0,0:0:0:70:soft-hitclap31.wav
475,192,106111,1,0,0:0:0:0:
36,192,106230,1,0,0:0:0:70:soft-hitwhistle31.wav
182,192,106230,1,0,0:0:0:0:
402,192,106230,1,0,0:0:0:0:
36,192,106349,1,0,0:0:0:70:soft-hitwhistle31.wav
182,192,106349,1,0,0:0:0:0:
402,192,106349,1,0,0:0:0:0:
36,192,106468,1,0,0:0:0:70:soft-hitclap31.wav
109,192,106468,1,0,0:0:0:70:soft-hitfinish31.wav
329,192,106468,1,0,0:0:0:70:soft-hitwhistle31.wav
475,192,106468,1,0,0:0:0:0:
109,192,106587,1,0,0:0:0:70:soft-hitwhistle31.wav
256,192,106587,1,0,0:0:0:0:
402,192,106587,1,0,0:0:0:0:
109,192,106706,1,0,0:0:0:70:soft-hitwhistle31.wav
256,192,106706,1,0,0:0:0:0:
402,192,106706,1,0,0:0:0:0:
36,192,106825,1,0,0:0:0:70:soft-hitclap31.wav
182,192,106825,1,0,0:0:0:70:soft-hitfinish31.wav
402,192,106825,1,0,0:0:0:70:soft-hitwhistle31.wav
475,192,106825,1,0,0:0:0:0:
109,192,106944,1,0,0:0:0:70:soft-hitwhistle31.wav
329,192,106944,1,0,0:0:0:0:
475,192,106944,1,0,0:0:0:0:
109,192,107063,1,0,0:0:0:70:soft-hitwhistle31.wav
329,192,107063,1,0,0:0:0:0:
475,192,107063,1,0,0:0:0:0:
36,192,107182,1,0,0:0:0:70:soft-hitwhistle31.wav
182,192,107182,1,0,0:0:0:0:
256,192,107182,1,0,0:0:0:0:
402,192,107241,1,0,0:0:0:70:soft-hitwhistle31.wav
475,192,107241,1,0,0:0:0:0:
109,192,107301,1,0,0:0:0:70:soft-hitwhistle31.wav
182,192,107301,1,0,0:0:0:0:
329,192,107301,1,0,0:0:0:0:
36,192,107361,1,0,0:0:0:70:soft-hitwhistle31.wav
256,192,107361,1,0,0:0:0:0:
329,192,107420,1,0,0:0:0:70:soft-hitwhistle31.wav
402,192,107420,1,0,0:0:0:0:
475,192,107420,1,0,0:0:0:0:
36,192,107480,1,0,0:0:0:70:soft-hitwhistle31.wav
109,192,107480,1,0,0:0:0:0:
182,192,107539,1,0,0:0:0:70:soft-hitwhistle31.wav
256,192,107539,1,0,0:0:0:0:
329,192,107539,1,0,0:0:0:0:
402,192,107599,1,0,0:0:0:70:soft-hitwhistle31.wav
475,192,107599,1,0,0:0:0:0:
36,192,107658,1,0,0:0:0:70:soft-hitclap31.wav
109,192,107658,1,0,0:0:0:70:soft-hitfinish31.wav
182,192,107658,1,0,0:0:0:70:soft-hitwhistle31.wav
329,192,107658,1,0,0:0:0:0:
109,192,107777,1,0,0:0:0:70:soft-hitwhistle31.wav
402,192,107777,1,0,0:0:0:0:
475,192,107777,1,0,0:0:0:0:
36,192,107896,1,0,0:0:0:70:soft-hitwhistle31.wav
256,192,107896,1,0,0:0:0:0:
329,192,107896,1,0,0:0:0:0:
182,192,107956,1,0,0:0:0:0:
109,192,108015,1,0,0:0:0:70:soft-hitclap31.wav
329,192,108015,1,0,0:0:0:70:soft-hitwhistle31.wav
475,192,108015,1,0,0:0:0:0:
36,192,108134,1,0,0:0:0:70:soft-hitwhistle31.wav
182,192,108134,1,0,0:0:0:0:
402,192,108134,1,0,0:0:0:0:
329,192,108194,1,0,0:0:0:0:
36,192,108253,1,0,0:0:0:70:soft-hitclap31.wav
109,192,108253,1,0,0:0:0:70:soft-hitwhistle31.wav
256,192,108253,1,0,0:0:0:0:
182,192,108372,1,0,0:0:0:70:soft-hitwhistle31.wav
329,192,108372,1,0,0:0:0:0:
475,192,108372,1,0,0:0:0:0:
109,192,108491,1,0,0:0:0:70:soft-hitclap31.wav
256,192,108491,1,0,0:0:0:70:soft-hitwhistle31.wav
475,192,108491,1,0,0:0:0:0:
36,192,108611,1,0,0:0:0:70:soft-hitwhistle31.wav
109,192,108611,1,0,0:0:0:70:soft-hitclap31.wav
182,192,108611,1,0,0:0:0:70:soft-hitfinish34.wav
329,192,108611,1,0,0:0:0:0:
402,192,108611,1,0,0:0:0:0:
36,192,108730,1,0,0:0:0:70:soft-hitwhistle31.wav
475,192,108730,1,0,0:0:0:0:
402,192,108759,1,0,0:0:0:70:soft-hitwhistle31.wav
329,192,108789,1,0,0:0:0:70:soft-hitwhistle31.wav
256,192,108819,1,0,0:0:0:70:soft-hitwhistle31.wav
36,192,108849,1,0,0:0:0:70:soft-hitfinish34.wav
109,192,108849,1,0,0:0:0:70:soft-hitclap31.wav
182,192,108849,1,0,0:0:0:70:soft-hitwhistle31.wav
475,192,108849,1,0,0:0:0:0:
36,192,108968,1,0,0:0:0:70:soft-hitwhistle31.wav
329,192,108968,1,0,0:0:0:0:
109,192,108997,1,0,0:0:0:70:soft-hitwhistle31.wav
182,192,109027,1,0,0:0:0:70:soft-hitwhistle31.wav
256,192,109057,1,0,0:0:0:70:soft-hitwhistle31.wav
36,192,109087,1,0,0:0:0:70:soft-hitwhistle31.wav
109,192,109087,1,0,0:0:0:70:soft-hitclap31.wav
329,192,109087,1,0,0:0:0:0:
475,192,109087,1,0,0:0:0:0:
256,192,109146,1,0,0:0:0:70:soft-hitwhistle31.wav
402,192,109146,1,0,0:0:0:0:
109,192,109206,1,0,0:0:0:70:soft-hitwhistle31.wav
182,192,109206,1,0,0:0:0:0:
329,192,109265,1,0,0:0:0:70:soft-hitwhistle31.wav
402,192,109265,1,0,0:0:0:0:
36,192,109325,1,0,0:0:0:70:soft-hitfinish34.wav
109,192,109325,1,0,0:0:0:70:soft-hitwhistle31.wav
182,192,109325,1,0,0:0:0:0:
475,192,109325,1,0,0:0:0:0:
402,192,109355,1,0,0:0:0:70:soft-hitwhistle31.wav
329,192,109384,1,0,0:0:0:70:soft-hitwhistle31.wav
256,192,109414,1,0,0:0:0:70:soft-hitwhistle31.wav
36,192,109444,1,0,0:0:0:70:soft-hitwhistle31.wav
475,192,109444,1,0,0:0:0:0:
182,192,109503,1,0,0:0:0:70:soft-hitwhistle31.wav
329,192,109503,1,0,0:0:0:0:
36,192,109563,1,0,0:0:0:70:soft-hitwhistle31.wav
109,192,109563,1,0,0:0:0:70:soft-hitfinish31.wav
256,192,109563,128,0,111468:0:0:0:70:soft-hitclap31.wav
402,192,109563,1,0,0:0:0:0:
475,192,109563,1,0,0:0:0:0:
36,192,110039,1,0,0:0:0:23:soft-hitwhistle31.wav
109,192,110039,1,0,0:0:0:23:soft-hitwhistle31.wav
182,192,110099,1,0,0:0:0:23:soft-hitwhistle31.wav
475,192,110099,1,0,0:0:0:0:
329,192,110158,1,0,0:0:0:23:soft-hitwhistle31.wav
402,192,110158,1,0,0:0:0:23:soft-hitwhistle31.wav
109,192,110218,1,0,0:0:0:23:soft-hitwhistle31.wav
182,192,110218,1,0,0:0:0:0:
36,192,110277,1,0,0:0:0:23:soft-hitwhistle31.wav
329,192,110277,1,0,0:0:0:23:soft-hitwhistle31.wav
402,192,110337,1,0,0:0:0:23:soft-hitwhistle31.wav
475,192,110337,1,0,0:0:0:0:
36,192,110396,1,0,0:0:0:23:soft-hitwhistle31.wav
109,192,110396,1,0,0:0:0:23:soft-hitwhistle31.wav
182,192,110456,1,0,0:0:0:23:soft-hitwhistle31.wav
475,192,110456,1,0,0:0:0:0:
329,192,110515,1,0,0:0:0:23:soft-hitwhistle31.wav
402,192,110515,1,0,0:0:0:23:soft-hitwhistle31.wav
109,192,110575,1,0,0:0:0:23:soft-hitwhistle31.wav
182,192,110575,1,0,0:0:0:0:
36,192,110634,1,0,0:0:0:23:soft-hitwhistle31.wav
329,192,110634,1,0,0:0:0:23:soft-hitwhistle31.wav
402,192,110694,1,0,0:0:0:23:soft-hitwhistle31.wav
475,192,110694,1,0,0:0:0:0:
36,192,110753,1,0,0:0:0:23:soft-hitwhistle31.wav
109,192,110753,1,0,0:0:0:23:soft-hitwhistle31.wav
182,192,110813,1,0,0:0:0:23:soft-hitwhistle31.wav
475,192,110813,1,0,0:0:0:0:
329,192,110872,1,0,0:0:0:23:soft-hitwhistle31.wav
402,192,110872,1,0,0:0:0:23:soft-hitwhistle31.wav
109,192,110932,1,0,0:0:0:23:soft-hitwhistle31.wav
182,192,110932,1,0,0:0:0:0:
36,192,110991,1,0,0:0:0:23:soft-hitwhistle31.wav
329,192,110991,1,0,0:0:0:23:soft-hitwhistle31.wav
402,192,111051,1,0,0:0:0:23:soft-hitwhistle31.wav
475,192,111051,1,0,0:0:0:0:
36,192,111111,1,0,0:0:0:23:soft-hitwhistle31.wav
109,192,111111,1,0,0:0:0:23:soft-hitwhistle31.wav
182,192,111170,1,0,0:0:0:23:soft-hitwhistle31.wav
475,192,111170,1,0,0:0:0:0:
329,192,111230,1,0,0:0:0:23:soft-hitwhistle31.wav
402,192,111230,1,0,0:0:0:23:soft-hitwhistle31.wav
109,192,111289,1,0,0:0:0:23:soft-hitwhistle31.wav
182,192,111289,1,0,0:0:0:0:
36,192,111349,1,0,0:0:0:23:soft-hitwhistle31.wav
329,192,111349,1,0,0:0:0:23:soft-hitwhistle31.wav
402,192,111408,1,0,0:0:0:23:soft-hitwhistle31.wav
475,192,111408,1,0,0:0:0:0:
36,192,111468,1,0,0:0:0:35:soft-hitwhistle31.wav
109,192,111468,1,0,0:0:0:35:soft-hitwhistle31.wav
402,192,111527,1,0,0:0:0:35:soft-hitwhistle31.wav
475,192,111527,1,0,0:0:0:0:
36,192,111587,1,0,0:0:0:35:soft-hitwhistle31.wav
329,192,111587,1,0,0:0:0:35:soft-hitwhistle31.wav
109,192,111646,1,0,0:0:0:35:soft-hitwhistle31.wav
182,192,111646,1,0,0:0:0:0:
256,192,111706,1,0,0:0:0:35:soft-hitwhistle31.wav
475,192,111706,1,0,0:0:0:35:soft-hitwhistle31.wav
182,192,111765,1,0,0:0:0:35:soft-hitwhistle31.wav
402,192,111765,1,0,0:0:0:0:
36,192,111825,1,0,0:0:0:35:soft-hitwhistle31.wav
329,192,111825,1,0,0:0:0:35:soft-hitwhistle31.wav
109,192,111884,1,0,0:0:0:35:soft-hitwhistle31.wav
256,192,111884,1,0,0:0:0:0:
402,192,111944,1,0,0:0:0:23:soft-hitwhistle31.wav
475,192,111944,1,0,0:0:0:23:soft-hitwhistle31.wav
36,192,112003,1,0,0:0:0:35:soft-hitwhistle31.wav
109,192,112003,1,0,0:0:0:0:
329,192,112063,1,0,0:0:0:35:soft-hitwhistle31.wav
475,192,112063,1,0,0:0:0:35:soft-hitwhistle31.wav
36,192,112122,1,0,0:0:0:35:soft-hitwhistle31.wav
182,192,112122,1,0,0:0:0:0:
256,192,112182,1,0,0:0:0:35:soft-hitwhistle31.wav
402,192,112182,1,0,0:0:0:35:soft-hitwhistle31.wav
109,192,112241,1,0,0:0:0:35:soft-hitwhistle31.wav
329,192,112241,1,0,0:0:0:0:
182,192,112301,1,0,0:0:0:35:soft-hitwhistle31.wav
402,192,112301,1,0,0:0:0:35:soft-hitwhistle31.wav
256,192,112361,1,0,0:0:0:35:soft-hitwhistle31.wav
475,192,112361,1,0,0:0:0:0:
36,192,112420,1,0,0:0:0:23:soft-hitwhistle31.wav
109,192,112420,1,0,0:0:0:23:soft-hitwhistle31.wav
402,192,112480,1,0,0:0:0:35:soft-hitwhistle31.wav
475,192,112480,1,0,0:0:0:0:
36,192,112539,1,0,0:0:0:35:soft-hitwhistle31.wav
109,192,112539,1,0,0:0:0:35:soft-hitwhistle31.wav
402,192,112599,1,0,0:0:0:35:soft-hitwhistle31.wav
475,192,112599,1,0,0:0:0:0:
109,192,112658,1,0,0:0:0:35:soft-hitwhistle31.wav
182,192,112658,1,0,0:0:0:35:soft-hitwhistle31.wav
329,192,112718,1,0,0:0:0:35:soft-hitwhistle31.wav
402,192,112718,1,0,0:0:0:0:
109,192,112777,1,0,0:0:0:35:soft-hitwhistle31.wav
182,192,112777,1,0,0:0:0:35:soft-hitwhistle31.wav
329,192,112837,1,0,0:0:0:35:soft-hitwhistle31.wav
402,192,112837,1,0,0:0:0:0:
36,192,112896,1,0,0:0:0:70:soft-hitwhistle31.wav
475,192,112896,1,0,0:0:0:0:
109,192,112926,1,0,0:0:0:70:soft-hitwhistle31.wav
182,192,112956,1,0,0:0:0:70:soft-hitwhistle31.wav
402,192,112986,1,0,0:0:0:70:soft-hitwhistle31.wav
329,192,113015,1,0,0:0:0:70:soft-hitwhistle31.wav
256,192,113045,1,0,0:0:0:70:soft-hitwhistle31.wav
182,192,113075,1,0,0:0:0:70:soft-hitwhistle31.wav
109,192,113105,1,0,0:0:0:70:soft-hitwhistle31.wav
475,192,113134,1,0,0:0:0:70:soft-hitwhistle31.wav
402,192,113164,1,0,0:0:0:70:soft-hitwhistle31.wav
329,192,113194,1,0,0:0:0:70:soft-hitwhistle31.wav
256,192,113224,1,0,0:0:0:70:soft-hitwhistle31.wav
36,192,113253,1,0,0:0:0:70:soft-hitwhistle31.wav
109,192,113283,1,0,0:0:0:70:soft-hitwhistle31.wav
182,192,113313,1,0,0:0:0:70:soft-hitwhistle31.wav
256,192,113343,1,0,0:0:0:70:soft-hitwhistle31.wav
36,192,113372,1,0,0:0:0:70:soft-hitwhistle31.wav
109,192,113372,1,0,0:0:0:70:soft-hitclap31.wav
329,192,113372,1,0,0:0:0:70:soft-hitfinish32.wav
402,192,113372,1,0,0:0:0:0:
475,192,113372,1,0,0:0:0:0:
36,192,113491,1,0,0:0:0:70:soft-hitwhistle31.wav
109,192,113491,1,0,0:0:0:70:soft-hitclap31.wav
329,192,113491,1,0,0:0:0:70:soft-hitfinish32.wav
402,192,113491,1,0,0:0:0:0:
475,192,113491,1,0,0:0:0:0:
182,192,113611,1,0,0:0:0:23:soft-hitwhistle31.wav
329,192,113670,1,0,0:0:0:23:soft-hitwhistle31.wav
182,192,113730,1,0,0:0:0:23:soft-hitwhistle31.wav
329,192,113789,1,0,0:0:0:23:soft-hitwhistle31.wav
36,192,113849,1,0,0:0:0:70:soft-hitfinish32.wav
109,192,113849,1,0,0:0:0:70:soft-hitclap31.wav
256,192,113849,1,0,0:0:0:70:soft-hitwhistle31.wav
402,192,113849,1,0,0:0:0:0:
475,192,113849,1,0,0:0:0:0:
36,192,113968,1,0,0:0:0:70:soft-hitfinish32.wav
109,192,113968,1,0,0:0:0:70:soft-hitclap31.wav
256,192,113968,1,0,0:0:0:70:soft-hitwhistle31.wav
402,192,113968,1,0,0:0:0:0:
475,192,113968,1,0,0:0:0:0:
329,192,114087,1,0,0:0:0:23:soft-hitwhistle31.wav
109,192,114146,1,0,0:0:0:23:soft-hitwhistle31.wav
329,192,114206,1,0,0:0:0:23:soft-hitwhistle31.wav
109,192,114265,1,0,0:0:0:23:soft-hitwhistle31.wav
36,192,114325,1,0,0:0:0:70:soft-hitwhistle31.wav
182,192,114325,1,0,0:0:0:70:soft-hitclap31.wav
256,192,114325,1,0,0:0:0:70:soft-hitfinish34.wav
402,192,114325,1,0,0:0:0:0:
475,192,114325,1,0,0:0:0:0:
329,192,114444,1,0,0:0:0:23:soft-hitwhistle31.wav
182,192,114503,1,0,0:0:0:23:soft-hitwhistle31.wav
36,192,114563,1,0,0:0:0:70:soft-hitfinish34.wav
256,192,114563,1,0,0:0:0:70:soft-hitclap31.wav
329,192,114563,1,0,0:0:0:70:soft-hitwhistle31.wav
402,192,114563,1,0,0:0:0:0:
475,192,114563,1,0,0:0:0:0:
109,192,114682,1,0,0:0:0:23:soft-hitwhistle31.wav
256,192,114741,1,0,0:0:0:23:soft-hitwhistle31.wav
36,192,114801,1,0,0:0:0:70:soft-hitwhistle31.wav
182,192,114801,1,0,0:0:0:70:soft-hitclap31.wav
402,192,114801,1,0,0:0:0:70:soft-hitfinish34.wav
475,192,114801,1,0,0:0:0:0:
329,192,114861,1,0,0:0:0:70:soft-hitwhistle31.wav
36,192,114920,1,0,0:0:0:70:soft-hitwhistle31.wav
109,192,114920,1,0,0:0:0:70:soft-hitclap31.wav
402,192,114920,1,0,0:0:0:0:
475,192,114920,1,0,0:0:0:0:
329,192,114980,1,0,0:0:0:70:soft-hitwhistle31.wav
36,192,115039,1,0,0:0:0:70:soft-hitwhistle31.wav
109,192,115039,1,0,0:0:0:70:soft-hitclap31.wav
256,192,115039,1,0,0:0:0:70:soft-hitfinish34.wav
475,192,115039,1,0,0:0:0:0:
182,192,115099,1,0,0:0:0:70:soft-hitwhistle31.wav
36,192,115158,1,0,0:0:0:70:soft-hitwhistle31.wav
329,192,115158,1,0,0:0:0:70:soft-hitclap31.wav
402,192,115158,1,0,0:0:0:0:
475,192,115158,1,0,0:0:0:0:
182,192,115218,1,0,0:0:0:70:soft-hitwhistle31.wav
36,192,115277,1,0,0:0:0:70:soft-hitfinish32.wav
109,192,115277,1,0,0:0:0:70:soft-hitclap31.wav
256,192,115277,1,0,0:0:0:70:soft-hitwhistle31.wav
402,192,115277,1,0,0:0:0:0:
475,192,115277,1,0,0:0:0:0:
36,192,115396,1,0,0:0:0:70:soft-hitfinish32.wav
109,192,115396,1,0,0:0:0:70:soft-hitclap31.wav
256,192,115396,1,0,0:0:0:70:soft-hitwhistle31.wav
402,192,115396,1,0,0:0:0:0:
475,192,115396,1,0,0:0:0:0:
329,192,115515,1,0,0:0:0:23:soft-hitclap31.wav
36,192,115634,1,0,0:0:0:70:soft-hitwhistle31.wav
182,192,115634,1,0,0:0:0:70:soft-hitclap31.wav
256,192,115634,1,0,0:0:0:70:soft-hitfinish32.wav
402,192,115634,1,0,0:0:0:0:
475,192,115634,1,0,0:0:0:0:
36,192,115753,1,0,0:0:0:70:soft-hitwhistle31.wav
182,192,115753,1,0,0:0:0:70:soft-hitclap31.wav
256,192,115753,1,0,0:0:0:70:soft-hitfinish32.wav
402,192,115753,1,0,0:0:0:0:
475,192,115753,1,0,0:0:0:0:
109,192,115872,1,0,0:0:0:23:soft-hitclap31.wav
36,192,115991,1,0,0:0:0:70:soft-hitwhistle31.wav
182,192,115991,1,0,0:0:0:70:soft-hitfinish32.wav
329,192,115991,1,0,0:0:0:70:soft-hitclap31.wav
402,192,115991,1,0,0:0:0:0:
475,192,115991,1,0,0:0:0:0:
109,192,116111,1,0,0:0:0:70:soft-hitwhistle31.wav
182,192,116111,1,0,0:0:0:70:soft-hitfinish32.wav
256,192,116111,1,0,0:0:0:70:soft-hitclap31.wav
402,192,116111,1,0,0:0:0:0:
475,192,116111,1,0,0:0:0:0:
36,192,116349,1,0,0:0:0:70:soft-hitwhistle31.wav
109,192,116349,1,0,0:0:0:70:soft-hitfinish32.wav
182,192,116349,1,0,0:0:0:70:soft-hitclap31.wav
329,192,116349,1,0,0:0:0:0:
402,192,116349,1,0,0:0:0:0:
36,192,116468,1,0,0:0:0:70:soft-hitwhistle31.wav
109,192,116468,1,0,0:0:0:70:soft-hitfinish32.wav
256,192,116468,1,0,0:0:0:70:soft-hitclap31.wav
329,192,116468,1,0,0:0:0:0:
475,192,116468,1,0,0:0:0:0:
36,192,116587,1,0,0:0:0:70:soft-hitwhistle31.wav
109,192,116587,1,0,0:0:0:70:soft-hitfinish32.wav
182,192,116587,1,0,0:0:0:70:soft-hitclap31.wav
329,192,116587,1,0,0:0:0:0:
402,192,116587,1,0,0:0:0:0:
36,192,116706,1,0,0:0:0:70:soft-hitwhistle31.wav
182,192,116706,1,0,0:0:0:70:soft-hitfinish32.wav
256,192,116706,1,0,0:0:0:70:soft-hitclap31.wav
402,192,116706,1,0,0:0:0:0:
475,192,116706,1,0,0:0:0:0:
109,192,116825,1,0,0:0:0:70:soft-hitwhistle31.wav
182,192,116825,1,0,0:0:0:70:soft-hitfinish32.wav
329,192,116825,1,0,0:0:0:70:soft-hitclap31.wav
402,192,116825,1,0,0:0:0:0:
475,192,116825,1,0,0:0:0:0:
36,192,116944,1,0,0:0:0:70:soft-hitwhistle31.wav
182,192,116944,1,0,0:0:0:70:soft-hitfinish32.wav
256,192,116944,1,0,0:0:0:70:soft-hitclap31.wav
329,192,116944,1,0,0:0:0:0:
475,192,116944,1,0,0:0:0:0:
36,192,117063,1,0,0:0:0:70:soft-hitwhistle31.wav
109,192,117063,1,0,0:0:0:70:soft-hitfinish32.wav
256,192,117063,1,0,0:0:0:70:soft-hitclap31.wav
402,192,117063,1,0,0:0:0:0:
475,192,117063,1,0,0:0:0:0:
36,192,117420,1,0,0:0:0:23:soft-hitwhistle31.wav
109,192,117420,1,0,0:0:0:23:soft-hitwhistle31.wav
256,192,117420,128,0,118134:0:0:0:23:soft-hitwhistle31.wav
402,192,117420,1,0,0:0:0:23:soft-hitfinish31.wav
475,192,117420,1,0,0:0:0:23:soft-hitfinish31.wav
329,192,118134,1,0,0:0:0:0:
256,192,118164,1,0,0:0:0:0:
182,192,118194,1,0,0:0:0:0:
109,192,118224,1,0,0:0:0:0:
36,192,118253,1,0,0:0:0:0:
402,192,118283,1,0,0:0:0:0:
329,192,118313,1,0,0:0:0:0:
256,192,118343,1,0,0:0:0:0:
182,192,118372,1,0,0:0:0:0:
109,192,118402,1,0,0:0:0:0:
36,192,118432,1,0,0:0:0:0:
475,192,118462,1,0,0:0:0:0:
402,192,118491,1,0,0:0:0:0:
329,192,118521,1,0,0:0:0:0:
256,192,118551,1,0,0:0:0:0:
109,192,118581,1,0,0:0:0:0:
182,192,118611,1,0,0:0:0:0:
256,192,118640,1,0,0:0:0:0:
329,192,118670,1,0,0:0:0:0:
402,192,118700,1,0,0:0:0:0:
475,192,118730,1,0,0:0:0:0:
36,192,118759,1,0,0:0:0:0:
109,192,118789,1,0,0:0:0:0:
182,192,118819,1,0,0:0:0:0:
256,192,118849,1,0,0:0:0:0:
475,192,118878,1,0,0:0:0:0:
402,192,118908,1,0,0:0:0:0:
329,192,118938,1,0,0:0:0:0:
256,192,118968,1,0,0:0:0:0:
182,192,118997,1,0,0:0:0:0:
109,192,119027,1,0,0:0:0:0:
36,192,119057,1,0,0:0:0:0:
182,192,119087,1,0,0:0:0:23:soft-hitwhistle31.wav
256,192,119087,1,0,0:0:0:23:soft-hitwhistle31.wav
329,192,119087,1,0,0:0:0:23:soft-hitwhistle31.wav
402,192,119087,1,0,0:0:0:23:soft-hitfinish32.wav
475,192,119087,1,0,0:0:0:23:soft-hitfinish32.wav
182,192,119206,1,0,0:0:0:23:soft-hitwhistle31.wav
256,192,119206,1,0,0:0:0:23:soft-hitwhistle31.wav
329,192,119206,1,0,0:0:0:23:soft-hitwhistle31.wav
402,192,119206,1,0,0:0:0:23:soft-hitfinish32.wav
475,192,119206,1,0,0:0:0:23:soft-hitfinish32.wav
