osu file format v14

[General]
AudioFilename: audio.mp3
AudioLeadIn: 0
PreviewTime: 73241
Countdown: 0
SampleSet: Soft
StackLeniency: 0.2
Mode: 3
LetterboxInBreaks: 0
SpecialStyle: 0
WidescreenStoryboard: 0

[Editor]
DistanceSpacing: 0.6
BeatDivisor: 4
GridSize: 4
TimelineZoom: 1.199999

[Metadata]
Title:Last Resort
TitleUnicode:Last Resort
Artist:xi
ArtistUnicode:xi
Creator:Kroytz
Version:AncuL's BASIC
Source:SOUND VOLTEX IV HEAVENLY HAVEN
Tags:The 7th Konami Arcade Championship Original Song Contest Winner Bemani KAC SDVX Video Rhythm Game Instrumental DJPop SnowNiNo_ C00l Cool 1112deng Suzuki_1112 Otosaka-Yu Elsa Valentine xLolicore- Realazy toybot vikala R3m AncuL Murumoo Tails Reba Wonki Blasticide Lolicide bsc _Streamy_ jakads
BeatmapID:1679783
BeatmapSetID:800102

[Difficulty]
HPDrainRate:6.3
CircleSize:7
OverallDifficulty:6.3
ApproachRate:10
SliderMultiplier:2.22
SliderTickRate:1

[Events]
//Background and Video events
0,0,"BG2.jpg",0,0
//Break Periods
2,27846,32910
//Storyboard Layer 0 (Background)
//Storyboard Layer 1 (Fail)
//Storyboard Layer 2 (Pass)
//Storyboard Layer 3 (Foreground)
//Storyboard Layer 4 (Overlay)
//Storyboard Sound Samples
Sample,980,0,"soft-hitfinish31.wav",70
Sample,1932,0,"soft-hitfinish34.wav",70
Sample,2289,0,"soft-hitfinish32.wav",70
Sample,2884,0,"soft-hitfinish31.wav",70
Sample,6694,0,"soft-hitfinish34.wav",70
Sample,7170,0,"soft-hitfinish34.wav",70
Sample,7408,0,"soft-hitfinish34.wav",70
Sample,7646,0,"soft-hitfinish34.wav",70
Sample,8122,0,"soft-hitfinish34.wav",70
Sample,8360,0,"soft-hitfinish34.wav",70
Sample,8599,0,"soft-hitfinish34.wav",70
Sample,8599,0,"soft-hitclap31.wav",70
Sample,9075,0,"soft-hitfinish34.wav",70
Sample,9075,0,"soft-hitclap31.wav",70
Sample,9551,0,"soft-hitfinish34.wav",70
Sample,9551,0,"soft-hitclap31.wav",70
Sample,10027,0,"soft-hitfinish34.wav",70
Sample,10027,0,"soft-hitclap31.wav",70
Sample,10503,0,"soft-hitfinish31.wav",70
Sample,10503,0,"soft-hitclap31.wav",70
Sample,11456,0,"soft-hitfinish34.wav",70
Sample,11456,0,"soft-hitclap31.wav",70
Sample,11932,0,"soft-hitfinish34.wav",70
Sample,11932,0,"soft-hitclap31.wav",70
Sample,12408,0,"soft-hitfinish31.wav",70
Sample,12408,0,"soft-hitclap31.wav",70
Sample,16218,0,"soft-hitfinish31.wav",70
Sample,20027,0,"soft-hitfinish31.wav",70
Sample,20027,0,"soft-hitclap31.wav",70
Sample,20384,0,"soft-hitwhistle31.wav",70
Sample,20741,0,"soft-hitwhistle31.wav",70
Sample,20979,0,"soft-hitclap31.wav",70
Sample,21337,0,"soft-hitclap31.wav",70
Sample,21694,0,"soft-hitclap31.wav",70
Sample,21932,0,"soft-hitclap31.wav",70
Sample,22289,0,"soft-hitwhistle31.wav",70
Sample,22646,0,"soft-hitwhistle31.wav",70
Sample,22884,0,"soft-hitclap31.wav",70
Sample,23241,0,"soft-hitwhistle31.wav",70
Sample,23599,0,"soft-hitclap31.wav",70
Sample,23837,0,"soft-hitfinish31.wav",70
Sample,24789,0,"soft-hitfinish31.wav",70
Sample,25503,0,"soft-hitwhistle31.wav",70
Sample,25741,0,"soft-hitfinish31.wav",70
Sample,25741,0,"soft-hitclap31.wav",70
Sample,26694,0,"soft-hitfinish33.wav",70
Sample,27646,0,"soft-hitfinish31.wav",70
Sample,33360,0,"soft-hitfinish34.wav",70
Sample,33718,0,"soft-hitfinish34.wav",70
Sample,34194,0,"soft-hitfinish31.wav",70
Sample,34551,0,"soft-hitfinish31.wav",70
Sample,34789,0,"soft-hitfinish31.wav",70
Sample,35027,0,"soft-hitfinish33.wav",70
Sample,35265,0,"soft-hitfinish31.wav",70
Sample,36694,0,"soft-hitclap31.wav",70
Sample,36694,0,"soft-hitclap35.wav",70
Sample,38599,0,"soft-hitclap31.wav",70
Sample,38599,0,"soft-hitclap35.wav",70
Sample,39075,0,"soft-hitfinish31.wav",70
Sample,40503,0,"soft-hitclap31.wav",70
Sample,40503,0,"soft-hitclap35.wav",70
Sample,40979,0,"soft-hitfinish31.wav",70
Sample,41456,0,"soft-hitfinish32.wav",70
Sample,41813,0,"soft-hitfinish31.wav",70
Sample,41813,0,"soft-hitclap31.wav",70
Sample,42884,0,"soft-hitfinish31.wav",70
Sample,50503,0,"soft-hitfinish31.wav",70
Sample,50860,0,"soft-hitfinish31.wav",70
Sample,51218,0,"soft-hitfinish31.wav",70
Sample,51575,0,"soft-hitfinish31.wav",70
Sample,51932,0,"soft-hitfinish34.wav",70
Sample,52408,0,"soft-hitfinish31.wav",70
Sample,52765,0,"soft-hitfinish31.wav",70
Sample,53122,0,"soft-hitfinish31.wav",70
Sample,53479,0,"soft-hitfinish31.wav",70
Sample,53837,0,"soft-hitwhistle31.wav",70
Sample,54313,0,"soft-hitfinish31.wav",70
Sample,54670,0,"soft-hitfinish31.wav",70
Sample,55265,0,"soft-hitfinish31.wav",70
Sample,55622,0,"soft-hitfinish31.wav",70
Sample,56218,0,"soft-hitfinish31.wav",70
Sample,56218,0,"soft-hitclap31.wav",70
Sample,57170,0,"soft-hitclap31.wav",70
Sample,57646,0,"soft-hitclap31.wav",70
Sample,58122,0,"soft-hitfinish33.wav",70
Sample,58122,0,"soft-hitclap31.wav",70
Sample,59075,0,"soft-hitfinish33.wav",70
Sample,59075,0,"soft-hitwhistle31.wav",70
Sample,60027,0,"soft-hitfinish31.wav",70
Sample,60027,0,"soft-hitclap31.wav",70
Sample,60503,0,"soft-hitfinish31.wav",70
Sample,60503,0,"soft-hitclap31.wav",70
Sample,60979,0,"soft-hitfinish32.wav",70
Sample,60979,0,"soft-hitclap31.wav",70
Sample,61456,0,"soft-hitfinish34.wav",70
Sample,61456,0,"soft-hitclap31.wav",70
Sample,61932,0,"soft-hitfinish34.wav",70
Sample,61932,0,"soft-hitclap31.wav",70
Sample,62408,0,"soft-hitfinish32.wav",70
Sample,62408,0,"soft-hitclap31.wav",70
Sample,62646,0,"soft-hitfinish31.wav",70
Sample,62646,0,"soft-hitclap31.wav",70
Sample,63837,0,"soft-hitfinish31.wav",70
Sample,63837,0,"soft-hitwhistle31.wav",70
Sample,64313,0,"soft-hitfinish31.wav",70
Sample,64313,0,"soft-hitwhistle31.wav",70
Sample,64789,0,"soft-hitfinish31.wav",70
Sample,64789,0,"soft-hitclap31.wav",70
Sample,65265,0,"soft-hitfinish31.wav",70
Sample,65265,0,"soft-hitclap31.wav",70
Sample,65741,0,"soft-hitfinish34.wav",70
Sample,67646,0,"soft-hitfinish34.wav",70
Sample,69075,0,"soft-hitfinish32.wav",70
Sample,69075,0,"soft-hitclap31.wav",70
Sample,69551,0,"soft-hitfinish31.wav",70
Sample,69551,0,"soft-hitclap31.wav",70
Sample,72408,0,"soft-hitfinish32.wav",70
Sample,72527,0,"soft-hitfinish32.wav",70
Sample,72646,0,"soft-hitfinish32.wav",70
Sample,73122,0,"soft-hitclap35.wav",70
Sample,73360,0,"soft-hitfinish31.wav",70
Sample,77170,0,"soft-hitfinish31.wav",70
Sample,80741,0,"soft-hitclap31.wav",70
Sample,80979,0,"soft-hitwhistle31.wav",70
Sample,82884,0,"soft-hitfinish31.wav",70
Sample,84789,0,"soft-hitwhistle31.wav",70
Sample,84789,0,"soft-hitclap31.wav",70
Sample,85265,0,"soft-hitclap31.wav",70
Sample,85741,0,"soft-hitwhistle31.wav",70
Sample,86218,0,"soft-hitfinish32.wav",70
Sample,86218,0,"soft-hitclap31.wav",70
Sample,86694,0,"soft-hitfinish34.wav",70
Sample,88599,0,"soft-hitclap31.wav",70
Sample,88956,0,"soft-hitclap31.wav",70
Sample,89313,0,"soft-hitclap31.wav",70
Sample,89670,0,"soft-hitclap31.wav",70
Sample,90027,0,"soft-hitclap31.wav",70
Sample,90503,0,"soft-hitfinish31.wav",70
Sample,94313,0,"soft-hitwhistle31.wav",70
Sample,96218,0,"soft-hitfinish31.wav",70
Sample,96694,0,"soft-hitwhistle31.wav",70
Sample,97170,0,"soft-hitfinish34.wav",70
Sample,97646,0,"soft-hitfinish34.wav",70
Sample,98122,0,"soft-hitfinish34.wav",70
Sample,98599,0,"soft-hitwhistle31.wav",70
Sample,99075,0,"soft-hitwhistle31.wav",70
Sample,99313,0,"soft-hitfinish34.wav",70
Sample,99789,0,"soft-hitfinish34.wav",70
Sample,100027,0,"soft-hitfinish34.wav",70
Sample,100503,0,"soft-hitwhistle31.wav",70
Sample,100979,0,"soft-hitfinish34.wav",70
Sample,101218,0,"soft-hitfinish34.wav",70
Sample,101456,0,"soft-hitfinish34.wav",70
Sample,101694,0,"soft-hitfinish34.wav",70
Sample,101932,0,"soft-hitclap31.wav",70
Sample,101932,0,"soft-hitwhistle31.wav",70
Sample,102289,0,"soft-hitclap31.wav",70
Sample,102289,0,"soft-hitwhistle31.wav",70
Sample,102646,0,"soft-hitclap31.wav",70
Sample,102646,0,"soft-hitfinish31.wav",70
Sample,103003,0,"soft-hitclap31.wav",70
Sample,103003,0,"soft-hitfinish31.wav",70
Sample,103837,0,"soft-hitfinish31.wav",70
Sample,103837,0,"soft-hitclap31.wav",70
Sample,104789,0,"soft-hitclap31.wav",70
Sample,104789,0,"soft-hitfinish34.wav",70
Sample,105265,0,"soft-hitclap31.wav",70
Sample,105265,0,"soft-hitwhistle31.wav",70
Sample,105741,0,"soft-hitfinish31.wav",70
Sample,105741,0,"soft-hitclap31.wav",70
Sample,106099,0,"soft-hitfinish31.wav",70
Sample,106099,0,"soft-hitclap31.wav",70
Sample,106456,0,"soft-hitfinish31.wav",70
Sample,106456,0,"soft-hitwhistle31.wav",70
Sample,106813,0,"soft-hitfinish31.wav",70
Sample,106813,0,"soft-hitwhistle31.wav",70
Sample,107646,0,"soft-hitfinish31.wav",70
Sample,107646,0,"soft-hitwhistle31.wav",70
Sample,108599,0,"soft-hitclap31.wav",70
Sample,108599,0,"soft-hitfinish34.wav",70
Sample,109075,0,"soft-hitclap31.wav",70
Sample,109075,0,"soft-hitfinish34.wav",70
Sample,109551,0,"soft-hitfinish31.wav",70
Sample,109551,0,"soft-hitclap31.wav",70
Sample,110027,0,"soft-hitwhistle31.wav",23
Sample,110027,0,"soft-hitwhistle31.wav",23
Sample,111456,0,"soft-hitwhistle31.wav",35
Sample,112408,0,"soft-hitwhistle31.wav",23
Sample,113360,0,"soft-hitclap31.wav",70
Sample,113360,0,"soft-hitfinish32.wav",70
Sample,113837,0,"soft-hitclap31.wav",70
Sample,113837,0,"soft-hitwhistle31.wav",70
Sample,114313,0,"soft-hitclap31.wav",70
Sample,114313,0,"soft-hitfinish34.wav",70
Sample,114551,0,"soft-hitclap31.wav",70
Sample,114551,0,"soft-hitwhistle31.wav",70
Sample,114789,0,"soft-hitclap31.wav",70
Sample,114789,0,"soft-hitfinish34.wav",70
Sample,115027,0,"soft-hitclap31.wav",70
Sample,115027,0,"soft-hitfinish34.wav",70
Sample,115265,0,"soft-hitclap31.wav",70
Sample,115265,0,"soft-hitwhistle31.wav",70
Sample,115622,0,"soft-hitclap31.wav",70
Sample,115622,0,"soft-hitfinish32.wav",70
Sample,115979,0,"soft-hitfinish32.wav",70
Sample,115979,0,"soft-hitclap31.wav",70
Sample,116337,0,"soft-hitfinish32.wav",70
Sample,116337,0,"soft-hitclap31.wav",70
Sample,116456,0,"soft-hitfinish32.wav",70
Sample,116456,0,"soft-hitclap31.wav",70
Sample,116694,0,"soft-hitfinish32.wav",70
Sample,116694,0,"soft-hitclap31.wav",70
Sample,116932,0,"soft-hitfinish32.wav",70
Sample,116932,0,"soft-hitclap31.wav",70
Sample,117051,0,"soft-hitfinish32.wav",70
Sample,117051,0,"soft-hitclap31.wav",70
Sample,117408,0,"soft-hitwhistle31.wav",23
Sample,117408,0,"soft-hitwhistle31.wav",23
Sample,117408,0,"soft-hitfinish31.wav",23
Sample,117408,0,"soft-hitfinish31.wav",23
Sample,117408,0,"soft-hitfinish31.wav",23
Sample,119075,0,"soft-hitwhistle31.wav",23
Sample,119075,0,"soft-hitwhistle31.wav",23
Sample,119075,0,"soft-hitfinish32.wav",23
Sample,119075,0,"soft-hitfinish32.wav",23
Sample,119075,0,"soft-hitfinish32.wav",23
Sample,119194,0,"soft-hitwhistle31.wav",23
Sample,119194,0,"soft-hitwhistle31.wav",23
Sample,119194,0,"soft-hitfinish32.wav",23
Sample,119194,0,"soft-hitfinish32.wav",23
Sample,119194,0,"soft-hitfinish32.wav",23

[TimingPoints]
992,-100,4,2,34,40,0,0
992,238.095238095238,4,2,34,40,1,0
73372,-100,4,2,34,40,0,1
80932,-100,4,2,34,40,0,0
80991,-100,4,2,34,40,0,1
90515,-100,4,2,34,40,0,0
113372,-100,4,2,34,40,0,1
119206,-100,4,2,34,40,0,0

[Colours]
Combo1 : 255,192,0
Combo2 : 0,202,0
Combo3 : 18,124,255
Combo4 : 242,24,57

[HitObjects]
182,192,992,128,0,1944:0:0:0:70:soft-hitwhistle31.wav
402,192,1944,1,0,0:0:0:70:soft-hitwhistle31.wav
109,192,2301,1,0,0:0:0:70:soft-hitwhistle31.wav
475,192,2896,1,0,0:0:0:70:soft-hitwhistle31.wav
36,192,3849,1,0,0:0:0:0:
182,192,4325,1,0,0:0:0:0:
329,192,4801,1,0,0:0:0:0:
109,192,5753,1,0,0:0:0:0:
256,192,6230,1,0,0:0:0:0:
402,192,6706,1,0,0:0:0:70:soft-hitwhistle31.wav
109,192,7182,1,0,0:0:0:70:soft-hitwhistle31.wav
182,192,7420,1,0,0:0:0:70:soft-hitwhistle31.wav
256,192,7658,1,0,0:0:0:70:soft-hitwhistle31.wav
475,192,8134,1,0,0:0:0:70:soft-hitwhistle31.wav
402,192,8372,1,0,0:0:0:70:soft-hitwhistle31.wav
329,192,8611,1,0,0:0:0:70:soft-hitwhistle31.wav
182,192,9087,1,0,0:0:0:70:soft-hitwhistle31.wav
402,192,9563,1,0,0:0:0:70:soft-hitwhistle31.wav
109,192,10039,1,0,0:0:0:70:soft-hitwhistle31.wav
329,192,10515,1,0,0:0:0:70:soft-hitwhistle31.wav
182,192,11468,1,0,0:0:0:70:soft-hitwhistle31.wav
329,192,11944,1,0,0:0:0:70:soft-hitwhistle31.wav
256,192,12420,1,0,0:0:0:70:soft-hitwhistle31.wav
109,192,13491,1,0,0:0:0:70:soft-hitwhistle31.wav
402,192,13849,1,0,0:0:0:70:soft-hitwhistle31.wav
256,192,14087,1,0,0:0:0:70:soft-hitwhistle31.wav
109,192,14325,1,0,0:0:0:70:soft-hitwhistle31.wav
475,192,15396,1,0,0:0:0:70:soft-hitwhistle31.wav
256,192,15753,1,0,0:0:0:70:soft-hitwhistle31.wav
109,192,15991,1,0,0:0:0:70:soft-hitwhistle31.wav
402,192,16230,1,0,0:0:0:70:soft-hitwhistle31.wav
402,192,17301,1,0,0:0:0:70:soft-hitwhistle31.wav
109,192,17658,1,0,0:0:0:70:soft-hitwhistle31.wav
256,192,17896,1,0,0:0:0:70:soft-hitwhistle31.wav
402,192,18134,1,0,0:0:0:70:soft-hitwhistle31.wav
109,192,19206,1,0,0:0:0:70:soft-hitwhistle31.wav
402,192,19325,1,0,0:0:0:70:soft-hitwhistle31.wav
182,192,19563,1,0,0:0:0:70:soft-hitwhistle31.wav
36,192,19801,1,0,0:0:0:70:soft-hitwhistle31.wav
402,192,20039,1,0,0:0:0:70:soft-hitwhistle31.wav
329,192,20396,1,0,0:0:0:70:soft-hitclap31.wav
256,192,20753,1,0,0:0:0:70:soft-hitclap31.wav
475,192,20991,1,0,0:0:0:70:soft-hitwhistle31.wav
402,192,21349,1,0,0:0:0:70:soft-hitwhistle31.wav
329,192,21706,1,0,0:0:0:70:soft-hitwhistle31.wav
109,192,21944,1,0,0:0:0:70:soft-hitwhistle31.wav
182,192,22301,1,0,0:0:0:70:soft-hitclap31.wav
256,192,22658,1,0,0:0:0:70:soft-hitclap31.wav
36,192,22896,1,0,0:0:0:70:soft-hitwhistle31.wav
109,192,23253,1,0,0:0:0:70:soft-hitclap31.wav
182,192,23611,1,0,0:0:0:70:soft-hitwhistle31.wav
402,192,23849,1,0,0:0:0:70:soft-hitwhistle31.wav
256,192,24206,1,0,0:0:0:70:soft-hitwhistle31.wav
109,192,24563,1,0,0:0:0:70:soft-hitwhistle31.wav
475,192,24801,1,0,0:0:0:70:soft-hitwhistle31.wav
256,192,25158,1,0,0:0:0:70:soft-hitwhistle31.wav
36,192,25515,1,0,0:0:0:70:soft-hitwhistle31.wav
475,192,25753,128,0,26706:0:0:0:70:soft-hitwhistle31.wav
182,192,26706,128,0,27420:0:0:0:70:soft-hitwhistle31.wav
329,192,27420,1,0,0:0:0:70:soft-hitwhistle31.wav
36,192,27658,1,0,0:0:0:70:soft-hitwhistle31.wav
475,192,33372,5,0,0:0:0:70:soft-hitwhistle31.wav
36,192,33730,1,0,0:0:0:70:soft-hitwhistle31.wav
402,192,34206,1,0,0:0:0:70:soft-hitwhistle31.wav
109,192,34563,1,0,0:0:0:70:soft-hitwhistle31.wav
329,192,34801,1,0,0:0:0:70:soft-hitwhistle31.wav
256,192,35039,1,0,0:0:0:70:soft-hitwhistle31.wav
182,192,35277,1,0,0:0:0:70:soft-hitwhistle31.wav
475,192,35634,1,0,0:0:0:70:soft-hitwhistle31.wav
329,192,35872,1,0,0:0:0:70:soft-hitwhistle31.wav
109,192,36111,1,0,0:0:0:70:soft-hitwhistle31.wav
402,192,36706,1,0,0:0:0:70:soft-hitwhistle31.wav
256,192,37182,1,0,0:0:0:70:soft-hitwhistle31.wav
36,192,37539,1,0,0:0:0:70:soft-hitwhistle31.wav
182,192,37777,1,0,0:0:0:70:soft-hitwhistle31.wav
475,192,38015,1,0,0:0:0:70:soft-hitwhistle31.wav
109,192,38372,1,0,0:0:0:70:soft-hitwhistle31.wav
402,192,38611,1,0,0:0:0:70:soft-hitwhistle31.wav
256,192,39087,1,0,0:0:0:70:soft-hitwhistle31.wav
329,192,39444,1,0,0:0:0:70:soft-hitwhistle31.wav
182,192,39682,1,0,0:0:0:70:soft-hitwhistle31.wav
475,192,39920,1,0,0:0:0:70:soft-hitwhistle31.wav
109,192,40277,1,0,0:0:0:70:soft-hitwhistle31.wav
256,192,40515,128,0,40991:0:0:0:70:soft-hitwhistle31.wav
475,192,40991,1,0,0:0:0:70:soft-hitwhistle31.wav
182,192,41468,1,0,0:0:0:70:soft-hitwhistle31.wav
329,192,41825,1,0,0:0:0:70:soft-hitwhistle31.wav
36,192,42182,1,0,0:0:0:70:soft-hitclap31.wav
402,192,42420,1,0,0:0:0:70:soft-hitclap31.wav
256,192,42658,1,0,0:0:0:70:soft-hitclap31.wav
109,192,42896,128,0,44325:0:0:0:70:soft-hitwhistle31.wav
402,192,44325,128,0,44801:0:0:0:0:
36,192,44801,128,0,45753:0:0:0:0:
329,192,45753,128,0,46706:0:0:0:0:
475,192,46706,128,0,48134:0:0:0:0:
256,192,48134,128,0,48611:0:0:0:0:
109,192,48611,128,0,49563:0:0:0:0:
402,192,49563,128,0,50515:0:0:0:0:
182,192,50515,1,0,0:0:0:70:soft-hitwhistle31.wav
329,192,50872,1,0,0:0:0:70:soft-hitwhistle31.wav
182,192,51230,1,0,0:0:0:70:soft-hitwhistle31.wav
329,192,51587,1,0,0:0:0:70:soft-hitwhistle31.wav
182,192,51944,1,0,0:0:0:70:soft-hitwhistle31.wav
402,192,52420,1,0,0:0:0:70:soft-hitwhistle31.wav
109,192,52777,1,0,0:0:0:70:soft-hitwhistle31.wav
402,192,53134,1,0,0:0:0:70:soft-hitwhistle31.wav
109,192,53491,1,0,0:0:0:70:soft-hitwhistle31.wav
402,192,53849,1,0,0:0:0:70:soft-hitfinish34.wav
36,192,54325,1,0,0:0:0:70:soft-hitwhistle31.wav
475,192,54682,1,0,0:0:0:70:soft-hitwhistle31.wav
256,192,55039,1,0,0:0:0:70:soft-hitwhistle31.wav
36,192,55277,1,0,0:0:0:70:soft-hitwhistle31.wav
475,192,55634,1,0,0:0:0:70:soft-hitwhistle31.wav
256,192,55991,1,0,0:0:0:70:soft-hitwhistle31.wav
109,192,56230,128,0,57182:0:0:0:70:soft-hitwhistle31.wav
329,192,57182,1,0,0:0:0:70:soft-hitwhistle31.wav
182,192,57658,1,0,0:0:0:70:soft-hitwhistle31.wav
402,192,58134,128,0,59087:0:0:0:70:soft-hitwhistle31.wav
36,192,59087,128,0,60039:0:0:0:70:soft-hitclap31.wav
475,192,60039,1,0,0:0:0:70:soft-hitwhistle31.wav
109,192,60515,1,0,0:0:0:70:soft-hitwhistle31.wav
402,192,60991,1,0,0:0:0:70:soft-hitwhistle31.wav
182,192,61468,1,0,0:0:0:70:soft-hitwhistle31.wav
329,192,61944,1,0,0:0:0:70:soft-hitwhistle31.wav
109,192,62420,1,0,0:0:0:70:soft-hitwhistle31.wav
256,192,62658,128,0,63849:0:0:0:70:soft-hitwhistle31.wav
109,192,63849,1,0,0:0:0:70:soft-hitclap31.wav
182,192,64325,1,0,0:0:0:70:soft-hitclap31.wav
402,192,64801,1,0,0:0:0:70:soft-hitwhistle31.wav
329,192,65277,1,0,0:0:0:70:soft-hitwhistle31.wav
256,192,65753,128,0,67658:0:0:0:70:soft-hitwhistle31.wav
182,192,67658,128,0,69087:0:0:0:70:soft-hitwhistle31.wav
109,192,69087,1,0,0:0:0:70:soft-hitwhistle31.wav
329,192,69563,128,0,71468:0:0:0:70:soft-hitwhistle31.wav
475,192,71468,128,0,72420:0:0:0:0:
109,192,72420,1,0,0:0:0:70:soft-hitwhistle31.wav
256,192,72539,1,0,0:0:0:70:soft-hitwhistle31.wav
402,192,72658,1,0,0:0:0:70:soft-hitwhistle31.wav
182,192,73134,1,0,0:0:0:70:soft-hitclap31.wav
329,192,73372,1,0,0:0:0:70:soft-hitwhistle31.wav
256,192,73730,1,0,0:0:0:70:soft-hitwhistle31.wav
182,192,74087,1,0,0:0:0:70:soft-hitwhistle31.wav
109,192,74444,1,0,0:0:0:70:soft-hitwhistle31.wav
36,192,74801,1,0,0:0:0:70:soft-hitwhistle31.wav
329,192,75277,1,0,0:0:0:70:soft-hitwhistle31.wav
256,192,75634,1,0,0:0:0:70:soft-hitwhistle31.wav
182,192,75991,1,0,0:0:0:70:soft-hitwhistle31.wav
402,192,76349,1,0,0:0:0:70:soft-hitwhistle31.wav
109,192,76706,1,0,0:0:0:70:soft-hitwhistle31.wav
475,192,77182,1,0,0:0:0:70:soft-hitwhistle31.wav
402,192,77539,1,0,0:0:0:70:soft-hitwhistle31.wav
329,192,77896,1,0,0:0:0:70:soft-hitwhistle31.wav
256,192,78253,1,0,0:0:0:70:soft-hitwhistle31.wav
182,192,78611,1,0,0:0:0:70:soft-hitwhistle31.wav
109,192,79087,1,0,0:0:0:70:soft-hitwhistle31.wav
256,192,79444,1,0,0:0:0:70:soft-hitwhistle31.wav
402,192,79801,1,0,0:0:0:70:soft-hitwhistle31.wav
36,192,80158,1,0,0:0:0:70:soft-hitwhistle31.wav
182,192,80515,1,0,0:0:0:70:soft-hitwhistle31.wav
329,192,80753,1,0,0:0:0:70:soft-hitwhistle31.wav
475,192,80991,1,0,0:0:0:70:soft-hitfinish31.wav
182,192,81468,1,0,0:0:0:70:soft-hitwhistle31.wav
329,192,81944,1,0,0:0:0:70:soft-hitwhistle31.wav
475,192,82420,1,0,0:0:0:70:soft-hitwhistle31.wav
109,192,82896,1,0,0:0:0:70:soft-hitwhistle31.wav
402,192,83372,1,0,0:0:0:70:soft-hitwhistle31.wav
256,192,83849,1,0,0:0:0:70:soft-hitwhistle31.wav
36,192,84325,1,0,0:0:0:70:soft-hitwhistle31.wav
329,192,84801,1,0,0:0:0:70:soft-hitfinish31.wav
109,192,85277,1,0,0:0:0:70:soft-hitwhistle31.wav
256,192,85753,1,0,0:0:0:70:soft-hitclap31.wav
475,192,86230,1,0,0:0:0:70:soft-hitwhistle31.wav
36,192,86706,128,0,87658:0:0:0:70:soft-hitwhistle31.wav
256,192,87658,128,0,88611:0:0:0:70:soft-hitwhistle31.wav
475,192,88611,1,0,0:0:0:70:soft-hitwhistle31.wav
329,192,88968,1,0,0:0:0:70:soft-hitwhistle31.wav
36,192,89325,1,0,0:0:0:70:soft-hitwhistle31.wav
182,192,89682,1,0,0:0:0:70:soft-hitwhistle31.wav
256,192,90039,1,0,0:0:0:70:soft-hitwhistle31.wav
402,192,90515,1,0,0:0:0:70:soft-hitwhistle31.wav
329,192,90991,1,0,0:0:0:70:soft-hitwhistle31.wav
36,192,91468,1,0,0:0:0:70:soft-hitwhistle31.wav
182,192,91944,1,0,0:0:0:70:soft-hitwhistle31.wav
475,192,92420,1,0,0:0:0:70:soft-hitwhistle31.wav
256,192,92896,1,0,0:0:0:70:soft-hitwhistle31.wav
402,192,93372,1,0,0:0:0:70:soft-hitwhistle31.wav
182,192,93849,1,0,0:0:0:70:soft-hitwhistle31.wav
109,192,94087,1,0,0:0:0:70:soft-hitwhistle31.wav
36,192,94325,1,0,0:0:0:70:soft-hitfinish31.wav
329,192,94801,1,0,0:0:0:70:soft-hitwhistle31.wav
475,192,95277,1,0,0:0:0:70:soft-hitwhistle31.wav
256,192,95753,128,0,96230:0:0:0:70:soft-hitwhistle31.wav
36,192,96230,1,0,0:0:0:70:soft-hitwhistle31.wav
475,192,96706,1,0,0:0:0:70:soft-hitfinish31.wav
36,192,97182,1,0,0:0:0:70:soft-hitwhistle31.wav
475,192,97658,1,0,0:0:0:70:soft-hitwhistle31.wav
109,192,98134,1,0,0:0:0:70:soft-hitwhistle31.wav
402,192,98611,1,0,0:0:0:70:soft-hitfinish34.wav
256,192,99087,1,0,0:0:0:70:soft-hitfinish34.wav
329,192,99325,1,0,0:0:0:70:soft-hitwhistle31.wav
402,192,99563,1,0,0:0:0:70:soft-hitfinish34.wav
182,192,99801,1,0,0:0:0:70:soft-hitwhistle31.wav
109,192,100039,1,0,0:0:0:70:soft-hitwhistle31.wav
329,192,100515,1,0,0:0:0:70:soft-hitfinish34.wav
475,192,100991,1,0,0:0:0:70:soft-hitwhistle31.wav
402,192,101230,1,0,0:0:0:70:soft-hitwhistle31.wav
36,192,101468,1,0,0:0:0:70:soft-hitwhistle31.wav
182,192,101706,1,0,0:0:0:70:soft-hitwhistle31.wav
329,192,101944,1,0,0:0:0:70:soft-hitfinish31.wav
256,192,102301,1,0,0:0:0:70:soft-hitfinish31.wav
182,192,102658,1,0,0:0:0:70:soft-hitwhistle31.wav
109,192,103015,1,0,0:0:0:70:soft-hitwhistle31.wav
36,192,103372,128,0,103849:0:0:0:70:soft-hitwhistle31.wav
475,192,103849,1,0,0:0:0:70:soft-hitwhistle31.wav
329,192,104325,1,0,0:0:0:70:soft-hitwhistle31.wav
36,192,104801,1,0,0:0:0:70:soft-hitwhistle31.wav
402,192,105277,1,0,0:0:0:70:soft-hitfinish34.wav
182,192,105753,1,0,0:0:0:70:soft-hitwhistle31.wav
256,192,106111,1,0,0:0:0:70:soft-hitwhistle31.wav
329,192,106468,1,0,0:0:0:70:soft-hitclap31.wav
402,192,106825,1,0,0:0:0:70:soft-hitclap31.wav
475,192,107182,128,0,107658:0:0:0:70:soft-hitwhistle31.wav
109,192,107658,1,0,0:0:0:70:soft-hitclap31.wav
402,192,108134,1,0,0:0:0:70:soft-hitwhistle31.wav
36,192,108611,1,0,0:0:0:70:soft-hitwhistle31.wav
256,192,109087,1,0,0:0:0:70:soft-hitwhistle31.wav
475,192,109563,1,0,0:0:0:70:soft-hitwhistle31.wav
182,192,110039,128,0,111468:0:0:0:23:soft-hitwhistle31.wav
329,192,111468,128,0,112420:0:0:0:35:soft-hitwhistle31.wav
109,192,112420,128,0,113372:0:0:0:23:soft-hitwhistle31.wav
475,192,113372,1,0,0:0:0:70:soft-hitwhistle31.wav
36,192,113849,1,0,0:0:0:70:soft-hitfinish32.wav
402,192,114325,1,0,0:0:0:70:soft-hitwhistle31.wav
109,192,114563,1,0,0:0:0:70:soft-hitfinish34.wav
329,192,114801,1,0,0:0:0:70:soft-hitwhistle31.wav
182,192,115039,1,0,0:0:0:70:soft-hitwhistle31.wav
256,192,115277,1,0,0:0:0:70:soft-hitfinish32.wav
109,192,115634,1,0,0:0:0:70:soft-hitwhistle31.wav
402,192,115991,1,0,0:0:0:70:soft-hitwhistle31.wav
36,192,116349,1,0,0:0:0:70:soft-hitwhistle31.wav
329,192,116468,1,0,0:0:0:70:soft-hitwhistle31.wav
256,192,116706,1,0,0:0:0:70:soft-hitwhistle31.wav
182,192,116944,1,0,0:0:0:70:soft-hitwhistle31.wav
475,192,117063,1,0,0:0:0:70:soft-hitwhistle31.wav
329,192,117420,128,0,119087:0:0:0:23:soft-hitwhistle31.wav
36,192,119087,1,0,0:0:0:23:soft-hitwhistle31.wav
475,192,119206,1,0,0:0:0:23:soft-hitwhistle31.wav
