osu file format v14

[General]
AudioFilename: audio.mp3
AudioLeadIn: 0
PreviewTime: 73241
Countdown: 0
SampleSet: Soft
StackLeniency: 0.7
Mode: 0
LetterboxInBreaks: 0
WidescreenStoryboard: 0

[Editor]
DistanceSpacing: 0.7
BeatDivisor: 4
GridSize: 4
TimelineZoom: 3.599998

[Metadata]
Title:Last Resort
TitleUnicode:Last Resort
Artist:xi
ArtistUnicode:xi
Creator:Kroytz
Version:1112's EXHAUST
Source:SOUND VOLTEX IV HEAVENLY HAVEN
Tags:The 7th Konami Arcade Championship Original Song Contest Winner Bemani KAC SDVX Video Rhythm Game Instrumental DJPop SnowNiNo_ C00l Cool 1112deng Suzuki_1112 Otosaka-Yu Elsa Valentine xLolicore- Realazy toybot vikala R3m AncuL Murumoo Tails Reba Wonki Blasticide Lolicide bsc _Streamy_ jakads
BeatmapID:1679782
BeatmapSetID:800102

[Difficulty]
HPDrainRate:5
CircleSize:4
OverallDifficulty:8
ApproachRate:9.5
SliderMultiplier:2
SliderTickRate:1

[Events]
//Background and Video events
0,0,"BG.jpg",0,0
//Break Periods
2,3084,6169
2,27846,32835
//Storyboard Layer 0 (Background)
//Storyboard Layer 1 (Fail)
//Storyboard Layer 2 (Pass)
//Storyboard Layer 3 (Foreground)
//Storyboard Layer 4 (Overlay)
//Storyboard Sound Samples

[TimingPoints]
992,-100,4,2,31,80,0,0
992,238.095238095238,4,2,31,80,1,0
1944,-100,4,2,34,80,0,0
2182,-100,4,2,32,80,0,0
2539,-100,4,2,31,40,0,0
2658,-100,4,2,31,80,0,0
6706,-66.6666666666667,4,2,34,80,0,0
6884,-66.6666666666667,4,2,34,5,0,0
6944,-66.6666666666667,4,2,34,80,0,0
7122,-66.6666666666667,4,2,34,5,0,0
7182,-66.6666666666667,4,2,34,80,0,0
7361,-66.6666666666667,4,2,34,5,0,0
7420,-66.6666666666667,4,2,34,80,0,0
7599,-66.6666666666667,4,2,34,5,0,0
7658,-66.6666666666667,4,2,34,80,0,0
7837,-66.6666666666667,4,2,34,20,0,0
7896,-66.6666666666667,4,2,34,80,0,0
8075,-66.6666666666667,4,2,34,20,0,0
8134,-66.6666666666667,4,2,34,80,0,0
8313,-66.6666666666667,4,2,34,20,0,0
8372,-66.6666666666667,4,2,34,80,0,0
8551,-66.6666666666667,4,2,34,20,0,0
8611,-66.6666666666667,4,2,34,80,0,0
10515,-66.6666666666667,4,2,31,80,0,0
11230,-133.333333333333,4,2,31,80,0,0
11468,-133.333333333333,4,2,34,80,0,0
11587,-100,4,2,33,80,0,0
11706,-100,4,2,34,80,0,0
11825,-100,4,2,33,80,0,0
11944,-100,4,2,34,80,0,0
12182,-100,4,2,33,80,0,0
12301,-100,4,2,34,80,0,0
12420,-100,4,2,31,65,0,0
19444,-100,4,2,33,65,0,0
19563,-100,4,2,31,65,0,0
19682,-100,4,2,33,65,0,0
19801,-100,4,2,31,72,0,0
20039,-83.3333333333333,4,2,31,80,0,0
23849,-100,4,2,31,80,0,0
25753,-100,4,2,31,60,0,0
26706,-100,4,2,33,80,0,0
27420,-100,4,2,34,80,0,0
27658,-100,4,2,31,80,0,0
33372,-100,4,2,34,80,0,0
34206,-100,4,2,31,80,0,0
34920,-100,4,2,32,80,0,0
34980,-100,4,2,33,80,0,0
35277,-133.333333333333,4,2,31,80,0,0
35515,-133.333333333333,4,2,32,80,0,0
36051,-133.333333333333,4,2,32,5,0,0
36111,-133.333333333333,4,2,32,80,0,0
38253,-133.333333333333,4,2,32,80,0,0
39087,-133.333333333333,4,2,31,80,0,0
39325,-133.333333333333,4,2,32,80,0,0
40991,-100,4,2,31,80,0,0
41170,-100,4,2,31,5,0,0
41230,-100,4,2,32,80,0,0
41825,-100,4,2,31,80,0,0
42420,-100,4,2,31,78,0,0
42480,-100,4,2,31,76,0,0
42539,-100,4,2,31,74,0,0
42599,-100,4,2,31,72,0,0
42658,-100,4,2,31,70,0,0
42718,-100,4,2,31,68,0,0
42777,-100,4,2,31,66,0,0
42837,-100,4,2,31,64,0,0
42896,-133.333333333333,4,2,31,60,0,0
44325,-133.333333333333,4,2,2,60,0,0
50277,-133.333333333333,4,2,31,80,0,0
50515,-100,4,2,31,80,0,0
51944,-100,4,2,34,80,0,0
52420,-100,4,2,31,80,0,0
53849,-100,4,2,34,80,0,0
54325,-100,4,2,31,80,0,0
54980,-100,4,2,31,5,0,0
55039,-100,4,2,31,80,0,0
57182,-100,4,2,31,80,0,0
57301,-100,4,2,31,5,0,0
57361,-100,4,2,31,80,0,0
57480,-100,4,2,31,5,0,0
57539,-50,4,2,31,80,0,0
57658,-100,4,2,31,80,0,0
57777,-100,4,2,31,5,0,0
57837,-100,4,2,31,80,0,0
57956,-100,4,2,31,5,0,0
58015,-50,4,2,31,80,0,0
58134,-100,4,2,33,80,0,0
58849,-100,4,2,34,80,0,0
59087,-100,4,2,33,80,0,0
59801,-100,4,2,34,80,0,0
60039,-76.9230769230769,4,2,31,80,0,0
60991,-66.6666666666667,4,2,32,80,0,0
61468,-66.6666666666667,4,2,34,80,0,0
61944,-76.9230769230769,4,2,34,80,0,0
62420,-76.9230769230769,4,2,32,80,0,0
62658,-76.9230769230769,4,2,31,80,0,0
63789,-76.9230769230769,4,2,31,5,0,0
63849,-100,4,2,31,60,0,0
64325,-100,4,2,31,65,0,0
64801,-76.9230769230769,4,2,31,70,0,0
65277,-76.9230769230769,4,2,31,75,0,0
65753,-100,4,2,34,80,0,0
69563,-100,4,2,31,80,0,0
71468,-100,4,2,31,40,0,0
72420,-100,4,2,32,80,0,0
72896,-133.333333333333,4,2,32,60,0,0
73075,-133.333333333333,4,2,32,5,0,0
73134,-66.6666666666667,4,2,32,80,0,0
73313,-66.6666666666667,4,2,31,5,0,0
73372,-83.3333333333333,4,2,31,80,0,1
76587,-83.3333333333333,4,2,31,80,0,1
78134,-83.3333333333333,4,2,31,80,0,1
80991,-83.3333333333333,4,2,34,80,0,1
81111,-83.3333333333333,4,2,31,80,0,1
84444,-83.3333333333333,4,2,31,40,0,1
84563,-83.3333333333333,4,2,31,80,0,1
84682,-83.3333333333333,4,2,31,40,0,1
84801,-83.3333333333333,4,2,31,80,0,1
86230,-83.3333333333333,4,2,32,80,0,1
86468,-100,4,2,31,40,0,1
86527,-100,4,2,31,50,0,1
86587,-100,4,2,31,60,0,1
86646,-100,4,2,31,70,0,1
86706,-100,4,2,34,80,0,1
87658,-66.6666666666667,4,2,33,80,0,1
88611,-66.6666666666667,4,2,32,80,0,1
89563,-66.6666666666667,4,2,32,40,0,1
89682,-66.6666666666667,4,2,32,80,0,1
89920,-66.6666666666667,4,2,32,40,0,1
90039,-133.333333333333,4,2,32,80,0,1
90277,-66.6666666666667,4,2,35,80,0,1
90515,-133.333333333333,4,2,31,80,0,0
97182,-133.333333333333,4,2,34,80,0,0
97301,-133.333333333333,4,2,31,80,0,0
97420,-133.333333333333,4,2,34,80,0,0
97539,-133.333333333333,4,2,31,80,0,0
97658,-133.333333333333,4,2,34,80,0,0
97896,-133.333333333333,4,2,31,80,0,0
98134,-100,4,2,34,80,0,0
101944,-100,4,2,31,80,0,0
104801,-83.3333333333333,4,2,34,80,0,0
104920,-83.3333333333333,4,2,33,80,0,0
105039,-83.3333333333333,4,2,34,80,0,0
105158,-83.3333333333333,4,2,33,80,0,0
105277,-83.3333333333333,4,2,34,80,0,0
105515,-83.3333333333333,4,2,33,80,0,0
105634,-83.3333333333333,4,2,31,80,0,0
105753,-100,4,2,31,80,0,0
108611,-66.6666666666667,4,2,34,80,0,0
108730,-66.6666666666667,4,2,33,80,0,0
108849,-66.6666666666667,4,2,34,80,0,0
108968,-66.6666666666667,4,2,33,80,0,0
109087,-133.333333333333,4,2,34,80,0,0
109325,-133.333333333333,4,2,33,80,0,0
109444,-133.333333333333,4,2,34,80,0,0
109563,-133.333333333333,4,2,31,80,0,0
109622,-133.333333333333,4,2,31,5,0,0
109980,-133.333333333333,4,2,31,5,0,0
110039,-100,4,2,31,80,0,0
112896,-100,4,2,33,80,0,0
113372,-83.3333333333333,4,2,32,80,0,1
113611,-83.3333333333333,4,2,32,40,0,1
113849,-83.3333333333333,4,2,32,80,0,1
114087,-83.3333333333333,4,2,32,40,0,1
114325,-83.3333333333333,4,2,34,80,0,1
114444,-83.3333333333333,4,2,34,40,0,1
114563,-83.3333333333333,4,2,34,80,0,1
114682,-83.3333333333333,4,2,34,40,0,1
114801,-83.3333333333333,4,2,34,80,0,1
114920,-83.3333333333333,4,2,34,80,0,1
115277,-83.3333333333333,4,2,32,80,0,1
115396,-76.9230769230769,4,2,32,80,0,1
115515,-76.9230769230769,4,2,32,60,0,1
115634,-76.9230769230769,4,2,32,80,0,1
115872,-76.9230769230769,4,2,32,60,0,1
115991,-76.9230769230769,4,2,32,80,0,1
116230,-76.9230769230769,4,2,32,60,0,1
116349,-76.9230769230769,4,2,32,80,0,1
117063,-192.307692307692,4,2,32,80,0,1
117122,-192.307692307692,4,2,31,5,0,1
117420,-200,4,2,31,80,0,0
118968,-200,4,2,31,5,0,0
119087,-200,4,2,32,80,0,0

[Colours]
Combo1 : 61,70,78
Combo2 : 42,72,82
Combo3 : 74,130,131
Combo4 : 155,151,164

[HitObjects]
151,82,992,5,6,0:0:0:0:
97,283,1230,2,0,B|46:275|46:275|16:216,1,100
184,267,1468,2,0,B|142:297|142:297|79:276,1,100
235,194,1706,5,2,0:0:0:0:
231,218,1765,1,2,0:0:0:0:
227,243,1825,1,2,0:1:0:0:
206,255,1884,1,2,0:1:0:0:
184,267,1944,5,6,0:0:0:0:
425,294,2063,1,2,0:0:0:0:
425,294,2122,1,2,0:0:0:0:
425,294,2182,1,6,0:0:0:0:
394,116,2301,6,0,B|367:214|367:214|443:320,1,200,6|0,0:0|0:0,0:0:0:0:
493,236,2658,1,2,0:0:0:0:
502,212,2718,1,2,0:0:0:0:
512,189,2777,1,2,0:0:0:0:
495,172,2837,1,2,0:0:0:0:
476,153,2896,5,6,0:0:0:0:
71,46,6706,6,0,B|85:110|85:110|70:155|70:155|86:197|86:197|66:323,1,225.000008583069,6|0,0:0|0:0,0:0:0:0:
110,377,6944,2,0,B|174:363|174:363|219:378|219:378|261:362|261:362|387:382,1,225.000008583069,6|0,0:0|0:0,0:0:0:0:
441,338,7182,2,0,B|427:274|427:274|442:229|442:229|426:187|426:187|446:61,1,225.000008583069,6|0,0:0|0:0,0:0:0:0:
402,7,7420,2,0,B|338:21|338:21|293:6|293:6|251:22|251:22|125:2,1,225.000008583069,6|0,0:0|0:0,0:0:0:0:
71,46,7658,6,0,B|61:145|165:183|165:183|160:227,1,225.000008583069,6|0,0:0|0:0,0:0:0:0:
110,377,7896,2,0,B|209:387|247:283|247:283|291:288,1,225.000008583069,6|0,0:0|0:0,0:0:0:0:
441,338,8134,2,0,B|451:239|347:201|347:201|352:157,1,225.000008583069,6|0,0:0|0:0,0:0:0:0:
402,7,8372,2,0,B|303:-3|265:101|265:101|221:96,1,225.000008583069,6|0,0:0|0:0,0:0:0:0:
184,11,8611,6,0,B|197:142|292:54|304:210,1,225.000008583069,14|0,0:0|0:0,0:0:0:0:
328,373,8849,2,0,B|314:241|219:329|207:173,1,225.000008583069,14|0,0:0|0:0,0:0:0:0:
437,120,9087,2,0,B|305:133|393:228|237:240,1,225.000008583069,14|0,0:0|0:0,0:0:0:0:
75,264,9325,2,0,B|206:250|118:155|274:143,1,225.000008583069,14|0,0:0|0:0,0:0:0:0:
437,120,9563,6,0,B|407:166|424:199|424:199|400:232|400:232|418:280|366:344,1,200.000007629395,14|8,0:0|0:0,0:0:0:0:
328,373,9801,2,0,B|282:343|249:360|249:360|216:336|216:336|168:354|104:302,1,200.000007629395,14|8,0:0|0:0,0:0:0:0:
75,264,10039,2,0,B|105:218|88:185|88:185|112:152|112:152|94:104|146:40,1,200.000007629395,14|8,0:0|0:0,0:0:0:0:
184,11,10277,2,0,B|230:41|263:24|263:24|296:48|296:48|344:30|408:82,1,200.000007629395,14|8,0:0|0:0,0:0:0:0:
437,120,10515,5,14,0:0:0:0:
437,120,11230,2,0,L|509:115,3,37.5000014305115,2|2|2|2,0:0|0:0|0:0|0:0,0:0:0:0:
510,191,11468,5,14,0:0:0:0:
378,218,11587,2,0,L|332:211,4,25,2|2|2|2|14,0:1|0:1|0:1|0:1|0:0,0:0:0:0:
337,290,11825,2,0,L|291:283,4,25,2|2|2|2|14,0:1|0:1|0:1|0:1|0:0,0:0:0:0:
288,364,12063,1,2,0:0:0:0:
288,364,12122,1,2,0:0:0:0:
288,364,12182,6,0,L|242:357,6,25,14|2|2|2|2|0|2,0:1|0:1|0:1|0:1|0:0|0:0|0:0,0:0:0:0:
236,252,12420,6,0,P|187:280|156:332,1,100,14|0,0:0|0:0,0:0:0:0:
69,303,12658,2,0,P|40:254|-11:223,1,100
15,140,12896,2,0,P|63:111|94:59,1,100
181,89,13134,2,0,P|209:137|261:168,1,100
276,252,13372,6,0,P|324:280|355:332,1,100,0|2,0:0|0:0,0:0:0:0:
443,303,13611,2,0,P|471:254|523:223,1,100
497,140,13849,2,0,P|448:111|417:59,1,100,2|0,0:0|0:0,0:0:0:0:
331,89,14087,2,0,P|302:137|250:168,1,100,2|2,0:0|0:0,0:0:0:0:
191,177,14265,1,2,0:0:0:0:
191,177,14325,6,0,B|198:125|198:125|165:51,1,100,2|0,0:0|0:0,0:0:0:0:
137,232,14563,2,0,B|85:225|85:225|11:258,1,100
190,287,14801,2,0,B|183:339|183:339|216:413,1,100
244,232,15039,2,0,B|296:239|296:239|370:206,1,100
490,357,15277,6,0,B|438:350|438:350|364:383,1,100,0|2,0:0|0:0,0:0:0:0:
247,247,15515,2,0,B|299:254|299:254|373:221,1,100
487,341,15753,5,2,0:0:0:0:
462,337,15813,1,0,0:0:0:0:
437,334,15872,1,0,0:0:0:0:
414,343,15932,1,0,0:0:0:0:
391,353,15991,1,2,0:0:0:0:
454,238,16111,1,0,0:0:0:0:
454,238,16170,1,2,0:0:0:0:
454,238,16230,6,0,L|459:104,1,100,6|0,0:0|0:0,0:0:0:0:
342,234,16468,2,0,L|347:100,1,100
461,38,16706,2,0,L|457:137,1,100
349,34,16944,2,0,L|345:133,1,100
166,134,17182,6,0,L|170:234,1,100,0|2,0:0|0:0,0:0:0:0:
54,138,17420,2,0,L|58:238,1,100
51,38,17658,2,0,L|54:137,1,100,2|0,0:0|0:0,0:0:0:0:
163,34,17896,2,0,L|166:133,1,100,2|2,0:0|0:0,0:0:0:0:
263,180,18075,1,2,0:0:0:0:
263,180,18134,6,0,B|278:208|283:226|283:226|318:234|357:265,1,100,2|0,0:0|0:0,0:0:0:0:
235,358,18372,2,0,B|220:330|215:312|215:312|180:304|141:273,1,100
340,289,18611,2,0,B|312:304|294:309|294:309|286:344|255:383,1,100
162,261,18849,2,0,B|190:246|208:241|208:241|216:206|247:167,1,100
343,183,19087,5,0,0:0:0:0:
512,205,19206,1,2,0:0:0:0:
374,107,19325,1,2,0:0:0:0:
497,123,19444,1,2,0:1:0:0:
442,49,19563,6,0,L|446:-1,3,50,2|2|2|2,0:0|0:0|0:1|0:1,0:0:0:0:
440,66,19801,2,0,L|428:203,1,100,2|2,0:0|0:0,0:0:0:0:
420,281,20039,6,0,B|469:312|469:312|357:346|357:346|294:303,1,239.999992675781,14|0,0:0|0:0,0:0:0:0:
218,48,20396,2,0,B|257:130|257:130|296:158|296:158|347:248,1,239.999992675781,10|0,0:0|0:0,0:0:0:0:
220,347,20753,2,0,B|212:288|212:288|267:226,1,119.999996337891,10|0,0:0|0:0,0:0:0:0:
371,115,20991,6,0,B|303:68|303:68|102:95,1,239.999992675781,10|0,0:0|0:0,0:0:0:0:
3,163,21349,2,0,B|55:89|55:89|40:261,1,239.999992675781,10|0,0:0|0:0,0:0:0:0:
86,345,21706,2,0,B|118:327|118:327|126:213,1,119.999996337891,10|0,0:0|0:0,0:0:0:0:
10,10,21944,6,0,B|-17:154|84:85|38:250,1,239.999992675781,10|0,0:0|0:0,0:0:0:0:
178,316,22301,2,0,B|205:172|104:241|150:76,1,239.999992675781,10|0,0:0|0:0,0:0:0:0:
105,0,22658,2,0,P|162:-9|226:32,1,119.999996337891,10|0,0:0|0:0,0:0:0:0:
294,134,22896,5,10,0:0:0:0:
511,103,23015,1,0,0:0:0:0:
419,232,23134,1,0,0:0:0:0:
388,15,23253,1,10,0:0:0:0:
511,103,23372,6,0,B|529:168|529:168|485:229,1,119.999996337891
328,249,23551,1,0,0:0:0:0:
328,249,23611,2,0,B|310:314|310:314|354:375,1,119.999996337891,10|2,0:0|0:0,0:0:0:0:
197,221,23849,6,0,L|128:231,4,50,6|2|2|2|2,0:0|0:0|0:0|0:0|0:0,0:0:0:0:
260,302,24206,1,2,0:0:0:0:
229,142,24325,1,2,0:0:0:0:
199,146,24384,1,2,0:0:0:0:
169,150,24444,1,2,0:0:0:0:
139,154,24503,1,2,0:0:0:0:
109,158,24563,1,2,0:0:0:0:
384,171,24682,1,2,0:0:0:0:
384,171,24741,1,2,0:0:0:0:
384,171,24801,6,0,L|453:181,4,50,6|2|2|2|2,0:0|0:0|0:0|0:0|0:0,0:0:0:0:
321,252,25158,1,2,0:0:0:0:
339,89,25277,1,2,0:0:0:0:
368,93,25337,1,2,0:0:0:0:
398,97,25396,1,2,0:1:0:0:
428,101,25456,1,2,0:1:0:0:
458,105,25515,1,2,0:0:0:0:
512,200,25634,1,2,0:1:0:0:
439,269,25753,6,0,L|446:341,3,50,14|0|0|0,0:0|0:0|0:0|0:0,0:0:0:0:
379,220,25991,2,0,L|386:148,3,50
319,316,26230,6,0,L|326:388,3,50
214,296,26468,2,0,L|221:224,3,50
130,283,26706,5,6,0:0:0:0:
104,257,26765,1,6,0:0:0:0:
97,223,26825,1,6,0:0:0:0:
109,189,26884,1,6,0:0:0:0:
137,168,26944,1,6,0:0:0:0:
172,166,27003,1,6,0:0:0:0:
203,183,27063,1,6,0:0:0:0:
220,215,27122,1,6,0:0:0:0:
218,246,27182,6,0,L|291:255,4,50,6|6|6|6|10,0:0|0:0|0:0|0:0|0:1,0:0:0:0:
375,177,27658,5,6,0:0:0:0:
394,84,33372,5,6,0:0:0:0:
418,184,33491,1,0,0:0:0:0:
418,184,33551,1,0,0:0:0:0:
418,184,33611,1,0,0:0:0:0:
323,142,33730,2,0,B|248:131|248:131|205:145|205:145|87:130,1,200,6|0,0:0|0:0,0:0:0:0:
176,60,34087,1,0,0:0:0:0:
0,206,34206,6,0,P|60:243|191:203,1,200,6|2,0:0|0:0,0:0:0:0:
323,142,34563,2,0,L|316:18,1,100,6|0,0:0|0:0,0:0:0:0:
476,126,34801,6,0,L|414:120,3,50,6|0|6|6,0:0|0:0|0:0|0:0,0:0:0:0:
470,200,35039,2,0,L|408:194,3,50,6|6|6|6,0:0|0:0|0:0|0:0,0:0:0:0:
374,259,35277,5,6,0:0:0:0:
427,331,35396,1,0,0:0:0:0:
427,331,35456,1,0,0:0:0:0:
427,331,35515,1,0,0:0:0:0:
374,259,35634,2,0,L|277:263,1,75.0000028610231,2|10,0:0|0:1,0:0:0:0:
245,317,35872,6,0,P|262:275|227:206,1,112.500004291535,2|0,0:0|0:0,0:0:0:0:
221,191,36111,2,0,B|173:194|173:194|132:179|132:179|61:184,1,150.000005722046,2|8,0:0|0:1,0:0:0:0:
50,183,36408,1,0,0:0:0:0:
27,184,36468,2,0,P|17:135|27:96,1,75.0000028610231,2|0,0:0|0:0,0:0:0:0:
53,24,36706,2,0,B|207:32,1,150.000005722046,10|2,0:1|0:0,0:0:0:0:
288,46,37063,1,2,0:0:0:0:
376,57,37182,6,0,P|442:124|342:175,1,225.000008583069,2|2,0:0|0:0,0:0:0:0:
286,221,37658,2,0,P|276:176|288:137,1,75.0000028610231,10|2,0:1|0:0,0:0:0:0:
282,148,38015,6,0,L|287:313,1,150.000005722046,2|8,0:0|0:1,0:0:0:0:
215,358,38372,1,2,0:0:0:0:
103,298,38611,6,0,L|46:303,3,37.5000014305115,10|0|0|0,0:1|0:0|0:0|0:0,0:0:0:0:
111,275,38849,2,0,L|168:280,3,37.5000014305115,2|0|2|0,0:0|0:0|0:0|0:0,0:0:0:0:
118,252,39087,6,0,L|111:154,1,75.0000028610231,6|0,0:0|0:0,0:0:0:0:
85,146,39265,1,0,0:0:0:0:
55,121,39325,2,0,L|48:23,1,75.0000028610231,0|2,0:0|0:0,0:0:0:0:
160,6,39563,1,10,0:1:0:0:
160,6,39682,2,0,B|222:-8|202:47|269:29,1,112.500004291535,2|0,0:0|0:0,0:0:0:0:
288,12,39920,6,0,P|262:84|293:164,1,150.000005722046,2|8,0:0|0:1,0:0:0:0:
283,151,40218,1,0,0:0:0:0:
283,151,40277,1,2,0:0:0:0:
396,178,40396,2,0,B|402:141|402:141|386:90,1,75.0000028610231,0|10,0:0|0:1,0:0:0:0:
308,233,40634,2,0,L|249:238,5,37.5000014305115,0|0|2|0|0|0,0:0|0:0|0:0|0:0|0:0|0:0,0:0:0:0:
340,262,40991,6,0,L|199:255,1,100,6|0,0:0|0:0,0:0:0:0:
164,166,41230,2,0,B|154:200|154:200|171:267,2,66.6666666666667,2|2|2,0:0|0:0|0:0,0:0:0:0:
246,138,41468,1,6,0:0:0:0:
256,332,41587,1,6,0:0:0:0:
275,345,41825,6,0,P|372:353|430:245,1,200,14|2,0:0|0:0,0:0:0:0:
431,208,42122,1,2,0:0:0:0:
431,208,42182,2,0,B|421:159|421:159|434:92,1,100,8|2,0:0|0:0,0:0:0:0:
344,29,42420,6,0,L|366:87,3,50,8|0|2|2,0:0|0:0|0:0|0:0,0:0:0:0:
201,63,42658,2,0,L|232:2,3,50,8|0|2|2,0:0|0:0|0:0|0:0,0:0:0:0:
280,90,42896,6,0,L|270:260,1,150.000005722046,14|0,0:0|0:0,0:0:0:0:
170,283,43253,1,0,0:0:0:0:
170,283,43372,2,0,L|160:184,1,75.0000028610231
71,211,43611,2,0,L|83:111,1,75.0000028610231
28,47,43849,6,0,P|86:34|180:88,1,150.000005722046
227,132,44206,1,0,0:0:0:0:
291,198,44325,2,0,P|356:232|428:221,1,150.000005722046,2|0,0:0|0:0,0:0:0:0:
498,53,44801,6,0,P|449:66|429:103,1,75.0000028610231,2|0,0:0|0:0,0:0:0:0:
364,33,45039,2,0,P|338:76|350:117,1,75.0000028610231
260,135,45277,2,0,P|273:184|310:204,1,75.0000028610231
240,269,45515,2,0,P|283:294|324:282,1,75.0000028610231
141,223,45753,6,0,P|70:228|8:298,1,150.000005722046,2|0,0:0|0:0,0:0:0:0:
113,326,46111,1,0,0:0:0:0:
113,326,46230,2,0,P|184:321|246:251,1,150.000005722046,8|0,0:0|0:0,0:0:0:0:
290,197,46587,1,0,0:0:0:0:
290,197,46706,6,0,L|465:213,1,150.000005722046,2|0,0:0|0:0,0:0:0:0:
501,132,47063,1,0,0:0:0:0:
449,71,47182,6,0,L|446:10,2,50.0000019073487,10|2|2,0:0|0:0|0:0,0:0:0:0:
403,96,47420,1,2,0:0:0:0:
353,97,47499,1,2,0:0:0:0:
302,88,47579,1,2,0:0:0:0:
263,50,47658,6,0,P|208:49|114:122,1,150.000005722046,2|0,0:0|0:0,0:0:0:0:
41,131,48015,1,0,0:0:0:0:
41,131,48134,2,0,L|49:224,1,75.0000028610231,10|0,0:0|0:0,0:0:0:0:
125,222,48372,2,0,L|169:292,1,75.0000028610231,2|0,0:0|0:0,0:0:0:0:
237,227,48611,6,0,L|402:227,1,150.000005722046,2|0,0:0|0:0,0:0:0:0:
466,180,48968,1,0,0:0:0:0:
508,94,49087,2,0,P|509:57|498:15,1,75.0000028610231,10|0,0:0|0:0,0:0:0:0:
395,31,49325,2,0,P|394:68|405:110,1,75.0000028610231,2|0,0:0|0:0,0:0:0:0:
284,156,49563,6,0,L|294:92,3,37.5000014305115,2|2|2|2,0:0|0:0|0:0|0:0,0:0:0:0:
250,146,49801,2,0,L|212:94,3,37.5000014305115,2|2|2|2,0:0|0:0|0:0|0:0,0:0:0:0:
220,164,50039,2,0,L|156:154,3,37.5000014305115,2|2|2|2,0:0|0:0|0:0|0:0,0:0:0:0:
210,197,50277,2,0,L|158:235,3,37.5000014305115,2|2|2|2,0:2|0:2|0:2|0:2,0:0:0:0:
222,230,50515,6,0,B|282:303|282:303|180:378,1,200,6|8,0:0|0:0,0:0:0:0:
74,352,50872,2,0,B|14:279|14:279|116:204,1,200,6|8,0:0|0:0,0:0:0:0:
222,230,51230,1,6,0:0:0:0:
411,196,51468,6,0,L|417:272,1,50,8|8,0:0|0:0,0:0:0:0:
494,289,51587,2,0,B|484:214|484:214|496:173|496:173|479:59,1,200,6|8,0:0|0:0,0:0:0:0:
401,0,51944,2,0,B|411:75|411:75|399:116|399:116|416:230,1,200,6|6,0:0|0:0,0:0:0:0:
426,331,52301,1,2,0:0:0:0:
426,331,52361,1,2,0:0:0:0:
426,331,52420,6,0,P|350:355|265:275,1,200,6|8,0:0|0:0,0:0:0:0:
309,196,52777,2,0,P|243:126|149:146,1,200,6|8,0:0|0:0,0:0:0:0:
71,217,53134,1,6,0:0:0:0:
66,62,53372,6,0,P|95:56|130:70,1,50,8|8,0:0|0:0,0:0:0:0:
149,146,53491,2,0,B|264:154|210:55|366:80,1,200,6|8,0:0|0:0,0:0:0:0:
437,34,53849,2,0,B|435:37|445:55|445:55|440:66|439:81,7,50,6|0|0|0|6|0|2|2,0:0|0:0|0:0|0:0|0:0|0:0|0:0|0:0,0:0:0:0:
502,96,54325,6,0,B|360:113|360:113|444:161,1,200,6|8,0:0|0:0,0:0:0:0:
489,200,54682,1,6,0:0:0:0:
409,336,55039,1,2,0:0:0:0:
409,336,55099,1,2,0:0:0:0:
409,336,55158,1,2,0:0:0:0:
409,336,55218,1,2,0:0:0:0:
409,336,55277,6,0,B|419:248|419:248|403:217|403:217|413:98,1,200,6|8,0:0|0:0,0:0:0:0:
402,42,55634,1,6,0:0:0:0:
199,208,55991,5,2,0:0:0:0:
199,208,56051,1,2,0:0:0:0:
199,208,56111,1,2,0:0:0:0:
199,208,56170,1,2,0:0:0:0:
199,208,56230,6,0,L|209:89,1,100,14|8,0:0|0:0,0:0:0:0:
374,25,56468,2,0,L|384:150,1,100,8|8,0:0|0:0,0:0:0:0:
313,208,56706,2,0,L|303:89,1,100,8|8,0:0|0:0,0:0:0:0:
138,25,56944,2,0,L|128:150,1,100,8|8,0:0|0:0,0:0:0:0:
180,369,57182,6,0,P|119:351|99:305,1,100,10|0,0:0|0:0,0:0:0:0:
171,206,57361,2,0,P|186:267|157:308,1,100,10|0,0:0|0:0,0:0:0:0:
33,294,57539,2,0,P|80:250|128:256,1,100,10|0,0:0|0:0,0:0:0:0:
332,369,57658,6,0,P|393:351|413:305,1,100,10|0,0:0|0:0,0:0:0:0:
341,206,57837,2,0,P|326:267|355:308,1,100,10|0,0:0|0:0,0:0:0:0:
479,294,58015,2,0,P|432:250|384:256,1,100,10|0,0:0|0:0,0:0:0:0:
260,198,58134,5,14,0:0:0:0:
264,175,58194,1,14,0:0:0:0:
277,155,58253,1,14,0:0:0:0:
294,140,58313,1,14,0:0:0:0:
316,129,58372,2,0,L|320:79,3,50,14|14|14|14,0:0|0:0|0:0|0:0,0:0:0:0:
402,162,58611,2,0,L|397:215,3,50,14|14|14|14,0:0|0:0|0:0|0:0,0:0:0:0:
450,267,58849,6,0,B|481:280|481:280|529:267,2,66.6666666666667,10|0|0,0:1|0:0|0:0,0:0:0:0:
316,265,59087,5,14,0:0:0:0:
312,288,59146,1,14,0:0:0:0:
299,308,59206,1,14,0:0:0:0:
282,323,59265,1,14,0:0:0:0:
260,334,59325,2,0,L|255:383,3,50,14|14|14|14,0:0|0:0|0:0|0:0,0:0:0:0:
174,301,59563,2,0,L|179:248,3,50,14|14|14|14,0:0|0:0|0:0|0:0,0:0:0:0:
98,225,59801,6,0,B|67:212|67:212|19:225,2,66.6666666666667,10|0|0,0:1|0:0|0:0,0:0:0:0:
202,222,60039,6,0,L|282:229,3,64.9999970245363,14|0|0|0,0:0|0:0|0:0|0:0,0:0:0:0:
344,183,60277,1,2,0:0:0:0:
347,169,60337,1,0,0:0:0:0:
349,155,60396,1,8,0:0:0:0:
347,141,60456,1,0,0:0:0:0:
342,127,60515,6,0,L|262:120,3,64.9999970245363,14|0|0|0,0:0|0:0|0:0|0:0,0:0:0:0:
201,167,60753,1,2,0:0:0:0:
198,181,60813,1,0,0:0:0:0:
196,195,60872,1,10,0:0:0:0:
198,209,60932,1,0,0:0:0:0:
191,278,60991,6,0,B|165:217|165:217|125:193|125:193|134:159|134:159|112:85,1,225.000008583069,14|0,0:0|0:0,0:0:0:0:
321,106,61230,2,0,B|347:167|347:167|387:191|387:191|378:225|378:225|399:298,1,225.000008583069,14|0,0:0|0:0,0:0:0:0:
171,127,61468,2,0,B|232:101|232:101|256:61|256:61|290:70|290:70|363:48,1,225.000008583069,14|8,0:0|0:0,0:0:0:0:
341,257,61706,2,0,B|280:283|280:283|256:323|256:323|222:314|222:314|90:353,1,225.000008583069,14|8,0:0|0:0,0:0:0:0:
71,356,61944,6,0,B|79:315|62:282|62:282|81:246|81:246|60:212|72:132,1,194.999991073609,14|8,0:0|0:0,0:0:0:0:
49,83,62182,2,0,P|99:80|127:95,1,64.9999970245363,14|0,0:0|0:0,0:0:0:0:
226,184,62301,2,0,P|257:191|288:186,1,64.9999970245363,14|0,0:0|0:0,0:0:0:0:
439,85,62420,5,14,0:0:0:0:
287,19,62539,1,14,0:0:0:0:
289,185,62658,1,14,0:0:0:0:
256,192,62718,12,0,63789,0:0:0:0:
91,47,63849,6,0,P|38:65|1:158,2,150,14|10|2,0:0|0:0|0:0,0:0:0:0:
173,83,64265,1,2,0:0:0:0:
173,83,64325,2,0,P|193:135|145:223,2,150,14|10|2,0:0|0:0|0:0,0:0:0:0:
301,31,64801,6,0,B|402:17|402:17|499:92,2,194.999991073609,14|10|2,0:0|0:0|0:0,0:0:0:0:
173,83,65218,1,2,0:0:0:0:
173,83,65277,2,0,B|99:153|99:153|99:276,2,194.999991073609,14|10|2,0:0|0:0|0:0,0:0:0:0:
281,155,65753,6,0,P|321:173|386:157,1,100,6|0,0:0|0:0,0:0:0:0:
406,286,65991,2,0,P|447:270|481:213,1,100,6|0,0:0|0:0,0:0:0:0:
271,233,66230,6,0,P|234:256|210:318,1,100,6|0,0:0|0:0,0:0:0:0:
92,260,66468,2,0,P|82:303|109:364,1,100,6|0,0:0|0:0,0:0:0:0:
212,181,66706,6,0,P|215:137|199:103,3,50,6|0|0|0,0:0|0:0|0:0|0:0,0:0:0:0:
283,69,66944,2,0,P|255:39|221:29,3,50,6|0|0|0,0:0|0:0|0:0|0:0,0:0:0:0:
157,55,67182,5,6,0:0:0:0:
127,51,67241,1,0,0:0:0:0:
100,65,67301,1,0,0:0:0:0:
86,92,67361,1,0,0:0:0:0:
92,120,67420,5,6,0:0:0:0:
107,145,67480,1,0,0:0:0:0:
107,174,67539,1,0,0:0:0:0:
89,198,67599,1,0,0:0:0:0:
60,206,67658,6,0,P|16:167|18:110,1,100,6|0,0:0|0:0,0:0:0:0:
112,296,67837,1,0,0:0:0:0:
112,296,67896,2,0,P|73:340|16:338,1,100,6|0,0:0|0:0,0:0:0:0:
202,240,68075,1,0,0:0:0:0:
202,240,68134,2,0,P|246:279|244:336,1,100,6|0,0:0|0:0,0:0:0:0:
150,150,68313,1,0,0:0:0:0:
150,150,68372,2,0,P|189:106|246:108,1,100,6|0,0:0|0:0,0:0:0:0:
313,119,68551,1,0,0:0:0:0:
313,119,68611,6,0,P|304:69|299:57,3,50,6|0|0|0,0:0|0:0|0:0|0:0,0:0:0:0:
397,0,68849,2,0,P|406:50|411:62,3,50,6|0|0|0,0:0|0:0|0:0|0:0,0:0:0:0:
202,240,69087,6,0,L|191:325,1,50,6|2,0:0|0:0,0:0:0:0:
285,233,69206,2,0,L|274:318,1,50,2|2,0:0|0:0,0:0:0:0:
366,228,69325,2,0,L|355:313,1,50,6|2,0:0|0:0,0:0:0:0:
444,219,69444,2,0,L|433:304,1,50,2|2,0:0|0:0,0:0:0:0:
482,130,69563,5,6,0:0:0:0:
102,111,71468,6,0,L|48:114,15,50
22,116,72420,5,6,0:0:0:0:
158,2,72539,1,6,0:0:0:0:
130,231,72658,1,6,0:0:0:0:
130,231,72896,6,0,B|179:210|179:210|243:234,1,112.500004291535
68,253,73134,6,0,B|140:253|140:253|180:268|180:268|216:252|216:252|337:253,1,225.000008583069,10|0,0:1|0:0,0:0:0:0:
360,330,73372,6,0,B|306:264|361:179|361:179|367:229|427:267,1,239.999992675781,6|8,0:0|0:0,0:0:0:0:
474,128,73730,2,0,B|344:94|395:210|240:154,1,239.999992675781,2|8,0:0|0:0,0:0:0:0:
130,231,74087,2,0,P|173:165|204:276,1,239.999992675781,2|8,0:0|0:0,0:0:0:0:
66,353,74444,2,0,P|94:287|60:101,1,239.999992675781,2|8,0:0|0:0,0:0:0:0:
14,68,74801,2,0,P|46:34|113:56,1,119.999996337891,2|0,0:0|0:0,0:0:0:0:
240,84,75039,2,0,P|246:109|233:152,3,59.9999981689454,2|0|0|0,0:0|0:0|0:0|0:0,0:0:0:0:
214,108,75277,6,0,B|311:98|311:98|356:127|356:127|490:115,1,239.999992675781,2|8,0:0|0:0,0:0:0:0:
512,93,75634,2,0,B|480:24|480:24|461:237,1,239.999992675781,2|8,0:0|0:0,0:0:0:0:
446,341,75991,2,0,B|479:308|479:308|420:260|420:260|354:297|354:297|380:341,1,239.999992675781,2|8,0:0|0:0,0:0:0:0:
263,356,76349,2,0,B|316:316|316:316|332:124,1,239.999992675781,2|8,0:0|0:0,0:0:0:0:
282,39,76706,2,0,L|138:45,1,119.999996337891,2|0,0:0|0:0,0:0:0:0:
112,156,76944,2,0,B|82:166|82:166|47:145,3,59.9999981689454,2|0|0|0,0:0|0:0|0:0|0:0,0:0:0:0:
85,141,77182,6,0,B|59:203|59:203|95:242|105:318|66:371,1,239.999992675781,6|8,0:0|0:0,0:0:0:0:
4,282,77539,2,0,B|56:276|56:276|91:293|91:293|121:271|121:271|200:251|261:304,1,239.999992675781,2|8,0:0|0:0,0:0:0:0:
352,348,77896,2,0,B|381:295|381:295|356:245|356:245|356:93,1,239.999992675781,2|8,0:0|0:0,0:0:0:0:
343,15,78194,1,0,0:0:0:0:
343,15,78253,2,0,B|438:31|438:31|450:222,1,239.999992675781,2|8,0:0|0:0,0:0:0:0:
264,196,78611,2,0,B|205:217|205:217|152:193,1,119.999996337891,2|0,0:0|0:0,0:0:0:0:
54,290,78849,1,2,0:0:0:0:
54,290,78908,1,0,0:0:0:0:
54,290,78968,1,0,0:0:0:0:
54,290,79027,1,0,0:0:0:0:
54,290,79087,6,0,P|13:293|-8:270,3,59.9999981689454,2|0|0|0,0:0|0:0|0:0|0:0,0:0:0:0:
121,332,79325,2,0,P|95:364|64:362,1,59.9999981689454,8|0,0:0|0:0,0:0:0:0:
197,314,79444,2,0,P|200:356|177:377,1,59.9999981689454,2|0,0:0|0:0,0:0:0:0:
289,272,79563,6,0,P|330:269|351:292,3,59.9999981689454,0|0|8|0,0:0|0:0|0:0|0:0,0:0:0:0:
222,230,79801,2,0,P|248:198|279:200,1,59.9999981689454,2|0,0:0|0:0,0:0:0:0:
146,248,79920,2,0,P|143:206|166:185,1,59.9999981689454
421,14,80158,6,0,B|330:23|330:23|294:52|294:52|171:66,1,239.999992675781,2|8,0:0|0:0,0:0:0:0:
82,117,80515,2,0,B|57:63|57:63|93:-10,1,119.999996337891,2|8,0:0|0:0,0:0:0:0:
192,63,80753,2,0,L|186:142,1,59.9999981689454,10|8,0:0|0:0,0:0:0:0:
95,257,80872,2,0,L|101:178,1,59.9999981689454,8|8,0:0|0:0,0:0:0:0:
187,122,80991,6,0,L|170:383,1,239.999992675781,14|2,0:1|0:0,0:0:0:0:
308,349,81349,1,0,0:0:0:0:
396,301,81468,2,0,P|413:239|393:178,1,119.999996337891,2|0,0:0|0:0,0:0:0:0:
316,51,81706,2,0,P|299:113|319:174,1,119.999996337891,2|0,0:0|0:0,0:0:0:0:
401,105,81944,5,2,0:0:0:0:
401,105,82063,2,0,B|263:62|321:217|151:139,1,239.999992675781
88,59,82420,2,0,P|72:132|91:187,1,119.999996337891,2|0,0:0|0:0,0:0:0:0:
133,264,82658,1,2,0:0:0:0:
78,351,82777,1,0,0:0:0:0:
78,351,82837,1,0,0:0:0:0:
78,351,82896,6,0,P|154:288|280:341,1,239.999992675781,6|2,0:0|0:0,0:0:0:0:
361,368,83253,1,0,0:0:0:0:
426,287,83372,2,0,B|451:235|451:235|423:162,1,119.999996337891,2|0,0:0|0:0,0:0:0:0:
329,100,83611,2,0,B|304:152|304:152|332:225,1,119.999996337891,2|0,0:0|0:0,0:0:0:0:
467,66,83849,5,2,0:0:0:0:
467,66,83908,1,0,0:0:0:0:
467,66,83968,2,0,L|206:85,1,239.999992675781
114,31,84325,1,2,0:0:0:0:
168,140,84444,1,2,0:0:0:0:
76,196,84563,2,0,L|68:277,3,59.9999981689454,2|0|2|2,0:0|0:0|0:0|0:0,0:0:0:0:
36,132,84801,6,0,L|17:382,1,239.999992675781,14|10,0:0|0:0,0:0:0:0:
131,328,85158,1,0,0:0:0:0:
225,381,85277,2,0,P|288:385|353:352,1,119.999996337891,10|0,0:0|0:0,0:0:0:0:
322,255,85515,2,0,P|259:251|194:284,1,119.999996337891,10|0,0:0|0:0,0:0:0:0:
419,295,85753,5,14,0:0:0:0:
419,295,85872,2,0,B|449:163|311:217|348:48,1,239.999992675781
476,99,86230,2,0,P|452:178|378:204,1,119.999996337891,14|14,0:0|0:0,0:0:0:0:
310,275,86468,5,2,0:0:0:0:
324,248,86527,1,2,0:0:0:0:
328,219,86587,1,2,0:0:0:0:
323,190,86646,1,2,0:0:0:0:
310,163,86706,6,0,P|284:149|256:156,1,50,14|2,0:0|0:0,0:0:0:0:
230,79,86825,2,0,P|202:87|187:112,1,50,2|2,0:0|0:0,0:0:0:0:
106,72,86944,2,0,P|92:98|99:127,1,50,14|2,0:0|0:0,0:0:0:0:
19,157,87063,2,0,P|27:185|52:201,1,50,2|2,0:0|0:0,0:0:0:0:
9,284,87182,6,0,P|35:298|64:292,1,50,14|2,0:0|0:0,0:0:0:0:
89,368,87301,2,0,P|117:360|133:336,1,50,2|2,0:0|0:0,0:0:0:0:
213,375,87420,2,0,P|227:349|221:321,1,50,14|2,0:0|0:0,0:0:0:0:
302,289,87539,2,0,P|293:261|268:247,1,50,2|2,0:0|0:0,0:0:0:0:
148,232,87658,6,0,B|163:220|163:220|203:224,30,37.5000014305115,2|2|2|2|2|2|2|2|2|2|2|2|2|2|2|2|2|2|2|2|2|2|2|2|2|2|2|2|2|2|2,0:1|0:1|0:1|0:1|0:1|0:1|0:1|0:1|0:1|0:1|0:1|0:1|0:1|0:1|0:1|0:1|0:1|0:1|0:1|0:1|0:1|0:1|0:1|0:1|0:1|0:1|0:1|0:1|0:1|0:1|0:1,0:0:0:0:
170,255,88611,5,14,0:0:0:0:
403,239,88730,1,14,0:0:0:0:
193,106,88968,5,14,0:0:0:0:
209,339,89087,1,14,0:0:0:0:
342,129,89325,5,14,0:0:0:0:
109,145,89444,1,14,0:0:0:0:
319,278,89682,5,14,0:0:0:0:
303,45,89801,1,14,0:0:0:0:
324,33,90039,6,0,B|249:26|249:26|214:55,1,112.500004291535,14|0,0:0|0:0,0:0:0:0:
109,145,90277,6,0,B|194:135|194:135|240:168|240:168|332:156,1,225.000008583069,14|2,0:0|0:0,0:0:0:0:
356,153,90515,5,6,0:0:0:0:
389,348,90634,1,2,0:0:0:0:
462,235,90753,1,2,0:0:0:0:
279,266,90872,1,2,0:0:0:0:
462,235,90991,6,0,P|470:173|455:139,1,75.0000028610231,2|2,0:0|0:0,0:0:0:0:
351,80,91230,2,0,P|346:116|355:152,1,75.0000028610231,2|2,0:0|0:0,0:0:0:0:
409,73,91468,5,2,0:0:0:0:
297,85,91587,1,2,0:0:0:0:
431,70,91706,1,2,0:0:0:0:
270,90,91825,2,0,L|186:99,1,75.0000028610231,2|2,0:0|0:0,0:0:0:0:
96,105,92063,1,2,0:0:0:0:
175,246,92182,2,0,P|181:193|170:169,1,75.0000028610231,2|2,0:0|0:0,0:0:0:0:
58,247,92420,6,0,L|47:353,1,75.0000028610231,2|2,0:0|0:0,0:0:0:0:
116,376,92658,1,2,0:0:0:0:
175,246,92777,2,0,L|186:352,1,75.0000028610231,2|2,0:0|0:0,0:0:0:0:
118,186,93015,1,2,0:0:0:0:
118,186,93075,1,0,0:0:0:0:
118,186,93134,1,2,0:0:0:0:
118,359,93253,1,2,0:0:0:0:
261,260,93372,6,0,L|366:260,1,75.0000028610231,2|2,0:0|0:0,0:0:0:0:
432,195,93611,2,0,L|429:140,3,37.5000014305115,2|0|2|0,0:0|0:0|0:0|0:0,0:0:0:0:
452,136,93849,6,0,L|347:136,1,75.0000028610231,2|2,0:0|0:0,0:0:0:0:
250,36,94087,2,0,L|326:36,1,75.0000028610231,2|2,0:0|0:0,0:0:0:0:
413,54,94265,1,2,0:0:0:0:
413,54,94325,5,6,0:0:0:0:
272,124,94444,1,2,0:0:0:0:
377,136,94563,1,2,0:0:0:0:
250,36,94682,2,0,L|174:36,1,75.0000028610231,2|2,0:0|0:0,0:0:0:0:
100,141,94920,1,2,0:0:0:0:
173,250,95039,2,0,L|282:250,1,75.0000028610231,2|2,0:0|0:0,0:0:0:0:
100,141,95277,6,0,L|175:141,1,75.0000028610231,2|2,0:0|0:0,0:0:0:0:
330,178,95515,2,0,L|255:178,1,75.0000028610231,2|2,0:0|0:0,0:0:0:0:
405,219,95753,6,0,L|475:219,2,50.0000019073487,2|2|2,0:0|0:0|0:0,0:0:0:0:
332,263,95991,2,0,L|282:263,2,50.0000019073487,2|2|2,0:0|0:0|0:0,0:0:0:0:
216,312,96230,6,0,L|156:322,3,37.5000014305115,6|0|2|0,0:0|0:0|0:0|0:0,0:0:0:0:
212,235,96468,2,0,L|175:228,3,37.5000014305115,2|0|2|0,0:0|0:0|0:0|0:0,0:0:0:0:
71,256,96706,6,0,L|131:266,3,37.5000014305115,6|0|2|0,0:0|0:0|0:0|0:0,0:0:0:0:
75,179,96944,2,0,L|111:172,3,37.5000014305115,2|0|2|0,0:0|0:0|0:0|0:0,0:0:0:0:
151,97,97182,6,0,L|101:90,3,37.5000014305115,6|0|2|2,0:0|0:0|0:1|0:1,0:0:0:0:
226,63,97420,2,0,L|263:68,3,37.5000014305115,6|0|2|2,0:0|0:0|0:1|0:1,0:0:0:0:
248,237,97658,6,0,L|298:230,3,37.5000014305115,6|2|2|2,0:0|0:0|0:0|0:0,0:0:0:0:
173,203,97896,2,0,L|135:208,3,37.5000014305115,6|2|2|2,0:1|0:1|0:0|0:0,0:0:0:0:
71,256,98134,6,0,P|64:308|90:373,1,100,6|6,0:0|0:0,0:0:0:0:
222,364,98372,2,0,L|217:307,1,50,6|2,0:0|0:0,0:0:0:0:
290,273,98491,2,0,P|341:269|409:305,1,100,6|6,0:0|0:0,0:0:0:0:
486,287,98730,1,6,0:0:0:0:
486,287,98789,1,2,0:0:0:0:
486,287,98849,2,0,P|496:228|472:176,1,100,6|6,0:0|0:0,0:0:0:0:
382,168,99087,6,0,L|263:174,1,100,6|6,0:0|0:0,0:0:0:0:
145,75,99325,2,0,L|264:69,1,100,6|6,0:0|0:0,0:0:0:0:
53,122,99563,5,6,0:0:0:0:
38,157,99622,1,2,0:0:0:0:
38,190,99682,1,6,0:0:0:0:
51,223,99741,1,2,0:0:0:0:
73,243,99801,2,0,L|190:241,1,100,6|6,0:0|0:0,0:0:0:0:
282,269,100039,6,0,P|265:338|287:378,1,100,6|6,0:0|0:0,0:0:0:0:
382,323,100277,2,0,L|442:321,1,50,6|2,0:0|0:0,0:0:0:0:
462,248,100396,2,0,L|332:254,1,100,6|6,0:0|0:0,0:0:0:0:
283,181,100575,1,2,0:0:0:0:
283,181,100634,2,0,P|266:112|288:72,1,100,6|6,0:0|0:0,0:0:0:0:
344,19,100872,1,6,0:0:0:0:
197,65,100991,6,0,L|83:62,1,100,6|6,0:0|0:0,0:0:0:0:
51,191,101230,2,0,P|78:199|116:180,3,50,6|2|6|2,0:0|0:0|0:0|0:0,0:0:0:0:
207,156,101468,2,0,P|180:148|142:167,3,50,6|2|6|2,0:0|0:0|0:0|0:0,0:0:0:0:
262,206,101706,2,0,L|252:281,3,50,6|2|6|2,0:0|0:0|0:0|0:0,0:0:0:0:
320,348,101944,5,14,0:0:0:0:
256,348,102063,1,2,0:0:0:0:
192,348,102182,1,2,0:0:0:0:
339,309,102301,5,14,0:0:0:0:
256,309,102420,1,2,0:0:0:0:
172,309,102539,1,2,0:0:0:0:
358,271,102658,5,14,0:0:0:0:
256,271,102777,1,2,0:0:0:0:
153,271,102896,1,2,0:0:0:0:
377,232,103015,5,14,0:0:0:0:
256,232,103134,1,2,0:0:0:0:
134,232,103253,1,2,0:0:0:0:
336,152,103372,6,0,P|328:120|272:96,3,50,2|2|2|2,0:0|0:0|0:0|0:0,0:0:0:0:
176,152,103611,2,0,P|184:120|240:96,3,50,2|2|2|2,0:0|0:0|0:0|0:0,0:0:0:0:
256,32,103849,6,0,P|302:12|392:40,1,100,14|2,0:0|0:0,0:0:0:0:
457,33,104087,2,0,L|451:83,3,50,2|0|10|0,0:0|0:0|0:0|0:0,0:0:0:0:
465,95,104325,2,0,L|447:226,1,100,2|10,0:0|0:0,0:0:0:0:
342,251,104563,2,0,L|335:151,1,100,2|10,0:0|0:0,0:0:0:0:
206,37,104801,6,0,P|226:43|257:80,3,59.9999981689454,14|0|2|2,0:0|0:0|0:1|0:1,0:0:0:0:
92,83,105039,2,0,P|111:73|159:78,1,59.9999981689454,14|0,0:0|0:0,0:0:0:0:
46,197,105158,2,0,P|51:177|89:146,1,59.9999981689454,2|2,0:1|0:1,0:0:0:0:
172,309,105277,6,0,P|192:303|223:266,3,59.9999981689454,14|2|2|2,0:0|0:0|0:0|0:0,0:0:0:0:
59,263,105515,2,0,P|77:272|125:268,1,59.9999981689454,6|2,0:1|0:1,0:0:0:0:
12,149,105634,2,0,P|18:169|55:200,1,59.9999981689454,2|2,0:0|0:0,0:0:0:0:
192,348,105753,5,14,0:0:0:0:
256,348,105872,1,2,0:0:0:0:
320,348,105991,1,2,0:0:0:0:
172,309,106111,5,14,0:0:0:0:
256,309,106230,1,2,0:0:0:0:
339,309,106349,1,2,0:0:0:0:
153,271,106468,5,14,0:0:0:0:
256,271,106587,1,2,0:0:0:0:
358,271,106706,1,2,0:0:0:0:
134,232,106825,5,14,0:0:0:0:
256,232,106944,1,2,0:0:0:0:
377,232,107063,1,2,0:0:0:0:
176,152,107182,6,0,P|180:134|210:121,3,50,2|2|2|2,0:0|0:0|0:0|0:0,0:0:0:0:
336,152,107420,2,0,P|331:134|300:121,3,50,2|2|2|2,0:0|0:0|0:0|0:0,0:0:0:0:
256,32,107658,6,0,P|210:12|120:40,1,100,14|2,0:0|0:0,0:0:0:0:
61,83,107896,2,0,L|54:28,2,50,2|0|10,0:0|0:0|0:0,0:0:0:0:
122,190,108134,2,0,L|129:135,2,50,2|0|10,0:0|0:0|0:0,0:0:0:0:
51,253,108372,2,0,L|63:377,1,100,2|10,0:0|0:0,0:0:0:0:
242,366,108611,6,0,P|283:263|228:147,1,225.000008583069,14|2,0:0|0:1,0:0:0:0:
227,161,108849,2,0,P|188:264|229:366,1,225.000008583069,14|2,0:0|0:1,0:0:0:0:
371,362,109087,5,14,0:0:0:0:
364,334,109146,1,2,0:0:0:0:
361,306,109206,1,2,0:0:0:0:
368,279,109265,1,2,0:0:0:0:
381,254,109325,1,14,0:1:0:0:
390,228,109384,1,2,0:1:0:0:
390,200,109444,1,2,0:0:0:0:
384,172,109503,1,2,0:0:0:0:
376,145,109563,6,0,B|425:292|334:236|371:362,1,225.000008583069,14|0,0:0|0:0,0:0:0:0:
463,308,110039,6,0,P|483:275|475:235,3,50,2|2|2|2,0:0|0:0|0:0|0:0,0:0:0:0:
480,187,110277,2,0,P|470:149|436:126,3,50,2|2|2|2,0:0|0:0|0:0|0:0,0:0:0:0:
410,76,110515,2,0,P|377:56|337:64,3,50,2|2|2|2,0:0|0:0|0:0|0:0,0:0:0:0:
281,56,110753,2,0,P|243:65|220:99,3,50,2|2|2|2,0:0|0:0|0:0|0:0,0:0:0:0:
181,132,110991,6,0,P|161:165|169:205,3,50,2|2|2|2,0:0|0:0|0:0|0:0,0:0:0:0:
164,253,111230,2,0,P|173:290|207:313,3,50,2|2|2|2,0:0|0:0|0:0|0:0,0:0:0:0:
337,315,111468,6,0,P|350:294|352:269,3,50,2|2|2|2,0:0|0:0|0:0|0:0,0:0:0:0:
356,191,111706,2,0,P|350:166|335:147,3,50,2|2|2|2,0:0|0:0|0:0|0:0,0:0:0:0:
281,88,111944,2,0,P|260:74|235:72,3,50,2|2|2|2,0:0|0:0|0:0|0:0,0:0:0:0:
150,71,112182,2,0,P|125:76|106:91,3,50,2|2|2|2,0:0|0:0|0:0|0:0,0:0:0:0:
52,157,112420,6,0,P|38:177|36:202,3,50,2|2|2|2,0:0|0:0|0:0|0:0,0:0:0:0:
33,280,112658,2,0,P|38:304|53:323,3,50,2|2|2|2,0:0|0:0|0:0|0:0,0:0:0:0:
122,369,112896,6,0,P|142:382|161:384,14,25,2|2|2|2|2|2|2|2|2|2|2|2|2|2|2,0:1|0:1|0:1|0:1|0:1|0:1|0:1|0:1|0:1|0:1|0:1|0:1|0:1|0:1|0:1,0:0:0:0:
226,373,113372,6,0,L|220:243,1,119.999996337891,14|14,0:0|0:0,0:0:0:0:
315,163,113611,2,0,L|246:158,1,59.9999981689454,2|2,0:0|0:0,0:0:0:0:
204,49,113730,2,0,L|263:53,1,59.9999981689454,2|2,0:0|0:0,0:0:0:0:
315,163,113849,6,0,L|309:282,1,119.999996337891,14|14,0:0|0:0,0:0:0:0:
208,384,114087,1,2,0:0:0:0:
208,384,114146,1,2,0:0:0:0:
208,384,114206,1,2,0:0:0:0:
208,384,114265,1,2,0:0:0:0:
208,384,114325,6,0,B|209:353|209:353|170:297,3,59.9999981689454,14|0|2|2,0:0|0:0|0:0|0:0,0:0:0:0:
86,293,114563,2,0,B|108:272|108:272|120:205,3,59.9999981689454,14|0|2|2,0:0|0:0|0:0|0:0,0:0:0:0:
64,144,114801,2,0,B|95:145|95:145|151:106,3,59.9999981689454,14|8|10|8,0:0|0:0|0:0|0:0,0:0:0:0:
154,22,115039,2,0,B|175:44|175:44|242:56,3,59.9999981689454,14|8|10|8,0:0|0:0|0:0|0:0,0:0:0:0:
256,120,115277,5,14,0:0:0:0:
441,72,115396,2,0,L|287:49,1,129.999994049073,14|8,0:0|0:0,0:0:0:0:
236,120,115634,5,14,0:0:0:0:
442,169,115753,2,0,L|288:192,1,129.999994049073,14|8,0:0|0:0,0:0:0:0:
218,120,115991,5,14,0:0:0:0:
437,86,116111,2,0,L|283:63,1,129.999994049073,14|0,0:0|0:0,0:0:0:0:
454,205,116349,6,0,L|341:222,1,64.9999970245363,14|10,0:0|0:0,0:0:0:0:
319,295,116468,2,0,L|383:285,1,64.9999970245363,14|10,0:0|0:0,0:0:0:0:
450,193,116587,6,0,L|337:210,1,64.9999970245363,14|10,0:0|0:0,0:0:0:0:
315,307,116706,2,0,L|379:297,1,64.9999970245363,14|10,0:0|0:0,0:0:0:0:
446,181,116825,6,0,L|333:198,1,64.9999970245363,14|10,0:0|0:0,0:0:0:0:
312,319,116944,2,0,L|376:309,1,64.9999970245363,14|10,0:0|0:0,0:0:0:0:
442,169,117063,6,0,L|301:190,1,129.999999206543,14|0,0:0|0:0,0:0:0:0:
157,228,117420,6,0,B|128:177|214:110|161:39|161:39|137:106|161:153|313:153|273:300|204:352|124:333|74:288|80:224,1,650,6|0,0:0|0:0,0:0:0:0:
74,128,119087,5,6,0:0:0:0:
271,96,119206,1,6,0:0:0:0:
