osu file format v14

[General]
AudioFilename: audio.mp3
AudioLeadIn: 0
PreviewTime: 72484
Countdown: 1
SampleSet: Soft
StackLeniency: 0.7
Mode: 3
LetterboxInBreaks: 0
SpecialStyle: 0
WidescreenStoryboard: 0

[Editor]
DistanceSpacing: 1.3
BeatDivisor: 4
GridSize: 8
TimelineZoom: 3.1

[Metadata]
Title:Last Resort
TitleUnicode:Last Resort
Artist:xi
ArtistUnicode:xi
Creator:Ibrahim
Version:MAXIMUM
Source:SOUND VOLTEX IV HEAVENLY HEAVEN
Tags:
BeatmapID:1676615
BeatmapSetID:798405

[Difficulty]
HPDrainRate:8.5
CircleSize:4
OverallDifficulty:8.5
ApproachRate:5
SliderMultiplier:1.4
SliderTickRate:1

[Events]
//Background and Video events
0,0,"sky-water-reflection-birds-wallpaper.jpg",0,0
//Break Periods
2,72446,96507
2,101732,108412
//Storyboard Layer 0 (Background)
//Storyboard Layer 1 (Fail)
//Storyboard Layer 2 (Pass)
//Storyboard Layer 3 (Foreground)
//Storyboard Sound Samples

[TimingPoints]
565,238.095238095238,4,2,0,43,1,0

[HitObjects]
64,192,565,5,0,0:0:0:0:
320,192,565,1,0,0:0:0:0:
448,192,565,1,0,0:0:0:0:
64,192,803,1,0,0:0:0:0:
320,192,922,1,0,0:0:0:0:
448,192,1041,1,0,0:0:0:0:
192,192,1100,1,0,0:0:0:0:
320,192,1160,1,0,0:0:0:0:
64,192,1219,1,0,0:0:0:0:
448,192,1279,1,0,0:0:0:0:
320,192,1279,1,0,0:0:0:0:
192,192,1338,1,0,0:0:0:0:
64,192,1338,1,0,0:0:0:0:
320,192,1398,1,0,0:0:0:0:
448,192,1398,1,0,0:0:0:0:
192,192,1457,1,0,0:0:0:0:
448,192,1517,1,0,0:0:0:0:
320,192,1517,1,0,0:0:0:0:
64,192,1517,1,0,0:0:0:0:
64,192,1636,1,0,0:0:0:0:
448,192,1636,1,0,0:0:0:0:
192,192,1695,1,0,0:0:0:0:
320,192,1695,1,0,0:0:0:0:
64,192,1755,1,0,0:0:0:0:
448,192,1755,1,0,0:0:0:0:
192,192,1874,1,0,0:0:0:0:
448,192,1874,1,0,0:0:0:0:
320,192,2112,1,0,0:0:0:0:
64,192,2231,1,0,0:0:0:0:
448,192,2231,1,0,0:0:0:0:
320,192,2291,1,0,0:0:0:0:
192,192,2291,1,0,0:0:0:0:
64,192,2350,1,0,0:0:0:0:
448,192,2350,1,0,0:0:0:0:
192,192,2410,1,0,0:0:0:0:
64,192,2469,1,0,0:0:0:0:
448,192,2469,1,0,0:0:0:0:
320,192,2469,1,0,0:0:0:0:
192,192,2707,1,0,0:0:0:0:
64,192,2707,1,0,0:0:0:0:
320,192,2945,1,0,0:0:0:0:
192,192,2945,1,0,0:0:0:0:
320,192,3184,1,0,0:0:0:0:
448,192,3184,1,0,0:0:0:0:
192,192,3303,1,0,0:0:0:0:
64,192,3422,1,0,0:0:0:0:
320,192,3422,1,0,0:0:0:0:
448,192,3541,1,0,0:0:0:0:
192,192,3660,1,0,0:0:0:0:
64,192,3660,1,0,0:0:0:0:
320,192,3779,1,0,0:0:0:0:
64,192,3898,1,0,0:0:0:0:
448,192,3898,1,0,0:0:0:0:
192,192,4017,1,0,0:0:0:0:
320,192,4136,1,0,0:0:0:0:
448,192,4136,1,0,0:0:0:0:
64,192,4255,1,0,0:0:0:0:
192,192,4374,1,0,0:0:0:0:
320,192,4374,1,0,0:0:0:0:
448,192,4493,1,0,0:0:0:0:
64,192,4612,1,0,0:0:0:0:
192,192,4612,1,0,0:0:0:0:
320,192,4731,1,0,0:0:0:0:
448,192,4850,1,0,0:0:0:0:
192,192,4850,1,0,0:0:0:0:
64,192,4969,1,0,0:0:0:0:
320,192,5088,1,0,0:0:0:0:
448,192,5088,1,0,0:0:0:0:
192,192,5207,1,0,0:0:0:0:
64,192,5326,1,0,0:0:0:0:
448,192,5326,1,0,0:0:0:0:
320,192,5445,1,0,0:0:0:0:
192,192,5564,1,0,0:0:0:0:
64,192,5564,1,0,0:0:0:0:
448,192,5624,1,0,0:0:0:0:
320,192,5684,1,0,0:0:0:0:
192,192,5743,1,0,0:0:0:0:
64,192,5803,1,0,0:0:0:0:
448,192,5803,1,0,0:0:0:0:
320,192,5922,1,0,0:0:0:0:
192,192,6041,1,0,0:0:0:0:
448,192,6041,1,0,0:0:0:0:
64,192,6160,1,0,0:0:0:0:
64,192,6279,1,0,0:0:0:0:
320,192,6279,1,0,0:0:0:0:
448,192,6279,1,0,0:0:0:0:
192,192,6398,1,0,0:0:0:0:
64,192,6517,1,0,0:0:0:0:
192,192,6517,1,0,0:0:0:0:
448,192,6517,1,0,0:0:0:0:
320,192,6636,1,0,0:0:0:0:
448,192,6755,1,0,0:0:0:0:
320,192,6755,1,0,0:0:0:0:
64,192,6755,1,0,0:0:0:0:
64,192,6874,1,0,0:0:0:0:
192,192,6993,1,0,0:0:0:0:
320,192,6993,1,0,0:0:0:0:
448,192,6993,1,0,0:0:0:0:
320,192,7112,1,0,0:0:0:0:
192,192,7231,1,0,0:0:0:0:
64,192,7231,1,0,0:0:0:0:
448,192,7231,1,0,0:0:0:0:
192,192,7350,1,0,0:0:0:0:
320,192,7469,1,0,0:0:0:0:
448,192,7469,1,0,0:0:0:0:
64,192,7469,1,0,0:0:0:0:
192,192,7588,1,0,0:0:0:0:
192,192,7707,1,0,0:0:0:0:
320,192,7707,1,0,0:0:0:0:
448,192,7707,1,0,0:0:0:0:
64,192,7826,1,0,0:0:0:0:
64,192,7945,1,0,0:0:0:0:
192,192,7945,1,0,0:0:0:0:
320,192,7945,1,0,0:0:0:0:
448,192,8064,1,0,0:0:0:0:
448,192,8184,1,0,0:0:0:0:
192,192,8184,1,0,0:0:0:0:
64,192,8184,1,0,0:0:0:0:
320,192,8184,1,0,0:0:0:0:
192,192,8303,1,0,0:0:0:0:
64,192,8422,1,0,0:0:0:0:
192,192,8422,1,0,0:0:0:0:
320,192,8422,1,0,0:0:0:0:
448,192,8422,1,0,0:0:0:0:
320,192,8541,1,0,0:0:0:0:
448,192,8660,1,0,0:0:0:0:
320,192,8660,1,0,0:0:0:0:
64,192,8660,1,0,0:0:0:0:
192,192,8660,1,0,0:0:0:0:
64,192,8779,1,0,0:0:0:0:
64,192,8898,1,0,0:0:0:0:
192,192,8898,1,0,0:0:0:0:
448,192,8898,1,0,0:0:0:0:
320,192,8898,1,0,0:0:0:0:
448,192,9017,1,0,0:0:0:0:
192,192,9136,1,0,0:0:0:0:
64,192,9136,1,0,0:0:0:0:
320,192,9195,1,0,0:0:0:0:
448,192,9195,1,0,0:0:0:0:
192,192,9255,1,0,0:0:0:0:
64,192,9255,1,0,0:0:0:0:
320,192,9314,1,0,0:0:0:0:
448,192,9314,1,0,0:0:0:0:
64,192,9374,1,0,0:0:0:0:
192,192,9374,1,0,0:0:0:0:
320,192,9434,1,0,0:0:0:0:
448,192,9493,1,0,0:0:0:0:
64,192,9493,1,0,0:0:0:0:
192,192,9553,1,0,0:0:0:0:
320,192,9612,1,0,0:0:0:0:
448,192,9612,1,0,0:0:0:0:
64,192,9612,1,0,0:0:0:0:
64,192,9731,1,0,0:0:0:0:
192,192,9731,1,0,0:0:0:0:
320,192,9850,1,0,0:0:0:0:
448,192,9850,1,0,0:0:0:0:
64,192,9850,1,0,0:0:0:0:
448,192,9969,1,0,0:0:0:0:
320,192,9969,1,0,0:0:0:0:
192,192,10088,1,0,0:0:0:0:
64,192,10088,1,0,0:0:0:0:
448,192,10088,1,0,0:0:0:0:
320,192,10326,1,0,0:0:0:0:
64,192,10564,1,0,0:0:0:0:
320,192,10684,1,0,0:0:0:0:
448,192,10803,1,0,0:0:0:0:
64,192,10803,1,0,0:0:0:0:
192,192,10862,1,0,0:0:0:0:
320,192,10862,1,0,0:0:0:0:
64,192,10922,1,0,0:0:0:0:
448,192,10922,1,0,0:0:0:0:
192,192,10981,1,0,0:0:0:0:
64,192,11041,1,0,0:0:0:0:
320,192,11041,1,0,0:0:0:0:
448,192,11041,1,0,0:0:0:0:
64,192,11160,1,0,0:0:0:0:
192,192,11189,1,0,0:0:0:0:
320,192,11219,1,0,0:0:0:0:
448,192,11249,1,0,0:0:0:0:
64,192,11279,1,0,0:0:0:0:
192,192,11279,1,0,0:0:0:0:
448,192,11398,1,0,0:0:0:0:
320,192,11428,1,0,0:0:0:0:
192,192,11457,1,0,0:0:0:0:
64,192,11487,1,0,0:0:0:0:
320,192,11517,1,0,0:0:0:0:
448,192,11517,1,0,0:0:0:0:
192,192,11576,1,0,0:0:0:0:
64,192,11576,1,0,0:0:0:0:
320,192,11636,1,0,0:0:0:0:
448,192,11636,1,0,0:0:0:0:
192,192,11695,1,0,0:0:0:0:
64,192,11695,1,0,0:0:0:0:
448,192,11755,1,0,0:0:0:0:
320,192,11755,1,0,0:0:0:0:
64,192,11785,1,0,0:0:0:0:
192,192,11814,1,0,0:0:0:0:
320,192,11844,1,0,0:0:0:0:
448,192,11874,1,0,0:0:0:0:
64,192,11874,1,0,0:0:0:0:
192,192,11934,1,0,0:0:0:0:
320,192,11934,1,0,0:0:0:0:
64,192,11993,1,0,0:0:0:0:
448,192,11993,1,0,0:0:0:0:
320,192,12112,1,0,0:0:0:0:
192,192,12231,1,0,0:0:0:0:
448,192,12350,1,0,0:0:0:0:
64,192,12469,1,0,0:0:0:0:
320,192,12588,1,0,0:0:0:0:
192,192,12707,1,0,0:0:0:0:
64,192,12707,1,0,0:0:0:0:
448,192,12826,1,0,0:0:0:0:
320,192,12826,1,0,0:0:0:0:
64,192,12945,1,0,0:0:0:0:
192,192,13064,1,0,0:0:0:0:
320,192,13064,1,0,0:0:0:0:
448,192,13184,1,0,0:0:0:0:
64,192,13303,1,0,0:0:0:0:
320,192,13422,1,0,0:0:0:0:
448,192,13422,1,0,0:0:0:0:
192,192,13541,1,0,0:0:0:0:
64,192,13660,1,0,0:0:0:0:
448,192,13660,1,0,0:0:0:0:
192,192,13779,1,0,0:0:0:0:
64,192,13779,1,0,0:0:0:0:
320,192,13838,1,0,0:0:0:0:
448,192,13838,1,0,0:0:0:0:
192,192,13898,1,0,0:0:0:0:
64,192,13898,1,0,0:0:0:0:
448,192,14017,1,0,0:0:0:0:
320,192,14136,1,0,0:0:0:0:
64,192,14255,1,0,0:0:0:0:
192,192,14374,1,0,0:0:0:0:
320,192,14493,1,0,0:0:0:0:
448,192,14612,1,0,0:0:0:0:
192,192,14612,1,0,0:0:0:0:
64,192,14731,1,0,0:0:0:0:
320,192,14850,1,0,0:0:0:0:
448,192,14850,1,0,0:0:0:0:
192,192,14969,1,0,0:0:0:0:
64,192,14969,1,0,0:0:0:0:
448,192,15088,1,0,0:0:0:0:
64,192,15088,1,0,0:0:0:0:
192,192,15207,1,0,0:0:0:0:
64,192,15326,1,0,0:0:0:0:
320,192,15326,1,0,0:0:0:0:
64,192,15445,1,0,0:0:0:0:
192,192,15505,1,0,0:0:0:0:
448,192,15564,1,0,0:0:0:0:
320,192,15564,1,0,0:0:0:0:
192,192,15624,1,0,0:0:0:0:
64,192,15624,1,0,0:0:0:0:
320,192,15743,1,0,0:0:0:0:
192,192,15803,1,0,0:0:0:0:
64,192,15803,1,0,0:0:0:0:
448,192,15803,1,0,0:0:0:0:
320,192,15922,1,0,0:0:0:0:
64,192,16041,1,0,0:0:0:0:
192,192,16160,1,0,0:0:0:0:
320,192,16279,1,0,0:0:0:0:
448,192,16398,1,0,0:0:0:0:
64,192,16517,1,0,0:0:0:0:
320,192,16517,1,0,0:0:0:0:
192,192,16636,1,0,0:0:0:0:
448,192,16636,1,0,0:0:0:0:
448,192,16755,1,0,0:0:0:0:
320,192,16874,1,0,0:0:0:0:
64,192,16874,1,0,0:0:0:0:
192,192,16993,1,0,0:0:0:0:
448,192,17112,1,0,0:0:0:0:
64,192,17231,1,0,0:0:0:0:
192,192,17231,1,0,0:0:0:0:
320,192,17350,1,0,0:0:0:0:
448,192,17469,1,0,0:0:0:0:
64,192,17469,1,0,0:0:0:0:
64,192,17588,1,0,0:0:0:0:
320,192,17588,1,0,0:0:0:0:
192,192,17648,1,0,0:0:0:0:
448,192,17648,1,0,0:0:0:0:
320,192,17707,1,0,0:0:0:0:
64,192,17707,1,0,0:0:0:0:
192,192,17826,1,0,0:0:0:0:
448,192,17945,1,0,0:0:0:0:
320,192,18064,1,0,0:0:0:0:
64,192,18184,1,0,0:0:0:0:
192,192,18303,1,0,0:0:0:0:
320,192,18422,1,0,0:0:0:0:
448,192,18422,1,0,0:0:0:0:
192,192,18541,1,0,0:0:0:0:
64,192,18660,1,0,0:0:0:0:
320,192,18660,1,0,0:0:0:0:
192,192,18779,1,0,0:0:0:0:
448,192,18779,1,0,0:0:0:0:
320,192,18898,1,0,0:0:0:0:
448,192,18898,1,0,0:0:0:0:
64,192,19017,1,0,0:0:0:0:
192,192,19047,1,0,0:0:0:0:
320,192,19076,1,0,0:0:0:0:
448,192,19106,1,0,0:0:0:0:
192,192,19136,1,0,0:0:0:0:
64,192,19136,1,0,0:0:0:0:
448,192,19255,1,0,0:0:0:0:
320,192,19285,1,0,0:0:0:0:
192,192,19314,1,0,0:0:0:0:
64,192,19344,1,0,0:0:0:0:
320,192,19374,1,0,0:0:0:0:
448,192,19374,1,0,0:0:0:0:
192,192,19434,1,0,0:0:0:0:
64,192,19434,1,0,0:0:0:0:
448,192,19493,1,0,0:0:0:0:
320,192,19493,1,0,0:0:0:0:
192,192,19553,1,0,0:0:0:0:
320,192,19612,1,0,0:0:0:0:
448,192,19612,1,0,0:0:0:0:
64,192,19612,1,0,0:0:0:0:
192,192,19731,1,0,0:0:0:0:
448,192,19850,1,0,0:0:0:0:
64,192,19969,1,0,0:0:0:0:
192,192,19969,1,0,0:0:0:0:
320,192,20088,1,0,0:0:0:0:
64,192,20207,1,0,0:0:0:0:
192,192,20207,1,0,0:0:0:0:
320,192,20326,1,0,0:0:0:0:
448,192,20326,1,0,0:0:0:0:
192,192,20445,1,0,0:0:0:0:
64,192,20445,1,0,0:0:0:0:
64,192,20564,1,0,0:0:0:0:
448,192,20564,1,0,0:0:0:0:
320,192,20684,1,0,0:0:0:0:
64,192,20803,1,0,0:0:0:0:
192,192,20922,1,0,0:0:0:0:
448,192,20922,1,0,0:0:0:0:
320,192,21041,1,0,0:0:0:0:
192,192,21160,1,0,0:0:0:0:
448,192,21160,1,0,0:0:0:0:
320,192,21279,1,0,0:0:0:0:
64,192,21279,1,0,0:0:0:0:
192,192,21398,1,0,0:0:0:0:
448,192,21398,1,0,0:0:0:0:
320,192,21517,1,0,0:0:0:0:
448,192,21517,1,0,0:0:0:0:
64,192,21636,1,0,0:0:0:0:
448,192,21755,1,0,0:0:0:0:
320,192,21874,1,0,0:0:0:0:
192,192,21874,1,0,0:0:0:0:
64,192,21993,1,0,0:0:0:0:
320,192,22112,1,0,0:0:0:0:
192,192,22231,1,0,0:0:0:0:
448,192,22231,1,0,0:0:0:0:
64,192,22350,1,0,0:0:0:0:
320,192,22469,1,0,0:0:0:0:
448,192,22469,1,0,0:0:0:0:
192,192,22588,1,0,0:0:0:0:
64,192,22707,1,0,0:0:0:0:
448,192,22707,1,0,0:0:0:0:
320,192,22826,1,0,0:0:0:0:
192,192,22826,1,0,0:0:0:0:
448,192,22945,1,0,0:0:0:0:
320,192,22945,1,0,0:0:0:0:
192,192,23064,1,0,0:0:0:0:
64,192,23064,1,0,0:0:0:0:
320,192,23184,1,0,0:0:0:0:
448,192,23184,1,0,0:0:0:0:
64,192,23303,1,0,0:0:0:0:
192,192,23303,1,0,0:0:0:0:
448,192,23362,1,0,0:0:0:0:
320,192,23362,1,0,0:0:0:0:
64,192,23422,1,0,0:0:0:0:
192,192,23422,1,0,0:0:0:0:
448,192,23481,1,0,0:0:0:0:
320,192,23481,1,0,0:0:0:0:
192,192,23541,1,0,0:0:0:0:
64,192,23541,1,0,0:0:0:0:
320,192,23600,1,0,0:0:0:0:
448,192,23600,1,0,0:0:0:0:
64,192,23660,1,0,0:0:0:0:
192,192,23660,1,0,0:0:0:0:
320,192,23719,1,0,0:0:0:0:
448,192,23719,1,0,0:0:0:0:
192,192,23779,1,0,0:0:0:0:
64,192,23779,1,0,0:0:0:0:
448,192,23838,1,0,0:0:0:0:
320,192,23838,1,0,0:0:0:0:
192,192,23898,1,0,0:0:0:0:
64,192,23898,1,0,0:0:0:0:
320,192,23957,1,0,0:0:0:0:
448,192,23957,1,0,0:0:0:0:
192,192,24017,1,0,0:0:0:0:
64,192,24017,1,0,0:0:0:0:
320,192,24076,1,0,0:0:0:0:
448,192,24076,1,0,0:0:0:0:
64,192,24136,1,0,0:0:0:0:
192,192,24136,1,0,0:0:0:0:
448,192,24255,1,0,0:0:0:0:
320,192,24255,1,0,0:0:0:0:
192,192,24314,1,0,0:0:0:0:
64,192,24314,1,0,0:0:0:0:
320,192,24374,1,0,0:0:0:0:
448,192,24374,1,0,0:0:0:0:
192,192,24434,1,0,0:0:0:0:
64,192,24434,1,0,0:0:0:0:
448,192,24493,1,0,0:0:0:0:
320,192,24493,1,0,0:0:0:0:
192,192,24553,1,0,0:0:0:0:
64,192,24553,1,0,0:0:0:0:
448,192,24612,1,0,0:0:0:0:
320,192,24612,1,0,0:0:0:0:
192,192,24672,1,0,0:0:0:0:
64,192,24672,1,0,0:0:0:0:
448,192,24731,1,0,0:0:0:0:
320,192,24731,1,0,0:0:0:0:
64,192,24791,1,0,0:0:0:0:
192,192,24791,1,0,0:0:0:0:
320,192,24850,1,0,0:0:0:0:
448,192,24850,1,0,0:0:0:0:
192,192,24910,1,0,0:0:0:0:
64,192,24910,1,0,0:0:0:0:
320,192,24969,1,0,0:0:0:0:
448,192,24969,1,0,0:0:0:0:
64,192,24999,1,0,0:0:0:0:
192,192,25029,1,0,0:0:0:0:
320,192,25059,1,0,0:0:0:0:
448,192,25088,1,0,0:0:0:0:
64,192,25088,1,0,0:0:0:0:
192,192,25148,1,0,0:0:0:0:
320,192,25148,1,0,0:0:0:0:
64,192,25207,1,0,0:0:0:0:
448,192,25207,1,0,0:0:0:0:
192,192,25267,1,0,0:0:0:0:
64,192,25326,1,0,0:0:0:0:
320,192,25326,1,0,0:0:0:0:
448,192,25326,1,0,0:0:0:0:
192,192,25386,1,0,0:0:0:0:
320,192,25445,1,0,0:0:0:0:
448,192,25505,1,0,0:0:0:0:
320,192,25564,1,0,0:0:0:0:
192,192,25624,1,0,0:0:0:0:
64,192,25684,1,0,0:0:0:0:
320,192,25743,1,0,0:0:0:0:
192,192,25803,1,0,0:0:0:0:
448,192,25862,1,0,0:0:0:0:
320,192,25922,1,0,0:0:0:0:
192,192,25981,1,0,0:0:0:0:
64,192,26041,1,0,0:0:0:0:
192,192,26100,1,0,0:0:0:0:
320,192,26160,1,0,0:0:0:0:
448,192,26219,1,0,0:0:0:0:
192,192,26279,1,0,0:0:0:0:
64,192,26279,1,0,0:0:0:0:
320,192,26338,1,0,0:0:0:0:
448,192,26338,1,0,0:0:0:0:
192,192,26398,1,0,0:0:0:0:
64,192,26398,1,0,0:0:0:0:
320,192,26457,1,0,0:0:0:0:
448,192,26457,1,0,0:0:0:0:
192,192,26517,1,0,0:0:0:0:
64,192,26517,1,0,0:0:0:0:
320,192,26576,1,0,0:0:0:0:
448,192,26576,1,0,0:0:0:0:
192,192,26636,1,0,0:0:0:0:
64,192,26636,1,0,0:0:0:0:
320,192,26695,1,0,0:0:0:0:
448,192,26695,1,0,0:0:0:0:
192,192,26755,1,0,0:0:0:0:
64,192,26755,1,0,0:0:0:0:
320,192,26814,1,0,0:0:0:0:
448,192,26814,1,0,0:0:0:0:
64,192,26874,1,0,0:0:0:0:
192,192,26874,1,0,0:0:0:0:
320,192,26934,1,0,0:0:0:0:
448,192,26934,1,0,0:0:0:0:
192,192,26993,1,0,0:0:0:0:
64,192,26993,1,0,0:0:0:0:
64,192,27231,1,0,0:0:0:0:
320,192,27231,1,0,0:0:0:0:
448,192,27231,1,0,0:0:0:0:
192,192,27469,1,0,0:0:0:0:
320,192,27469,1,0,0:0:0:0:
64,192,27588,1,0,0:0:0:0:
448,192,27588,1,0,0:0:0:0:
192,192,27826,1,0,0:0:0:0:
448,192,27826,1,0,0:0:0:0:
64,192,28064,1,0,0:0:0:0:
320,192,28064,1,0,0:0:0:0:
192,192,28303,1,0,0:0:0:0:
448,192,28422,1,0,0:0:0:0:
64,192,28541,1,0,0:0:0:0:
320,192,28660,1,0,0:0:0:0:
192,192,28779,1,0,0:0:0:0:
448,192,28898,1,0,0:0:0:0:
320,192,29017,1,0,0:0:0:0:
192,192,29136,1,0,0:0:0:0:
64,192,29136,1,0,0:0:0:0:
320,192,29255,1,0,0:0:0:0:
192,192,29314,1,0,0:0:0:0:
64,192,29374,1,0,0:0:0:0:
448,192,29434,1,0,0:0:0:0:
320,192,29493,1,0,0:0:0:0:
192,192,29493,1,0,0:0:0:0:
192,192,29731,1,0,0:0:0:0:
64,192,29731,1,0,0:0:0:0:
320,192,29850,1,0,0:0:0:0:
64,192,29969,1,0,0:0:0:0:
448,192,29969,1,0,0:0:0:0:
192,192,30207,1,0,0:0:0:0:
64,192,30207,1,0,0:0:0:0:
320,192,30445,1,0,0:0:0:0:
192,192,30564,1,0,0:0:0:0:
448,192,30564,1,0,0:0:0:0:
320,192,30803,1,0,0:0:0:0:
192,192,30803,1,0,0:0:0:0:
64,192,31041,1,0,0:0:0:0:
448,192,31160,1,0,0:0:0:0:
320,192,31219,1,0,0:0:0:0:
192,192,31279,1,0,0:0:0:0:
64,192,31338,1,0,0:0:0:0:
320,192,31398,1,0,0:0:0:0:
448,192,31398,1,0,0:0:0:0:
320,192,31636,1,0,0:0:0:0:
192,192,31636,1,0,0:0:0:0:
64,192,31874,1,0,0:0:0:0:
192,192,31874,1,0,0:0:0:0:
320,192,32112,1,0,0:0:0:0:
64,192,32231,1,0,0:0:0:0:
192,192,32350,1,0,0:0:0:0:
448,192,32469,1,0,0:0:0:0:
320,192,32588,1,0,0:0:0:0:
192,192,32707,1,0,0:0:0:0:
64,192,32826,1,0,0:0:0:0:
192,192,32945,1,0,0:0:0:0:
320,192,32945,1,0,0:0:0:0:
448,192,32945,1,0,0:0:0:0:
64,192,33005,1,0,0:0:0:0:
320,192,33064,1,0,0:0:0:0:
192,192,33124,1,0,0:0:0:0:
448,192,33184,1,0,0:0:0:0:
320,192,33303,1,0,0:0:0:0:
192,192,33303,1,0,0:0:0:0:
64,192,33303,128,0,33541:0:0:0:0:
448,192,33541,128,0,33779:0:0:0:0:
320,192,33541,1,0,0:0:0:0:
192,192,33779,1,0,0:0:0:0:
320,192,33779,1,0,0:0:0:0:
64,192,33779,128,0,34017:0:0:0:0:
448,192,34017,1,0,0:0:0:0:
320,192,34017,1,0,0:0:0:0:
320,192,34136,1,0,0:0:0:0:
448,192,34136,1,0,0:0:0:0:
64,192,34136,1,0,0:0:0:0:
192,192,34374,1,0,0:0:0:0:
64,192,34374,1,0,0:0:0:0:
448,192,34493,1,0,0:0:0:0:
320,192,34493,1,0,0:0:0:0:
192,192,34553,1,0,0:0:0:0:
64,192,34553,1,0,0:0:0:0:
320,192,34612,1,0,0:0:0:0:
448,192,34612,1,0,0:0:0:0:
192,192,34672,1,0,0:0:0:0:
64,192,34672,1,0,0:0:0:0:
448,192,34731,1,0,0:0:0:0:
320,192,34731,1,0,0:0:0:0:
192,192,34791,1,0,0:0:0:0:
64,192,34850,1,0,0:0:0:0:
320,192,34850,1,0,0:0:0:0:
448,192,34850,1,0,0:0:0:0:
192,192,35088,1,0,0:0:0:0:
64,192,35148,1,0,0:0:0:0:
320,192,35207,128,0,35445:0:0:0:0:
192,192,35326,1,0,0:0:0:0:
448,192,35326,1,0,0:0:0:0:
64,192,35445,128,0,35684:0:0:0:0:
448,192,35445,1,0,0:0:0:0:
320,192,35684,1,0,0:0:0:0:
192,192,35684,128,0,35922:0:0:0:0:
64,192,35922,1,0,0:0:0:0:
448,192,35922,1,0,0:0:0:0:
320,192,35981,1,0,0:0:0:0:
192,192,36041,1,0,0:0:0:0:
448,192,36041,1,0,0:0:0:0:
320,192,36160,1,0,0:0:0:0:
320,192,36279,1,0,0:0:0:0:
192,192,36279,1,0,0:0:0:0:
64,192,36279,1,0,0:0:0:0:
448,192,36398,1,0,0:0:0:0:
192,192,36517,1,0,0:0:0:0:
64,192,36517,1,0,0:0:0:0:
192,192,36636,1,0,0:0:0:0:
448,192,36636,1,0,0:0:0:0:
320,192,36755,1,0,0:0:0:0:
448,192,36755,1,0,0:0:0:0:
64,192,36814,1,0,0:0:0:0:
192,192,36874,1,0,0:0:0:0:
448,192,36934,1,0,0:0:0:0:
320,192,36993,1,0,0:0:0:0:
192,192,37053,1,0,0:0:0:0:
64,192,37112,1,0,0:0:0:0:
448,192,37112,1,0,0:0:0:0:
448,192,37231,1,0,0:0:0:0:
320,192,37231,1,0,0:0:0:0:
192,192,37231,1,0,0:0:0:0:
192,192,37350,1,0,0:0:0:0:
64,192,37350,1,0,0:0:0:0:
320,192,37469,1,0,0:0:0:0:
192,192,37588,1,0,0:0:0:0:
448,192,37588,1,0,0:0:0:0:
64,192,37707,1,0,0:0:0:0:
64,192,37826,1,0,0:0:0:0:
448,192,37826,1,0,0:0:0:0:
320,192,37826,1,0,0:0:0:0:
320,192,37945,1,0,0:0:0:0:
192,192,37945,1,0,0:0:0:0:
448,192,38064,1,0,0:0:0:0:
192,192,38184,1,0,0:0:0:0:
64,192,38184,1,0,0:0:0:0:
320,192,38184,1,0,0:0:0:0:
448,192,38243,1,0,0:0:0:0:
192,192,38303,1,0,0:0:0:0:
320,192,38362,1,0,0:0:0:0:
448,192,38422,1,0,0:0:0:0:
64,192,38422,1,0,0:0:0:0:
192,192,38481,1,0,0:0:0:0:
448,192,38541,1,0,0:0:0:0:
320,192,38541,1,0,0:0:0:0:
192,192,38600,1,0,0:0:0:0:
64,192,38660,1,0,0:0:0:0:
320,192,38660,1,0,0:0:0:0:
448,192,38660,1,0,0:0:0:0:
192,192,38779,1,0,0:0:0:0:
320,192,38838,1,0,0:0:0:0:
448,192,38898,128,0,39017:0:0:0:0:
64,192,39017,128,0,39255:0:0:0:0:
192,192,39017,1,0,0:0:0:0:
320,192,39136,1,0,0:0:0:0:
448,192,39136,1,0,0:0:0:0:
192,192,39255,128,0,39493:0:0:0:0:
320,192,39255,1,0,0:0:0:0:
448,192,39493,128,0,39731:0:0:0:0:
64,192,39493,1,0,0:0:0:0:
320,192,39731,1,0,0:0:0:0:
64,192,39731,1,0,0:0:0:0:
192,192,39791,1,0,0:0:0:0:
64,192,39850,1,0,0:0:0:0:
448,192,39850,1,0,0:0:0:0:
320,192,39910,1,0,0:0:0:0:
192,192,39969,128,0,40207:0:0:0:0:
64,192,39969,1,0,0:0:0:0:
320,192,40088,1,0,0:0:0:0:
448,192,40088,1,0,0:0:0:0:
64,192,40207,1,0,0:0:0:0:
448,192,40207,1,0,0:0:0:0:
320,192,40267,1,0,0:0:0:0:
192,192,40267,1,0,0:0:0:0:
64,192,40326,1,0,0:0:0:0:
448,192,40326,1,0,0:0:0:0:
320,192,40386,1,0,0:0:0:0:
192,192,40386,1,0,0:0:0:0:
64,192,40445,1,0,0:0:0:0:
448,192,40445,1,0,0:0:0:0:
192,192,40505,1,0,0:0:0:0:
320,192,40564,1,0,0:0:0:0:
448,192,40564,1,0,0:0:0:0:
64,192,40564,1,0,0:0:0:0:
64,192,40803,1,0,0:0:0:0:
192,192,40803,1,0,0:0:0:0:
320,192,40862,1,0,0:0:0:0:
448,192,40862,1,0,0:0:0:0:
192,192,40922,1,0,0:0:0:0:
64,192,40922,1,0,0:0:0:0:
320,192,40981,1,0,0:0:0:0:
448,192,41041,1,0,0:0:0:0:
192,192,41041,1,0,0:0:0:0:
64,192,41041,1,0,0:0:0:0:
64,192,41160,1,0,0:0:0:0:
320,192,41160,1,0,0:0:0:0:
448,192,41160,1,0,0:0:0:0:
64,192,41398,1,0,0:0:0:0:
192,192,41398,1,0,0:0:0:0:
448,192,41398,1,0,0:0:0:0:
448,192,41636,1,0,0:0:0:0:
320,192,41636,1,0,0:0:0:0:
192,192,41695,1,0,0:0:0:0:
64,192,41755,1,0,0:0:0:0:
320,192,41755,1,0,0:0:0:0:
448,192,41755,1,0,0:0:0:0:
64,192,41874,1,0,0:0:0:0:
192,192,41874,1,0,0:0:0:0:
320,192,41934,1,0,0:0:0:0:
448,192,41993,1,0,0:0:0:0:
64,192,41993,1,0,0:0:0:0:
192,192,41993,1,0,0:0:0:0:
320,192,42053,1,0,0:0:0:0:
448,192,42112,1,0,0:0:0:0:
64,192,42112,1,0,0:0:0:0:
192,192,42172,1,0,0:0:0:0:
320,192,42231,1,0,0:0:0:0:
448,192,42231,1,0,0:0:0:0:
64,192,42231,1,0,0:0:0:0:
192,192,42291,1,0,0:0:0:0:
320,192,42350,1,0,0:0:0:0:
448,192,42350,1,0,0:0:0:0:
192,192,42410,1,0,0:0:0:0:
64,192,42469,1,0,0:0:0:0:
320,192,42469,1,0,0:0:0:0:
448,192,42469,128,0,43898:0:0:0:0:
192,192,42588,1,0,0:0:0:0:
64,192,42707,1,0,0:0:0:0:
320,192,42826,1,0,0:0:0:0:
192,192,42945,1,0,0:0:0:0:
64,192,43064,1,0,0:0:0:0:
320,192,43184,1,0,0:0:0:0:
192,192,43303,1,0,0:0:0:0:
64,192,43422,1,0,0:0:0:0:
320,192,43541,1,0,0:0:0:0:
64,192,43660,1,0,0:0:0:0:
192,192,43779,1,0,0:0:0:0:
64,192,43898,128,0,44374:0:0:0:0:
320,192,43898,1,0,0:0:0:0:
192,192,44017,1,0,0:0:0:0:
320,192,44136,1,0,0:0:0:0:
448,192,44255,1,0,0:0:0:0:
192,192,44374,128,0,45326:0:0:0:0:
320,192,44374,1,0,0:0:0:0:
64,192,44493,1,0,0:0:0:0:
448,192,44612,1,0,0:0:0:0:
320,192,44731,1,0,0:0:0:0:
64,192,44850,1,0,0:0:0:0:
448,192,44969,1,0,0:0:0:0:
320,192,45088,1,0,0:0:0:0:
64,192,45207,1,0,0:0:0:0:
320,192,45326,128,0,46279:0:0:0:0:
448,192,45326,1,0,0:0:0:0:
64,192,45445,1,0,0:0:0:0:
192,192,45564,1,0,0:0:0:0:
448,192,45684,1,0,0:0:0:0:
64,192,45803,1,0,0:0:0:0:
192,192,45922,1,0,0:0:0:0:
448,192,46041,1,0,0:0:0:0:
192,192,46160,1,0,0:0:0:0:
448,192,46279,128,0,47707:0:0:0:0:
64,192,46279,1,0,0:0:0:0:
320,192,46398,1,0,0:0:0:0:
192,192,46517,1,0,0:0:0:0:
64,192,46636,1,0,0:0:0:0:
320,192,46755,1,0,0:0:0:0:
192,192,46874,1,0,0:0:0:0:
64,192,46993,1,0,0:0:0:0:
320,192,47112,1,0,0:0:0:0:
192,192,47231,1,0,0:0:0:0:
64,192,47350,1,0,0:0:0:0:
320,192,47469,1,0,0:0:0:0:
192,192,47588,1,0,0:0:0:0:
320,192,47707,128,0,47945:0:0:0:0:
64,192,47707,1,0,0:0:0:0:
192,192,47826,1,0,0:0:0:0:
192,192,47945,128,0,48184:0:0:0:0:
448,192,47945,1,0,0:0:0:0:
320,192,48064,1,0,0:0:0:0:
64,192,48184,128,0,49136:0:0:0:0:
448,192,48184,1,0,0:0:0:0:
192,192,48303,1,0,0:0:0:0:
320,192,48422,1,0,0:0:0:0:
448,192,48541,1,0,0:0:0:0:
192,192,48660,1,0,0:0:0:0:
320,192,48779,1,0,0:0:0:0:
448,192,48898,1,0,0:0:0:0:
320,192,49017,1,0,0:0:0:0:
192,192,49136,128,0,49612:0:0:0:0:
448,192,49136,128,0,50088:0:0:0:0:
320,192,49374,128,0,49791:0:0:0:0:
64,192,49612,128,0,50088:0:0:0:0:
192,192,49850,1,0,0:0:0:0:
320,192,49910,1,0,0:0:0:0:
192,192,49969,1,0,0:0:0:0:
320,192,50029,1,0,0:0:0:0:
192,192,50088,128,0,51517:0:0:0:0:
448,192,50326,1,0,0:0:0:0:
64,192,50326,1,0,0:0:0:0:
320,192,50445,1,0,0:0:0:0:
448,192,50445,1,0,0:0:0:0:
64,192,50684,1,0,0:0:0:0:
320,192,50684,1,0,0:0:0:0:
64,192,50803,1,0,0:0:0:0:
448,192,50803,1,0,0:0:0:0:
320,192,51041,1,0,0:0:0:0:
448,192,51041,1,0,0:0:0:0:
64,192,51100,1,0,0:0:0:0:
320,192,51160,1,0,0:0:0:0:
448,192,51160,1,0,0:0:0:0:
320,192,51398,1,0,0:0:0:0:
64,192,51398,1,0,0:0:0:0:
448,192,51517,128,0,51993:0:0:0:0:
64,192,51517,1,0,0:0:0:0:
192,192,51755,1,0,0:0:0:0:
320,192,51755,1,0,0:0:0:0:
64,192,51874,1,0,0:0:0:0:
320,192,51874,1,0,0:0:0:0:
192,192,51934,1,0,0:0:0:0:
64,192,51993,128,0,53422:0:0:0:0:
320,192,51993,1,0,0:0:0:0:
192,192,52231,1,0,0:0:0:0:
320,192,52231,1,0,0:0:0:0:
192,192,52350,1,0,0:0:0:0:
448,192,52350,1,0,0:0:0:0:
448,192,52588,1,0,0:0:0:0:
320,192,52588,1,0,0:0:0:0:
320,192,52707,1,0,0:0:0:0:
192,192,52707,1,0,0:0:0:0:
192,192,52945,1,0,0:0:0:0:
320,192,52945,1,0,0:0:0:0:
448,192,53005,1,0,0:0:0:0:
320,192,53064,1,0,0:0:0:0:
192,192,53064,1,0,0:0:0:0:
320,192,53303,1,0,0:0:0:0:
448,192,53303,1,0,0:0:0:0:
192,192,53422,128,0,53898:0:0:0:0:
448,192,53422,1,0,0:0:0:0:
64,192,53660,1,0,0:0:0:0:
448,192,53660,1,0,0:0:0:0:
64,192,53779,1,0,0:0:0:0:
320,192,53779,1,0,0:0:0:0:
448,192,53838,1,0,0:0:0:0:
320,192,53898,128,0,54850:0:0:0:0:
64,192,53898,1,0,0:0:0:0:
192,192,54136,1,0,0:0:0:0:
64,192,54136,1,0,0:0:0:0:
64,192,54255,1,0,0:0:0:0:
448,192,54255,1,0,0:0:0:0:
448,192,54612,1,0,0:0:0:0:
64,192,54612,1,0,0:0:0:0:
192,192,54672,1,0,0:0:0:0:
448,192,54731,1,0,0:0:0:0:
64,192,54731,1,0,0:0:0:0:
192,192,54791,1,0,0:0:0:0:
448,192,54850,128,0,55326:0:0:0:0:
64,192,54850,1,0,0:0:0:0:
192,192,55088,1,0,0:0:0:0:
320,192,55088,1,0,0:0:0:0:
320,192,55207,1,0,0:0:0:0:
64,192,55207,1,0,0:0:0:0:
64,192,55326,128,0,55803:0:0:0:0:
192,192,55326,1,0,0:0:0:0:
320,192,55564,1,0,0:0:0:0:
448,192,55564,1,0,0:0:0:0:
192,192,55624,1,0,0:0:0:0:
448,192,55684,1,0,0:0:0:0:
320,192,55684,1,0,0:0:0:0:
192,192,55743,1,0,0:0:0:0:
320,192,55803,1,0,0:0:0:0:
448,192,55803,128,0,56755:0:0:0:0:
64,192,55922,1,0,0:0:0:0:
192,192,55922,1,0,0:0:0:0:
64,192,56041,1,0,0:0:0:0:
320,192,56041,1,0,0:0:0:0:
320,192,56160,1,0,0:0:0:0:
192,192,56160,1,0,0:0:0:0:
192,192,56279,1,0,0:0:0:0:
64,192,56279,1,0,0:0:0:0:
64,192,56398,1,0,0:0:0:0:
320,192,56398,1,0,0:0:0:0:
320,192,56517,1,0,0:0:0:0:
192,192,56517,1,0,0:0:0:0:
192,192,56636,1,0,0:0:0:0:
64,192,56636,1,0,0:0:0:0:
64,192,56755,1,0,0:0:0:0:
320,192,56755,1,0,0:0:0:0:
64,192,56934,1,0,0:0:0:0:
192,192,56934,1,0,0:0:0:0:
448,192,56934,1,0,0:0:0:0:
448,192,57112,1,0,0:0:0:0:
320,192,57112,1,0,0:0:0:0:
64,192,57112,1,0,0:0:0:0:
64,192,57231,1,0,0:0:0:0:
192,192,57231,1,0,0:0:0:0:
320,192,57231,1,0,0:0:0:0:
192,192,57410,1,0,0:0:0:0:
320,192,57410,1,0,0:0:0:0:
448,192,57410,1,0,0:0:0:0:
448,192,57588,1,0,0:0:0:0:
192,192,57588,1,0,0:0:0:0:
64,192,57588,1,0,0:0:0:0:
448,192,57707,1,0,0:0:0:0:
320,192,57707,1,0,0:0:0:0:
192,192,57767,1,0,0:0:0:0:
64,192,57767,1,0,0:0:0:0:
320,192,57826,1,0,0:0:0:0:
448,192,57826,1,0,0:0:0:0:
192,192,57886,1,0,0:0:0:0:
64,192,57886,1,0,0:0:0:0:
320,192,57945,1,0,0:0:0:0:
448,192,57945,1,0,0:0:0:0:
64,192,58005,1,0,0:0:0:0:
192,192,58005,1,0,0:0:0:0:
448,192,58064,1,0,0:0:0:0:
320,192,58064,1,0,0:0:0:0:
192,192,58124,1,0,0:0:0:0:
64,192,58124,1,0,0:0:0:0:
320,192,58184,1,0,0:0:0:0:
448,192,58184,1,0,0:0:0:0:
192,192,58243,1,0,0:0:0:0:
64,192,58243,1,0,0:0:0:0:
320,192,58303,1,0,0:0:0:0:
448,192,58303,1,0,0:0:0:0:
192,192,58362,1,0,0:0:0:0:
64,192,58362,1,0,0:0:0:0:
448,192,58422,1,0,0:0:0:0:
320,192,58422,1,0,0:0:0:0:
64,192,58481,1,0,0:0:0:0:
192,192,58541,1,0,0:0:0:0:
320,192,58600,1,0,0:0:0:0:
448,192,58660,1,0,0:0:0:0:
64,192,58660,1,0,0:0:0:0:
192,192,58719,1,0,0:0:0:0:
320,192,58719,1,0,0:0:0:0:
64,192,58779,1,0,0:0:0:0:
448,192,58779,1,0,0:0:0:0:
320,192,58838,1,0,0:0:0:0:
192,192,58838,1,0,0:0:0:0:
64,192,58898,1,0,0:0:0:0:
448,192,58898,1,0,0:0:0:0:
320,192,58957,1,0,0:0:0:0:
192,192,58957,1,0,0:0:0:0:
64,192,59017,1,0,0:0:0:0:
448,192,59017,1,0,0:0:0:0:
320,192,59076,1,0,0:0:0:0:
192,192,59076,1,0,0:0:0:0:
64,192,59136,1,0,0:0:0:0:
448,192,59136,1,0,0:0:0:0:
320,192,59195,1,0,0:0:0:0:
192,192,59195,1,0,0:0:0:0:
64,192,59255,1,0,0:0:0:0:
448,192,59255,1,0,0:0:0:0:
320,192,59314,1,0,0:0:0:0:
192,192,59314,1,0,0:0:0:0:
64,192,59374,1,0,0:0:0:0:
448,192,59374,1,0,0:0:0:0:
192,192,59434,1,0,0:0:0:0:
320,192,59493,1,0,0:0:0:0:
448,192,59553,1,0,0:0:0:0:
192,192,59612,1,0,0:0:0:0:
64,192,59612,1,0,0:0:0:0:
320,192,59672,1,0,0:0:0:0:
448,192,59672,1,0,0:0:0:0:
192,192,59731,1,0,0:0:0:0:
64,192,59731,1,0,0:0:0:0:
448,192,59791,1,0,0:0:0:0:
320,192,59791,1,0,0:0:0:0:
192,192,59850,1,0,0:0:0:0:
64,192,59850,1,0,0:0:0:0:
448,192,59910,1,0,0:0:0:0:
320,192,59969,1,0,0:0:0:0:
192,192,60029,1,0,0:0:0:0:
64,192,60088,1,0,0:0:0:0:
448,192,60088,1,0,0:0:0:0:
320,192,60148,1,0,0:0:0:0:
192,192,60148,1,0,0:0:0:0:
64,192,60207,1,0,0:0:0:0:
448,192,60207,1,0,0:0:0:0:
192,192,60267,1,0,0:0:0:0:
320,192,60267,1,0,0:0:0:0:
64,192,60326,1,0,0:0:0:0:
448,192,60326,1,0,0:0:0:0:
320,192,60386,1,0,0:0:0:0:
192,192,60445,1,0,0:0:0:0:
64,192,60445,1,0,0:0:0:0:
320,192,60505,1,0,0:0:0:0:
448,192,60564,1,0,0:0:0:0:
64,192,60564,1,0,0:0:0:0:
192,192,60624,1,0,0:0:0:0:
320,192,60684,1,0,0:0:0:0:
448,192,60743,1,0,0:0:0:0:
192,192,60803,1,0,0:0:0:0:
64,192,60803,1,0,0:0:0:0:
320,192,60803,1,0,0:0:0:0:
448,192,60862,1,0,0:0:0:0:
64,192,60922,1,0,0:0:0:0:
192,192,60981,1,0,0:0:0:0:
448,192,61041,1,0,0:0:0:0:
64,192,61041,1,0,0:0:0:0:
320,192,61041,1,0,0:0:0:0:
192,192,61100,1,0,0:0:0:0:
448,192,61160,1,0,0:0:0:0:
320,192,61219,1,0,0:0:0:0:
192,192,61279,1,0,0:0:0:0:
64,192,61279,1,0,0:0:0:0:
448,192,61279,1,0,0:0:0:0:
320,192,61338,1,0,0:0:0:0:
192,192,61398,1,0,0:0:0:0:
64,192,61457,1,0,0:0:0:0:
320,192,61517,1,0,0:0:0:0:
448,192,61517,1,0,0:0:0:0:
192,192,61517,1,0,0:0:0:0:
64,192,61636,1,0,0:0:0:0:
448,192,61755,1,0,0:0:0:0:
320,192,61755,1,0,0:0:0:0:
192,192,61814,1,0,0:0:0:0:
64,192,61874,1,0,0:0:0:0:
448,192,61874,1,0,0:0:0:0:
320,192,61934,1,0,0:0:0:0:
192,192,61993,1,0,0:0:0:0:
64,192,61993,1,0,0:0:0:0:
448,192,61993,1,0,0:0:0:0:
64,192,62112,1,0,0:0:0:0:
192,192,62112,1,0,0:0:0:0:
448,192,62112,1,0,0:0:0:0:
64,192,62231,128,0,63362:0:0:0:0:
320,192,62231,128,0,63362:0:0:0:0:
448,192,62231,128,0,63362:0:0:0:0:
64,192,63422,1,0,0:0:0:0:
320,192,63422,1,0,0:0:0:0:
448,192,63422,1,0,0:0:0:0:
64,192,63600,1,0,0:0:0:0:
192,192,63600,1,0,0:0:0:0:
448,192,63600,1,0,0:0:0:0:
448,192,63779,1,0,0:0:0:0:
320,192,63779,1,0,0:0:0:0:
192,192,63779,1,0,0:0:0:0:
320,192,63898,1,0,0:0:0:0:
192,192,63898,1,0,0:0:0:0:
64,192,63898,1,0,0:0:0:0:
64,192,64076,1,0,0:0:0:0:
320,192,64076,1,0,0:0:0:0:
448,192,64076,1,0,0:0:0:0:
64,192,64255,1,0,0:0:0:0:
192,192,64255,1,0,0:0:0:0:
320,192,64255,1,0,0:0:0:0:
192,192,64374,1,0,0:0:0:0:
320,192,64374,1,0,0:0:0:0:
448,192,64374,1,0,0:0:0:0:
64,192,64553,1,0,0:0:0:0:
192,192,64553,1,0,0:0:0:0:
448,192,64553,1,0,0:0:0:0:
64,192,64731,1,0,0:0:0:0:
320,192,64731,1,0,0:0:0:0:
448,192,64731,1,0,0:0:0:0:
448,192,64850,1,0,0:0:0:0:
192,192,64850,1,0,0:0:0:0:
64,192,64850,1,0,0:0:0:0:
192,192,65029,1,0,0:0:0:0:
320,192,65029,1,0,0:0:0:0:
448,192,65029,1,0,0:0:0:0:
64,192,65207,1,0,0:0:0:0:
192,192,65207,1,0,0:0:0:0:
448,192,65207,1,0,0:0:0:0:
448,192,65326,1,0,0:0:0:0:
320,192,65326,1,0,0:0:0:0:
64,192,65326,1,0,0:0:0:0:
192,192,65386,1,0,0:0:0:0:
320,192,65445,1,0,0:0:0:0:
448,192,65505,1,0,0:0:0:0:
192,192,65564,1,0,0:0:0:0:
64,192,65564,1,0,0:0:0:0:
320,192,65564,1,0,0:0:0:0:
448,192,65624,1,0,0:0:0:0:
320,192,65684,1,0,0:0:0:0:
64,192,65743,1,0,0:0:0:0:
192,192,65803,1,0,0:0:0:0:
320,192,65803,1,0,0:0:0:0:
448,192,65803,1,0,0:0:0:0:
64,192,65862,1,0,0:0:0:0:
192,192,65922,1,0,0:0:0:0:
320,192,65981,1,0,0:0:0:0:
448,192,66041,1,0,0:0:0:0:
64,192,66041,1,0,0:0:0:0:
192,192,66041,1,0,0:0:0:0:
320,192,66100,1,0,0:0:0:0:
192,192,66160,1,0,0:0:0:0:
64,192,66219,1,0,0:0:0:0:
192,192,66279,1,0,0:0:0:0:
320,192,66279,1,0,0:0:0:0:
448,192,66279,1,0,0:0:0:0:
64,192,66338,1,0,0:0:0:0:
192,192,66398,1,0,0:0:0:0:
448,192,66457,1,0,0:0:0:0:
320,192,66517,1,0,0:0:0:0:
192,192,66517,1,0,0:0:0:0:
64,192,66517,1,0,0:0:0:0:
448,192,66576,1,0,0:0:0:0:
64,192,66636,1,0,0:0:0:0:
192,192,66695,1,0,0:0:0:0:
320,192,66755,1,0,0:0:0:0:
448,192,66755,1,0,0:0:0:0:
64,192,66755,1,0,0:0:0:0:
192,192,66814,1,0,0:0:0:0:
448,192,66874,1,0,0:0:0:0:
320,192,66934,1,0,0:0:0:0:
192,192,66993,1,0,0:0:0:0:
64,192,66993,1,0,0:0:0:0:
448,192,66993,1,0,0:0:0:0:
320,192,67053,1,0,0:0:0:0:
192,192,67112,1,0,0:0:0:0:
64,192,67172,1,0,0:0:0:0:
320,192,67231,1,0,0:0:0:0:
448,192,67231,1,0,0:0:0:0:
192,192,67231,1,0,0:0:0:0:
64,192,67291,1,0,0:0:0:0:
192,192,67350,1,0,0:0:0:0:
448,192,67410,1,0,0:0:0:0:
320,192,67469,1,0,0:0:0:0:
64,192,67469,1,0,0:0:0:0:
192,192,67469,1,0,0:0:0:0:
448,192,67529,1,0,0:0:0:0:
320,192,67588,1,0,0:0:0:0:
192,192,67648,1,0,0:0:0:0:
64,192,67707,1,0,0:0:0:0:
320,192,67707,1,0,0:0:0:0:
448,192,67707,1,0,0:0:0:0:
192,192,67767,1,0,0:0:0:0:
320,192,67826,1,0,0:0:0:0:
448,192,67886,1,0,0:0:0:0:
64,192,67945,1,0,0:0:0:0:
192,192,67945,1,0,0:0:0:0:
320,192,67945,1,0,0:0:0:0:
448,192,68005,1,0,0:0:0:0:
64,192,68064,1,0,0:0:0:0:
192,192,68124,1,0,0:0:0:0:
320,192,68184,1,0,0:0:0:0:
64,192,68184,1,0,0:0:0:0:
448,192,68184,1,0,0:0:0:0:
192,192,68243,1,0,0:0:0:0:
448,192,68303,1,0,0:0:0:0:
320,192,68362,1,0,0:0:0:0:
192,192,68422,1,0,0:0:0:0:
64,192,68422,1,0,0:0:0:0:
448,192,68422,1,0,0:0:0:0:
320,192,68481,1,0,0:0:0:0:
64,192,68541,1,0,0:0:0:0:
192,192,68600,1,0,0:0:0:0:
320,192,68660,1,0,0:0:0:0:
448,192,68660,1,0,0:0:0:0:
192,192,68719,1,0,0:0:0:0:
64,192,68719,1,0,0:0:0:0:
448,192,68779,1,0,0:0:0:0:
320,192,68779,1,0,0:0:0:0:
64,192,68838,1,0,0:0:0:0:
192,192,68838,1,0,0:0:0:0:
320,192,68898,1,0,0:0:0:0:
448,192,68898,1,0,0:0:0:0:
192,192,68957,1,0,0:0:0:0:
64,192,68957,1,0,0:0:0:0:
320,192,69017,1,0,0:0:0:0:
448,192,69017,1,0,0:0:0:0:
192,192,69076,1,0,0:0:0:0:
448,192,69136,1,0,0:0:0:0:
320,192,69136,1,0,0:0:0:0:
64,192,69136,1,0,0:0:0:0:
192,192,69612,1,0,0:0:0:0:
320,192,69691,1,0,0:0:0:0:
64,192,69771,1,0,0:0:0:0:
192,192,69850,5,0,0:0:0:0:
448,192,69930,1,0,0:0:0:0:
320,192,70009,1,0,0:0:0:0:
64,192,70088,1,0,0:0:0:0:
192,192,70148,1,0,0:0:0:0:
320,192,70207,1,0,0:0:0:0:
448,192,70267,1,0,0:0:0:0:
192,192,70326,1,0,0:0:0:0:
320,192,70386,1,0,0:0:0:0:
64,192,70445,1,0,0:0:0:0:
192,192,70505,1,0,0:0:0:0:
448,192,70564,1,0,0:0:0:0:
320,192,70624,1,0,0:0:0:0:
64,192,70684,5,0,0:0:0:0:
192,192,70743,1,0,0:0:0:0:
320,192,70803,1,0,0:0:0:0:
448,192,70862,1,0,0:0:0:0:
64,192,70922,1,0,0:0:0:0:
448,192,70981,1,0,0:0:0:0:
192,192,71041,5,0,0:0:0:0:
320,192,71100,1,0,0:0:0:0:
192,192,71160,1,0,0:0:0:0:
320,192,71219,1,0,0:0:0:0:
192,192,71279,1,0,0:0:0:0:
320,192,71338,1,0,0:0:0:0:
192,192,71398,1,0,0:0:0:0:
320,192,71457,1,0,0:0:0:0:
192,192,71517,1,0,0:0:0:0:
320,192,71576,1,0,0:0:0:0:
192,192,71636,1,0,0:0:0:0:
320,192,71695,1,0,0:0:0:0:
192,192,71755,1,0,0:0:0:0:
320,192,71814,1,0,0:0:0:0:
192,192,71874,1,0,0:0:0:0:
320,192,71934,1,0,0:0:0:0:
64,192,71993,1,0,0:0:0:0:
448,192,71993,1,0,0:0:0:0:
192,192,71993,1,0,0:0:0:0:
64,192,72112,1,0,0:0:0:0:
192,192,72112,1,0,0:0:0:0:
448,192,72112,1,0,0:0:0:0:
64,192,72231,1,0,0:0:0:0:
320,192,72231,1,0,0:0:0:0:
448,192,72231,1,0,0:0:0:0:
64,192,72469,1,0,0:0:0:0:
192,192,72529,1,0,0:0:0:0:
448,192,72588,1,0,0:0:0:0:
320,192,72648,1,0,0:0:0:0:
448,192,72707,1,0,0:0:0:0:
192,192,72707,1,0,0:0:0:0:
64,192,72707,1,0,0:0:0:0:
320,192,72767,1,0,0:0:0:0:
64,192,72826,1,0,0:0:0:0:
192,192,72886,1,0,0:0:0:0:
64,192,72945,1,0,0:0:0:0:
448,192,72945,128,0,73184:0:0:0:0:
320,192,72945,128,0,73184:0:0:0:0:
192,192,73064,1,0,0:0:0:0:
64,192,73184,1,0,0:0:0:0:
320,192,73303,128,0,73541:0:0:0:0:
192,192,73303,128,0,73541:0:0:0:0:
448,192,73303,1,0,0:0:0:0:
64,192,73422,1,0,0:0:0:0:
448,192,73541,1,0,0:0:0:0:
192,192,73660,128,0,73898:0:0:0:0:
64,192,73660,128,0,73898:0:0:0:0:
320,192,73660,1,0,0:0:0:0:
448,192,73779,1,0,0:0:0:0:
320,192,73898,1,0,0:0:0:0:
64,192,74017,128,0,74255:0:0:0:0:
448,192,74017,128,0,74255:0:0:0:0:
192,192,74017,1,0,0:0:0:0:
320,192,74136,1,0,0:0:0:0:
192,192,74255,1,0,0:0:0:0:
320,192,74314,1,0,0:0:0:0:
64,192,74374,1,0,0:0:0:0:
448,192,74374,1,0,0:0:0:0:
192,192,74434,1,0,0:0:0:0:
320,192,74493,1,0,0:0:0:0:
448,192,74493,1,0,0:0:0:0:
192,192,74553,1,0,0:0:0:0:
64,192,74612,1,0,0:0:0:0:
448,192,74612,1,0,0:0:0:0:
320,192,74672,1,0,0:0:0:0:
192,192,74731,1,0,0:0:0:0:
448,192,74731,1,0,0:0:0:0:
64,192,74791,1,0,0:0:0:0:
448,192,74850,1,0,0:0:0:0:
320,192,74850,1,0,0:0:0:0:
64,192,97707,5,0,0:0:0:0:
192,192,97707,1,0,0:0:0:0:
320,192,97767,1,0,0:0:0:0:
448,192,97767,1,0,0:0:0:0:
192,192,97826,1,0,0:0:0:0:
64,192,97826,1,0,0:0:0:0:
320,192,97886,1,0,0:0:0:0:
448,192,97886,1,0,0:0:0:0:
192,192,97945,1,0,0:0:0:0:
64,192,97945,1,0,0:0:0:0:
448,192,98005,1,0,0:0:0:0:
320,192,98005,1,0,0:0:0:0:
64,192,98064,1,0,0:0:0:0:
192,192,98064,1,0,0:0:0:0:
320,192,98124,1,0,0:0:0:0:
448,192,98124,1,0,0:0:0:0:
192,192,98184,1,0,0:0:0:0:
64,192,98184,1,0,0:0:0:0:
320,192,98243,1,0,0:0:0:0:
448,192,98243,1,0,0:0:0:0:
192,192,98303,1,0,0:0:0:0:
64,192,98303,1,0,0:0:0:0:
320,192,98362,1,0,0:0:0:0:
448,192,98362,1,0,0:0:0:0:
192,192,98422,1,0,0:0:0:0:
64,192,98422,1,0,0:0:0:0:
320,192,98481,1,0,0:0:0:0:
448,192,98481,1,0,0:0:0:0:
192,192,98541,1,0,0:0:0:0:
64,192,98541,1,0,0:0:0:0:
320,192,98600,1,0,0:0:0:0:
448,192,98600,1,0,0:0:0:0:
192,192,98660,1,0,0:0:0:0:
64,192,98660,1,0,0:0:0:0:
320,192,98719,1,0,0:0:0:0:
448,192,98719,1,0,0:0:0:0:
192,192,98779,1,0,0:0:0:0:
64,192,98779,1,0,0:0:0:0:
320,192,98838,1,0,0:0:0:0:
448,192,98838,1,0,0:0:0:0:
192,192,98898,1,0,0:0:0:0:
64,192,98898,1,0,0:0:0:0:
320,192,98957,1,0,0:0:0:0:
448,192,98957,1,0,0:0:0:0:
64,192,99017,1,0,0:0:0:0:
192,192,99017,1,0,0:0:0:0:
320,192,99076,1,0,0:0:0:0:
448,192,99076,1,0,0:0:0:0:
192,192,99136,1,0,0:0:0:0:
64,192,99136,1,0,0:0:0:0:
448,192,99195,1,0,0:0:0:0:
320,192,99195,1,0,0:0:0:0:
192,192,99255,1,0,0:0:0:0:
64,192,99255,1,0,0:0:0:0:
320,192,99314,1,0,0:0:0:0:
448,192,99314,1,0,0:0:0:0:
192,192,99374,1,0,0:0:0:0:
64,192,99374,1,0,0:0:0:0:
320,192,99434,1,0,0:0:0:0:
448,192,99434,1,0,0:0:0:0:
192,192,99493,1,0,0:0:0:0:
64,192,99493,1,0,0:0:0:0:
320,192,99553,1,0,0:0:0:0:
448,192,99553,1,0,0:0:0:0:
192,192,99612,1,0,0:0:0:0:
64,192,99612,1,0,0:0:0:0:
320,192,99672,1,0,0:0:0:0:
448,192,99672,1,0,0:0:0:0:
192,192,99731,1,0,0:0:0:0:
64,192,99731,1,0,0:0:0:0:
320,192,99791,1,0,0:0:0:0:
448,192,99791,1,0,0:0:0:0:
192,192,99850,1,0,0:0:0:0:
64,192,99850,1,0,0:0:0:0:
320,192,99910,1,0,0:0:0:0:
448,192,99910,1,0,0:0:0:0:
192,192,99969,1,0,0:0:0:0:
64,192,99969,1,0,0:0:0:0:
320,192,100029,1,0,0:0:0:0:
448,192,100029,1,0,0:0:0:0:
64,192,100088,1,0,0:0:0:0:
192,192,100088,1,0,0:0:0:0:
448,192,100148,1,0,0:0:0:0:
320,192,100148,1,0,0:0:0:0:
192,192,100207,1,0,0:0:0:0:
64,192,100207,1,0,0:0:0:0:
320,192,100267,1,0,0:0:0:0:
448,192,100267,1,0,0:0:0:0:
192,192,100326,1,0,0:0:0:0:
64,192,100326,1,0,0:0:0:0:
320,192,100386,1,0,0:0:0:0:
448,192,100386,1,0,0:0:0:0:
192,192,100445,1,0,0:0:0:0:
64,192,100445,1,0,0:0:0:0:
320,192,100505,1,0,0:0:0:0:
448,192,100505,1,0,0:0:0:0:
192,192,100564,1,0,0:0:0:0:
64,192,100564,1,0,0:0:0:0:
320,192,100624,1,0,0:0:0:0:
448,192,100624,1,0,0:0:0:0:
192,192,100684,1,0,0:0:0:0:
64,192,100684,1,0,0:0:0:0:
320,192,100743,1,0,0:0:0:0:
448,192,100743,1,0,0:0:0:0:
192,192,100803,1,0,0:0:0:0:
64,192,100803,1,0,0:0:0:0:
320,192,100862,1,0,0:0:0:0:
448,192,100862,1,0,0:0:0:0:
192,192,100922,1,0,0:0:0:0:
64,192,100922,1,0,0:0:0:0:
448,192,100981,1,0,0:0:0:0:
320,192,100981,1,0,0:0:0:0:
192,192,101041,1,0,0:0:0:0:
64,192,101041,1,0,0:0:0:0:
448,192,101100,1,0,0:0:0:0:
320,192,101100,1,0,0:0:0:0:
192,192,101160,1,0,0:0:0:0:
64,192,101160,1,0,0:0:0:0:
320,192,101219,1,0,0:0:0:0:
448,192,101219,1,0,0:0:0:0:
192,192,101279,1,0,0:0:0:0:
64,192,101279,1,0,0:0:0:0:
320,192,101338,1,0,0:0:0:0:
448,192,101338,1,0,0:0:0:0:
192,192,101398,1,0,0:0:0:0:
64,192,101398,1,0,0:0:0:0:
320,192,101457,1,0,0:0:0:0:
448,192,101457,1,0,0:0:0:0:
64,192,101517,1,0,0:0:0:0:
448,192,101517,1,0,0:0:0:0:
192,192,101517,1,0,0:0:0:0:
64,192,109612,5,0,0:0:0:0:
192,192,109612,1,0,0:0:0:0:
448,192,109672,1,0,0:0:0:0:
320,192,109672,1,0,0:0:0:0:
64,192,109731,1,0,0:0:0:0:
192,192,109731,1,0,0:0:0:0:
448,192,109791,1,0,0:0:0:0:
320,192,109791,1,0,0:0:0:0:
64,192,109850,1,0,0:0:0:0:
192,192,109850,1,0,0:0:0:0:
448,192,109910,1,0,0:0:0:0:
320,192,109910,1,0,0:0:0:0:
64,192,109969,1,0,0:0:0:0:
192,192,109969,1,0,0:0:0:0:
320,192,110029,1,0,0:0:0:0:
448,192,110029,1,0,0:0:0:0:
64,192,110088,1,0,0:0:0:0:
192,192,110088,1,0,0:0:0:0:
320,192,110148,1,0,0:0:0:0:
448,192,110148,1,0,0:0:0:0:
64,192,110207,1,0,0:0:0:0:
192,192,110207,1,0,0:0:0:0:
320,192,110267,1,0,0:0:0:0:
448,192,110267,1,0,0:0:0:0:
64,192,110326,1,0,0:0:0:0:
192,192,110326,1,0,0:0:0:0:
448,192,110386,1,0,0:0:0:0:
320,192,110386,1,0,0:0:0:0:
64,192,110445,1,0,0:0:0:0:
192,192,110445,1,0,0:0:0:0:
320,192,110505,1,0,0:0:0:0:
448,192,110505,1,0,0:0:0:0:
64,192,110564,1,0,0:0:0:0:
192,192,110564,1,0,0:0:0:0:
448,192,110624,1,0,0:0:0:0:
320,192,110624,1,0,0:0:0:0:
64,192,110684,1,0,0:0:0:0:
192,192,110684,1,0,0:0:0:0:
320,192,110743,1,0,0:0:0:0:
448,192,110743,1,0,0:0:0:0:
64,192,110803,1,0,0:0:0:0:
192,192,110803,1,0,0:0:0:0:
448,192,110862,1,0,0:0:0:0:
320,192,110862,1,0,0:0:0:0:
64,192,110922,1,0,0:0:0:0:
192,192,110922,1,0,0:0:0:0:
320,192,110981,1,0,0:0:0:0:
448,192,110981,1,0,0:0:0:0:
192,192,111041,1,0,0:0:0:0:
64,192,111041,1,0,0:0:0:0:
320,192,111100,1,0,0:0:0:0:
448,192,111100,1,0,0:0:0:0:
64,192,111160,1,0,0:0:0:0:
192,192,111160,1,0,0:0:0:0:
320,192,111219,1,0,0:0:0:0:
448,192,111219,1,0,0:0:0:0:
64,192,111279,1,0,0:0:0:0:
192,192,111279,1,0,0:0:0:0:
448,192,111338,1,0,0:0:0:0:
320,192,111338,1,0,0:0:0:0:
64,192,111398,1,0,0:0:0:0:
192,192,111398,1,0,0:0:0:0:
320,192,111457,1,0,0:0:0:0:
448,192,111457,1,0,0:0:0:0:
64,192,111517,1,0,0:0:0:0:
192,192,111517,1,0,0:0:0:0:
320,192,111576,1,0,0:0:0:0:
448,192,111576,1,0,0:0:0:0:
64,192,111636,1,0,0:0:0:0:
192,192,111636,1,0,0:0:0:0:
320,192,111695,1,0,0:0:0:0:
448,192,111695,1,0,0:0:0:0:
64,192,111755,1,0,0:0:0:0:
192,192,111755,1,0,0:0:0:0:
320,192,111814,1,0,0:0:0:0:
448,192,111814,1,0,0:0:0:0:
64,192,111874,1,0,0:0:0:0:
192,192,111874,1,0,0:0:0:0:
448,192,111934,1,0,0:0:0:0:
320,192,111934,1,0,0:0:0:0:
64,192,111993,1,0,0:0:0:0:
192,192,111993,1,0,0:0:0:0:
320,192,112053,1,0,0:0:0:0:
448,192,112053,1,0,0:0:0:0:
64,192,112112,1,0,0:0:0:0:
192,192,112112,1,0,0:0:0:0:
320,192,112172,1,0,0:0:0:0:
448,192,112172,1,0,0:0:0:0:
64,192,112231,1,0,0:0:0:0:
192,192,112231,1,0,0:0:0:0:
320,192,112291,1,0,0:0:0:0:
448,192,112291,1,0,0:0:0:0:
64,192,112350,1,0,0:0:0:0:
192,192,112350,1,0,0:0:0:0:
320,192,112410,1,0,0:0:0:0:
448,192,112410,1,0,0:0:0:0:
64,192,112469,1,0,0:0:0:0:
192,192,112469,1,0,0:0:0:0:
448,192,112499,1,0,0:0:0:0:
320,192,112529,1,0,0:0:0:0:
192,192,112559,1,0,0:0:0:0:
64,192,112588,1,0,0:0:0:0:
448,192,112618,1,0,0:0:0:0:
320,192,112648,1,0,0:0:0:0:
192,192,112678,1,0,0:0:0:0:
64,192,112707,1,0,0:0:0:0:
448,192,112737,1,0,0:0:0:0:
320,192,112767,1,0,0:0:0:0:
64,192,112797,1,0,0:0:0:0:
192,192,112826,1,0,0:0:0:0:
448,192,112856,1,0,0:0:0:0:
320,192,112886,1,0,0:0:0:0:
64,192,112916,1,0,0:0:0:0:
448,192,112945,1,0,0:0:0:0:
192,192,112945,1,0,0:0:0:0:
