osu file format v14

[General]
AudioFilename: audio.mp3
AudioLeadIn: 0
PreviewTime: 38171
Countdown: 0
SampleSet: Normal
StackLeniency: 0.7
Mode: 1
LetterboxInBreaks: 0
WidescreenStoryboard: 1

[Editor]
Bookmarks: 38171,59504,142171
DistanceSpacing: 1
BeatDivisor: 4
GridSize: 32
TimelineZoom: 2

[Metadata]
Title:Jackknife
TitleUnicode:Jackknife
Artist:xi
ArtistUnicode:xi
Creator:Arrival
Version:Oni
Source:
Tags:Evolved Chronicles piano C.H.S with Lick Dom Records diverse system blacky sta diceros bicornis comic market 91 mira APPO (Katana Bits) 鑓田 (alpha complex) YsK439
BeatmapID:1378164
BeatmapSetID:646616

[Difficulty]
HPDrainRate:5.5
CircleSize:2
OverallDifficulty:5.5
ApproachRate:0
SliderMultiplier:1.4
SliderTickRate:1

[Events]
//Background and Video events
0,0,"cropped-1920-1080-595862.jpg",0,40
//Break Periods
//Storyboard Layer 0 (Background)
//Storyboard Layer 1 (Fail)
//Storyboard Layer 2 (Pass)
//Storyboard Layer 3 (Foreground)
//Storyboard Sound Samples

[TimingPoints]
838,333.333333333333,4,1,0,80,1,0
38171,-100,4,1,0,90,0,0
83587,-100,4,1,0,60,0,0
104171,-100,4,1,0,80,0,0
104837,-100,4,1,0,80,0,1
118171,-100,4,1,0,80,0,0
120504,-100,4,1,0,90,0,0
163837,-100,4,1,0,60,0,0
168171,-100,4,1,0,80,0,0
190171,-100,4,1,0,70,0,0
199504,-100,4,1,0,80,0,0
200837,-100,4,1,0,80,0,0
217504,333.333333333333,4,1,0,80,1,0
218837,-100,4,1,0,60,0,0
224170,-100,4,1,0,75,0,0
229170,-100,4,1,0,90,0,0
229504,-100,4,1,0,90,0,1
249337,-100,4,1,0,90,0,0
256170,-100,4,1,0,100,0,1
261503,-100,4,1,0,100,0,0
264170,-100,4,1,0,100,0,1
265503,-100,4,1,0,100,0,0

[HitObjects]
256,128,838,5,0,0:0:0:0:
256,128,1004,1,0,0:0:0:0:
256,128,1171,1,8,0:0:0:0:
256,128,1337,1,8,0:0:0:0:
256,128,1421,1,8,0:0:0:0:
256,128,1504,1,0,0:0:0:0:
256,128,1671,1,0,0:0:0:0:
256,128,1837,1,8,0:0:0:0:
256,128,2004,1,8,0:0:0:0:
256,128,2171,1,0,0:0:0:0:
256,128,2837,1,0,0:0:0:0:
256,128,3504,1,0,0:0:0:0:
256,128,4171,1,8,0:0:0:0:
256,128,4337,1,8,0:0:0:0:
256,128,4421,1,8,0:0:0:0:
256,128,4504,1,0,0:0:0:0:
256,128,4671,1,8,0:0:0:0:
256,128,4837,1,0,0:0:0:0:
256,128,5504,1,0,0:0:0:0:
256,128,6171,1,0,0:0:0:0:
256,128,6837,1,8,0:0:0:0:
256,128,7004,1,0,0:0:0:0:
256,128,7171,1,8,0:0:0:0:
256,128,7254,1,0,0:0:0:0:
256,128,7337,1,8,0:0:0:0:
256,128,7421,1,8,0:0:0:0:
256,128,7504,1,0,0:0:0:0:
256,128,7754,1,8,0:0:0:0:
256,128,8004,1,0,0:0:0:0:
256,128,8087,1,0,0:0:0:0:
256,128,8254,1,0,0:0:0:0:
256,128,8421,1,8,0:0:0:0:
256,128,8837,1,0,0:0:0:0:
256,128,9087,1,8,0:0:0:0:
256,128,9337,1,0,0:0:0:0:
256,128,9421,1,0,0:0:0:0:
256,128,9587,1,0,0:0:0:0:
256,128,9754,1,8,0:0:0:0:
256,128,10171,1,0,0:0:0:0:
256,128,10421,1,8,0:0:0:0:
256,128,10671,1,0,0:0:0:0:
256,128,10754,1,0,0:0:0:0:
256,128,10921,1,0,0:0:0:0:
256,128,11087,1,8,0:0:0:0:
256,128,11504,2,0,L|320:128,12,35
256,128,12837,1,0,0:0:0:0:
256,128,13004,1,0,0:0:0:0:
256,128,13171,1,8,0:0:0:0:
256,128,13421,1,0,0:0:0:0:
256,128,13504,1,0,0:0:0:0:
256,128,13671,1,0,0:0:0:0:
256,128,13837,1,8,0:0:0:0:
256,128,14004,1,8,0:0:0:0:
256,128,14087,1,8,0:0:0:0:
256,128,14171,1,0,0:0:0:0:
256,128,14337,1,0,0:0:0:0:
256,128,14504,1,8,0:0:0:0:
256,128,14587,1,0,0:0:0:0:
256,128,14754,1,8,0:0:0:0:
256,128,14921,1,0,0:0:0:0:
256,128,15004,1,8,0:0:0:0:
256,128,15171,1,8,0:0:0:0:
256,128,15337,1,0,0:0:0:0:
256,128,15421,1,0,0:0:0:0:
256,128,15504,1,0,0:0:0:0:
256,128,15837,1,8,0:0:0:0:
256,128,16087,1,0,0:0:0:0:
256,128,16171,1,0,0:0:0:0:
256,128,16337,1,0,0:0:0:0:
256,128,16504,1,8,0:0:0:0:
256,128,16671,1,8,0:0:0:0:
256,128,16754,1,8,0:0:0:0:
256,128,16837,1,0,0:0:0:0:
256,128,17004,1,8,0:0:0:0:
256,128,17171,1,0,0:0:0:0:
256,128,17254,1,8,0:0:0:0:
256,128,17421,1,0,0:0:0:0:
256,128,17587,1,8,0:0:0:0:
256,128,17671,1,0,0:0:0:0:
256,128,17837,1,8,0:0:0:0:
256,128,18004,1,8,0:0:0:0:
256,128,18087,1,8,0:0:0:0:
256,128,18171,1,0,0:0:0:0:
256,128,18504,1,8,0:0:0:0:
256,128,18754,1,8,0:0:0:0:
256,128,18837,1,0,0:0:0:0:
256,128,19004,1,0,0:0:0:0:
256,128,19171,1,8,0:0:0:0:
256,128,19337,1,8,0:0:0:0:
256,128,19421,1,8,0:0:0:0:
256,128,19504,1,0,0:0:0:0:
256,128,19671,1,0,0:0:0:0:
256,128,19837,1,8,0:0:0:0:
256,128,20004,1,0,0:0:0:0:
256,128,20087,1,0,0:0:0:0:
256,128,20254,1,8,0:0:0:0:
256,128,20337,1,0,0:0:0:0:
256,128,20504,1,8,0:0:0:0:
256,128,20671,1,0,0:0:0:0:
256,128,20754,1,0,0:0:0:0:
256,128,20837,1,0,0:0:0:0:
256,128,21171,1,8,0:0:0:0:
256,128,21421,1,8,0:0:0:0:
256,128,21504,1,0,0:0:0:0:
256,128,21671,1,0,0:0:0:0:
256,128,21837,1,8,0:0:0:0:
256,128,22004,1,8,0:0:0:0:
256,128,22087,1,8,0:0:0:0:
256,128,22171,1,0,0:0:0:0:
256,128,22337,1,0,0:0:0:0:
256,128,22504,1,8,0:0:0:0:
256,128,22671,1,0,0:0:0:0:
256,128,22837,1,8,0:0:0:0:
256,128,22921,1,8,0:0:0:0:
256,128,23004,1,8,0:0:0:0:
256,128,23087,1,8,0:0:0:0:
256,128,23171,1,0,0:0:0:0:
256,128,23254,1,0,0:0:0:0:
256,128,23337,1,0,0:0:0:0:
256,128,23421,1,0,0:0:0:0:
256,128,23504,1,8,0:0:0:0:
256,128,23837,1,8,0:0:0:0:
256,128,24004,1,0,0:0:0:0:
256,128,24087,1,8,0:0:0:0:
256,128,24254,1,8,0:0:0:0:
256,128,24337,1,0,0:0:0:0:
256,128,24504,1,8,0:0:0:0:
256,128,24671,1,0,0:0:0:0:
256,128,24754,1,8,0:0:0:0:
256,128,24837,1,0,0:0:0:0:
256,128,25004,1,8,0:0:0:0:
256,128,25171,1,0,0:0:0:0:
256,128,25254,1,0,0:0:0:0:
256,128,25337,1,0,0:0:0:0:
256,128,25421,1,8,0:0:0:0:
256,128,25587,1,8,0:0:0:0:
256,128,25671,1,0,0:0:0:0:
256,128,25837,1,8,0:0:0:0:
256,128,26004,1,8,0:0:0:0:
256,128,26087,1,8,0:0:0:0:
256,128,26171,1,0,0:0:0:0:
256,128,26421,1,0,0:0:0:0:
256,128,26504,1,8,0:0:0:0:
256,128,26671,1,8,0:0:0:0:
256,128,26754,1,0,0:0:0:0:
256,128,26921,1,0,0:0:0:0:
256,128,27004,1,8,0:0:0:0:
256,128,27171,1,8,0:0:0:0:
256,128,27254,1,0,0:0:0:0:
256,128,27337,1,0,0:0:0:0:
256,128,27421,1,8,0:0:0:0:
256,128,27671,1,8,0:0:0:0:
256,128,27837,1,0,0:0:0:0:
256,128,27921,1,8,0:0:0:0:
256,128,28004,1,8,0:0:0:0:
256,128,28087,1,0,0:0:0:0:
256,128,28337,1,0,0:0:0:0:
256,128,28504,1,8,0:0:0:0:
256,128,28587,1,8,0:0:0:0:
256,128,28671,1,0,0:0:0:0:
256,128,28754,1,0,0:0:0:0:
256,128,28837,1,0,0:0:0:0:
256,128,29004,1,8,0:0:0:0:
256,128,29171,1,8,0:0:0:0:
256,128,29254,1,8,0:0:0:0:
256,128,29337,5,0,0:0:0:0:
256,128,29421,1,0,0:0:0:0:
256,128,29504,1,8,0:0:0:0:
256,128,29837,1,8,0:0:0:0:
256,128,29921,1,0,0:0:0:0:
256,128,30004,1,8,0:0:0:0:
256,128,30087,1,8,0:0:0:0:
256,128,30171,1,0,0:0:0:0:
256,128,30337,1,0,0:0:0:0:
256,128,30504,1,8,0:0:0:0:
256,128,30587,1,0,0:0:0:0:
256,128,30671,1,0,0:0:0:0:
256,128,30754,1,8,0:0:0:0:
256,128,30837,1,0,0:0:0:0:
256,128,31171,1,8,0:0:0:0:
256,128,31254,1,8,0:0:0:0:
256,128,31337,1,0,0:0:0:0:
256,128,31421,1,0,0:0:0:0:
256,128,31504,1,0,0:0:0:0:
256,128,31671,1,0,0:0:0:0:
256,128,31837,1,8,0:0:0:0:
256,128,32004,1,0,0:0:0:0:
256,128,32087,1,8,0:0:0:0:
256,128,32254,1,8,0:0:0:0:
256,128,32337,1,0,0:0:0:0:
256,128,32504,1,8,0:0:0:0:
256,128,32587,1,8,0:0:0:0:
256,128,32671,1,0,0:0:0:0:
256,128,32754,1,8,0:0:0:0:
256,128,32837,1,0,0:0:0:0:
256,128,33004,1,0,0:0:0:0:
256,128,33171,1,8,0:0:0:0:
256,128,33421,1,8,0:0:0:0:
256,128,33587,1,8,0:0:0:0:
256,128,33671,1,0,0:0:0:0:
256,128,33837,1,8,0:0:0:0:
256,128,34004,1,0,0:0:0:0:
256,128,34087,1,8,0:0:0:0:
256,128,34171,1,0,0:0:0:0:
256,128,34504,1,0,0:0:0:0:
256,128,34587,1,0,0:0:0:0:
256,128,34671,1,0,0:0:0:0:
256,128,34754,1,0,0:0:0:0:
256,128,34837,1,8,0:0:0:0:
256,128,35171,1,8,0:0:0:0:
256,128,35254,1,8,0:0:0:0:
256,128,35337,1,8,0:0:0:0:
256,128,35421,1,8,0:0:0:0:
256,128,35504,1,0,0:0:0:0:
256,128,36171,1,8,0:0:0:0:
256,128,36254,1,8,0:0:0:0:
256,128,36421,1,8,0:0:0:0:
256,128,36671,1,8,0:0:0:0:
256,128,36837,1,0,0:0:0:0:
256,128,37837,1,12,0:0:0:0:
256,128,38171,1,0,0:0:0:0:
256,128,38337,1,8,0:0:0:0:
256,128,38504,1,0,0:0:0:0:
256,128,38587,1,0,0:0:0:0:
256,128,38671,1,8,0:0:0:0:
256,128,38837,1,8,0:0:0:0:
256,128,39004,1,0,0:0:0:0:
256,128,39171,1,8,0:0:0:0:
256,128,39337,1,0,0:0:0:0:
256,128,39421,1,0,0:0:0:0:
256,128,39504,1,0,0:0:0:0:
256,128,39671,1,8,0:0:0:0:
256,128,39837,1,0,0:0:0:0:
256,128,40004,1,8,0:0:0:0:
256,128,40087,1,8,0:0:0:0:
256,128,40171,1,0,0:0:0:0:
256,128,40337,1,0,0:0:0:0:
256,128,40421,1,8,0:0:0:0:
256,128,40587,1,8,0:0:0:0:
256,128,40671,1,0,0:0:0:0:
256,128,41004,1,8,0:0:0:0:
256,128,41171,1,0,0:0:0:0:
256,128,41254,1,0,0:0:0:0:
256,128,41337,1,8,0:0:0:0:
256,128,41504,1,0,0:0:0:0:
256,128,41671,1,8,0:0:0:0:
256,128,41754,1,8,0:0:0:0:
256,128,41837,1,0,0:0:0:0:
256,128,42004,1,8,0:0:0:0:
256,128,42171,1,0,0:0:0:0:
256,128,42337,1,8,0:0:0:0:
256,128,42421,1,0,0:0:0:0:
256,128,42504,1,8,0:0:0:0:
256,128,42671,1,0,0:0:0:0:
256,128,42837,1,8,0:0:0:0:
256,128,43004,1,8,0:0:0:0:
256,128,43087,1,8,0:0:0:0:
256,128,43171,1,0,0:0:0:0:
256,128,43254,1,0,0:0:0:0:
256,128,43337,1,8,0:0:0:0:
256,128,43504,1,0,0:0:0:0:
256,128,43671,1,8,0:0:0:0:
256,128,43837,1,0,0:0:0:0:
256,128,43921,1,0,0:0:0:0:
256,128,44004,1,8,0:0:0:0:
256,128,44171,1,8,0:0:0:0:
256,128,44337,1,0,0:0:0:0:
256,128,44504,1,8,0:0:0:0:
256,128,44671,1,0,0:0:0:0:
256,128,44754,1,0,0:0:0:0:
256,128,44837,1,0,0:0:0:0:
256,128,45004,1,8,0:0:0:0:
256,128,45171,1,0,0:0:0:0:
256,128,45337,1,8,0:0:0:0:
256,128,45421,1,8,0:0:0:0:
256,128,45504,1,0,0:0:0:0:
256,128,45671,1,0,0:0:0:0:
256,128,45754,1,8,0:0:0:0:
256,128,45921,1,8,0:0:0:0:
256,128,46004,1,0,0:0:0:0:
256,128,46337,1,8,0:0:0:0:
256,128,46504,1,0,0:0:0:0:
256,128,46587,1,0,0:0:0:0:
256,128,46671,1,8,0:0:0:0:
256,128,46837,1,8,0:0:0:0:
256,128,47087,1,8,0:0:0:0:
256,128,47171,1,0,0:0:0:0:
256,128,47337,1,8,0:0:0:0:
256,128,47671,1,8,0:0:0:0:
256,128,48004,1,8,0:0:0:0:
256,128,48337,1,0,0:0:0:0:
256,128,48504,1,8,0:0:0:0:
256,128,48671,1,8,0:0:0:0:
256,128,48754,1,8,0:0:0:0:
256,128,48837,1,0,0:0:0:0:
256,128,49004,1,8,0:0:0:0:
256,128,49171,1,0,0:0:0:0:
256,128,49254,1,0,0:0:0:0:
256,128,49337,1,8,0:0:0:0:
256,128,49504,1,8,0:0:0:0:
256,128,49671,1,0,0:0:0:0:
256,128,49837,1,8,0:0:0:0:
256,128,50004,1,0,0:0:0:0:
256,128,50087,1,0,0:0:0:0:
256,128,50171,1,0,0:0:0:0:
256,128,50337,1,8,0:0:0:0:
256,128,50504,1,0,0:0:0:0:
256,128,50671,1,8,0:0:0:0:
256,128,50754,1,8,0:0:0:0:
256,128,50837,1,0,0:0:0:0:
256,128,51004,1,0,0:0:0:0:
256,128,51087,1,8,0:0:0:0:
256,128,51254,1,8,0:0:0:0:
256,128,51337,1,0,0:0:0:0:
256,128,51671,1,8,0:0:0:0:
256,128,51837,1,0,0:0:0:0:
256,128,51921,1,0,0:0:0:0:
256,128,52004,1,8,0:0:0:0:
256,128,52171,1,0,0:0:0:0:
256,128,52337,1,8,0:0:0:0:
256,128,52421,1,8,0:0:0:0:
256,128,52504,1,0,0:0:0:0:
256,128,52671,1,8,0:0:0:0:
256,128,52837,1,0,0:0:0:0:
256,128,53004,1,8,0:0:0:0:
256,128,53087,1,0,0:0:0:0:
256,128,53171,1,8,0:0:0:0:
256,128,53337,1,0,0:0:0:0:
256,128,53504,1,8,0:0:0:0:
256,128,53671,1,8,0:0:0:0:
256,128,53754,1,8,0:0:0:0:
256,128,53837,1,0,0:0:0:0:
256,128,53921,1,0,0:0:0:0:
256,128,54004,1,8,0:0:0:0:
256,128,54171,1,0,0:0:0:0:
256,128,54337,1,8,0:0:0:0:
256,128,54504,1,0,0:0:0:0:
256,128,54587,1,0,0:0:0:0:
256,128,54671,1,8,0:0:0:0:
256,128,54837,1,8,0:0:0:0:
256,128,55004,1,0,0:0:0:0:
256,128,55171,1,8,0:0:0:0:
256,128,55337,1,0,0:0:0:0:
256,128,55421,1,0,0:0:0:0:
256,128,55504,1,0,0:0:0:0:
256,128,55671,1,8,0:0:0:0:
256,128,55837,1,0,0:0:0:0:
256,128,56004,1,8,0:0:0:0:
256,128,56087,1,8,0:0:0:0:
256,128,56171,1,0,0:0:0:0:
256,128,56337,1,0,0:0:0:0:
256,128,56421,1,8,0:0:0:0:
256,128,56587,1,8,0:0:0:0:
256,128,56671,1,0,0:0:0:0:
256,128,57004,1,8,0:0:0:0:
256,128,57171,1,0,0:0:0:0:
256,128,57254,1,0,0:0:0:0:
256,128,57337,1,8,0:0:0:0:
256,128,57504,1,8,0:0:0:0:
256,128,57754,5,8,0:0:0:0:
256,128,57837,1,0,0:0:0:0:
256,128,58004,1,8,0:0:0:0:
256,128,58337,1,8,0:0:0:0:
256,128,58671,1,8,0:0:0:0:
256,128,59004,1,0,0:0:0:0:
256,128,59171,1,12,0:0:0:0:
256,128,59504,1,0,0:0:0:0:
256,128,60837,1,8,0:0:0:0:
256,128,61004,1,0,0:0:0:0:
256,128,61087,1,8,0:0:0:0:
256,128,61171,1,0,0:0:0:0:
256,128,61337,1,8,0:0:0:0:
256,128,61504,1,0,0:0:0:0:
256,128,61587,1,0,0:0:0:0:
256,128,61671,1,8,0:0:0:0:
256,128,61837,1,8,0:0:0:0:
256,128,62171,1,0,0:0:0:0:
256,128,62421,1,0,0:0:0:0:
256,128,62504,1,8,0:0:0:0:
256,128,62671,1,0,0:0:0:0:
256,128,62754,1,0,0:0:0:0:
256,128,62837,1,8,0:0:0:0:
256,128,63004,1,0,0:0:0:0:
256,128,63171,1,8,0:0:0:0:
256,128,63337,1,8,0:0:0:0:
256,128,63421,1,8,0:0:0:0:
256,128,63504,1,0,0:0:0:0:
256,128,63671,1,0,0:0:0:0:
256,128,63837,1,8,0:0:0:0:
256,128,63921,1,8,0:0:0:0:
256,128,64004,1,0,0:0:0:0:
256,128,64087,1,0,0:0:0:0:
256,128,64171,1,8,0:0:0:0:
256,128,64421,1,8,0:0:0:0:
256,128,64671,1,8,0:0:0:0:
256,128,64837,1,0,0:0:0:0:
256,128,65087,1,0,0:0:0:0:
256,128,65171,1,8,0:0:0:0:
256,128,65337,1,0,0:0:0:0:
256,128,65421,1,0,0:0:0:0:
256,128,65504,1,8,0:0:0:0:
256,128,65671,1,0,0:0:0:0:
256,128,65837,1,8,0:0:0:0:
256,128,66004,1,8,0:0:0:0:
256,128,66171,1,0,0:0:0:0:
256,128,66337,1,8,0:0:0:0:
256,128,66421,1,8,0:0:0:0:
256,128,66504,1,0,0:0:0:0:
256,128,66671,1,8,0:0:0:0:
256,128,66837,1,0,0:0:0:0:
256,128,67004,1,8,0:0:0:0:
256,128,67087,1,8,0:0:0:0:
256,128,67171,1,8,0:0:0:0:
256,128,67337,1,8,0:0:0:0:
256,128,67504,1,0,0:0:0:0:
256,128,67671,1,0,0:0:0:0:
256,128,67837,1,12,0:0:0:0:
256,128,68171,1,0,0:0:0:0:
256,128,68337,1,0,0:0:0:0:
256,128,68504,1,12,0:0:0:0:
256,128,68837,1,0,0:0:0:0:
256,128,69004,1,8,0:0:0:0:
256,128,69087,1,8,0:0:0:0:
256,128,69171,1,0,0:0:0:0:
256,128,69337,1,8,0:0:0:0:
256,128,69504,1,0,0:0:0:0:
256,128,69587,1,0,0:0:0:0:
256,128,69671,1,0,0:0:0:0:
256,128,69754,1,0,0:0:0:0:
256,128,69837,1,8,0:0:0:0:
256,128,69921,1,8,0:0:0:0:
256,128,70004,1,8,0:0:0:0:
256,128,70087,1,8,0:0:0:0:
256,128,70171,1,0,0:0:0:0:
256,128,70504,1,0,0:0:0:0:
256,128,70671,1,0,0:0:0:0:
256,128,70754,1,0,0:0:0:0:
256,128,70837,1,8,0:0:0:0:
256,128,71087,1,8,0:0:0:0:
256,128,71171,1,0,0:0:0:0:
256,128,71337,1,8,0:0:0:0:
256,128,71504,1,0,0:0:0:0:
256,128,71587,1,0,0:0:0:0:
256,128,71671,1,8,0:0:0:0:
256,128,71754,1,8,0:0:0:0:
256,128,71837,1,0,0:0:0:0:
256,128,71921,1,0,0:0:0:0:
256,128,72004,1,8,0:0:0:0:
256,128,72087,1,8,0:0:0:0:
256,128,72171,1,0,0:0:0:0:
256,128,72337,1,0,0:0:0:0:
256,128,72421,1,0,0:0:0:0:
256,128,72504,1,8,0:0:0:0:
256,128,72587,1,8,0:0:0:0:
256,128,72671,1,8,0:0:0:0:
256,128,72754,1,8,0:0:0:0:
256,128,72837,1,0,0:0:0:0:
256,128,73087,1,0,0:0:0:0:
256,128,73171,1,8,0:0:0:0:
256,128,73337,1,0,0:0:0:0:
256,128,73421,1,0,0:0:0:0:
256,128,73504,1,8,0:0:0:0:
256,128,73671,1,0,0:0:0:0:
256,128,73837,1,8,0:0:0:0:
256,128,74004,1,8,0:0:0:0:
256,128,74087,1,8,0:0:0:0:
256,128,74171,1,0,0:0:0:0:
256,128,74337,1,8,0:0:0:0:
256,128,74504,1,0,0:0:0:0:
256,128,74587,1,8,0:0:0:0:
256,128,74671,1,0,0:0:0:0:
256,128,74754,1,0,0:0:0:0:
256,128,74837,1,8,0:0:0:0:
256,128,75087,1,8,0:0:0:0:
256,128,75337,1,8,0:0:0:0:
256,128,75504,1,0,0:0:0:0:
256,128,75754,1,0,0:0:0:0:
256,128,75837,1,8,0:0:0:0:
256,128,76004,1,0,0:0:0:0:
256,128,76087,1,0,0:0:0:0:
256,128,76171,1,8,0:0:0:0:
256,128,76337,1,0,0:0:0:0:
256,128,76504,1,8,0:0:0:0:
256,128,76671,1,8,0:0:0:0:
256,128,76837,1,0,0:0:0:0:
256,128,76921,1,0,0:0:0:0:
256,128,77004,1,0,0:0:0:0:
256,128,77087,1,0,0:0:0:0:
256,128,77171,1,8,0:0:0:0:
256,128,77337,1,8,0:0:0:0:
256,128,77421,1,8,0:0:0:0:
256,128,77504,1,0,0:0:0:0:
256,128,77671,1,8,0:0:0:0:
256,128,77754,1,8,0:0:0:0:
256,128,77837,1,8,0:0:0:0:
256,128,78004,1,8,0:0:0:0:
256,128,78171,1,0,0:0:0:0:
256,128,78337,1,0,0:0:0:0:
256,128,78504,1,12,0:0:0:0:
256,128,78837,1,0,0:0:0:0:
256,128,79004,1,0,0:0:0:0:
256,128,79171,1,12,0:0:0:0:
256,128,79504,1,0,0:0:0:0:
256,128,79671,1,8,0:0:0:0:
256,128,79754,1,8,0:0:0:0:
256,128,79837,1,0,0:0:0:0:
256,128,80004,1,8,0:0:0:0:
256,128,80171,1,0,0:0:0:0:
256,128,80254,1,0,0:0:0:0:
256,128,80337,1,0,0:0:0:0:
256,128,80421,1,0,0:0:0:0:
256,128,80504,1,8,0:0:0:0:
256,128,80587,1,8,0:0:0:0:
256,128,80671,1,8,0:0:0:0:
256,128,80754,1,8,0:0:0:0:
256,128,80837,1,0,0:0:0:0:
256,128,81087,1,0,0:0:0:0:
256,128,81171,1,8,0:0:0:0:
256,128,81337,1,0,0:0:0:0:
256,128,81421,1,0,0:0:0:0:
256,128,81504,1,8,0:0:0:0:
256,128,81671,1,0,0:0:0:0:
256,128,81754,1,8,0:0:0:0:
256,128,81921,1,8,0:0:0:0:
256,128,82004,1,0,0:0:0:0:
256,128,82171,1,0,0:0:0:0:
256,128,82393,1,0,0:0:0:0:
256,128,82615,1,0,0:0:0:0:
256,128,82837,1,0,0:0:0:0:
256,128,83060,1,0,0:0:0:0:
256,128,83282,1,0,0:0:0:0:
256,128,83504,1,4,0:0:0:0:
256,128,84837,1,0,0:0:0:0:
256,128,86171,1,0,0:0:0:0:
256,128,86671,1,0,0:0:0:0:
256,128,87504,1,0,0:0:0:0:
256,128,88837,1,8,0:0:0:0:
256,128,89337,1,8,0:0:0:0:
256,128,90171,1,0,0:0:0:0:
256,128,90837,1,0,0:0:0:0:
256,128,91171,1,8,0:0:0:0:
256,128,91504,1,0,0:0:0:0:
256,128,92004,1,0,0:0:0:0:
256,128,92504,1,0,0:0:0:0:
256,128,92837,1,8,0:0:0:0:
256,128,93171,1,0,0:0:0:0:
256,128,93254,1,0,0:0:0:0:
256,128,93337,1,8,0:0:0:0:
256,128,93504,1,8,0:0:0:0:
256,128,93587,1,0,0:0:0:0:
256,128,93671,1,0,0:0:0:0:
256,128,93754,1,0,0:0:0:0:
256,128,93837,1,8,0:0:0:0:
256,128,93921,1,8,0:0:0:0:
256,128,94004,1,8,0:0:0:0:
256,128,94087,1,8,0:0:0:0:
256,128,94171,1,0,0:0:0:0:
256,128,94671,1,0,0:0:0:0:
256,128,95171,1,0,0:0:0:0:
256,128,95504,1,8,0:0:0:0:
256,128,96171,1,0,0:0:0:0:
256,128,96504,1,0,0:0:0:0:
256,128,96837,1,0,0:0:0:0:
256,128,97337,1,0,0:0:0:0:
256,128,97837,1,0,0:0:0:0:
256,128,98171,1,8,0:0:0:0:
256,128,98837,1,0,0:0:0:0:
256,128,99004,1,0,0:0:0:0:
256,128,99087,1,0,0:0:0:0:
256,128,99171,1,0,0:0:0:0:
256,128,99337,1,0,0:0:0:0:
256,128,99504,1,0,0:0:0:0:
256,128,100004,1,0,0:0:0:0:
256,128,100504,1,0,0:0:0:0:
256,128,100837,1,8,0:0:0:0:
256,128,101504,1,0,0:0:0:0:
256,128,101837,1,0,0:0:0:0:
256,128,102171,1,0,0:0:0:0:
256,128,102671,1,0,0:0:0:0:
256,128,103171,1,0,0:0:0:0:
256,128,103504,1,8,0:0:0:0:
256,128,104171,1,0,0:0:0:0:
256,128,104337,1,8,0:0:0:0:
256,128,104421,1,8,0:0:0:0:
256,128,104504,1,0,0:0:0:0:
256,128,104671,1,8,0:0:0:0:
256,128,104837,1,4,0:0:0:0:
256,128,105087,1,8,0:0:0:0:
256,128,105171,1,0,0:0:0:0:
256,128,105337,1,8,0:0:0:0:
256,128,105504,1,0,0:0:0:0:
256,128,105671,1,8,0:0:0:0:
256,128,105754,1,8,0:0:0:0:
256,128,105921,1,0,0:0:0:0:
256,128,106004,1,8,0:0:0:0:
256,128,106171,1,0,0:0:0:0:
256,128,106337,1,8,0:0:0:0:
256,128,106504,1,0,0:0:0:0:
256,128,106587,1,8,0:0:0:0:
256,128,106671,1,8,0:0:0:0:
256,128,106837,1,0,0:0:0:0:
256,128,107004,1,8,0:0:0:0:
256,128,107087,1,0,0:0:0:0:
256,128,107254,1,0,0:0:0:0:
256,128,107337,1,8,0:0:0:0:
256,128,107671,1,0,0:0:0:0:
256,128,107754,1,0,0:0:0:0:
256,128,107837,1,8,0:0:0:0:
256,128,107921,1,8,0:0:0:0:
256,128,108004,1,0,0:0:0:0:
256,128,108171,1,8,0:0:0:0:
256,128,108254,1,0,0:0:0:0:
256,128,108337,1,8,0:0:0:0:
256,128,108421,1,8,0:0:0:0:
256,128,108504,1,0,0:0:0:0:
256,128,108671,1,8,0:0:0:0:
256,128,109004,1,0,0:0:0:0:
256,128,109087,1,0,0:0:0:0:
256,128,109171,1,8,0:0:0:0:
256,128,109254,1,8,0:0:0:0:
256,128,109337,1,0,0:0:0:0:
256,128,109421,1,0,0:0:0:0:
256,128,109504,1,8,0:0:0:0:
256,128,109671,1,0,0:0:0:0:
256,128,109837,1,8,0:0:0:0:
256,128,110004,1,8,0:0:0:0:
256,128,110171,1,0,0:0:0:0:
256,128,110421,1,8,0:0:0:0:
256,128,110504,1,0,0:0:0:0:
256,128,110671,1,8,0:0:0:0:
256,128,110837,1,0,0:0:0:0:
256,128,110921,1,8,0:0:0:0:
256,128,111087,1,8,0:0:0:0:
256,128,111171,1,0,0:0:0:0:
256,128,111337,1,8,0:0:0:0:
256,128,111421,1,8,0:0:0:0:
256,128,111504,1,0,0:0:0:0:
256,128,111671,1,8,0:0:0:0:
256,128,111837,1,0,0:0:0:0:
256,128,111921,1,8,0:0:0:0:
256,128,112004,1,0,0:0:0:0:
256,128,112171,1,8,0:0:0:0:
256,128,112254,1,0,0:0:0:0:
256,128,112337,1,0,0:0:0:0:
256,128,112421,1,8,0:0:0:0:
256,128,112504,1,0,0:0:0:0:
256,128,112671,1,8,0:0:0:0:
256,128,113004,1,0,0:0:0:0:
256,128,113087,1,8,0:0:0:0:
256,128,113171,1,0,0:0:0:0:
256,128,113254,1,0,0:0:0:0:
256,128,113337,1,8,0:0:0:0:
256,128,113504,1,8,0:0:0:0:
256,128,113587,1,0,0:0:0:0:
256,128,113671,1,0,0:0:0:0:
256,128,113754,1,8,0:0:0:0:
256,128,113837,1,0,0:0:0:0:
256,128,114004,1,8,0:0:0:0:
256,128,114337,1,0,0:0:0:0:
256,128,114421,1,0,0:0:0:0:
256,128,114504,1,8,0:0:0:0:
256,128,114587,1,8,0:0:0:0:
256,128,114671,1,8,0:0:0:0:
256,128,114754,1,8,0:0:0:0:
256,128,114837,1,0,0:0:0:0:
256,128,115004,1,0,0:0:0:0:
256,128,115171,1,8,0:0:0:0:
256,128,115337,1,8,0:0:0:0:
256,128,115504,1,0,0:0:0:0:
256,128,115671,1,0,0:0:0:0:
256,128,115837,1,8,0:0:0:0:
256,128,116004,1,8,0:0:0:0:
256,128,116171,1,0,0:0:0:0:
256,128,116337,1,0,0:0:0:0:
256,128,116504,1,8,0:0:0:0:
256,128,116671,1,8,0:0:0:0:
256,128,116837,1,0,0:0:0:0:
256,128,117004,1,0,0:0:0:0:
256,128,117087,1,0,0:0:0:0:
256,128,117171,1,0,0:0:0:0:
256,128,117337,1,0,0:0:0:0:
256,128,117421,1,0,0:0:0:0:
256,128,117504,1,8,0:0:0:0:
256,128,117587,1,8,0:0:0:0:
256,128,117754,1,8,0:0:0:0:
256,128,118171,1,4,0:0:0:0:
256,192,118337,12,0,119171,0:0:0:0:
256,128,119504,5,0,0:0:0:0:
256,128,120171,1,0,0:0:0:0:
256,128,120337,1,0,0:0:0:0:
256,128,120504,1,12,0:0:0:0:
256,128,120837,1,0,0:0:0:0:
256,128,121004,1,8,0:0:0:0:
256,128,121171,1,0,0:0:0:0:
256,128,121254,1,0,0:0:0:0:
256,128,121337,1,8,0:0:0:0:
256,128,121504,1,8,0:0:0:0:
256,128,121671,1,0,0:0:0:0:
256,128,121837,1,8,0:0:0:0:
256,128,122004,1,0,0:0:0:0:
256,128,122087,1,0,0:0:0:0:
256,128,122171,1,0,0:0:0:0:
256,128,122337,1,8,0:0:0:0:
256,128,122504,1,0,0:0:0:0:
256,128,122671,1,8,0:0:0:0:
256,128,122754,1,8,0:0:0:0:
256,128,122837,1,0,0:0:0:0:
256,128,123004,1,0,0:0:0:0:
256,128,123087,1,8,0:0:0:0:
256,128,123254,1,8,0:0:0:0:
256,128,123337,1,0,0:0:0:0:
256,128,123671,1,8,0:0:0:0:
256,128,123837,1,0,0:0:0:0:
256,128,123921,1,0,0:0:0:0:
256,128,124004,1,8,0:0:0:0:
256,128,124171,1,0,0:0:0:0:
256,128,124337,1,8,0:0:0:0:
256,128,124421,1,8,0:0:0:0:
256,128,124504,1,0,0:0:0:0:
256,128,124671,1,8,0:0:0:0:
256,128,124837,1,0,0:0:0:0:
256,128,125004,1,8,0:0:0:0:
256,128,125087,1,0,0:0:0:0:
256,128,125171,1,8,0:0:0:0:
256,128,125337,1,0,0:0:0:0:
256,128,125504,1,8,0:0:0:0:
256,128,125671,1,8,0:0:0:0:
256,128,125754,1,8,0:0:0:0:
256,128,125837,1,0,0:0:0:0:
256,128,125921,1,0,0:0:0:0:
256,128,126004,1,8,0:0:0:0:
256,128,126171,1,0,0:0:0:0:
256,128,126337,1,8,0:0:0:0:
256,128,126504,1,0,0:0:0:0:
256,128,126587,1,0,0:0:0:0:
256,128,126671,1,8,0:0:0:0:
256,128,126837,1,8,0:0:0:0:
256,128,127004,1,0,0:0:0:0:
256,128,127171,1,8,0:0:0:0:
256,128,127337,1,0,0:0:0:0:
256,128,127421,1,0,0:0:0:0:
256,128,127504,1,0,0:0:0:0:
256,128,127671,1,8,0:0:0:0:
256,128,127837,1,0,0:0:0:0:
256,128,128004,1,8,0:0:0:0:
256,128,128087,1,8,0:0:0:0:
256,128,128171,1,0,0:0:0:0:
256,128,128337,1,0,0:0:0:0:
256,128,128421,1,8,0:0:0:0:
256,128,128587,1,8,0:0:0:0:
256,128,128671,1,0,0:0:0:0:
256,128,129004,1,8,0:0:0:0:
256,128,129171,1,0,0:0:0:0:
256,128,129254,1,0,0:0:0:0:
256,128,129337,1,8,0:0:0:0:
256,128,129504,1,8,0:0:0:0:
256,128,129754,1,8,0:0:0:0:
256,128,129837,1,0,0:0:0:0:
256,128,130004,1,8,0:0:0:0:
256,128,130337,1,8,0:0:0:0:
256,128,130671,1,8,0:0:0:0:
256,128,131004,1,0,0:0:0:0:
256,128,131171,1,8,0:0:0:0:
256,128,131337,1,8,0:0:0:0:
256,128,131421,1,8,0:0:0:0:
256,128,131504,1,0,0:0:0:0:
256,128,131671,1,8,0:0:0:0:
256,128,131837,1,0,0:0:0:0:
256,128,131921,1,0,0:0:0:0:
256,128,132004,1,8,0:0:0:0:
256,128,132171,1,8,0:0:0:0:
256,128,132337,1,0,0:0:0:0:
256,128,132504,1,8,0:0:0:0:
256,128,132671,1,0,0:0:0:0:
256,128,132754,1,0,0:0:0:0:
256,128,132837,1,0,0:0:0:0:
256,128,133004,1,8,0:0:0:0:
256,128,133171,1,0,0:0:0:0:
256,128,133337,1,8,0:0:0:0:
256,128,133421,1,8,0:0:0:0:
256,128,133504,1,0,0:0:0:0:
256,128,133671,1,0,0:0:0:0:
256,128,133754,1,8,0:0:0:0:
256,128,133921,1,8,0:0:0:0:
256,128,134004,1,0,0:0:0:0:
256,128,134337,1,8,0:0:0:0:
256,128,134504,1,0,0:0:0:0:
256,128,134587,1,0,0:0:0:0:
256,128,134671,1,8,0:0:0:0:
256,128,134837,1,0,0:0:0:0:
256,128,135004,1,8,0:0:0:0:
256,128,135087,1,8,0:0:0:0:
256,128,135171,1,0,0:0:0:0:
256,128,135337,1,8,0:0:0:0:
256,128,135504,1,0,0:0:0:0:
256,128,135671,1,8,0:0:0:0:
256,128,135754,1,0,0:0:0:0:
256,128,135837,1,0,0:0:0:0:
256,128,135921,1,8,0:0:0:0:
256,128,136004,1,0,0:0:0:0:
256,128,136171,1,8,0:0:0:0:
256,128,136337,1,0,0:0:0:0:
256,128,136421,1,8,0:0:0:0:
256,128,136504,1,0,0:0:0:0:
256,128,136587,1,0,0:0:0:0:
256,128,136671,1,8,0:0:0:0:
256,128,136837,1,0,0:0:0:0:
256,128,137004,1,8,0:0:0:0:
256,128,137171,1,0,0:0:0:0:
256,128,137254,1,0,0:0:0:0:
256,128,137337,1,8,0:0:0:0:
256,128,137504,1,8,0:0:0:0:
256,128,137671,1,0,0:0:0:0:
256,128,137837,1,8,0:0:0:0:
256,128,138004,1,0,0:0:0:0:
256,128,138087,1,0,0:0:0:0:
256,128,138171,1,0,0:0:0:0:
256,128,138337,1,8,0:0:0:0:
256,128,138504,1,0,0:0:0:0:
256,128,138671,1,8,0:0:0:0:
256,128,138754,1,8,0:0:0:0:
256,128,138837,1,0,0:0:0:0:
256,128,139004,1,0,0:0:0:0:
256,128,139087,1,8,0:0:0:0:
256,128,139254,1,8,0:0:0:0:
256,128,139337,1,0,0:0:0:0:
256,128,139671,1,8,0:0:0:0:
256,128,139837,1,0,0:0:0:0:
256,128,139921,1,0,0:0:0:0:
256,128,140004,1,8,0:0:0:0:
256,128,140171,1,8,0:0:0:0:
256,128,140421,5,8,0:0:0:0:
256,128,140504,1,0,0:0:0:0:
256,128,140671,1,8,0:0:0:0:
256,128,141004,1,8,0:0:0:0:
256,128,141337,1,8,0:0:0:0:
256,128,141671,1,0,0:0:0:0:
256,128,141837,1,12,0:0:0:0:
256,128,142171,5,0,0:0:0:0:
256,128,142337,1,0,0:0:0:0:
256,128,142421,1,0,0:0:0:0:
256,128,142504,1,8,0:0:0:0:
256,128,142671,1,0,0:0:0:0:
256,128,142837,1,0,0:0:0:0:
256,128,143004,1,8,0:0:0:0:
256,128,143171,1,8,0:0:0:0:
256,128,143337,1,0,0:0:0:0:
256,128,143421,1,0,0:0:0:0:
256,128,143504,1,0,0:0:0:0:
256,128,143671,1,8,0:0:0:0:
256,128,143837,1,0,0:0:0:0:
256,128,144004,1,8,0:0:0:0:
256,128,144087,1,8,0:0:0:0:
256,128,144171,1,0,0:0:0:0:
256,128,144337,1,0,0:0:0:0:
256,128,144504,1,8,0:0:0:0:
256,128,144837,5,0,0:0:0:0:
256,128,145004,1,0,0:0:0:0:
256,128,145087,1,0,0:0:0:0:
256,128,145171,1,8,0:0:0:0:
256,128,145337,1,8,0:0:0:0:
256,128,145504,1,0,0:0:0:0:
256,128,145671,1,8,0:0:0:0:
256,128,145837,1,8,0:0:0:0:
256,128,146004,1,0,0:0:0:0:
256,128,146087,1,0,0:0:0:0:
256,128,146171,1,0,0:0:0:0:
256,128,146337,1,8,0:0:0:0:
256,128,146504,1,0,0:0:0:0:
256,128,146671,1,8,0:0:0:0:
256,128,146754,1,8,0:0:0:0:
256,128,146837,1,0,0:0:0:0:
256,128,146921,1,0,0:0:0:0:
256,128,147004,1,8,0:0:0:0:
256,128,147171,1,8,0:0:0:0:
256,128,147337,1,0,0:0:0:0:
256,128,147421,1,0,0:0:0:0:
256,128,147504,5,0,0:0:0:0:
256,128,147671,1,0,0:0:0:0:
256,128,147837,1,8,0:0:0:0:
256,128,148004,1,0,0:0:0:0:
256,128,148171,1,0,0:0:0:0:
256,128,148337,1,8,0:0:0:0:
256,128,148504,1,8,0:0:0:0:
256,128,148671,1,0,0:0:0:0:
256,128,148754,1,0,0:0:0:0:
256,128,148837,1,0,0:0:0:0:
256,128,149004,1,8,0:0:0:0:
256,128,149171,1,0,0:0:0:0:
256,128,149337,1,8,0:0:0:0:
256,128,149421,1,8,0:0:0:0:
256,128,149504,1,0,0:0:0:0:
256,128,149671,1,0,0:0:0:0:
256,128,149837,1,8,0:0:0:0:
256,128,150171,5,0,0:0:0:0:
256,128,150337,1,0,0:0:0:0:
256,128,150421,1,0,0:0:0:0:
256,128,150504,1,8,0:0:0:0:
256,128,150671,1,8,0:0:0:0:
256,128,150837,1,0,0:0:0:0:
256,128,151004,1,8,0:0:0:0:
256,128,151171,1,8,0:0:0:0:
256,128,151337,1,0,0:0:0:0:
256,128,151421,1,0,0:0:0:0:
256,128,151504,1,0,0:0:0:0:
256,128,151671,1,8,0:0:0:0:
256,128,151837,1,0,0:0:0:0:
256,128,152004,1,8,0:0:0:0:
256,128,152087,1,0,0:0:0:0:
256,128,152171,1,0,0:0:0:0:
256,128,152254,1,8,0:0:0:0:
256,128,152337,1,0,0:0:0:0:
256,128,152504,1,8,0:0:0:0:
256,128,152671,1,8,0:0:0:0:
256,128,152754,1,8,0:0:0:0:
256,128,152837,1,0,0:0:0:0:
256,128,153004,1,0,0:0:0:0:
256,128,153087,1,0,0:0:0:0:
256,128,153171,1,8,0:0:0:0:
256,128,153337,1,8,0:0:0:0:
256,128,153504,1,0,0:0:0:0:
256,128,153587,1,0,0:0:0:0:
256,128,153671,1,8,0:0:0:0:
256,128,153837,1,8,0:0:0:0:
256,128,154004,1,0,0:0:0:0:
256,128,154087,1,8,0:0:0:0:
256,128,154171,1,0,0:0:0:0:
256,128,154337,1,8,0:0:0:0:
256,128,154421,1,8,0:0:0:0:
256,128,154504,1,0,0:0:0:0:
256,128,154671,1,8,0:0:0:0:
256,128,154837,1,0,0:0:0:0:
256,128,154921,1,0,0:0:0:0:
256,128,155004,1,8,0:0:0:0:
256,128,155087,1,8,0:0:0:0:
256,128,155171,1,0,0:0:0:0:
256,128,155504,1,0,0:0:0:0:
256,128,155671,1,8,0:0:0:0:
256,128,155837,1,0,0:0:0:0:
256,128,156004,1,8,0:0:0:0:
256,128,156087,1,8,0:0:0:0:
256,128,156171,1,0,0:0:0:0:
256,128,156337,1,8,0:0:0:0:
256,128,156504,1,0,0:0:0:0:
256,128,156587,1,8,0:0:0:0:
256,128,156754,1,8,0:0:0:0:
256,128,156837,1,0,0:0:0:0:
256,128,157004,1,8,0:0:0:0:
256,128,157171,1,0,0:0:0:0:
256,128,157254,1,0,0:0:0:0:
256,128,157337,1,0,0:0:0:0:
256,128,157421,1,0,0:0:0:0:
256,128,157504,1,8,0:0:0:0:
256,128,157587,1,8,0:0:0:0:
256,128,157671,1,8,0:0:0:0:
256,128,157754,1,8,0:0:0:0:
256,128,157837,1,0,0:0:0:0:
256,128,158004,1,8,0:0:0:0:
256,128,158087,1,8,0:0:0:0:
256,128,158171,1,0,0:0:0:0:
256,128,158337,1,0,0:0:0:0:
256,128,158421,1,0,0:0:0:0:
256,128,158504,1,8,0:0:0:0:
256,128,158671,1,8,0:0:0:0:
256,128,158837,1,0,0:0:0:0:
256,128,159004,1,8,0:0:0:0:
256,128,159171,1,8,0:0:0:0:
256,128,159337,1,0,0:0:0:0:
256,128,159421,1,8,0:0:0:0:
256,128,159504,1,0,0:0:0:0:
256,128,159671,1,0,0:0:0:0:
256,128,159837,1,8,0:0:0:0:
256,128,160004,1,8,0:0:0:0:
256,128,160171,1,0,0:0:0:0:
256,128,160254,1,0,0:0:0:0:
256,128,160337,1,8,0:0:0:0:
256,128,160504,1,8,0:0:0:0:
256,128,160671,1,0,0:0:0:0:
256,128,160754,1,0,0:0:0:0:
256,128,160837,1,0,0:0:0:0:
256,128,161004,1,0,0:0:0:0:
256,128,161171,1,8,0:0:0:0:
256,128,161337,1,8,0:0:0:0:
256,128,161421,1,0,0:0:0:0:
256,128,161504,1,8,0:0:0:0:
256,128,161671,1,0,0:0:0:0:
256,128,161754,1,8,0:0:0:0:
256,128,161837,1,0,0:0:0:0:
256,128,162004,1,8,0:0:0:0:
256,128,162087,1,8,0:0:0:0:
256,128,162171,1,0,0:0:0:0:
256,128,162837,1,8,0:0:0:0:
256,128,163004,1,8,0:0:0:0:
256,128,163087,1,8,0:0:0:0:
256,128,163171,1,8,0:0:0:0:
256,128,163254,1,8,0:0:0:0:
256,128,163337,1,0,0:0:0:0:
256,128,163421,1,0,0:0:0:0:
256,128,163504,1,0,0:0:0:0:
256,128,164004,1,0,0:0:0:0:
256,128,164671,1,0,0:0:0:0:
256,128,165504,5,0,0:0:0:0:
256,128,166004,1,0,0:0:0:0:
256,128,166837,1,0,0:0:0:0:
256,128,167337,1,0,0:0:0:0:
256,128,168171,1,8,0:0:0:0:
256,128,168337,1,0,0:0:0:0:
256,128,168421,1,8,0:0:0:0:
256,128,168504,1,0,0:0:0:0:
256,128,168671,1,8,0:0:0:0:
256,128,168837,1,0,0:0:0:0:
256,128,169171,1,0,0:0:0:0:
256,128,169254,1,8,0:0:0:0:
256,128,169337,1,0,0:0:0:0:
256,128,169504,1,0,0:0:0:0:
256,128,169587,1,8,0:0:0:0:
256,128,169671,1,0,0:0:0:0:
256,128,169754,1,0,0:0:0:0:
256,128,169837,1,8,0:0:0:0:
256,128,170004,1,0,0:0:0:0:
256,128,170337,1,0,0:0:0:0:
256,128,170504,1,8,0:0:0:0:
256,128,170587,1,0,0:0:0:0:
256,128,170671,1,8,0:0:0:0:
256,128,170837,1,8,0:0:0:0:
256,128,170921,1,8,0:0:0:0:
256,128,171004,1,0,0:0:0:0:
256,128,171087,1,0,0:0:0:0:
256,128,171171,1,8,0:0:0:0:
256,128,171337,1,0,0:0:0:0:
256,128,171671,1,0,0:0:0:0:
256,128,171837,1,0,0:0:0:0:
256,128,171921,1,8,0:0:0:0:
256,128,172004,1,0,0:0:0:0:
256,128,172171,1,8,0:0:0:0:
256,128,172254,1,8,0:0:0:0:
256,128,172337,1,0,0:0:0:0:
256,128,172421,1,0,0:0:0:0:
256,128,172504,1,8,0:0:0:0:
256,128,172671,1,0,0:0:0:0:
256,128,173004,1,0,0:0:0:0:
256,128,173171,1,0,0:0:0:0:
256,128,173337,1,8,0:0:0:0:
256,128,173504,1,8,0:0:0:0:
256,128,173671,1,0,0:0:0:0:
256,128,173754,1,0,0:0:0:0:
256,128,173837,1,8,0:0:0:0:
256,128,174004,1,8,0:0:0:0:
256,128,174171,1,0,0:0:0:0:
256,128,174671,1,0,0:0:0:0:
256,128,175337,1,0,0:0:0:0:
256,128,176171,1,0,0:0:0:0:
256,128,176671,1,0,0:0:0:0:
256,128,177504,1,0,0:0:0:0:
256,128,178004,1,0,0:0:0:0:
256,128,178504,1,0,0:0:0:0:
256,128,178671,1,0,0:0:0:0:
256,128,178837,1,8,0:0:0:0:
256,128,179004,1,0,0:0:0:0:
256,128,179087,1,8,0:0:0:0:
256,128,179171,1,0,0:0:0:0:
256,128,179337,1,8,0:0:0:0:
256,128,179504,1,0,0:0:0:0:
256,128,179671,1,0,0:0:0:0:
256,128,179754,1,0,0:0:0:0:
256,128,179837,1,8,0:0:0:0:
256,128,180004,1,0,0:0:0:0:
256,128,180171,1,0,0:0:0:0:
256,128,180254,1,8,0:0:0:0:
256,128,180337,1,0,0:0:0:0:
256,128,180504,1,8,0:0:0:0:
256,128,180587,1,0,0:0:0:0:
256,128,180671,1,8,0:0:0:0:
256,128,180754,1,8,0:0:0:0:
256,128,180837,1,0,0:0:0:0:
256,128,181004,1,8,0:0:0:0:
256,128,181171,1,0,0:0:0:0:
256,128,181254,1,8,0:0:0:0:
256,128,181421,1,8,0:0:0:0:
256,128,181504,1,0,0:0:0:0:
256,128,181671,1,8,0:0:0:0:
256,128,181837,1,0,0:0:0:0:
256,128,181921,1,0,0:0:0:0:
256,128,182004,1,8,0:0:0:0:
256,128,182087,1,8,0:0:0:0:
256,128,182171,1,0,0:0:0:0:
256,128,182337,1,0,0:0:0:0:
256,128,182421,1,8,0:0:0:0:
256,128,182504,1,0,0:0:0:0:
256,128,182587,1,0,0:0:0:0:
256,128,182671,1,8,0:0:0:0:
256,128,182837,1,8,0:0:0:0:
256,128,183004,1,0,0:0:0:0:
256,128,183087,1,8,0:0:0:0:
256,128,183171,1,0,0:0:0:0:
256,128,183337,1,12,0:0:0:0:
256,128,183671,1,0,0:0:0:0:
256,128,183837,1,8,0:0:0:0:
256,128,183921,1,0,0:0:0:0:
256,128,184004,1,8,0:0:0:0:
256,128,184087,1,8,0:0:0:0:
256,128,184171,1,0,0:0:0:0:
256,128,184337,1,8,0:0:0:0:
256,128,184504,1,8,0:0:0:0:
256,128,184671,1,8,0:0:0:0:
256,128,184837,1,0,0:0:0:0:
256,128,184921,1,0,0:0:0:0:
256,128,185087,1,8,0:0:0:0:
256,128,185337,1,0,0:0:0:0:
256,128,185421,1,0,0:0:0:0:
256,128,185587,1,8,0:0:0:0:
256,128,186171,1,8,0:0:0:0:
256,128,186254,1,8,0:0:0:0:
256,128,186421,1,8,0:0:0:0:
256,128,186671,1,8,0:0:0:0:
256,128,186754,1,8,0:0:0:0:
256,128,186921,1,8,0:0:0:0:
256,128,187171,1,0,0:0:0:0:
256,128,187254,1,0,0:0:0:0:
256,128,187337,1,0,0:0:0:0:
256,128,187421,1,0,0:0:0:0:
256,128,187504,1,8,0:0:0:0:
256,192,187671,12,0,188837,0:0:0:0:
256,128,189504,5,8,0:0:0:0:
256,128,189587,1,8,0:0:0:0:
256,128,189754,1,8,0:0:0:0:
256,128,190004,1,8,0:0:0:0:
256,128,190171,1,0,0:0:0:0:
256,128,190504,1,8,0:0:0:0:
256,128,191171,1,8,0:0:0:0:
256,128,191504,1,0,0:0:0:0:
256,128,191837,1,8,0:0:0:0:
256,128,192171,1,0,0:0:0:0:
256,128,192337,1,0,0:0:0:0:
256,128,192504,1,8,0:0:0:0:
256,128,192671,1,8,0:0:0:0:
256,128,192837,1,0,0:0:0:0:
256,128,193171,1,8,0:0:0:0:
256,128,193837,1,8,0:0:0:0:
256,128,194171,1,0,0:0:0:0:
256,128,194504,1,8,0:0:0:0:
256,128,194837,1,0,0:0:0:0:
256,128,195004,1,8,0:0:0:0:
256,128,195171,1,8,0:0:0:0:
256,128,195337,1,8,0:0:0:0:
256,128,195421,1,8,0:0:0:0:
256,128,195504,1,0,0:0:0:0:
256,128,195754,1,8,0:0:0:0:
256,128,196004,1,0,0:0:0:0:
256,128,196087,1,0,0:0:0:0:
256,128,196254,1,0,0:0:0:0:
256,128,196421,1,8,0:0:0:0:
256,128,196837,1,0,0:0:0:0:
256,128,197087,1,8,0:0:0:0:
256,128,197337,1,0,0:0:0:0:
256,128,197421,1,0,0:0:0:0:
256,128,197587,1,0,0:0:0:0:
256,128,197754,1,8,0:0:0:0:
256,128,198171,1,0,0:0:0:0:
256,128,198421,1,8,0:0:0:0:
256,128,198671,1,0,0:0:0:0:
256,128,198754,1,0,0:0:0:0:
256,128,198921,1,0,0:0:0:0:
256,128,199087,1,8,0:0:0:0:
256,128,199504,2,0,L|320:128,12,35
256,128,200837,1,0,0:0:0:0:
256,128,201004,1,0,0:0:0:0:
256,128,201171,1,8,0:0:0:0:
256,128,201421,1,0,0:0:0:0:
256,128,201504,1,0,0:0:0:0:
256,128,201671,1,0,0:0:0:0:
256,128,201837,1,8,0:0:0:0:
256,128,202004,1,8,0:0:0:0:
256,128,202087,1,8,0:0:0:0:
256,128,202171,1,0,0:0:0:0:
256,128,202337,1,0,0:0:0:0:
256,128,202504,1,8,0:0:0:0:
256,128,202587,1,0,0:0:0:0:
256,128,202754,1,8,0:0:0:0:
256,128,202921,1,0,0:0:0:0:
256,128,203004,1,8,0:0:0:0:
256,128,203171,1,0,0:0:0:0:
256,128,203337,1,8,0:0:0:0:
256,128,203421,1,8,0:0:0:0:
256,128,203504,1,0,0:0:0:0:
256,128,203671,1,0,0:0:0:0:
256,128,203754,1,0,0:0:0:0:
256,128,203837,1,8,0:0:0:0:
256,128,204004,1,0,0:0:0:0:
256,128,204087,1,0,0:0:0:0:
256,128,204254,1,8,0:0:0:0:
256,128,204337,1,0,0:0:0:0:
256,128,204504,1,0,0:0:0:0:
256,128,204587,1,8,0:0:0:0:
256,128,204754,1,8,0:0:0:0:
256,128,205004,1,0,0:0:0:0:
256,128,205171,1,8,0:0:0:0:
256,128,205254,1,0,0:0:0:0:
256,128,205337,1,0,0:0:0:0:
256,128,205421,1,8,0:0:0:0:
256,128,205671,1,0,0:0:0:0:
256,128,205837,1,8,0:0:0:0:
256,128,205921,1,8,0:0:0:0:
256,128,206004,1,0,0:0:0:0:
256,128,206087,1,0,0:0:0:0:
256,128,206171,1,0,0:0:0:0:
256,128,206337,1,8,0:0:0:0:
256,128,206504,1,8,0:0:0:0:
256,128,206587,1,8,0:0:0:0:
256,128,206671,5,0,0:0:0:0:
256,128,206754,1,0,0:0:0:0:
256,128,206837,1,8,0:0:0:0:
256,128,207004,1,0,0:0:0:0:
256,128,207171,1,8,0:0:0:0:
256,128,207254,1,0,0:0:0:0:
256,128,207337,1,8,0:0:0:0:
256,128,207421,1,8,0:0:0:0:
256,128,207504,1,0,0:0:0:0:
256,128,207671,1,8,0:0:0:0:
256,128,207837,1,0,0:0:0:0:
256,128,208004,1,0,0:0:0:0:
256,128,208087,1,8,0:0:0:0:
256,128,208254,1,8,0:0:0:0:
256,128,208337,1,0,0:0:0:0:
256,128,208504,1,8,0:0:0:0:
256,128,208587,1,8,0:0:0:0:
256,128,208671,1,0,0:0:0:0:
256,128,208754,1,0,0:0:0:0:
256,128,208837,1,8,0:0:0:0:
256,128,209171,1,8,0:0:0:0:
256,128,209337,1,0,0:0:0:0:
256,128,209421,1,8,0:0:0:0:
256,128,209587,1,8,0:0:0:0:
256,128,209671,1,0,0:0:0:0:
256,128,209837,1,8,0:0:0:0:
256,128,209921,1,8,0:0:0:0:
256,128,210004,1,0,0:0:0:0:
256,128,210087,1,8,0:0:0:0:
256,128,210171,1,0,0:0:0:0:
256,128,210337,1,0,0:0:0:0:
256,128,210504,1,8,0:0:0:0:
256,128,210671,1,0,0:0:0:0:
256,128,210754,1,8,0:0:0:0:
256,128,210921,1,8,0:0:0:0:
256,128,211004,1,0,0:0:0:0:
256,128,211171,1,8,0:0:0:0:
256,128,211337,1,0,0:0:0:0:
256,128,211421,1,0,0:0:0:0:
256,128,211504,1,0,0:0:0:0:
256,128,211837,1,0,0:0:0:0:
256,128,211921,1,0,0:0:0:0:
256,128,212004,1,0,0:0:0:0:
256,128,212087,1,0,0:0:0:0:
256,128,212171,1,8,0:0:0:0:
256,128,212504,1,8,0:0:0:0:
256,128,212587,1,8,0:0:0:0:
256,128,212671,1,8,0:0:0:0:
256,128,212754,1,8,0:0:0:0:
256,128,212837,1,0,0:0:0:0:
256,128,213504,1,0,0:0:0:0:
256,128,213587,1,0,0:0:0:0:
256,128,213754,1,0,0:0:0:0:
256,128,214004,1,0,0:0:0:0:
256,128,214171,1,0,0:0:0:0:
256,128,214504,1,8,0:0:0:0:
256,128,214837,1,8,0:0:0:0:
256,128,214921,1,8,0:0:0:0:
256,128,215087,1,8,0:0:0:0:
256,128,215337,1,12,0:0:0:0:
256,128,215504,1,12,0:0:0:0:
256,128,216837,1,0,0:0:0:0:
256,128,216920,1,0,0:0:0:0:
256,128,217003,1,0,0:0:0:0:
256,128,217087,1,0,0:0:0:0:
256,128,217170,1,0,0:0:0:0:
256,128,217503,2,0,L|320:128,14,35
256,128,218837,1,0,0:0:0:0:
256,128,220170,5,0,0:0:0:0:
256,128,221504,1,0,0:0:0:0:
256,128,222837,1,0,0:0:0:0:
256,128,224170,1,0,0:0:0:0:
256,128,224837,1,8,0:0:0:0:
256,128,225170,1,0,0:0:0:0:
256,128,225337,1,0,0:0:0:0:
256,128,225837,1,0,0:0:0:0:
256,128,226170,1,8,0:0:0:0:
256,128,226670,1,0,0:0:0:0:
256,128,226837,1,0,0:0:0:0:
256,128,227504,1,8,0:0:0:0:
256,128,228004,1,8,0:0:0:0:
256,128,228170,1,0,0:0:0:0:
256,128,228504,1,0,0:0:0:0:
256,128,228837,1,0,0:0:0:0:
256,128,229004,1,0,0:0:0:0:
256,128,229170,1,12,0:0:0:0:
256,128,229337,1,8,0:0:0:0:
256,128,229420,1,8,0:0:0:0:
256,128,229504,1,0,0:0:0:0:
256,128,229670,1,8,0:0:0:0:
256,128,229837,1,0,0:0:0:0:
256,128,229920,1,0,0:0:0:0:
256,128,230004,1,8,0:0:0:0:
256,128,230170,1,8,0:0:0:0:
256,128,230337,1,0,0:0:0:0:
256,128,230504,1,8,0:0:0:0:
256,128,230670,1,0,0:0:0:0:
256,128,230754,1,0,0:0:0:0:
256,128,230837,1,0,0:0:0:0:
256,128,231004,1,8,0:0:0:0:
256,128,231170,1,0,0:0:0:0:
256,128,231337,1,8,0:0:0:0:
256,128,231420,1,8,0:0:0:0:
256,128,231503,1,0,0:0:0:0:
256,128,231670,1,0,0:0:0:0:
256,128,231753,1,8,0:0:0:0:
256,128,231920,1,8,0:0:0:0:
256,128,232003,1,0,0:0:0:0:
256,128,232337,1,8,0:0:0:0:
256,128,232503,1,0,0:0:0:0:
256,128,232587,1,0,0:0:0:0:
256,128,232670,1,8,0:0:0:0:
256,128,232837,1,0,0:0:0:0:
256,128,233003,1,8,0:0:0:0:
256,128,233087,1,8,0:0:0:0:
256,128,233170,1,0,0:0:0:0:
256,128,233337,1,8,0:0:0:0:
256,128,233503,1,0,0:0:0:0:
256,128,233670,1,8,0:0:0:0:
256,128,233753,1,0,0:0:0:0:
256,128,233837,1,8,0:0:0:0:
256,128,234003,1,0,0:0:0:0:
256,128,234170,1,8,0:0:0:0:
256,128,234337,1,8,0:0:0:0:
256,128,234420,1,8,0:0:0:0:
256,128,234503,1,0,0:0:0:0:
256,128,234587,1,0,0:0:0:0:
256,128,234670,1,8,0:0:0:0:
256,128,234837,1,0,0:0:0:0:
256,128,235003,1,8,0:0:0:0:
256,128,235170,1,0,0:0:0:0:
256,128,235253,1,0,0:0:0:0:
256,128,235337,1,8,0:0:0:0:
256,128,235503,1,8,0:0:0:0:
256,128,235670,1,0,0:0:0:0:
256,128,235837,1,8,0:0:0:0:
256,128,236003,1,0,0:0:0:0:
256,128,236087,1,0,0:0:0:0:
256,128,236170,1,0,0:0:0:0:
256,128,236337,1,8,0:0:0:0:
256,128,236503,1,0,0:0:0:0:
256,128,236670,1,8,0:0:0:0:
256,128,236753,1,8,0:0:0:0:
256,128,236837,1,0,0:0:0:0:
256,128,237003,1,0,0:0:0:0:
256,128,237087,1,8,0:0:0:0:
256,128,237253,1,8,0:0:0:0:
256,128,237337,1,0,0:0:0:0:
256,128,237670,1,8,0:0:0:0:
256,128,237837,1,0,0:0:0:0:
256,128,237920,1,0,0:0:0:0:
256,128,238003,1,8,0:0:0:0:
256,128,238170,1,8,0:0:0:0:
256,128,238420,1,8,0:0:0:0:
256,128,238503,1,0,0:0:0:0:
256,128,238670,1,8,0:0:0:0:
256,128,239003,1,8,0:0:0:0:
256,128,239337,1,8,0:0:0:0:
256,128,239503,1,0,0:0:0:0:
256,128,239587,1,0,0:0:0:0:
256,128,239670,1,8,0:0:0:0:
256,128,239753,1,8,0:0:0:0:
256,128,239837,1,0,0:0:0:0:
256,128,240003,1,8,0:0:0:0:
256,128,240087,1,8,0:0:0:0:
256,128,240170,1,0,0:0:0:0:
256,128,240337,1,8,0:0:0:0:
256,128,240503,1,0,0:0:0:0:
256,128,240587,1,0,0:0:0:0:
256,128,240670,1,8,0:0:0:0:
256,128,240837,1,8,0:0:0:0:
256,128,241003,1,0,0:0:0:0:
256,128,241170,1,8,0:0:0:0:
256,128,241337,1,0,0:0:0:0:
256,128,241420,1,0,0:0:0:0:
256,128,241503,1,0,0:0:0:0:
256,128,241670,1,8,0:0:0:0:
256,128,241837,1,0,0:0:0:0:
256,128,242003,1,8,0:0:0:0:
256,128,242087,1,8,0:0:0:0:
256,128,242170,1,0,0:0:0:0:
256,128,242337,1,0,0:0:0:0:
256,128,242420,1,8,0:0:0:0:
256,128,242587,1,8,0:0:0:0:
256,128,242670,1,0,0:0:0:0:
256,128,243003,1,8,0:0:0:0:
256,128,243170,1,0,0:0:0:0:
256,128,243253,1,0,0:0:0:0:
256,128,243337,1,8,0:0:0:0:
256,128,243503,1,0,0:0:0:0:
256,128,243670,1,8,0:0:0:0:
256,128,243753,1,8,0:0:0:0:
256,128,243837,1,0,0:0:0:0:
256,128,244003,1,8,0:0:0:0:
256,128,244170,1,0,0:0:0:0:
256,128,244337,1,8,0:0:0:0:
256,128,244420,1,0,0:0:0:0:
256,128,244503,1,0,0:0:0:0:
256,128,244587,1,8,0:0:0:0:
256,128,244670,1,0,0:0:0:0:
256,128,244837,1,8,0:0:0:0:
256,128,245003,1,0,0:0:0:0:
256,128,245087,1,8,0:0:0:0:
256,128,245170,1,0,0:0:0:0:
256,128,245253,1,0,0:0:0:0:
256,128,245337,1,8,0:0:0:0:
256,128,245503,1,0,0:0:0:0:
256,128,245670,1,8,0:0:0:0:
256,128,245837,1,0,0:0:0:0:
256,128,245920,1,0,0:0:0:0:
256,128,246003,1,8,0:0:0:0:
256,128,246170,1,8,0:0:0:0:
256,128,246337,1,0,0:0:0:0:
256,128,246503,1,8,0:0:0:0:
256,128,246670,1,0,0:0:0:0:
256,128,246753,1,0,0:0:0:0:
256,128,246837,1,0,0:0:0:0:
256,128,247003,1,8,0:0:0:0:
256,128,247170,1,0,0:0:0:0:
256,128,247337,1,8,0:0:0:0:
256,128,247420,1,8,0:0:0:0:
256,128,247503,1,0,0:0:0:0:
256,128,247670,1,0,0:0:0:0:
256,128,247753,1,8,0:0:0:0:
256,128,247920,1,8,0:0:0:0:
256,128,248003,1,0,0:0:0:0:
256,128,248337,1,8,0:0:0:0:
256,128,248503,1,0,0:0:0:0:
256,128,248587,1,0,0:0:0:0:
256,128,248670,1,8,0:0:0:0:
256,128,248837,1,8,0:0:0:0:
256,128,249087,1,12,0:0:0:0:
256,128,249337,1,0,0:0:0:0:
256,128,250837,5,0,0:0:0:0:
256,128,251087,1,8,0:0:0:0:
256,128,251170,1,0,0:0:0:0:
256,128,251337,1,0,0:0:0:0:
256,128,251420,1,8,0:0:0:0:
256,128,251503,1,8,0:0:0:0:
256,128,251670,1,0,0:0:0:0:
256,128,251837,1,8,0:0:0:0:
256,128,252003,1,8,0:0:0:0:
256,128,252170,1,0,0:0:0:0:
256,128,252337,1,0,0:0:0:0:
256,128,252420,1,0,0:0:0:0:
256,128,252503,1,8,0:0:0:0:
256,128,252670,1,0,0:0:0:0:
256,128,252837,1,8,0:0:0:0:
256,128,253087,1,8,0:0:0:0:
256,128,253337,1,8,0:0:0:0:
256,128,253503,1,0,0:0:0:0:
256,128,253670,1,8,0:0:0:0:
256,128,253753,1,8,0:0:0:0:
256,128,253837,1,0,0:0:0:0:
256,128,254003,1,8,0:0:0:0:
256,128,254087,1,0,0:0:0:0:
256,128,254170,1,8,0:0:0:0:
256,128,254337,1,0,0:0:0:0:
256,128,254503,1,8,0:0:0:0:
256,128,254670,1,8,0:0:0:0:
256,128,254837,1,0,0:0:0:0:
256,128,255003,1,0,0:0:0:0:
256,128,255087,1,0,0:0:0:0:
256,128,255170,1,8,0:0:0:0:
256,128,255337,1,0,0:0:0:0:
256,128,255503,1,8,0:0:0:0:
256,128,255670,1,8,0:0:0:0:
256,128,255753,1,8,0:0:0:0:
256,128,255837,1,8,0:0:0:0:
256,128,256003,1,8,0:0:0:0:
256,128,256170,1,0,0:0:0:0:
256,128,256337,1,8,0:0:0:0:
256,128,256420,1,0,0:0:0:0:
256,128,256587,1,0,0:0:0:0:
256,128,256670,1,8,0:0:0:0:
256,128,256837,1,8,0:0:0:0:
256,128,256920,1,0,0:0:0:0:
256,128,257003,1,8,0:0:0:0:
256,128,257087,1,8,0:0:0:0:
256,128,257170,1,0,0:0:0:0:
256,128,257337,1,0,0:0:0:0:
256,128,257503,1,8,0:0:0:0:
256,128,257670,1,0,0:0:0:0:
256,128,257753,1,8,0:0:0:0:
256,128,257920,1,8,0:0:0:0:
256,128,258003,1,0,0:0:0:0:
256,128,258170,1,0,0:0:0:0:
256,128,258253,1,8,0:0:0:0:
256,128,258337,1,0,0:0:0:0:
256,128,258420,1,0,0:0:0:0:
256,128,258503,1,8,0:0:0:0:
256,128,258670,1,8,0:0:0:0:
256,128,258837,1,0,0:0:0:0:
256,128,259003,1,8,0:0:0:0:
256,128,259087,1,0,0:0:0:0:
256,128,259253,1,0,0:0:0:0:
256,128,259337,1,8,0:0:0:0:
256,128,259503,1,8,0:0:0:0:
256,128,259587,1,8,0:0:0:0:
256,128,259670,1,0,0:0:0:0:
256,128,259753,1,8,0:0:0:0:
256,128,259837,1,0,0:0:0:0:
256,128,260003,1,0,0:0:0:0:
256,128,260170,1,8,0:0:0:0:
256,128,260337,1,0,0:0:0:0:
256,128,260420,1,8,0:0:0:0:
256,128,260587,1,8,0:0:0:0:
256,128,260670,1,0,0:0:0:0:
256,128,260837,1,0,0:0:0:0:
256,128,260920,1,0,0:0:0:0:
256,128,261003,1,8,0:0:0:0:
256,128,261087,1,0,0:0:0:0:
256,128,261170,1,8,0:0:0:0:
256,128,261337,1,8,0:0:0:0:
256,128,261503,1,0,0:0:0:0:
256,128,261753,1,8,0:0:0:0:
256,128,261837,1,0,0:0:0:0:
256,128,262003,1,8,0:0:0:0:
256,128,262170,1,0,0:0:0:0:
256,128,262253,1,8,0:0:0:0:
256,128,262337,1,8,0:0:0:0:
256,128,262503,1,0,0:0:0:0:
256,128,262670,1,0,0:0:0:0:
256,128,262837,1,12,0:0:0:0:
256,128,264170,1,8,0:0:0:0:
256,128,264253,1,8,0:0:0:0:
256,128,264420,1,0,0:0:0:0:
256,128,264503,1,0,0:0:0:0:
256,128,264670,1,8,0:0:0:0:
256,128,264753,1,8,0:0:0:0:
256,128,264920,1,0,0:0:0:0:
256,128,265003,1,0,0:0:0:0:
256,128,265170,1,12,0:0:0:0:
256,128,265337,1,12,0:0:0:0:
256,128,265503,1,12,0:0:0:0:
