osu file format v14

[General]
AudioFilename: audio.mp3
AudioLeadIn: 0
PreviewTime: 38171
Countdown: 0
SampleSet: Normal
StackLeniency: 0.7
Mode: 1
LetterboxInBreaks: 0
WidescreenStoryboard: 1

[Editor]
Bookmarks: 38171,59504,142171
DistanceSpacing: 1
BeatDivisor: 4
GridSize: 32
TimelineZoom: 1.4

[Metadata]
Title:Jackknife
TitleUnicode:Jackknife
Artist:xi
ArtistUnicode:xi
Creator:Arrival
Version:Muzukashii
Source:
Tags:Evolved Chronicles piano C.H.S with Lick Dom Records diverse system blacky sta diceros bicornis comic market 91 mira APPO (Katana Bits) 鑓田 (alpha complex) YsK439
BeatmapID:1378163
BeatmapSetID:646616

[Difficulty]
HPDrainRate:6
CircleSize:2
OverallDifficulty:5
ApproachRate:0
SliderMultiplier:1.4
SliderTickRate:1

[Events]
//Background and Video events
0,0,"cropped-1920-1080-595862.jpg",0,40
//Break Periods
//Storyboard Layer 0 (Background)
//Storyboard Layer 1 (Fail)
//Storyboard Layer 2 (Pass)
//Storyboard Layer 3 (Foreground)
//Storyboard Sound Samples

[TimingPoints]
838,333.333333333333,4,1,0,80,1,0
37837,-100,4,1,0,90,0,0
83587,-100,4,1,0,60,0,0
104171,-100,4,1,0,80,0,0
104837,-100,4,1,0,80,0,1
118171,-100,4,1,0,80,0,0
120504,-100,4,1,0,90,0,0
163671,-100,4,1,0,60,0,0
168171,-100,4,1,0,80,0,0
174504,-100,4,1,0,60,0,0
178837,-100,4,1,0,80,0,0
190171,-100,4,1,0,70,0,0
200837,-100,4,1,0,80,0,0
217504,333.333333333333,4,1,0,100,1,0
218837,-100,4,1,0,60,0,0
224170,-100,4,1,0,75,0,0
229170,-100,4,1,0,90,0,0
229504,-100,4,1,0,90,0,1
249337,-100,4,1,0,90,0,0
256170,-100,4,1,0,100,0,1
261503,-100,4,1,0,100,0,0
264170,-100,4,1,0,100,0,1
265503,-100,4,1,0,100,0,0

[HitObjects]
256,128,838,5,0,0:0:0:0:
256,128,1171,1,8,0:0:0:0:
256,128,1504,1,0,0:0:0:0:
256,128,1671,1,8,0:0:0:0:
256,128,1754,1,8,0:0:0:0:
256,128,1837,1,8,0:0:0:0:
256,128,2004,1,8,0:0:0:0:
256,128,2171,1,0,0:0:0:0:
256,128,2837,1,0,0:0:0:0:
256,128,3504,1,0,0:0:0:0:
256,128,4171,1,8,0:0:0:0:
256,128,4504,1,8,0:0:0:0:
256,128,4671,1,8,0:0:0:0:
256,128,4837,1,0,0:0:0:0:
256,128,5504,1,0,0:0:0:0:
256,128,6171,1,0,0:0:0:0:
256,128,6837,1,8,0:0:0:0:
256,128,7171,1,8,0:0:0:0:
256,128,7337,1,8,0:0:0:0:
256,128,7504,1,0,0:0:0:0:
256,128,7754,1,8,0:0:0:0:
256,128,8421,1,8,0:0:0:0:
256,128,8837,1,0,0:0:0:0:
256,128,9087,1,8,0:0:0:0:
256,128,9754,1,8,0:0:0:0:
256,128,10171,1,0,0:0:0:0:
256,128,10421,1,8,0:0:0:0:
256,128,11087,1,8,0:0:0:0:
256,128,11504,2,0,L|320:128,12,34.999999165535
256,128,12837,1,0,0:0:0:0:
256,128,13171,1,8,0:0:0:0:
256,128,13504,1,0,0:0:0:0:
256,128,13671,1,0,0:0:0:0:
256,128,13837,1,8,0:0:0:0:
256,128,14171,1,0,0:0:0:0:
256,128,14504,1,8,0:0:0:0:
256,128,14754,1,0,0:0:0:0:
256,128,15004,1,8,0:0:0:0:
256,128,15171,1,8,0:0:0:0:
256,128,15504,1,0,0:0:0:0:
256,128,15837,1,8,0:0:0:0:
256,128,16171,1,0,0:0:0:0:
256,128,16337,1,0,0:0:0:0:
256,128,16504,1,8,0:0:0:0:
256,128,16837,1,0,0:0:0:0:
256,128,17171,1,8,0:0:0:0:
256,128,17421,1,0,0:0:0:0:
256,128,17671,1,8,0:0:0:0:
256,128,17837,1,8,0:0:0:0:
256,128,18004,1,0,0:0:0:0:
256,128,18087,1,0,0:0:0:0:
256,128,18171,1,0,0:0:0:0:
256,128,18504,1,8,0:0:0:0:
256,128,18837,1,0,0:0:0:0:
256,128,19004,1,0,0:0:0:0:
256,128,19171,1,8,0:0:0:0:
256,128,19504,1,0,0:0:0:0:
256,128,19837,1,8,0:0:0:0:
256,128,20087,1,0,0:0:0:0:
256,128,20337,1,8,0:0:0:0:
256,128,20504,1,8,0:0:0:0:
256,128,20671,1,0,0:0:0:0:
256,128,20754,1,0,0:0:0:0:
256,128,20837,1,0,0:0:0:0:
256,128,21171,1,8,0:0:0:0:
256,128,21504,1,0,0:0:0:0:
256,128,21671,1,0,0:0:0:0:
256,128,21837,1,8,0:0:0:0:
256,128,22171,1,0,0:0:0:0:
256,128,22504,1,8,0:0:0:0:
256,128,22837,1,12,0:0:0:0:
256,128,23504,1,0,0:0:0:0:
256,128,23837,1,8,0:0:0:0:
256,128,24171,1,0,0:0:0:0:
256,128,24337,1,0,0:0:0:0:
256,128,24503,1,8,0:0:0:0:
256,128,24837,1,0,0:0:0:0:
256,128,25170,1,8,0:0:0:0:
256,128,25421,1,0,0:0:0:0:
256,128,25670,1,8,0:0:0:0:
256,128,25837,1,8,0:0:0:0:
256,128,26170,1,0,0:0:0:0:
256,128,26503,1,8,0:0:0:0:
256,128,26837,1,0,0:0:0:0:
256,128,27003,1,0,0:0:0:0:
256,128,27170,1,8,0:0:0:0:
256,128,27503,1,0,0:0:0:0:
256,128,27837,1,8,0:0:0:0:
256,128,28087,1,0,0:0:0:0:
256,128,28337,1,0,0:0:0:0:
256,128,28504,1,8,0:0:0:0:
256,128,28671,1,0,0:0:0:0:
256,128,28754,1,0,0:0:0:0:
256,128,28837,1,0,0:0:0:0:
256,128,29170,1,8,0:0:0:0:
256,128,29503,1,0,0:0:0:0:
256,128,29670,1,0,0:0:0:0:
256,128,29837,1,8,0:0:0:0:
256,128,30170,1,0,0:0:0:0:
256,128,30503,1,8,0:0:0:0:
256,128,30837,1,0,0:0:0:0:
256,128,31003,1,8,0:0:0:0:
256,128,31170,1,8,0:0:0:0:
256,128,31503,1,0,0:0:0:0:
256,128,31837,1,8,0:0:0:0:
256,128,32171,1,0,0:0:0:0:
256,128,32337,1,0,0:0:0:0:
256,128,32503,1,8,0:0:0:0:
256,128,32837,1,0,0:0:0:0:
256,128,33170,1,8,0:0:0:0:
256,128,33421,1,0,0:0:0:0:
256,128,33837,1,8,0:0:0:0:
256,128,34171,1,0,0:0:0:0:
256,128,34837,1,8,0:0:0:0:
256,128,35504,1,0,0:0:0:0:
256,128,36171,1,8,0:0:0:0:
256,128,36671,1,8,0:0:0:0:
256,128,36837,1,0,0:0:0:0:
256,128,37837,1,12,0:0:0:0:
256,128,38171,1,0,0:0:0:0:
256,128,38504,1,0,0:0:0:0:
256,128,38671,1,0,0:0:0:0:
256,128,39004,1,8,0:0:0:0:
256,128,39171,1,0,0:0:0:0:
256,128,39337,1,8,0:0:0:0:
256,128,39671,1,8,0:0:0:0:
256,128,39837,1,0,0:0:0:0:
256,128,40171,1,8,0:0:0:0:
256,128,40421,1,8,0:0:0:0:
256,128,40671,1,8,0:0:0:0:
256,128,41004,1,0,0:0:0:0:
256,128,41171,1,8,0:0:0:0:
256,128,41504,1,8,0:0:0:0:
256,128,41754,1,0,0:0:0:0:
256,128,42004,1,8,0:0:0:0:
256,128,42337,1,8,0:0:0:0:
256,128,42504,1,0,0:0:0:0:
256,128,42837,1,8,0:0:0:0:
256,128,43171,1,8,0:0:0:0:
256,128,43254,1,8,0:0:0:0:
256,128,43337,1,8,0:0:0:0:
256,128,43504,1,0,0:0:0:0:
256,128,43837,1,0,0:0:0:0:
256,128,44004,1,0,0:0:0:0:
256,128,44337,1,8,0:0:0:0:
256,128,44504,1,0,0:0:0:0:
256,128,44670,1,8,0:0:0:0:
256,128,45004,1,8,0:0:0:0:
256,128,45170,1,0,0:0:0:0:
256,128,45504,1,8,0:0:0:0:
256,128,45754,1,8,0:0:0:0:
256,128,46004,1,8,0:0:0:0:
256,128,46337,1,0,0:0:0:0:
256,128,46504,1,8,0:0:0:0:
256,128,46837,1,8,0:0:0:0:
256,128,47087,1,0,0:0:0:0:
256,128,47337,1,8,0:0:0:0:
256,128,47671,1,8,0:0:0:0:
256,128,48004,1,8,0:0:0:0:
256,128,48837,1,4,0:0:0:0:
256,128,49171,1,0,0:0:0:0:
256,128,49338,1,0,0:0:0:0:
256,128,49671,1,8,0:0:0:0:
256,128,49838,1,0,0:0:0:0:
256,128,50004,1,8,0:0:0:0:
256,128,50338,1,8,0:0:0:0:
256,128,50504,1,0,0:0:0:0:
256,128,50838,1,8,0:0:0:0:
256,128,51088,1,8,0:0:0:0:
256,128,51338,1,8,0:0:0:0:
256,128,51671,1,0,0:0:0:0:
256,128,51838,1,8,0:0:0:0:
256,128,52171,1,8,0:0:0:0:
256,128,52421,1,0,0:0:0:0:
256,128,52671,1,8,0:0:0:0:
256,128,53004,1,8,0:0:0:0:
256,128,53171,1,0,0:0:0:0:
256,128,53504,1,8,0:0:0:0:
256,128,53838,1,8,0:0:0:0:
256,128,53921,1,8,0:0:0:0:
256,128,54004,1,8,0:0:0:0:
256,128,54171,1,0,0:0:0:0:
256,128,54504,1,0,0:0:0:0:
256,128,54671,1,0,0:0:0:0:
256,128,55004,1,8,0:0:0:0:
256,128,55171,1,0,0:0:0:0:
256,128,55337,1,8,0:0:0:0:
256,128,55671,1,8,0:0:0:0:
256,128,55837,1,0,0:0:0:0:
256,128,56171,1,8,0:0:0:0:
256,128,56421,1,8,0:0:0:0:
256,128,56671,1,8,0:0:0:0:
256,128,57004,1,0,0:0:0:0:
256,128,57171,1,8,0:0:0:0:
256,128,57504,1,8,0:0:0:0:
256,128,57754,1,0,0:0:0:0:
256,128,58004,1,8,0:0:0:0:
256,128,58338,5,8,0:0:0:0:
256,128,58671,1,8,0:0:0:0:
256,128,59171,1,12,0:0:0:0:
256,128,59503,5,0,0:0:0:0:
256,128,60837,1,8,0:0:0:0:
256,128,61171,1,0,0:0:0:0:
256,128,61337,1,8,0:0:0:0:
256,128,61671,1,8,0:0:0:0:
256,128,61837,1,8,0:0:0:0:
256,128,62171,1,0,0:0:0:0:
256,128,62504,1,8,0:0:0:0:
256,128,62837,1,8,0:0:0:0:
256,128,63004,1,0,0:0:0:0:
256,128,63171,1,8,0:0:0:0:
256,128,63337,1,8,0:0:0:0:
256,128,63504,1,0,0:0:0:0:
256,128,63837,1,0,0:0:0:0:
256,128,64004,1,0,0:0:0:0:
256,128,64171,1,8,0:0:0:0:
256,128,64421,1,8,0:0:0:0:
256,128,64671,1,8,0:0:0:0:
256,128,64837,1,0,0:0:0:0:
256,128,65171,1,8,0:0:0:0:
256,128,65504,1,8,0:0:0:0:
256,128,65671,1,0,0:0:0:0:
256,128,65837,1,8,0:0:0:0:
256,128,66004,1,8,0:0:0:0:
256,128,66171,1,0,0:0:0:0:
256,128,66504,1,8,0:0:0:0:
256,128,66837,1,0,0:0:0:0:
256,128,67004,1,8,0:0:0:0:
256,128,67087,1,8,0:0:0:0:
256,128,67171,1,8,0:0:0:0:
256,128,67337,1,8,0:0:0:0:
256,128,67504,1,0,0:0:0:0:
256,128,67837,1,12,0:0:0:0:
256,128,68171,1,0,0:0:0:0:
256,128,68504,1,12,0:0:0:0:
256,128,68837,2,0,L|320:128,12,34.999999165535
256,128,70171,1,0,0:0:0:0:
256,128,70504,1,0,0:0:0:0:
256,128,70671,1,0,0:0:0:0:
256,128,70837,1,8,0:0:0:0:
256,128,71171,1,0,0:0:0:0:
256,128,71504,2,0,L|320:128,12,34.999999165535
256,128,72837,1,0,0:0:0:0:
256,128,73171,1,8,0:0:0:0:
256,128,73503,1,8,0:0:0:0:
256,128,73671,1,0,0:0:0:0:
256,128,73837,1,8,0:0:0:0:
256,128,73921,1,8,0:0:0:0:
256,128,74004,1,8,0:0:0:0:
256,128,74170,1,0,0:0:0:0:
256,128,74504,1,0,0:0:0:0:
256,128,74671,1,0,0:0:0:0:
256,128,74837,1,8,0:0:0:0:
256,128,75087,1,8,0:0:0:0:
256,128,75337,1,8,0:0:0:0:
256,128,75503,1,0,0:0:0:0:
256,128,75837,1,8,0:0:0:0:
256,128,76170,1,8,0:0:0:0:
256,128,76337,1,0,0:0:0:0:
256,128,76503,1,8,0:0:0:0:
256,128,76671,1,8,0:0:0:0:
256,128,76837,1,0,0:0:0:0:
256,128,77171,1,8,0:0:0:0:
256,128,77503,1,0,0:0:0:0:
256,128,77671,1,8,0:0:0:0:
256,128,77754,1,8,0:0:0:0:
256,128,77837,1,8,0:0:0:0:
256,128,78004,1,8,0:0:0:0:
256,128,78170,1,0,0:0:0:0:
256,128,78503,1,12,0:0:0:0:
256,128,78837,1,0,0:0:0:0:
256,128,79170,1,12,0:0:0:0:
256,128,79504,2,0,L|320:128,12,34.999999165535
256,128,80837,1,0,0:0:0:0:
256,128,81171,1,0,0:0:0:0:
256,128,81337,1,0,0:0:0:0:
256,128,81504,1,8,0:0:0:0:
256,128,82171,1,0,0:0:0:0:
256,128,82615,1,0,0:0:0:0:
256,128,83060,1,0,0:0:0:0:
256,128,83282,1,0,0:0:0:0:
256,128,83504,1,4,0:0:0:0:
256,128,84837,1,0,0:0:0:0:
256,128,86171,1,0,0:0:0:0:
256,128,87504,1,0,0:0:0:0:
256,128,88837,1,8,0:0:0:0:
256,128,90171,1,0,0:0:0:0:
256,128,91504,1,0,0:0:0:0:
256,128,92837,1,0,0:0:0:0:
256,128,93504,1,8,0:0:0:0:
256,128,93837,1,8,0:0:0:0:
256,128,94171,1,0,0:0:0:0:
256,128,95504,1,8,0:0:0:0:
256,128,96837,1,0,0:0:0:0:
256,128,98171,1,8,0:0:0:0:
256,128,98837,1,0,0:0:0:0:
256,128,99171,1,8,0:0:0:0:
256,128,99504,1,0,0:0:0:0:
256,128,100837,1,8,0:0:0:0:
256,128,102171,1,0,0:0:0:0:
256,128,103504,1,8,0:0:0:0:
256,128,104171,1,0,0:0:0:0:
256,128,104504,1,8,0:0:0:0:
256,128,104587,1,8,0:0:0:0:
256,128,104671,1,8,0:0:0:0:
256,128,104837,1,4,0:0:0:0:
256,128,105171,1,0,0:0:0:0:
256,128,105504,1,8,0:0:0:0:
256,128,105754,1,8,0:0:0:0:
256,128,106004,1,8,0:0:0:0:
256,128,106337,1,0,0:0:0:0:
256,128,106587,1,8,0:0:0:0:
256,128,106837,1,0,0:0:0:0:
256,128,107087,1,0,0:0:0:0:
256,128,107337,1,0,0:0:0:0:
256,128,107671,1,8,0:0:0:0:
256,128,107838,1,8,0:0:0:0:
256,128,108005,1,0,0:0:0:0:
256,128,108171,1,8,0:0:0:0:
256,128,108504,1,0,0:0:0:0:
256,128,108671,1,12,0:0:0:0:
256,128,109171,1,0,0:0:0:0:
256,128,109504,1,8,0:0:0:0:
256,128,109671,1,0,0:0:0:0:
256,128,109837,1,8,0:0:0:0:
256,128,110004,1,8,0:0:0:0:
256,128,110171,1,0,0:0:0:0:
256,128,110504,1,0,0:0:0:0:
256,128,110837,1,8,0:0:0:0:
256,128,111087,1,8,0:0:0:0:
256,128,111337,1,8,0:0:0:0:
256,128,111671,1,0,0:0:0:0:
256,128,111921,1,8,0:0:0:0:
256,128,112171,1,0,0:0:0:0:
256,128,112421,1,0,0:0:0:0:
256,128,112671,1,0,0:0:0:0:
256,128,113004,1,8,0:0:0:0:
256,128,113171,1,8,0:0:0:0:
256,128,113337,1,0,0:0:0:0:
256,128,113504,1,8,0:0:0:0:
256,128,113837,1,0,0:0:0:0:
256,128,114004,1,12,0:0:0:0:
256,128,114504,1,0,0:0:0:0:
256,128,114837,1,8,0:0:0:0:
256,128,115171,1,8,0:0:0:0:
256,128,115337,1,8,0:0:0:0:
256,128,115504,1,8,0:0:0:0:
256,128,115837,1,0,0:0:0:0:
256,128,116004,1,0,0:0:0:0:
256,128,116171,1,0,0:0:0:0:
256,128,116504,1,0,0:0:0:0:
256,128,116671,1,0,0:0:0:0:
256,128,116837,1,0,0:0:0:0:
256,128,117171,1,0,0:0:0:0:
256,128,117504,1,12,0:0:0:0:
256,128,117754,1,12,0:0:0:0:
256,128,118171,1,0,0:0:0:0:
256,192,118337,12,0,119171,0:0:0:0:
256,128,119504,5,0,0:0:0:0:
256,128,120171,1,0,0:0:0:0:
256,128,120337,1,0,0:0:0:0:
256,128,120504,1,12,0:0:0:0:
256,128,120837,1,0,0:0:0:0:
256,128,121170,1,0,0:0:0:0:
256,128,121337,1,0,0:0:0:0:
256,128,121670,1,8,0:0:0:0:
256,128,121837,1,0,0:0:0:0:
256,128,122003,1,8,0:0:0:0:
256,128,122337,1,8,0:0:0:0:
256,128,122503,1,0,0:0:0:0:
256,128,122837,1,8,0:0:0:0:
256,128,123087,1,8,0:0:0:0:
256,128,123337,1,8,0:0:0:0:
256,128,123670,1,0,0:0:0:0:
256,128,123837,1,8,0:0:0:0:
256,128,124170,1,8,0:0:0:0:
256,128,124420,1,0,0:0:0:0:
256,128,124670,1,8,0:0:0:0:
256,128,125003,1,8,0:0:0:0:
256,128,125170,1,0,0:0:0:0:
256,128,125503,1,8,0:0:0:0:
256,128,125837,1,8,0:0:0:0:
256,128,125921,1,8,0:0:0:0:
256,128,126003,1,8,0:0:0:0:
256,128,126170,1,0,0:0:0:0:
256,128,126503,1,0,0:0:0:0:
256,128,126670,1,0,0:0:0:0:
256,128,127003,1,8,0:0:0:0:
256,128,127170,1,0,0:0:0:0:
256,128,127336,1,8,0:0:0:0:
256,128,127670,1,8,0:0:0:0:
256,128,127836,1,0,0:0:0:0:
256,128,128170,1,8,0:0:0:0:
256,128,128420,1,8,0:0:0:0:
256,128,128670,1,8,0:0:0:0:
256,128,129003,1,0,0:0:0:0:
256,128,129170,1,8,0:0:0:0:
256,128,129503,1,8,0:0:0:0:
256,128,129753,1,0,0:0:0:0:
256,128,130003,1,8,0:0:0:0:
256,128,130337,1,8,0:0:0:0:
256,128,130670,1,8,0:0:0:0:
256,128,131504,1,0,0:0:0:0:
256,128,131837,1,0,0:0:0:0:
256,128,132004,1,0,0:0:0:0:
256,128,132337,1,8,0:0:0:0:
256,128,132504,1,0,0:0:0:0:
256,128,132670,1,8,0:0:0:0:
256,128,133004,1,8,0:0:0:0:
256,128,133171,1,0,0:0:0:0:
256,128,133504,1,8,0:0:0:0:
256,128,133754,1,8,0:0:0:0:
256,128,134004,1,8,0:0:0:0:
256,128,134337,1,0,0:0:0:0:
256,128,134504,1,8,0:0:0:0:
256,128,134837,1,8,0:0:0:0:
256,128,135087,1,0,0:0:0:0:
256,128,135337,1,8,0:0:0:0:
256,128,135670,1,8,0:0:0:0:
256,128,135837,1,0,0:0:0:0:
256,128,136004,1,0,0:0:0:0:
256,128,136170,1,8,0:0:0:0:
256,128,136504,1,8,0:0:0:0:
256,128,136587,1,8,0:0:0:0:
256,128,136670,1,8,0:0:0:0:
256,128,136837,1,0,0:0:0:0:
256,128,137170,1,0,0:0:0:0:
256,128,137337,1,0,0:0:0:0:
256,128,137671,1,8,0:0:0:0:
256,128,137837,1,0,0:0:0:0:
256,128,138004,1,8,0:0:0:0:
256,128,138337,1,8,0:0:0:0:
256,128,138503,1,0,0:0:0:0:
256,128,138837,1,8,0:0:0:0:
256,128,139087,1,8,0:0:0:0:
256,128,139337,1,8,0:0:0:0:
256,128,139670,1,0,0:0:0:0:
256,128,139837,1,8,0:0:0:0:
256,128,140170,1,8,0:0:0:0:
256,128,140420,1,0,0:0:0:0:
256,128,140671,1,8,0:0:0:0:
256,128,141004,1,8,0:0:0:0:
256,128,141337,1,8,0:0:0:0:
256,128,142171,5,0,0:0:0:0:
256,128,142504,1,8,0:0:0:0:
256,128,142837,1,0,0:0:0:0:
256,128,143004,1,0,0:0:0:0:
256,128,143171,1,8,0:0:0:0:
256,128,143504,1,0,0:0:0:0:
256,128,143837,1,8,0:0:0:0:
256,128,144004,1,8,0:0:0:0:
256,128,144171,1,0,0:0:0:0:
256,128,144337,1,0,0:0:0:0:
256,128,144504,1,8,0:0:0:0:
256,128,144837,1,0,0:0:0:0:
256,128,145171,1,8,0:0:0:0:
256,128,145504,1,0,0:0:0:0:
256,128,145671,1,0,0:0:0:0:
256,128,145837,1,8,0:0:0:0:
256,128,146171,1,0,0:0:0:0:
256,128,146504,1,8,0:0:0:0:
256,128,146671,1,0,0:0:0:0:
256,128,146837,1,0,0:0:0:0:
256,128,147004,1,8,0:0:0:0:
256,128,147087,1,8,0:0:0:0:
256,128,147171,1,8,0:0:0:0:
256,128,147504,1,0,0:0:0:0:
256,128,147837,1,8,0:0:0:0:
256,128,148171,1,0,0:0:0:0:
256,128,148337,1,0,0:0:0:0:
256,128,148504,1,8,0:0:0:0:
256,128,148837,1,0,0:0:0:0:
256,128,149171,1,8,0:0:0:0:
256,128,149337,1,8,0:0:0:0:
256,128,149504,1,0,0:0:0:0:
256,128,149671,1,0,0:0:0:0:
256,128,149837,1,8,0:0:0:0:
256,128,150171,1,0,0:0:0:0:
256,128,150504,1,8,0:0:0:0:
256,128,150838,1,0,0:0:0:0:
256,128,151005,1,0,0:0:0:0:
256,128,151171,1,8,0:0:0:0:
256,128,151504,1,0,0:0:0:0:
256,128,151837,1,8,0:0:0:0:
256,128,152004,1,0,0:0:0:0:
256,128,152171,1,0,0:0:0:0:
256,128,152337,1,8,0:0:0:0:
256,128,152421,1,8,0:0:0:0:
256,128,152504,1,8,0:0:0:0:
256,128,152671,1,8,0:0:0:0:
256,128,152837,1,4,0:0:0:0:
256,128,153171,1,8,0:0:0:0:
256,128,153337,1,0,0:0:0:0:
256,128,153671,1,0,0:0:0:0:
256,128,153837,1,8,0:0:0:0:
256,128,154171,1,0,0:0:0:0:
256,128,154337,1,0,0:0:0:0:
256,128,154504,1,8,0:0:0:0:
256,128,154671,1,0,0:0:0:0:
256,128,155004,1,8,0:0:0:0:
256,128,155171,1,8,0:0:0:0:
256,128,155504,1,0,0:0:0:0:
256,128,155837,1,8,0:0:0:0:
256,128,156171,1,0,0:0:0:0:
256,128,156337,1,0,0:0:0:0:
256,128,156504,1,8,0:0:0:0:
256,128,156837,1,0,0:0:0:0:
256,128,157171,1,8,0:0:0:0:
256,128,157337,1,0,0:0:0:0:
256,128,157504,1,8,0:0:0:0:
256,128,157671,1,8,0:0:0:0:
256,128,157754,1,8,0:0:0:0:
256,128,157837,1,8,0:0:0:0:
256,128,158004,1,8,0:0:0:0:
256,128,158171,1,0,0:0:0:0:
256,128,158504,1,8,0:0:0:0:
256,128,158671,1,0,0:0:0:0:
256,128,159004,1,0,0:0:0:0:
256,128,159171,1,8,0:0:0:0:
256,128,159504,1,0,0:0:0:0:
256,128,159671,1,8,0:0:0:0:
256,128,159837,1,8,0:0:0:0:
256,128,160004,1,0,0:0:0:0:
256,128,160337,1,8,0:0:0:0:
256,128,160504,1,8,0:0:0:0:
256,128,160837,1,0,0:0:0:0:
256,128,161171,1,0,0:0:0:0:
256,128,161504,1,0,0:0:0:0:
256,128,161671,1,0,0:0:0:0:
256,128,161837,1,0,0:0:0:0:
256,128,162004,1,0,0:0:0:0:
256,128,162171,1,8,0:0:0:0:
256,128,162837,1,8,0:0:0:0:
256,128,163004,1,8,0:0:0:0:
256,128,163087,1,8,0:0:0:0:
256,128,163171,1,8,0:0:0:0:
256,128,163337,1,8,0:0:0:0:
256,128,163504,1,0,0:0:0:0:
256,128,165504,1,0,0:0:0:0:
256,128,166837,1,0,0:0:0:0:
256,128,168171,1,8,0:0:0:0:
256,128,168504,1,8,0:0:0:0:
256,128,168671,1,8,0:0:0:0:
256,128,168837,1,0,0:0:0:0:
256,128,169171,1,0,0:0:0:0:
256,128,169504,1,8,0:0:0:0:
256,128,169837,1,8,0:0:0:0:
256,128,170004,1,0,0:0:0:0:
256,128,170337,1,0,0:0:0:0:
256,128,170504,1,8,0:0:0:0:
256,128,170837,1,8,0:0:0:0:
256,128,171171,1,0,0:0:0:0:
256,128,171337,1,0,0:0:0:0:
256,128,171671,1,0,0:0:0:0:
256,128,171837,1,8,0:0:0:0:
256,128,172171,1,8,0:0:0:0:
256,128,172337,1,0,0:0:0:0:
256,128,172504,1,0,0:0:0:0:
256,128,172671,1,8,0:0:0:0:
256,128,173004,1,0,0:0:0:0:
256,128,173171,1,0,0:0:0:0:
256,128,173337,1,8,0:0:0:0:
256,128,173421,1,8,0:0:0:0:
256,128,173504,1,8,0:0:0:0:
256,128,173671,1,0,0:0:0:0:
256,128,173837,1,8,0:0:0:0:
256,128,174004,1,8,0:0:0:0:
256,128,174171,1,0,0:0:0:0:
256,128,176171,1,0,0:0:0:0:
256,128,177504,1,0,0:0:0:0:
256,128,178837,1,8,0:0:0:0:
256,128,179171,1,8,0:0:0:0:
256,128,179337,1,8,0:0:0:0:
256,128,179504,1,0,0:0:0:0:
256,128,179837,1,8,0:0:0:0:
256,128,180004,1,0,0:0:0:0:
256,128,180337,1,0,0:0:0:0:
256,128,180504,1,8,0:0:0:0:
256,128,180837,1,8,0:0:0:0:
256,128,181004,1,0,0:0:0:0:
256,128,181171,1,0,0:0:0:0:
256,128,181337,1,8,0:0:0:0:
256,128,181671,1,0,0:0:0:0:
256,128,181837,1,8,0:0:0:0:
256,128,182004,1,8,0:0:0:0:
256,128,182171,1,0,0:0:0:0:
256,128,182504,1,0,0:0:0:0:
256,128,182671,1,8,0:0:0:0:
256,128,182837,1,8,0:0:0:0:
256,128,183004,1,0,0:0:0:0:
256,128,183171,1,0,0:0:0:0:
256,128,183337,1,12,0:0:0:0:
256,128,183671,1,0,0:0:0:0:
256,128,183837,1,8,0:0:0:0:
256,128,184004,1,0,0:0:0:0:
256,128,184087,1,0,0:0:0:0:
256,128,184171,1,0,0:0:0:0:
256,128,184337,1,8,0:0:0:0:
256,128,184504,1,8,0:0:0:0:
256,128,184671,1,8,0:0:0:0:
256,128,184837,1,0,0:0:0:0:
256,128,185337,1,0,0:0:0:0:
256,128,186171,1,8,0:0:0:0:
256,128,186671,1,8,0:0:0:0:
256,128,187504,1,0,0:0:0:0:
256,192,187671,12,0,188837,0:0:0:0:
256,128,189504,5,8,0:0:0:0:
256,128,190171,1,0,0:0:0:0:
256,128,190504,1,8,0:0:0:0:
256,128,191171,1,8,0:0:0:0:
256,128,191837,1,8,0:0:0:0:
256,128,192171,1,0,0:0:0:0:
256,128,192504,1,8,0:0:0:0:
256,128,192671,1,8,0:0:0:0:
256,128,192837,1,0,0:0:0:0:
256,128,193171,1,8,0:0:0:0:
256,128,193837,1,8,0:0:0:0:
256,128,194504,1,8,0:0:0:0:
256,128,194837,1,0,0:0:0:0:
256,128,195171,1,8,0:0:0:0:
256,128,195337,1,8,0:0:0:0:
256,128,195504,1,0,0:0:0:0:
256,128,195754,1,8,0:0:0:0:
256,128,196421,1,8,0:0:0:0:
256,128,196837,1,0,0:0:0:0:
256,128,197087,1,8,0:0:0:0:
256,128,197754,1,8,0:0:0:0:
256,128,198171,1,0,0:0:0:0:
256,128,198421,1,8,0:0:0:0:
256,128,199087,1,8,0:0:0:0:
256,128,199504,2,0,L|320:128,12,35
256,128,200837,1,0,0:0:0:0:
256,128,201171,1,8,0:0:0:0:
256,128,201504,1,0,0:0:0:0:
256,128,201671,1,0,0:0:0:0:
256,128,201837,1,8,0:0:0:0:
256,128,202171,1,0,0:0:0:0:
256,128,202504,1,8,0:0:0:0:
256,128,202754,1,0,0:0:0:0:
256,128,203004,1,8,0:0:0:0:
256,128,203171,1,8,0:0:0:0:
256,128,203504,1,0,0:0:0:0:
256,128,203837,1,8,0:0:0:0:
256,128,204171,1,0,0:0:0:0:
256,128,204337,1,0,0:0:0:0:
256,128,204504,1,8,0:0:0:0:
256,128,204837,1,0,0:0:0:0:
256,128,205171,1,8,0:0:0:0:
256,128,205421,1,0,0:0:0:0:
256,128,205671,1,8,0:0:0:0:
256,128,205754,1,8,0:0:0:0:
256,128,205837,1,8,0:0:0:0:
256,128,206171,1,0,0:0:0:0:
256,128,206504,1,8,0:0:0:0:
256,128,206837,1,0,0:0:0:0:
256,128,207004,1,0,0:0:0:0:
256,128,207171,1,8,0:0:0:0:
256,128,207504,1,0,0:0:0:0:
256,128,207837,1,8,0:0:0:0:
256,128,208087,1,0,0:0:0:0:
256,128,208337,1,8,0:0:0:0:
256,128,208504,1,8,0:0:0:0:
256,128,208671,1,0,0:0:0:0:
256,128,208754,1,0,0:0:0:0:
256,128,208837,1,0,0:0:0:0:
256,128,209171,2,0,L|320:128,12,35
256,128,210504,1,0,0:0:0:0:
256,128,210837,1,8,0:0:0:0:
256,128,211171,1,8,0:0:0:0:
256,128,211504,1,4,0:0:0:0:
256,128,212171,1,12,0:0:0:0:
256,128,212837,1,4,0:0:0:0:
256,128,213504,1,0,0:0:0:0:
256,128,213754,1,0,0:0:0:0:
256,128,214004,1,0,0:0:0:0:
256,128,214171,1,0,0:0:0:0:
256,128,214504,1,8,0:0:0:0:
256,128,214837,1,12,0:0:0:0:
256,128,215087,1,8,0:0:0:0:
256,128,215337,1,12,0:0:0:0:
256,128,215504,1,12,0:0:0:0:
256,128,216837,1,0,0:0:0:0:
256,128,216920,1,0,0:0:0:0:
256,128,217003,1,0,0:0:0:0:
256,128,217087,1,0,0:0:0:0:
256,128,217170,1,0,0:0:0:0:
256,128,217504,2,0,L|320:128,14,34.999999165535
256,128,218837,1,0,0:0:0:0:
256,128,220170,5,0,0:0:0:0:
256,128,221504,1,0,0:0:0:0:
256,128,222837,1,0,0:0:0:0:
256,128,224170,1,0,0:0:0:0:
256,128,224837,1,8,0:0:0:0:
256,128,225837,1,0,0:0:0:0:
256,128,226170,1,8,0:0:0:0:
256,128,226837,1,0,0:0:0:0:
256,128,227504,1,8,0:0:0:0:
256,128,228004,1,8,0:0:0:0:
256,128,228170,1,0,0:0:0:0:
256,128,228837,1,0,0:0:0:0:
256,128,229170,1,12,0:0:0:0:
256,128,229504,1,0,0:0:0:0:
256,128,229837,1,0,0:0:0:0:
256,128,230004,1,0,0:0:0:0:
256,128,230337,1,8,0:0:0:0:
256,128,230504,1,0,0:0:0:0:
256,128,230670,1,8,0:0:0:0:
256,128,231004,1,8,0:0:0:0:
256,128,231170,1,0,0:0:0:0:
256,128,231504,1,8,0:0:0:0:
256,128,231754,1,8,0:0:0:0:
256,128,232004,1,8,0:0:0:0:
256,128,232337,1,0,0:0:0:0:
256,128,232504,1,8,0:0:0:0:
256,128,232837,1,8,0:0:0:0:
256,128,233087,1,0,0:0:0:0:
256,128,233337,1,8,0:0:0:0:
256,128,233670,1,8,0:0:0:0:
256,128,233837,1,0,0:0:0:0:
256,128,234170,1,8,0:0:0:0:
256,128,234504,1,8,0:0:0:0:
256,128,234587,1,8,0:0:0:0:
256,128,234670,1,8,0:0:0:0:
256,128,234837,1,0,0:0:0:0:
256,128,235170,1,0,0:0:0:0:
256,128,235337,1,0,0:0:0:0:
256,128,235670,1,8,0:0:0:0:
256,128,235837,1,0,0:0:0:0:
256,128,236003,1,8,0:0:0:0:
256,128,236337,1,8,0:0:0:0:
256,128,236503,1,0,0:0:0:0:
256,128,236837,1,8,0:0:0:0:
256,128,237087,1,8,0:0:0:0:
256,128,237337,1,8,0:0:0:0:
256,128,237670,1,0,0:0:0:0:
256,128,237837,1,8,0:0:0:0:
256,128,238170,1,8,0:0:0:0:
256,128,238420,1,0,0:0:0:0:
256,128,238670,1,8,0:0:0:0:
256,128,239004,1,8,0:0:0:0:
256,128,239337,1,8,0:0:0:0:
256,128,240170,1,0,0:0:0:0:
256,128,240503,1,0,0:0:0:0:
256,128,240670,1,0,0:0:0:0:
256,128,241003,1,8,0:0:0:0:
256,128,241170,1,0,0:0:0:0:
256,128,241336,1,8,0:0:0:0:
256,128,241670,1,8,0:0:0:0:
256,128,241836,1,0,0:0:0:0:
256,128,242170,1,8,0:0:0:0:
256,128,242420,1,8,0:0:0:0:
256,128,242670,1,8,0:0:0:0:
256,128,243003,1,0,0:0:0:0:
256,128,243170,1,8,0:0:0:0:
256,128,243503,1,8,0:0:0:0:
256,128,243753,1,0,0:0:0:0:
256,128,244003,1,8,0:0:0:0:
256,128,244336,1,8,0:0:0:0:
256,128,244503,1,0,0:0:0:0:
256,128,244836,1,8,0:0:0:0:
256,128,245170,1,8,0:0:0:0:
256,128,245253,1,8,0:0:0:0:
256,128,245336,1,8,0:0:0:0:
256,128,245503,1,0,0:0:0:0:
256,128,245836,1,0,0:0:0:0:
256,128,246003,1,0,0:0:0:0:
256,128,246336,1,8,0:0:0:0:
256,128,246503,1,0,0:0:0:0:
256,128,246669,1,8,0:0:0:0:
256,128,247003,1,8,0:0:0:0:
256,128,247169,1,0,0:0:0:0:
256,128,247503,1,8,0:0:0:0:
256,128,247753,1,8,0:0:0:0:
256,128,248003,5,8,0:0:0:0:
256,128,248336,1,0,0:0:0:0:
256,128,248503,1,8,0:0:0:0:
256,128,248836,1,0,0:0:0:0:
256,128,249086,1,12,0:0:0:0:
256,128,250837,1,0,0:0:0:0:
256,128,251170,1,8,0:0:0:0:
256,128,251503,1,8,0:0:0:0:
256,128,251670,1,0,0:0:0:0:
256,128,251837,1,8,0:0:0:0:
256,128,252003,1,8,0:0:0:0:
256,128,252170,1,0,0:0:0:0:
256,128,252503,1,0,0:0:0:0:
256,128,252670,1,0,0:0:0:0:
256,128,252837,1,8,0:0:0:0:
256,128,253087,1,8,0:0:0:0:
256,128,253337,1,8,0:0:0:0:
256,128,253503,1,0,0:0:0:0:
256,128,253837,1,8,0:0:0:0:
256,128,254170,1,8,0:0:0:0:
256,128,254337,1,0,0:0:0:0:
256,128,254503,1,8,0:0:0:0:
256,128,254670,1,8,0:0:0:0:
256,128,254837,1,0,0:0:0:0:
256,128,255170,1,8,0:0:0:0:
256,128,255337,1,0,0:0:0:0:
256,128,255503,1,8,0:0:0:0:
256,128,255670,1,8,0:0:0:0:
256,128,255753,1,8,0:0:0:0:
256,128,255837,1,8,0:0:0:0:
256,128,256170,1,8,0:0:0:0:
256,128,256420,1,0,0:0:0:0:
256,128,256670,1,8,0:0:0:0:
256,128,256920,1,0,0:0:0:0:
256,128,257170,1,8,0:0:0:0:
256,128,257253,1,8,0:0:0:0:
256,128,257337,1,8,0:0:0:0:
256,128,257503,1,0,0:0:0:0:
256,128,257753,1,8,0:0:0:0:
256,128,258003,1,0,0:0:0:0:
256,128,258253,1,8,0:0:0:0:
256,128,258503,1,0,0:0:0:0:
256,128,258587,1,0,0:0:0:0:
256,128,258670,1,0,0:0:0:0:
256,128,258837,1,8,0:0:0:0:
256,128,259087,1,0,0:0:0:0:
256,128,259337,1,8,0:0:0:0:
256,128,259587,1,0,0:0:0:0:
256,128,259837,1,8,0:0:0:0:
256,128,259920,1,8,0:0:0:0:
256,128,260003,1,8,0:0:0:0:
256,128,260170,1,0,0:0:0:0:
256,128,260420,1,8,0:0:0:0:
256,128,260670,1,0,0:0:0:0:
256,128,260920,1,8,0:0:0:0:
256,128,261170,1,8,0:0:0:0:
256,128,261337,1,0,0:0:0:0:
256,128,261420,1,0,0:0:0:0:
256,128,261503,1,0,0:0:0:0:
256,128,261837,1,0,0:0:0:0:
256,128,262003,1,8,0:0:0:0:
256,128,262337,1,8,0:0:0:0:
256,128,262503,1,0,0:0:0:0:
256,128,262670,1,0,0:0:0:0:
256,128,262837,1,12,0:0:0:0:
256,128,264170,1,8,0:0:0:0:
256,128,264420,1,0,0:0:0:0:
256,128,264670,1,8,0:0:0:0:
256,128,264920,1,0,0:0:0:0:
256,128,265170,1,12,0:0:0:0:
256,128,265337,1,12,0:0:0:0:
256,128,265503,1,12,0:0:0:0:
