osu file format v14

[General]
AudioFilename: audio.mp3
AudioLeadIn: 0
PreviewTime: 38171
Countdown: 0
SampleSet: Normal
StackLeniency: 0.7
Mode: 1
LetterboxInBreaks: 0
WidescreenStoryboard: 0

[Editor]
Bookmarks: 38171,142171,229504
DistanceSpacing: 1
BeatDivisor: 4
GridSize: 32
TimelineZoom: 2.5

[Metadata]
Title:Jackknife
TitleUnicode:Jackknife
Artist:xi
ArtistUnicode:xi
Creator:Arrival
Version:Inner Oni
Source:
Tags:Evolved Chronicles piano C.H.S with Lick Dom Records diverse system blacky sta diceros bicornis comic market 91 mira APPO (Katana Bits) 鑓田 (alpha complex) YsK439
BeatmapID:1370014
BeatmapSetID:646616

[Difficulty]
HPDrainRate:4.5
CircleSize:2
OverallDifficulty:6.3
ApproachRate:0
SliderMultiplier:1.4
SliderTickRate:1

[Events]
//Background and Video events
0,0,"cropped-1920-1080-595862.jpg",0,40
//Break Periods
//Storyboard Layer 0 (Background)
//Storyboard Layer 1 (Fail)
//Storyboard Layer 2 (Pass)
//Storyboard Layer 3 (Foreground)
//Storyboard Sound Samples

[TimingPoints]
838,333.333333333333,4,1,0,80,1,0
37837,-100,4,1,0,90,0,0
82337,-113.636363636364,4,1,0,80,0,0
82504,-128.205128205128,4,1,0,80,0,0
82754,-142.857142857143,4,1,0,80,0,0
83004,-156.25,4,1,0,80,0,0
83171,-166.666666666667,4,1,0,80,0,0
83421,-172.413793103448,4,1,0,80,0,0
83587,-175.438596491228,4,1,0,60,0,0
93171,-169.491525423729,4,1,0,60,0,0
93254,-163.934426229508,4,1,0,60,0,0
93337,-158.730158730159,4,1,0,60,0,0
93421,-153.846153846154,4,1,0,60,0,0
93504,-149.253731343284,4,1,0,60,0,0
93587,-144.927536231884,4,1,0,60,0,0
93671,-140.845070422535,4,1,0,60,0,0
93754,-136.986301369863,4,1,0,60,0,0
93837,-133.333333333333,4,1,0,60,0,0
93921,-129.87012987013,4,1,0,60,0,0
94004,-126.582278481013,4,1,0,60,0,0
94087,-123.456790123457,4,1,0,60,0,0
94171,-120.481927710843,4,1,0,60,0,0
104171,-120.481927710843,4,1,0,80,0,0
104837,-100,4,1,0,80,0,1
118171,-100,4,1,0,80,0,0
120504,-100,4,1,0,90,0,0
163837,-125,4,1,0,80,0,0
168171,-100,4,1,0,90,0,0
174504,-125,4,1,0,80,0,0
178671,-111.111111111111,4,1,0,80,0,0
178837,-100,4,1,0,90,0,0
189504,-106.382978723404,4,1,0,80,0,0
189754,-112.359550561798,4,1,0,80,0,0
190004,-117.647058823529,4,1,0,80,0,0
190171,-120.481927710843,4,1,0,70,0,0
199504,-119.047619047619,4,1,0,80,0,0
199587,-117.647058823529,4,1,0,80,0,0
199671,-116.279069767442,4,1,0,80,0,0
199754,-114.942528735632,4,1,0,80,0,0
199837,-113.636363636364,4,1,0,80,0,0
199921,-112.359550561798,4,1,0,80,0,0
200004,-111.111111111111,4,1,0,80,0,0
200087,-109.89010989011,4,1,0,80,0,0
200171,-108.695652173913,4,1,0,80,0,0
200254,-107.52688172043,4,1,0,80,0,0
200337,-106.382978723404,4,1,0,80,0,0
200421,-105.263157894737,4,1,0,80,0,0
200504,-104.166666666667,4,1,0,80,0,0
200587,-103.092783505155,4,1,0,80,0,0
200671,-102.040816326531,4,1,0,80,0,0
200754,-101.010101010101,4,1,0,80,0,0
200837,-100,4,1,0,80,0,0
217504,333.333333333333,4,1,0,80,1,0
219170,-125,4,1,0,60,0,0
224170,-111.111111111111,4,1,0,75,0,0
228504,-108.695652173913,4,1,0,75,0,0
228670,-106.382978723404,4,1,0,75,0,0
228837,-104.166666666667,4,1,0,75,0,0
229004,-102.040816326531,4,1,0,75,0,0
229170,-100,4,1,0,90,0,0
229504,-100,4,1,0,90,0,1
249337,-100,4,1,0,90,0,0
256170,-100,4,1,0,100,0,1
261503,-100,4,1,0,100,0,0
264170,-80,4,1,0,100,0,1
265503,-80,4,1,0,100,0,0

[HitObjects]
256,128,838,5,0,0:0:0:0:
256,128,1004,1,8,0:0:0:0:
256,128,1088,1,0,0:0:0:0:
256,128,1171,1,8,0:0:0:0:
256,128,1254,1,8,0:0:0:0:
256,128,1338,1,0,0:0:0:0:
256,128,1421,1,0,0:0:0:0:
256,128,1504,1,8,0:0:0:0:
256,128,1671,1,8,0:0:0:0:
256,128,1838,1,0,0:0:0:0:
256,128,2004,1,8,0:0:0:0:
256,128,2088,1,8,0:0:0:0:
256,128,2171,1,0,0:0:0:0:
256,128,2504,1,0,0:0:0:0:
256,128,2754,1,0,0:0:0:0:
256,128,3004,1,0,0:0:0:0:
256,128,3171,1,8,0:0:0:0:
256,128,3421,1,8,0:0:0:0:
256,128,3504,1,0,0:0:0:0:
256,128,3671,1,0,0:0:0:0:
256,128,4004,1,0,0:0:0:0:
256,128,4171,1,8,0:0:0:0:
256,128,4338,1,8,0:0:0:0:
256,128,4393,1,8,0:0:0:0:
256,128,4449,1,8,0:0:0:0:
256,128,4504,1,0,0:0:0:0:
256,128,4671,1,8,0:0:0:0:
256,128,4837,1,0,0:0:0:0:
256,128,5171,1,0,0:0:0:0:
256,128,5421,1,0,0:0:0:0:
256,128,5671,1,0,0:0:0:0:
256,128,5838,1,8,0:0:0:0:
256,128,6088,1,8,0:0:0:0:
256,128,6171,1,0,0:0:0:0:
256,128,6338,1,8,0:0:0:0:
256,128,6504,1,0,0:0:0:0:
256,128,6587,1,8,0:0:0:0:
256,128,6671,1,0,0:0:0:0:
256,128,6754,1,0,0:0:0:0:
256,128,6837,1,8,0:0:0:0:
256,128,7004,1,0,0:0:0:0:
256,128,7171,1,8,0:0:0:0:
256,128,7254,1,0,0:0:0:0:
256,128,7337,1,8,0:0:0:0:
256,128,7421,1,8,0:0:0:0:
256,128,7504,1,0,0:0:0:0:
256,128,7671,1,8,0:0:0:0:
256,128,7754,1,0,0:0:0:0:
256,128,7837,1,8,0:0:0:0:
256,128,8004,1,0,0:0:0:0:
256,128,8087,1,8,0:0:0:0:
256,128,8254,1,8,0:0:0:0:
256,128,8421,1,0,0:0:0:0:
256,128,8504,1,8,0:0:0:0:
256,128,8671,1,0,0:0:0:0:
256,128,8754,1,0,0:0:0:0:
256,128,8837,1,0,0:0:0:0:
256,128,8921,1,8,0:0:0:0:
256,128,9087,1,8,0:0:0:0:
256,128,9171,1,0,0:0:0:0:
256,128,9337,1,0,0:0:0:0:
256,128,9421,1,8,0:0:0:0:
256,128,9587,1,8,0:0:0:0:
256,128,9754,1,0,0:0:0:0:
256,128,9837,1,8,0:0:0:0:
256,128,9921,1,0,0:0:0:0:
256,128,10004,1,8,0:0:0:0:
256,128,10171,1,0,0:0:0:0:
256,128,10337,1,8,0:0:0:0:
256,128,10421,1,8,0:0:0:0:
256,128,10504,1,0,0:0:0:0:
256,128,10671,1,0,0:0:0:0:
256,128,10754,1,8,0:0:0:0:
256,128,10921,1,8,0:0:0:0:
256,128,11087,1,0,0:0:0:0:
256,128,11171,1,8,0:0:0:0:
256,128,11337,1,8,0:0:0:0:
256,128,11504,1,0,0:0:0:0:
256,128,11587,1,8,0:0:0:0:
256,128,11671,1,0,0:0:0:0:
256,128,11754,1,0,0:0:0:0:
256,128,11837,1,8,0:0:0:0:
256,128,11921,1,0,0:0:0:0:
256,128,12004,1,8,0:0:0:0:
256,128,12087,1,8,0:0:0:0:
256,128,12171,1,0,0:0:0:0:
256,128,12254,1,8,0:0:0:0:
256,128,12337,1,8,0:0:0:0:
256,128,12421,1,8,0:0:0:0:
256,128,12504,1,0,0:0:0:0:
256,128,12587,1,0,0:0:0:0:
256,128,12671,1,8,0:0:0:0:
256,128,12754,1,8,0:0:0:0:
256,128,12837,1,0,0:0:0:0:
256,128,13004,1,0,0:0:0:0:
256,128,13171,1,8,0:0:0:0:
256,128,13337,1,0,0:0:0:0:
256,128,13421,1,8,0:0:0:0:
256,128,13587,1,8,0:0:0:0:
256,128,13671,1,0,0:0:0:0:
256,128,13837,1,8,0:0:0:0:
256,128,14004,1,8,0:0:0:0:
256,128,14087,1,8,0:0:0:0:
256,128,14171,1,0,0:0:0:0:
256,128,14337,1,0,0:0:0:0:
256,128,14504,1,8,0:0:0:0:
256,128,14587,1,0,0:0:0:0:
256,128,14754,1,8,0:0:0:0:
256,128,14921,1,8,0:0:0:0:
256,128,15004,1,0,0:0:0:0:
256,128,15087,1,0,0:0:0:0:
256,128,15171,1,8,0:0:0:0:
256,128,15337,1,0,0:0:0:0:
256,128,15421,1,8,0:0:0:0:
256,128,15504,1,0,0:0:0:0:
256,128,15671,1,0,0:0:0:0:
256,128,15837,1,8,0:0:0:0:
256,128,16004,1,0,0:0:0:0:
256,128,16087,1,8,0:0:0:0:
256,128,16254,1,8,0:0:0:0:
256,128,16337,1,0,0:0:0:0:
256,128,16504,1,8,0:0:0:0:
256,128,16671,1,8,0:0:0:0:
256,128,16754,1,8,0:0:0:0:
256,128,16837,1,0,0:0:0:0:
256,128,17004,1,0,0:0:0:0:
256,128,17171,1,8,0:0:0:0:
256,128,17254,1,0,0:0:0:0:
256,128,17421,1,8,0:0:0:0:
256,128,17587,1,8,0:0:0:0:
256,128,17671,1,0,0:0:0:0:
256,128,17754,1,0,0:0:0:0:
256,128,17837,1,8,0:0:0:0:
256,128,17921,1,0,0:0:0:0:
256,128,18004,1,8,0:0:0:0:
256,128,18087,1,8,0:0:0:0:
256,128,18171,1,0,0:0:0:0:
256,128,18337,1,0,0:0:0:0:
256,128,18421,1,0,0:0:0:0:
256,128,18504,1,8,0:0:0:0:
256,128,18671,1,8,0:0:0:0:
256,128,18837,1,0,0:0:0:0:
256,128,18921,1,0,0:0:0:0:
256,128,19087,1,0,0:0:0:0:
256,128,19171,1,8,0:0:0:0:
256,128,19337,1,0,0:0:0:0:
256,128,19421,1,8,0:0:0:0:
256,128,19504,1,0,0:0:0:0:
256,128,19671,1,0,0:0:0:0:
256,128,19837,1,8,0:0:0:0:
256,128,19921,1,0,0:0:0:0:
256,128,20004,1,8,0:0:0:0:
256,128,20171,1,0,0:0:0:0:
256,128,20254,1,8,0:0:0:0:
256,128,20337,1,0,0:0:0:0:
256,128,20421,1,0,0:0:0:0:
256,128,20504,1,8,0:0:0:0:
256,128,20671,1,8,0:0:0:0:
256,128,20754,1,8,0:0:0:0:
256,128,20837,1,0,0:0:0:0:
256,128,21004,1,0,0:0:0:0:
256,128,21087,1,0,0:0:0:0:
256,128,21171,1,8,0:0:0:0:
256,128,21337,1,8,0:0:0:0:
256,128,21504,1,0,0:0:0:0:
256,128,21587,1,8,0:0:0:0:
256,128,21754,1,0,0:0:0:0:
256,128,21837,1,8,0:0:0:0:
256,128,22004,1,8,0:0:0:0:
256,128,22087,1,0,0:0:0:0:
256,128,22171,1,0,0:0:0:0:
256,128,22254,1,8,0:0:0:0:
256,128,22337,1,0,0:0:0:0:
256,128,22504,1,8,0:0:0:0:
256,128,22671,1,0,0:0:0:0:
256,128,22837,1,8,0:0:0:0:
256,128,22921,1,8,0:0:0:0:
256,128,23004,1,8,0:0:0:0:
256,128,23087,1,8,0:0:0:0:
256,128,23171,1,8,0:0:0:0:
256,128,23254,1,8,0:0:0:0:
256,128,23337,1,8,0:0:0:0:
256,128,23421,1,8,0:0:0:0:
256,128,23504,1,0,0:0:0:0:
256,128,23671,1,0,0:0:0:0:
256,128,23754,1,0,0:0:0:0:
256,128,23837,1,8,0:0:0:0:
256,128,24004,1,0,0:0:0:0:
256,128,24087,1,8,0:0:0:0:
256,128,24254,1,8,0:0:0:0:
256,128,24337,1,0,0:0:0:0:
256,128,24504,1,8,0:0:0:0:
256,128,24671,1,0,0:0:0:0:
256,128,24754,1,8,0:0:0:0:
256,128,24921,1,8,0:0:0:0:
256,128,25004,1,0,0:0:0:0:
256,128,25171,1,0,0:0:0:0:
256,128,25254,1,8,0:0:0:0:
256,128,25337,1,8,0:0:0:0:
256,128,25421,1,0,0:0:0:0:
256,128,25587,1,0,0:0:0:0:
256,128,25671,1,8,0:0:0:0:
256,128,25837,1,8,0:0:0:0:
256,128,25921,1,0,0:0:0:0:
256,128,26004,1,8,0:0:0:0:
256,128,26087,1,8,0:0:0:0:
256,128,26171,1,0,0:0:0:0:
256,128,26254,1,8,0:0:0:0:
256,128,26421,1,8,0:0:0:0:
256,128,26504,1,0,0:0:0:0:
256,128,26671,1,0,0:0:0:0:
256,128,26754,1,8,0:0:0:0:
256,128,26837,1,0,0:0:0:0:
256,128,26921,1,0,0:0:0:0:
256,128,27004,1,8,0:0:0:0:
256,128,27171,1,0,0:0:0:0:
256,128,27254,1,0,0:0:0:0:
256,128,27337,1,0,0:0:0:0:
256,128,27421,1,8,0:0:0:0:
256,128,27587,1,8,0:0:0:0:
256,128,27671,1,0,0:0:0:0:
256,128,27754,1,0,0:0:0:0:
256,128,27837,1,8,0:0:0:0:
256,128,27921,1,0,0:0:0:0:
256,128,28004,1,0,0:0:0:0:
256,128,28087,1,8,0:0:0:0:
256,128,28254,1,8,0:0:0:0:
256,128,28337,1,0,0:0:0:0:
256,128,28504,1,0,0:0:0:0:
256,128,28587,1,8,0:0:0:0:
256,128,28671,1,8,0:0:0:0:
256,128,28754,1,0,0:0:0:0:
256,128,28837,1,0,0:0:0:0:
256,128,29004,1,8,0:0:0:0:
256,128,29087,1,0,0:0:0:0:
256,128,29171,1,8,0:0:0:0:
256,128,29254,1,8,0:0:0:0:
256,128,29337,1,0,0:0:0:0:
256,128,29421,1,0,0:0:0:0:
256,128,29504,1,8,0:0:0:0:
256,128,29671,1,0,0:0:0:0:
256,128,29754,1,8,0:0:0:0:
256,128,29837,1,0,0:0:0:0:
256,128,29921,1,0,0:0:0:0:
256,128,30004,1,8,0:0:0:0:
256,128,30087,1,8,0:0:0:0:
256,128,30171,1,0,0:0:0:0:
256,128,30337,1,8,0:0:0:0:
256,128,30421,1,8,0:0:0:0:
256,128,30504,1,0,0:0:0:0:
256,128,30587,1,0,0:0:0:0:
256,128,30671,1,0,0:0:0:0:
256,128,30754,1,8,0:0:0:0:
256,128,30837,1,0,0:0:0:0:
256,128,30921,1,0,0:0:0:0:
256,128,31004,1,8,0:0:0:0:
256,128,31087,1,0,0:0:0:0:
256,128,31171,1,8,0:0:0:0:
256,128,31254,1,0,0:0:0:0:
256,128,31337,1,0,0:0:0:0:
256,128,31421,1,8,0:0:0:0:
256,128,31504,1,0,0:0:0:0:
256,128,31671,1,8,0:0:0:0:
256,128,31754,1,8,0:0:0:0:
256,128,31837,1,0,0:0:0:0:
256,128,31921,1,0,0:0:0:0:
256,128,32004,1,8,0:0:0:0:
256,128,32087,1,8,0:0:0:0:
256,128,32171,1,0,0:0:0:0:
256,128,32337,1,0,0:0:0:0:
256,128,32421,1,8,0:0:0:0:
256,128,32504,1,0,0:0:0:0:
256,128,32587,1,0,0:0:0:0:
256,128,32671,1,8,0:0:0:0:
256,128,32754,1,0,0:0:0:0:
256,128,32837,1,8,0:0:0:0:
256,128,32921,1,0,0:0:0:0:
256,128,33004,1,0,0:0:0:0:
256,128,33087,1,8,0:0:0:0:
256,128,33171,1,8,0:0:0:0:
256,128,33254,1,8,0:0:0:0:
256,128,33337,1,0,0:0:0:0:
256,128,33421,1,8,0:0:0:0:
256,128,33587,1,0,0:0:0:0:
256,128,33671,1,8,0:0:0:0:
256,128,33837,1,8,0:0:0:0:
256,128,34004,1,0,0:0:0:0:
256,128,34087,1,8,0:0:0:0:
256,128,34171,1,0,0:0:0:0:
256,128,34504,1,0,0:0:0:0:
256,128,34587,1,0,0:0:0:0:
256,128,34671,1,0,0:0:0:0:
256,128,34754,1,0,0:0:0:0:
256,128,34837,1,8,0:0:0:0:
256,128,35171,1,8,0:0:0:0:
256,128,35254,1,8,0:0:0:0:
256,128,35337,1,8,0:0:0:0:
256,128,35421,1,8,0:0:0:0:
256,128,35504,1,0,0:0:0:0:
256,128,35837,1,0,0:0:0:0:
256,128,35921,1,0,0:0:0:0:
256,128,36004,1,0,0:0:0:0:
256,128,36087,1,0,0:0:0:0:
256,128,36171,1,8,0:0:0:0:
256,128,36254,1,8,0:0:0:0:
256,128,36421,1,8,0:0:0:0:
256,128,36587,1,0,0:0:0:0:
256,128,36671,1,8,0:0:0:0:
256,128,36837,1,0,0:0:0:0:
256,128,37171,1,8,0:0:0:0:
256,128,37504,1,0,0:0:0:0:
256,128,37587,1,0,0:0:0:0:
256,128,37671,1,0,0:0:0:0:
256,128,37837,1,12,0:0:0:0:
256,128,38004,1,8,0:0:0:0:
256,128,38060,1,8,0:0:0:0:
256,128,38115,1,8,0:0:0:0:
256,128,38171,1,0,0:0:0:0:
256,128,38337,1,8,0:0:0:0:
256,128,38504,1,0,0:0:0:0:
256,128,38587,1,0,0:0:0:0:
256,128,38671,1,8,0:0:0:0:
256,128,38837,1,8,0:0:0:0:
256,128,39004,1,0,0:0:0:0:
256,128,39087,1,8,0:0:0:0:
256,128,39171,1,0,0:0:0:0:
256,128,39254,1,0,0:0:0:0:
256,128,39337,1,8,0:0:0:0:
256,128,39504,1,0,0:0:0:0:
256,128,39671,1,8,0:0:0:0:
256,128,39754,1,8,0:0:0:0:
256,128,39837,1,0,0:0:0:0:
256,128,40004,1,8,0:0:0:0:
256,128,40171,1,0,0:0:0:0:
256,128,40254,1,8,0:0:0:0:
256,128,40421,1,8,0:0:0:0:
256,128,40504,1,0,0:0:0:0:
256,128,40671,1,0,0:0:0:0:
256,128,40754,1,8,0:0:0:0:
256,128,40837,1,0,0:0:0:0:
256,128,41004,1,8,0:0:0:0:
256,128,41171,1,0,0:0:0:0:
256,128,41254,1,0,0:0:0:0:
256,128,41337,1,8,0:0:0:0:
256,128,41504,1,0,0:0:0:0:
256,128,41671,1,0,0:0:0:0:
256,128,41754,1,8,0:0:0:0:
256,128,41921,1,8,0:0:0:0:
256,128,42004,1,0,0:0:0:0:
256,128,42171,1,0,0:0:0:0:
256,128,42337,1,8,0:0:0:0:
256,128,42421,1,8,0:0:0:0:
256,128,42504,1,0,0:0:0:0:
256,128,42671,1,8,0:0:0:0:
256,128,42837,1,0,0:0:0:0:
256,128,42921,1,8,0:0:0:0:
256,128,43004,1,0,0:0:0:0:
256,128,43087,1,0,0:0:0:0:
256,128,43171,1,8,0:0:0:0:
256,128,43254,1,0,0:0:0:0:
256,128,43337,1,8,0:0:0:0:
256,128,43421,1,8,0:0:0:0:
256,128,43504,1,0,0:0:0:0:
256,128,43671,1,8,0:0:0:0:
256,128,43837,1,0,0:0:0:0:
256,128,43921,1,0,0:0:0:0:
256,128,44004,1,8,0:0:0:0:
256,128,44171,1,8,0:0:0:0:
256,128,44337,1,0,0:0:0:0:
256,128,44421,1,8,0:0:0:0:
256,128,44504,1,0,0:0:0:0:
256,128,44587,1,0,0:0:0:0:
256,128,44671,1,8,0:0:0:0:
256,128,44837,1,0,0:0:0:0:
256,128,45004,1,8,0:0:0:0:
256,128,45087,1,8,0:0:0:0:
256,128,45171,1,0,0:0:0:0:
256,128,45337,1,8,0:0:0:0:
256,128,45504,1,0,0:0:0:0:
256,128,45587,1,8,0:0:0:0:
256,128,45754,1,8,0:0:0:0:
256,128,45837,1,0,0:0:0:0:
256,128,46004,1,8,0:0:0:0:
256,128,46087,1,8,0:0:0:0:
256,128,46171,1,0,0:0:0:0:
256,128,46337,1,8,0:0:0:0:
256,128,46504,1,0,0:0:0:0:
256,128,46587,1,0,0:0:0:0:
256,128,46671,1,8,0:0:0:0:
256,128,46837,1,8,0:0:0:0:
256,128,47004,1,0,0:0:0:0:
256,128,47087,1,8,0:0:0:0:
256,128,47171,1,0,0:0:0:0:
256,128,47337,1,8,0:0:0:0:
256,128,47671,1,0,0:0:0:0:
256,128,47837,1,8,0:0:0:0:
256,128,48004,1,0,0:0:0:0:
256,128,48087,1,0,0:0:0:0:
256,128,48171,1,0,0:0:0:0:
256,128,48337,1,8,0:0:0:0:
256,128,48393,1,0,0:0:0:0:
256,128,48449,1,0,0:0:0:0:
256,128,48504,1,8,0:0:0:0:
256,128,48671,1,8,0:0:0:0:
256,128,48754,1,8,0:0:0:0:
256,128,48837,1,0,0:0:0:0:
256,128,49004,1,8,0:0:0:0:
256,128,49171,1,0,0:0:0:0:
256,128,49254,1,8,0:0:0:0:
256,128,49338,1,8,0:0:0:0:
256,128,49504,1,0,0:0:0:0:
256,128,49671,1,8,0:0:0:0:
256,128,49754,1,8,0:0:0:0:
256,128,49838,1,0,0:0:0:0:
256,128,49921,1,0,0:0:0:0:
256,128,50004,1,8,0:0:0:0:
256,128,50171,1,0,0:0:0:0:
256,128,50338,1,8,0:0:0:0:
256,128,50421,1,8,0:0:0:0:
256,128,50504,1,0,0:0:0:0:
256,128,50671,1,8,0:0:0:0:
256,128,50838,1,0,0:0:0:0:
256,128,50921,1,8,0:0:0:0:
256,128,51088,1,8,0:0:0:0:
256,128,51171,1,0,0:0:0:0:
256,128,51338,1,0,0:0:0:0:
256,128,51421,1,8,0:0:0:0:
256,128,51504,1,0,0:0:0:0:
256,128,51671,1,8,0:0:0:0:
256,128,51838,1,0,0:0:0:0:
256,128,51921,1,0,0:0:0:0:
256,128,52004,1,8,0:0:0:0:
256,128,52171,1,0,0:0:0:0:
256,128,52338,1,0,0:0:0:0:
256,128,52421,1,8,0:0:0:0:
256,128,52588,1,8,0:0:0:0:
256,128,52671,1,0,0:0:0:0:
256,128,52838,1,0,0:0:0:0:
256,128,53004,1,8,0:0:0:0:
256,128,53088,1,8,0:0:0:0:
256,128,53171,1,0,0:0:0:0:
256,128,53338,1,8,0:0:0:0:
256,128,53504,1,0,0:0:0:0:
256,128,53588,1,8,0:0:0:0:
256,128,53671,1,8,0:0:0:0:
256,128,53754,1,0,0:0:0:0:
256,128,53838,1,8,0:0:0:0:
256,128,53921,1,0,0:0:0:0:
256,128,54004,1,8,0:0:0:0:
256,128,54088,1,8,0:0:0:0:
256,128,54171,1,0,0:0:0:0:
256,128,54338,1,8,0:0:0:0:
256,128,54504,1,0,0:0:0:0:
256,128,54588,1,8,0:0:0:0:
256,128,54671,1,8,0:0:0:0:
256,128,54838,1,0,0:0:0:0:
256,128,55004,1,8,0:0:0:0:
256,128,55088,1,8,0:0:0:0:
256,128,55171,1,0,0:0:0:0:
256,128,55254,1,0,0:0:0:0:
256,128,55338,1,8,0:0:0:0:
256,128,55504,1,0,0:0:0:0:
256,128,55671,1,8,0:0:0:0:
256,128,55754,1,8,0:0:0:0:
256,128,55838,1,0,0:0:0:0:
256,128,56004,1,8,0:0:0:0:
256,128,56171,1,0,0:0:0:0:
256,128,56254,1,8,0:0:0:0:
256,128,56421,1,8,0:0:0:0:
256,128,56504,1,0,0:0:0:0:
256,128,56671,1,8,0:0:0:0:
256,128,56754,1,8,0:0:0:0:
256,128,56838,1,0,0:0:0:0:
256,128,57004,1,8,0:0:0:0:
256,128,57171,1,0,0:0:0:0:
256,128,57254,1,0,0:0:0:0:
256,128,57338,1,8,0:0:0:0:
256,128,57504,1,8,0:0:0:0:
256,128,57671,1,0,0:0:0:0:
256,128,57754,1,8,0:0:0:0:
256,128,57838,1,0,0:0:0:0:
256,128,58004,1,8,0:0:0:0:
256,128,58338,1,0,0:0:0:0:
256,128,58504,1,8,0:0:0:0:
256,128,58671,1,0,0:0:0:0:
256,128,58754,1,0,0:0:0:0:
256,128,58838,1,0,0:0:0:0:
256,128,59004,1,8,0:0:0:0:
256,128,59171,1,8,0:0:0:0:
256,128,59226,1,8,0:0:0:0:
256,128,59282,1,8,0:0:0:0:
256,128,59337,1,0,0:0:0:0:
256,128,59393,1,8,0:0:0:0:
256,128,59449,1,8,0:0:0:0:
256,128,59504,1,0,0:0:0:0:
256,128,59837,1,0,0:0:0:0:
256,128,60171,1,8,0:0:0:0:
256,128,60504,1,0,0:0:0:0:
256,128,60837,1,8,0:0:0:0:
256,128,61004,1,0,0:0:0:0:
256,128,61087,1,8,0:0:0:0:
256,128,61171,1,0,0:0:0:0:
256,128,61337,1,8,0:0:0:0:
256,128,61504,1,0,0:0:0:0:
256,128,61587,1,0,0:0:0:0:
256,128,61671,1,8,0:0:0:0:
256,128,61837,1,8,0:0:0:0:
256,128,62171,1,4,0:0:0:0:
256,128,62421,1,8,0:0:0:0:
256,128,62504,1,0,0:0:0:0:
256,128,62671,1,0,0:0:0:0:
256,128,62754,1,8,0:0:0:0:
256,128,62837,1,0,0:0:0:0:
256,128,62921,1,0,0:0:0:0:
256,128,63004,1,8,0:0:0:0:
256,128,63171,1,0,0:0:0:0:
256,128,63337,1,8,0:0:0:0:
256,128,63421,1,8,0:0:0:0:
256,128,63504,1,0,0:0:0:0:
256,128,63671,1,8,0:0:0:0:
256,128,63837,1,0,0:0:0:0:
256,128,63921,1,8,0:0:0:0:
256,128,64004,1,0,0:0:0:0:
256,128,64171,1,8,0:0:0:0:
256,128,64254,1,0,0:0:0:0:
256,128,64337,1,0,0:0:0:0:
256,128,64421,1,8,0:0:0:0:
256,128,64504,1,0,0:0:0:0:
256,128,64587,1,0,0:0:0:0:
256,128,64671,1,8,0:0:0:0:
256,128,64837,1,0,0:0:0:0:
256,128,64921,1,0,0:0:0:0:
256,128,65087,1,0,0:0:0:0:
256,128,65171,1,8,0:0:0:0:
256,128,65337,1,0,0:0:0:0:
256,128,65421,1,8,0:0:0:0:
256,128,65504,1,0,0:0:0:0:
256,128,65587,1,0,0:0:0:0:
256,128,65671,1,8,0:0:0:0:
256,128,65837,1,8,0:0:0:0:
256,128,65921,1,0,0:0:0:0:
256,128,66004,1,8,0:0:0:0:
256,128,66087,1,8,0:0:0:0:
256,128,66171,1,0,0:0:0:0:
256,128,66337,1,0,0:0:0:0:
256,128,66421,1,8,0:0:0:0:
256,128,66504,1,0,0:0:0:0:
256,128,66671,1,8,0:0:0:0:
256,128,66837,1,0,0:0:0:0:
256,128,66921,1,0,0:0:0:0:
256,128,67004,1,8,0:0:0:0:
256,128,67060,1,0,0:0:0:0:
256,128,67115,1,0,0:0:0:0:
256,128,67171,1,8,0:0:0:0:
256,128,67337,1,8,0:0:0:0:
256,128,67504,1,0,0:0:0:0:
256,128,67587,1,0,0:0:0:0:
256,128,67671,1,0,0:0:0:0:
256,128,67837,1,12,0:0:0:0:
256,128,68004,1,0,0:0:0:0:
256,128,68171,1,0,0:0:0:0:
256,128,68254,1,8,0:0:0:0:
256,128,68337,1,0,0:0:0:0:
256,128,68504,1,12,0:0:0:0:
256,128,68671,1,0,0:0:0:0:
256,128,68837,1,8,0:0:0:0:
256,128,68921,1,0,0:0:0:0:
256,128,69004,1,0,0:0:0:0:
256,128,69087,1,8,0:0:0:0:
256,128,69171,1,0,0:0:0:0:
256,128,69254,1,0,0:0:0:0:
256,128,69337,1,8,0:0:0:0:
256,128,69421,1,0,0:0:0:0:
256,128,69504,1,8,0:0:0:0:
256,128,69587,1,8,0:0:0:0:
256,128,69671,1,0,0:0:0:0:
256,128,69754,1,8,0:0:0:0:
256,128,69837,1,8,0:0:0:0:
256,128,69921,1,0,0:0:0:0:
256,128,70004,1,8,0:0:0:0:
256,128,70087,1,8,0:0:0:0:
256,128,70171,1,0,0:0:0:0:
256,128,70337,1,0,0:0:0:0:
256,128,70421,1,8,0:0:0:0:
256,128,70504,1,0,0:0:0:0:
256,128,70587,1,0,0:0:0:0:
256,128,70671,1,8,0:0:0:0:
256,128,70754,1,0,0:0:0:0:
256,128,70837,1,8,0:0:0:0:
256,128,71004,1,8,0:0:0:0:
256,128,71087,1,0,0:0:0:0:
256,128,71171,1,0,0:0:0:0:
256,128,71254,1,8,0:0:0:0:
256,128,71337,1,0,0:0:0:0:
256,128,71504,1,8,0:0:0:0:
256,128,71587,1,0,0:0:0:0:
256,128,71671,1,8,0:0:0:0:
256,128,71754,1,8,0:0:0:0:
256,128,71837,1,0,0:0:0:0:
256,128,71921,1,0,0:0:0:0:
256,128,72004,1,8,0:0:0:0:
256,128,72087,1,0,0:0:0:0:
256,128,72171,1,8,0:0:0:0:
256,128,72254,1,0,0:0:0:0:
256,128,72337,1,0,0:0:0:0:
256,128,72421,1,8,0:0:0:0:
256,128,72504,1,0,0:0:0:0:
256,128,72587,1,8,0:0:0:0:
256,128,72671,1,8,0:0:0:0:
256,128,72754,1,8,0:0:0:0:
256,128,72837,1,0,0:0:0:0:
256,128,73004,1,0,0:0:0:0:
256,128,73087,1,8,0:0:0:0:
256,128,73171,1,0,0:0:0:0:
256,128,73337,1,0,0:0:0:0:
256,128,73421,1,0,0:0:0:0:
256,128,73504,1,8,0:0:0:0:
256,128,73671,1,8,0:0:0:0:
256,128,73837,1,0,0:0:0:0:
256,128,73921,1,8,0:0:0:0:
256,128,74004,1,8,0:0:0:0:
256,128,74087,1,0,0:0:0:0:
256,128,74254,1,8,0:0:0:0:
256,128,74337,1,8,0:0:0:0:
256,128,74421,1,0,0:0:0:0:
256,128,74504,1,8,0:0:0:0:
256,128,74671,1,0,0:0:0:0:
256,128,74837,1,8,0:0:0:0:
256,128,74921,1,0,0:0:0:0:
256,128,75004,1,0,0:0:0:0:
256,128,75087,1,8,0:0:0:0:
256,128,75171,1,0,0:0:0:0:
256,128,75254,1,0,0:0:0:0:
256,128,75337,1,8,0:0:0:0:
256,128,75504,1,0,0:0:0:0:
256,128,75587,1,0,0:0:0:0:
256,128,75754,1,0,0:0:0:0:
256,128,75837,1,8,0:0:0:0:
256,128,76004,1,8,0:0:0:0:
256,128,76087,1,0,0:0:0:0:
256,128,76171,1,0,0:0:0:0:
256,128,76254,1,8,0:0:0:0:
256,128,76337,1,0,0:0:0:0:
256,128,76504,1,8,0:0:0:0:
256,128,76671,1,8,0:0:0:0:
256,128,76754,1,8,0:0:0:0:
256,128,76837,1,0,0:0:0:0:
256,128,76921,1,8,0:0:0:0:
256,128,77004,1,0,0:0:0:0:
256,128,77087,1,0,0:0:0:0:
256,128,77171,1,8,0:0:0:0:
256,128,77254,1,8,0:0:0:0:
256,128,77337,1,0,0:0:0:0:
256,128,77421,1,0,0:0:0:0:
256,128,77504,1,8,0:0:0:0:
256,128,77671,1,0,0:0:0:0:
256,128,77726,1,8,0:0:0:0:
256,128,77782,1,8,0:0:0:0:
256,128,77837,1,0,0:0:0:0:
256,128,78004,1,8,0:0:0:0:
256,128,78171,1,0,0:0:0:0:
256,128,78254,1,0,0:0:0:0:
256,128,78337,1,0,0:0:0:0:
256,128,78504,1,12,0:0:0:0:
256,128,78671,1,0,0:0:0:0:
256,128,78837,1,0,0:0:0:0:
256,128,78921,1,8,0:0:0:0:
256,128,79004,1,0,0:0:0:0:
256,128,79171,1,12,0:0:0:0:
256,128,79337,1,0,0:0:0:0:
256,128,79504,1,0,0:0:0:0:
256,128,79587,1,0,0:0:0:0:
256,128,79671,1,0,0:0:0:0:
256,128,79754,1,8,0:0:0:0:
256,128,79837,1,0,0:0:0:0:
256,128,79921,1,0,0:0:0:0:
256,128,80004,1,8,0:0:0:0:
256,128,80087,1,0,0:0:0:0:
256,128,80171,1,8,0:0:0:0:
256,128,80254,1,8,0:0:0:0:
256,128,80337,1,0,0:0:0:0:
256,128,80421,1,8,0:0:0:0:
256,128,80504,1,8,0:0:0:0:
256,128,80587,1,8,0:0:0:0:
256,128,80671,1,0,0:0:0:0:
256,128,80754,1,0,0:0:0:0:
256,128,80837,1,8,0:0:0:0:
256,128,81004,1,0,0:0:0:0:
256,128,81087,1,8,0:0:0:0:
256,128,81171,1,0,0:0:0:0:
256,128,81254,1,0,0:0:0:0:
256,128,81337,1,8,0:0:0:0:
256,128,81421,1,8,0:0:0:0:
256,128,81504,1,0,0:0:0:0:
256,128,81671,1,0,0:0:0:0:
256,128,81754,1,8,0:0:0:0:
256,128,81837,1,0,0:0:0:0:
256,128,82004,1,8,0:0:0:0:
256,128,82087,1,8,0:0:0:0:
256,128,82171,1,0,0:0:0:0:
256,128,82393,1,0,0:0:0:0:
256,128,82615,1,0,0:0:0:0:
256,128,82837,1,0,0:0:0:0:
256,128,83060,1,0,0:0:0:0:
256,128,83282,1,0,0:0:0:0:
256,128,83504,1,4,0:0:0:0:
256,128,83837,1,8,0:0:0:0:
256,128,84504,1,8,0:0:0:0:
256,128,85171,1,8,0:0:0:0:
256,128,85337,1,0,0:0:0:0:
256,128,85671,1,0,0:0:0:0:
256,128,85837,1,8,0:0:0:0:
256,128,86171,1,0,0:0:0:0:
256,128,86504,1,8,0:0:0:0:
256,128,87171,1,8,0:0:0:0:
256,128,87837,1,8,0:0:0:0:
256,128,88004,1,0,0:0:0:0:
256,128,88337,1,0,0:0:0:0:
256,128,88504,1,8,0:0:0:0:
256,128,88671,1,8,0:0:0:0:
256,128,88754,1,8,0:0:0:0:
256,128,88837,1,0,0:0:0:0:
256,128,89171,1,8,0:0:0:0:
256,128,89837,1,8,0:0:0:0:
256,128,90004,1,0,0:0:0:0:
256,128,90171,1,0,0:0:0:0:
256,128,90504,1,8,0:0:0:0:
256,128,91171,1,8,0:0:0:0:
256,128,91504,1,0,0:0:0:0:
256,128,91837,1,8,0:0:0:0:
256,128,92004,1,0,0:0:0:0:
256,128,92337,1,0,0:0:0:0:
256,128,92504,1,8,0:0:0:0:
256,128,92837,1,0,0:0:0:0:
256,128,93004,1,8,0:0:0:0:
256,128,93171,1,0,0:0:0:0:
256,128,93254,1,0,0:0:0:0:
256,128,93337,1,8,0:0:0:0:
256,128,93421,1,8,0:0:0:0:
256,128,93504,1,0,0:0:0:0:
256,128,93587,1,0,0:0:0:0:
256,128,93671,1,8,0:0:0:0:
256,128,93754,1,8,0:0:0:0:
256,128,93837,1,0,0:0:0:0:
256,128,93921,1,8,0:0:0:0:
256,128,94004,1,8,0:0:0:0:
256,128,94087,1,8,0:0:0:0:
256,128,94171,1,0,0:0:0:0:
256,128,94504,1,8,0:0:0:0:
256,128,94671,1,0,0:0:0:0:
256,128,95004,1,8,0:0:0:0:
256,128,95171,1,0,0:0:0:0:
256,128,95337,1,0,0:0:0:0:
256,128,95504,1,8,0:0:0:0:
256,128,96171,1,0,0:0:0:0:
256,128,96504,1,0,0:0:0:0:
256,128,96671,1,0,0:0:0:0:
256,128,96837,1,0,0:0:0:0:
256,128,97171,1,8,0:0:0:0:
256,128,97337,1,0,0:0:0:0:
256,128,97671,1,8,0:0:0:0:
256,128,97837,1,0,0:0:0:0:
256,128,98004,1,0,0:0:0:0:
256,128,98171,1,8,0:0:0:0:
256,128,98837,1,0,0:0:0:0:
256,128,99004,1,0,0:0:0:0:
256,128,99087,1,0,0:0:0:0:
256,128,99171,1,0,0:0:0:0:
256,128,99337,1,0,0:0:0:0:
256,128,99504,1,0,0:0:0:0:
256,128,99837,1,8,0:0:0:0:
256,128,100004,1,0,0:0:0:0:
256,128,100337,1,8,0:0:0:0:
256,128,100504,1,0,0:0:0:0:
256,128,100671,1,0,0:0:0:0:
256,128,100837,1,8,0:0:0:0:
256,128,101504,1,0,0:0:0:0:
256,128,101837,1,0,0:0:0:0:
256,128,102171,1,0,0:0:0:0:
256,128,102504,1,8,0:0:0:0:
256,128,102671,1,0,0:0:0:0:
256,128,103004,1,8,0:0:0:0:
256,128,103171,1,0,0:0:0:0:
256,128,103337,1,0,0:0:0:0:
256,128,103504,1,8,0:0:0:0:
256,128,104171,1,0,0:0:0:0:
256,128,104337,1,0,0:0:0:0:
256,128,104421,1,8,0:0:0:0:
256,128,104504,1,0,0:0:0:0:
256,128,104587,1,0,0:0:0:0:
256,128,104671,1,8,0:0:0:0:
256,128,104837,1,0,0:0:0:0:
256,128,104921,1,0,0:0:0:0:
256,128,105087,1,8,0:0:0:0:
256,128,105171,1,8,0:0:0:0:
256,128,105254,1,8,0:0:0:0:
256,128,105337,1,0,0:0:0:0:
256,128,105421,1,0,0:0:0:0:
256,128,105504,1,8,0:0:0:0:
256,128,105671,1,8,0:0:0:0:
256,128,105754,1,0,0:0:0:0:
256,128,105921,1,0,0:0:0:0:
256,128,106004,1,8,0:0:0:0:
256,128,106171,1,0,0:0:0:0:
256,128,106254,1,0,0:0:0:0:
256,128,106337,1,8,0:0:0:0:
256,128,106504,1,0,0:0:0:0:
256,128,106587,1,8,0:0:0:0:
256,128,106754,1,8,0:0:0:0:
256,128,106837,1,0,0:0:0:0:
256,128,106921,1,0,0:0:0:0:
256,128,107004,1,0,0:0:0:0:
256,128,107087,1,8,0:0:0:0:
256,128,107171,1,0,0:0:0:0:
256,128,107254,1,0,0:0:0:0:
256,128,107337,1,8,0:0:0:0:
256,128,107504,1,8,0:0:0:0:
256,128,107587,1,8,0:0:0:0:
256,128,107671,1,0,0:0:0:0:
256,128,107754,1,0,0:0:0:0:
256,128,107837,1,8,0:0:0:0:
256,128,107921,1,0,0:0:0:0:
256,128,108087,1,0,0:0:0:0:
256,128,108171,1,8,0:0:0:0:
256,128,108254,1,0,0:0:0:0:
256,128,108337,1,0,0:0:0:0:
256,128,108421,1,8,0:0:0:0:
256,128,108587,1,0,0:0:0:0:
256,128,108671,1,8,0:0:0:0:
256,128,108837,1,0,0:0:0:0:
256,128,109004,1,8,0:0:0:0:
256,128,109087,1,8,0:0:0:0:
256,128,109171,1,0,0:0:0:0:
256,128,109254,1,0,0:0:0:0:
256,128,109337,1,8,0:0:0:0:
256,128,109421,1,8,0:0:0:0:
256,128,109504,1,8,0:0:0:0:
256,128,109671,1,0,0:0:0:0:
256,128,109754,1,8,0:0:0:0:
256,128,109837,1,0,0:0:0:0:
256,128,110004,1,8,0:0:0:0:
256,128,110087,1,8,0:0:0:0:
256,128,110171,1,0,0:0:0:0:
256,128,110254,1,8,0:0:0:0:
256,128,110421,1,8,0:0:0:0:
256,128,110504,1,0,0:0:0:0:
256,128,110587,1,8,0:0:0:0:
256,128,110671,1,8,0:0:0:0:
256,128,110754,1,0,0:0:0:0:
256,128,110837,1,0,0:0:0:0:
256,128,110921,1,8,0:0:0:0:
256,128,111087,1,8,0:0:0:0:
256,128,111171,1,0,0:0:0:0:
256,128,111337,1,8,0:0:0:0:
256,128,111421,1,8,0:0:0:0:
256,128,111504,1,0,0:0:0:0:
256,128,111671,1,8,0:0:0:0:
256,128,111837,1,0,0:0:0:0:
256,128,111921,1,8,0:0:0:0:
256,128,112087,1,8,0:0:0:0:
256,128,112171,1,0,0:0:0:0:
256,128,112254,1,0,0:0:0:0:
256,128,112337,1,0,0:0:0:0:
256,128,112421,1,8,0:0:0:0:
256,128,112504,1,0,0:0:0:0:
256,128,112587,1,0,0:0:0:0:
256,128,112671,1,8,0:0:0:0:
256,128,112837,1,8,0:0:0:0:
256,128,112921,1,0,0:0:0:0:
256,128,113004,1,0,0:0:0:0:
256,128,113087,1,8,0:0:0:0:
256,128,113171,1,8,0:0:0:0:
256,128,113254,1,0,0:0:0:0:
256,128,113421,1,0,0:0:0:0:
256,128,113504,1,8,0:0:0:0:
256,128,113587,1,0,0:0:0:0:
256,128,113671,1,0,0:0:0:0:
256,128,113754,1,8,0:0:0:0:
256,128,113921,1,0,0:0:0:0:
256,128,114004,1,8,0:0:0:0:
256,128,114171,1,0,0:0:0:0:
256,128,114337,1,8,0:0:0:0:
256,128,114421,1,0,0:0:0:0:
256,128,114504,1,8,0:0:0:0:
256,128,114587,1,8,0:0:0:0:
256,128,114671,1,0,0:0:0:0:
256,128,114754,1,0,0:0:0:0:
256,128,114837,1,8,0:0:0:0:
256,128,115004,1,0,0:0:0:0:
256,128,115087,1,8,0:0:0:0:
256,128,115171,1,0,0:0:0:0:
256,128,115337,1,8,0:0:0:0:
256,128,115504,1,0,0:0:0:0:
256,128,115671,1,0,0:0:0:0:
256,128,115754,1,0,0:0:0:0:
256,128,115837,1,8,0:0:0:0:
256,128,116004,1,8,0:0:0:0:
256,128,116171,1,0,0:0:0:0:
256,128,116337,1,0,0:0:0:0:
256,128,116421,1,0,0:0:0:0:
256,128,116504,1,8,0:0:0:0:
256,128,116671,1,8,0:0:0:0:
256,128,116754,1,8,0:0:0:0:
256,128,116837,1,0,0:0:0:0:
256,128,117004,1,0,0:0:0:0:
256,128,117087,1,8,0:0:0:0:
256,128,117171,1,0,0:0:0:0:
256,128,117254,1,0,0:0:0:0:
256,128,117337,1,8,0:0:0:0:
256,128,117421,1,0,0:0:0:0:
256,128,117504,1,8,0:0:0:0:
256,128,117587,1,8,0:0:0:0:
256,128,117754,1,8,0:0:0:0:
256,128,118171,1,4,0:0:0:0:
256,192,118337,12,0,119337,0:0:0:0:
256,128,119504,5,0,0:0:0:0:
256,128,119587,1,0,0:0:0:0:
256,128,119754,1,0,0:0:0:0:
256,128,119837,1,8,0:0:0:0:
256,128,120004,1,8,0:0:0:0:
256,128,120087,1,0,0:0:0:0:
256,128,120171,1,0,0:0:0:0:
256,128,120254,1,8,0:0:0:0:
256,128,120337,1,0,0:0:0:0:
256,128,120504,1,12,0:0:0:0:
256,128,120671,1,8,0:0:0:0:
256,128,120726,1,8,0:0:0:0:
256,128,120782,1,8,0:0:0:0:
256,128,120837,1,0,0:0:0:0:
256,128,121004,1,8,0:0:0:0:
256,128,121087,1,8,0:0:0:0:
256,128,121171,1,0,0:0:0:0:
256,128,121338,1,8,0:0:0:0:
256,128,121504,1,8,0:0:0:0:
256,128,121671,1,0,0:0:0:0:
256,128,121754,1,8,0:0:0:0:
256,128,121838,1,0,0:0:0:0:
256,128,121921,1,0,0:0:0:0:
256,128,122004,1,8,0:0:0:0:
256,128,122171,1,0,0:0:0:0:
256,128,122338,1,8,0:0:0:0:
256,128,122421,1,8,0:0:0:0:
256,128,122504,1,0,0:0:0:0:
256,128,122671,1,8,0:0:0:0:
256,128,122838,1,0,0:0:0:0:
256,128,122921,1,8,0:0:0:0:
256,128,123088,1,8,0:0:0:0:
256,128,123171,1,0,0:0:0:0:
256,128,123338,1,0,0:0:0:0:
256,128,123421,1,8,0:0:0:0:
256,128,123504,1,0,0:0:0:0:
256,128,123671,1,8,0:0:0:0:
256,128,123838,1,0,0:0:0:0:
256,128,123921,1,0,0:0:0:0:
256,128,124004,1,8,0:0:0:0:
256,128,124171,1,0,0:0:0:0:
256,128,124254,1,0,0:0:0:0:
256,128,124421,1,8,0:0:0:0:
256,128,124504,1,0,0:0:0:0:
256,128,124671,1,8,0:0:0:0:
256,128,124838,1,0,0:0:0:0:
256,128,125004,1,8,0:0:0:0:
256,128,125088,1,8,0:0:0:0:
256,128,125171,1,0,0:0:0:0:
256,128,125338,1,8,0:0:0:0:
256,128,125504,1,0,0:0:0:0:
256,128,125588,1,8,0:0:0:0:
256,128,125671,1,0,0:0:0:0:
256,128,125754,1,0,0:0:0:0:
256,128,125838,1,8,0:0:0:0:
256,128,125921,1,0,0:0:0:0:
256,128,126004,1,8,0:0:0:0:
256,128,126088,1,8,0:0:0:0:
256,128,126171,1,0,0:0:0:0:
256,128,126338,1,8,0:0:0:0:
256,128,126421,1,8,0:0:0:0:
256,128,126504,1,0,0:0:0:0:
256,128,126671,1,8,0:0:0:0:
256,128,126838,1,8,0:0:0:0:
256,128,127004,1,0,0:0:0:0:
256,128,127088,1,8,0:0:0:0:
256,128,127171,1,0,0:0:0:0:
256,128,127254,1,0,0:0:0:0:
256,128,127338,1,8,0:0:0:0:
256,128,127504,1,0,0:0:0:0:
256,128,127671,1,8,0:0:0:0:
256,128,127754,1,8,0:0:0:0:
256,128,127838,1,0,0:0:0:0:
256,128,128004,1,8,0:0:0:0:
256,128,128171,1,0,0:0:0:0:
256,128,128254,1,8,0:0:0:0:
256,128,128421,1,8,0:0:0:0:
256,128,128504,1,0,0:0:0:0:
256,128,128671,1,8,0:0:0:0:
256,128,128754,1,8,0:0:0:0:
256,128,128838,1,0,0:0:0:0:
256,128,129004,1,8,0:0:0:0:
256,128,129171,1,0,0:0:0:0:
256,128,129254,1,0,0:0:0:0:
256,128,129338,1,8,0:0:0:0:
256,128,129504,1,8,0:0:0:0:
256,128,129671,1,0,0:0:0:0:
256,128,129754,1,8,0:0:0:0:
256,128,129838,1,0,0:0:0:0:
256,128,130004,1,8,0:0:0:0:
256,128,130338,1,0,0:0:0:0:
256,128,130504,1,8,0:0:0:0:
256,128,130671,1,0,0:0:0:0:
256,128,130754,1,0,0:0:0:0:
256,128,130838,1,0,0:0:0:0:
256,128,131004,1,8,0:0:0:0:
256,128,131060,1,0,0:0:0:0:
256,128,131115,1,0,0:0:0:0:
256,128,131171,1,8,0:0:0:0:
256,128,131254,1,0,0:0:0:0:
256,128,131338,1,8,0:0:0:0:
256,128,131421,1,8,0:0:0:0:
256,128,131504,1,0,0:0:0:0:
256,128,131671,1,8,0:0:0:0:
256,128,131838,1,0,0:0:0:0:
256,128,131921,1,8,0:0:0:0:
256,128,132005,1,8,0:0:0:0:
256,128,132171,1,0,0:0:0:0:
256,128,132338,1,8,0:0:0:0:
256,128,132421,1,8,0:0:0:0:
256,128,132505,1,0,0:0:0:0:
256,128,132588,1,0,0:0:0:0:
256,128,132671,1,8,0:0:0:0:
256,128,132838,1,0,0:0:0:0:
256,128,133005,1,8,0:0:0:0:
256,128,133088,1,8,0:0:0:0:
256,128,133171,1,0,0:0:0:0:
256,128,133338,1,8,0:0:0:0:
256,128,133505,1,0,0:0:0:0:
256,128,133588,1,8,0:0:0:0:
256,128,133755,1,8,0:0:0:0:
256,128,133838,1,0,0:0:0:0:
256,128,134005,1,0,0:0:0:0:
256,128,134088,1,8,0:0:0:0:
256,128,134171,1,0,0:0:0:0:
256,128,134338,1,8,0:0:0:0:
256,128,134505,1,0,0:0:0:0:
256,128,134588,1,0,0:0:0:0:
256,128,134671,1,8,0:0:0:0:
256,128,134838,1,0,0:0:0:0:
256,128,134921,1,0,0:0:0:0:
256,128,135087,1,8,0:0:0:0:
256,128,135171,1,0,0:0:0:0:
256,128,135338,1,8,0:0:0:0:
256,128,135504,1,0,0:0:0:0:
256,128,135670,1,8,0:0:0:0:
256,128,135754,1,8,0:0:0:0:
256,128,135837,1,0,0:0:0:0:
256,128,135921,1,8,0:0:0:0:
256,128,136004,1,0,0:0:0:0:
256,128,136087,1,0,0:0:0:0:
256,128,136170,1,8,0:0:0:0:
256,128,136255,1,0,0:0:0:0:
256,128,136337,1,8,0:0:0:0:
256,128,136393,1,0,0:0:0:0:
256,128,136449,1,0,0:0:0:0:
256,128,136504,1,8,0:0:0:0:
256,128,136588,1,0,0:0:0:0:
256,128,136671,1,8,0:0:0:0:
256,128,136755,1,8,0:0:0:0:
256,128,136838,1,0,0:0:0:0:
256,128,137005,1,8,0:0:0:0:
256,128,137171,1,0,0:0:0:0:
256,128,137255,1,8,0:0:0:0:
256,128,137338,1,8,0:0:0:0:
256,128,137505,1,0,0:0:0:0:
256,128,137671,1,8,0:0:0:0:
256,128,137755,1,8,0:0:0:0:
256,128,137838,1,0,0:0:0:0:
256,128,137921,1,0,0:0:0:0:
256,128,138005,1,8,0:0:0:0:
256,128,138171,1,0,0:0:0:0:
256,128,138338,1,8,0:0:0:0:
256,128,138421,1,8,0:0:0:0:
256,128,138505,1,0,0:0:0:0:
256,128,138671,1,8,0:0:0:0:
256,128,138838,1,0,0:0:0:0:
256,128,138921,1,8,0:0:0:0:
256,128,139088,1,8,0:0:0:0:
256,128,139171,1,0,0:0:0:0:
256,128,139338,1,8,0:0:0:0:
256,128,139421,1,8,0:0:0:0:
256,128,139505,1,0,0:0:0:0:
256,128,139671,1,8,0:0:0:0:
256,128,139838,1,0,0:0:0:0:
256,128,139921,1,0,0:0:0:0:
256,128,140005,1,8,0:0:0:0:
256,128,140171,1,8,0:0:0:0:
256,128,140338,1,0,0:0:0:0:
256,128,140421,1,8,0:0:0:0:
256,128,140505,1,0,0:0:0:0:
256,128,140671,1,8,0:0:0:0:
256,128,141004,1,0,0:0:0:0:
256,128,141171,1,8,0:0:0:0:
256,128,141337,1,0,0:0:0:0:
256,128,141421,1,8,0:0:0:0:
256,128,141504,1,0,0:0:0:0:
256,128,141671,1,8,0:0:0:0:
256,128,141838,1,8,0:0:0:0:
256,128,141893,1,8,0:0:0:0:
256,128,141949,1,8,0:0:0:0:
256,128,142004,1,0,0:0:0:0:
256,128,142060,1,8,0:0:0:0:
256,128,142116,1,8,0:0:0:0:
256,128,142171,1,0,0:0:0:0:
256,128,142337,1,8,0:0:0:0:
256,128,142504,1,0,0:0:0:0:
256,128,142587,1,0,0:0:0:0:
256,128,142671,1,8,0:0:0:0:
256,128,142837,1,0,0:0:0:0:
256,128,143004,1,8,0:0:0:0:
256,128,143087,1,8,0:0:0:0:
256,128,143171,1,0,0:0:0:0:
256,128,143337,1,8,0:0:0:0:
256,128,143504,1,0,0:0:0:0:
256,128,143671,1,0,0:0:0:0:
256,128,143754,1,0,0:0:0:0:
256,128,143837,1,8,0:0:0:0:
256,128,144004,1,8,0:0:0:0:
256,128,144087,1,8,0:0:0:0:
256,128,144171,1,0,0:0:0:0:
256,128,144254,1,0,0:0:0:0:
256,128,144337,1,0,0:0:0:0:
256,128,144504,1,8,0:0:0:0:
256,128,144671,1,0,0:0:0:0:
256,128,144754,1,8,0:0:0:0:
256,128,144837,1,0,0:0:0:0:
256,128,145004,1,8,0:0:0:0:
256,128,145171,1,0,0:0:0:0:
256,128,145254,1,0,0:0:0:0:
256,128,145338,1,8,0:0:0:0:
256,128,145504,1,0,0:0:0:0:
256,128,145671,1,8,0:0:0:0:
256,128,145754,1,8,0:0:0:0:
256,128,145838,1,0,0:0:0:0:
256,128,146004,1,8,0:0:0:0:
256,128,146171,1,0,0:0:0:0:
256,128,146254,1,0,0:0:0:0:
256,128,146421,1,0,0:0:0:0:
256,128,146504,1,8,0:0:0:0:
256,128,146671,1,0,0:0:0:0:
256,128,146754,1,8,0:0:0:0:
256,128,146838,1,0,0:0:0:0:
256,128,146921,1,0,0:0:0:0:
256,128,147004,1,8,0:0:0:0:
256,128,147171,1,8,0:0:0:0:
256,128,147338,1,0,0:0:0:0:
256,128,147421,1,0,0:0:0:0:
256,128,147504,1,0,0:0:0:0:
256,128,147671,1,8,0:0:0:0:
256,128,147838,1,0,0:0:0:0:
256,128,147921,1,0,0:0:0:0:
256,128,148005,1,8,0:0:0:0:
256,128,148087,1,8,0:0:0:0:
256,128,148171,1,0,0:0:0:0:
256,128,148338,1,8,0:0:0:0:
256,128,148505,1,0,0:0:0:0:
256,128,148587,1,8,0:0:0:0:
256,128,148671,1,8,0:0:0:0:
256,128,148838,1,0,0:0:0:0:
256,128,149004,1,0,0:0:0:0:
256,128,149088,1,0,0:0:0:0:
256,128,149171,1,8,0:0:0:0:
256,128,149338,1,8,0:0:0:0:
256,128,149421,1,8,0:0:0:0:
256,128,149505,1,0,0:0:0:0:
256,128,149587,1,0,0:0:0:0:
256,128,149671,1,0,0:0:0:0:
256,128,149838,1,8,0:0:0:0:
256,128,150004,1,0,0:0:0:0:
256,128,150087,1,8,0:0:0:0:
256,128,150171,1,0,0:0:0:0:
256,128,150337,1,8,0:0:0:0:
256,128,150504,1,0,0:0:0:0:
256,128,150587,1,0,0:0:0:0:
256,128,150671,1,8,0:0:0:0:
256,128,150754,1,8,0:0:0:0:
256,128,150837,1,0,0:0:0:0:
256,128,151004,1,8,0:0:0:0:
256,128,151171,1,0,0:0:0:0:
256,128,151254,1,8,0:0:0:0:
256,128,151337,1,8,0:0:0:0:
256,128,151504,1,0,0:0:0:0:
256,128,151587,1,0,0:0:0:0:
256,128,151754,1,0,0:0:0:0:
256,128,151837,1,8,0:0:0:0:
256,128,152004,1,8,0:0:0:0:
256,128,152087,1,0,0:0:0:0:
256,128,152170,1,0,0:0:0:0:
256,128,152253,1,8,0:0:0:0:
256,128,152336,1,0,0:0:0:0:
256,128,152421,1,0,0:0:0:0:
256,128,152504,1,8,0:0:0:0:
256,128,152671,1,8,0:0:0:0:
256,128,152754,1,8,0:0:0:0:
256,128,152837,1,0,0:0:0:0:
256,128,153004,1,8,0:0:0:0:
256,128,153171,1,0,0:0:0:0:
256,128,153254,1,0,0:0:0:0:
256,128,153337,1,8,0:0:0:0:
256,128,153421,1,8,0:0:0:0:
256,128,153504,1,0,0:0:0:0:
256,128,153671,1,8,0:0:0:0:
256,128,153837,1,0,0:0:0:0:
256,128,154004,1,8,0:0:0:0:
256,128,154087,1,8,0:0:0:0:
256,128,154171,1,8,0:0:0:0:
256,128,154337,1,0,0:0:0:0:
256,128,154504,1,8,0:0:0:0:
256,128,154671,1,0,0:0:0:0:
256,128,154754,1,8,0:0:0:0:
256,128,154921,1,8,0:0:0:0:
256,128,155004,1,0,0:0:0:0:
256,128,155087,1,0,0:0:0:0:
256,128,155171,1,8,0:0:0:0:
256,128,155337,1,8,0:0:0:0:
256,128,155421,1,8,0:0:0:0:
256,128,155504,1,0,0:0:0:0:
256,128,155671,1,8,0:0:0:0:
256,128,155837,1,0,0:0:0:0:
256,128,155921,1,0,0:0:0:0:
256,128,156004,1,0,0:0:0:0:
256,128,156087,1,8,0:0:0:0:
256,128,156171,1,0,0:0:0:0:
256,128,156254,1,0,0:0:0:0:
256,128,156337,1,8,0:0:0:0:
256,128,156421,1,0,0:0:0:0:
256,128,156504,1,8,0:0:0:0:
256,128,156587,1,8,0:0:0:0:
256,128,156671,1,0,0:0:0:0:
256,128,156754,1,8,0:0:0:0:
256,128,156838,1,0,0:0:0:0:
256,128,156921,1,0,0:0:0:0:
256,128,157004,1,8,0:0:0:0:
256,128,157088,1,0,0:0:0:0:
256,128,157171,1,8,0:0:0:0:
256,128,157254,1,8,0:0:0:0:
256,128,157338,1,0,0:0:0:0:
256,128,157421,1,8,0:0:0:0:
256,128,157504,1,0,0:0:0:0:
256,128,157588,1,8,0:0:0:0:
256,128,157671,1,8,0:0:0:0:
256,128,157754,1,0,0:0:0:0:
256,128,157838,1,8,0:0:0:0:
256,128,157921,1,0,0:0:0:0:
256,128,158004,1,8,0:0:0:0:
256,128,158087,1,8,0:0:0:0:
256,128,158171,1,0,0:0:0:0:
256,128,158337,1,8,0:0:0:0:
256,128,158504,1,0,0:0:0:0:
256,128,158587,1,0,0:0:0:0:
256,128,158671,1,8,0:0:0:0:
256,128,158754,1,8,0:0:0:0:
256,128,158837,1,0,0:0:0:0:
256,128,159004,1,8,0:0:0:0:
256,128,159171,1,0,0:0:0:0:
256,128,159254,1,8,0:0:0:0:
256,128,159421,1,8,0:0:0:0:
256,128,159504,1,0,0:0:0:0:
256,128,159671,1,8,0:0:0:0:
256,128,159754,1,0,0:0:0:0:
256,128,159837,1,8,0:0:0:0:
256,128,160004,1,0,0:0:0:0:
256,128,160087,1,8,0:0:0:0:
256,128,160254,1,8,0:0:0:0:
256,128,160337,1,0,0:0:0:0:
256,128,160421,1,0,0:0:0:0:
256,128,160504,1,8,0:0:0:0:
256,128,160671,1,8,0:0:0:0:
256,128,160754,1,8,0:0:0:0:
256,128,160837,1,0,0:0:0:0:
256,128,161004,1,8,0:0:0:0:
256,128,161171,1,0,0:0:0:0:
256,128,161337,1,8,0:0:0:0:
256,128,161421,1,0,0:0:0:0:
256,128,161504,1,0,0:0:0:0:
256,128,161587,1,8,0:0:0:0:
256,128,161671,1,0,0:0:0:0:
256,128,161754,1,0,0:0:0:0:
256,128,161837,1,8,0:0:0:0:
256,128,161921,1,0,0:0:0:0:
256,128,162004,1,8,0:0:0:0:
256,128,162087,1,8,0:0:0:0:
256,128,162171,1,0,0:0:0:0:
256,128,162504,1,0,0:0:0:0:
256,128,162837,1,8,0:0:0:0:
256,128,163004,1,8,0:0:0:0:
256,128,163087,1,8,0:0:0:0:
256,128,163171,1,8,0:0:0:0:
256,128,163254,1,8,0:0:0:0:
256,128,163337,1,0,0:0:0:0:
256,128,163421,1,0,0:0:0:0:
256,128,163504,1,0,0:0:0:0:
256,128,164004,1,8,0:0:0:0:
256,128,164671,1,0,0:0:0:0:
256,128,165504,1,0,0:0:0:0:
256,128,165837,1,8,0:0:0:0:
256,128,166337,1,0,0:0:0:0:
256,128,166837,1,0,0:0:0:0:
256,128,167171,1,0,0:0:0:0:
256,128,167337,1,8,0:0:0:0:
256,128,167671,1,8,0:0:0:0:
256,128,167837,1,0,0:0:0:0:
256,128,167921,1,0,0:0:0:0:
256,128,168004,1,0,0:0:0:0:
256,128,168171,1,8,0:0:0:0:
256,128,168337,1,0,0:0:0:0:
256,128,168421,1,8,0:0:0:0:
256,128,168504,1,0,0:0:0:0:
256,128,168671,1,8,0:0:0:0:
256,128,168837,1,0,0:0:0:0:
256,128,169004,1,8,0:0:0:0:
256,128,169087,1,0,0:0:0:0:
256,128,169171,1,0,0:0:0:0:
256,128,169254,1,8,0:0:0:0:
256,128,169337,1,0,0:0:0:0:
256,128,169421,1,0,0:0:0:0:
256,128,169504,1,8,0:0:0:0:
256,128,169587,1,8,0:0:0:0:
256,128,169671,1,0,0:0:0:0:
256,128,169754,1,0,0:0:0:0:
256,128,169837,1,8,0:0:0:0:
256,128,170004,1,0,0:0:0:0:
256,128,170337,1,8,0:0:0:0:
256,128,170421,1,8,0:0:0:0:
256,128,170504,1,0,0:0:0:0:
256,128,170587,1,8,0:0:0:0:
256,128,170671,1,0,0:0:0:0:
256,128,170754,1,0,0:0:0:0:
256,128,170837,1,8,0:0:0:0:
256,128,170921,1,0,0:0:0:0:
256,128,171004,1,0,0:0:0:0:
256,128,171087,1,0,0:0:0:0:
256,128,171171,1,8,0:0:0:0:
256,128,171337,1,0,0:0:0:0:
256,128,171671,1,8,0:0:0:0:
256,128,171754,1,0,0:0:0:0:
256,128,171837,1,8,0:0:0:0:
256,128,171921,1,8,0:0:0:0:
256,128,172004,1,0,0:0:0:0:
256,128,172087,1,8,0:0:0:0:
256,128,172171,1,8,0:0:0:0:
256,128,172254,1,8,0:0:0:0:
256,128,172337,1,0,0:0:0:0:
256,128,172421,1,0,0:0:0:0:
256,128,172504,1,8,0:0:0:0:
256,128,172671,1,0,0:0:0:0:
256,128,173004,1,0,0:0:0:0:
256,128,173087,1,8,0:0:0:0:
256,128,173171,1,0,0:0:0:0:
256,128,173254,1,0,0:0:0:0:
256,128,173337,1,8,0:0:0:0:
256,128,173421,1,8,0:0:0:0:
256,128,173504,1,0,0:0:0:0:
256,128,173671,1,0,0:0:0:0:
256,128,173754,1,8,0:0:0:0:
256,128,173837,1,0,0:0:0:0:
256,128,174004,1,8,0:0:0:0:
256,128,174171,1,0,0:0:0:0:
256,128,174671,1,0,0:0:0:0:
256,128,175337,1,8,0:0:0:0:
256,128,176171,1,8,0:0:0:0:
256,128,176671,1,0,0:0:0:0:
256,128,177504,1,8,0:0:0:0:
256,128,178004,1,0,0:0:0:0:
256,128,178504,1,0,0:0:0:0:
256,128,178671,1,0,0:0:0:0:
256,128,178837,1,8,0:0:0:0:
256,128,179004,1,0,0:0:0:0:
256,128,179087,1,8,0:0:0:0:
256,128,179171,1,0,0:0:0:0:
256,128,179337,1,8,0:0:0:0:
256,128,179504,1,0,0:0:0:0:
256,128,179671,1,0,0:0:0:0:
256,128,179754,1,8,0:0:0:0:
256,128,179921,1,0,0:0:0:0:
256,128,180004,1,8,0:0:0:0:
256,128,180171,1,0,0:0:0:0:
256,128,180254,1,0,0:0:0:0:
256,128,180337,1,8,0:0:0:0:
256,128,180421,1,0,0:0:0:0:
256,128,180504,1,0,0:0:0:0:
256,128,180587,1,8,0:0:0:0:
256,128,180754,1,8,0:0:0:0:
256,128,180837,1,0,0:0:0:0:
256,128,181004,1,8,0:0:0:0:
256,128,181087,1,0,0:0:0:0:
256,128,181171,1,0,0:0:0:0:
256,128,181254,1,8,0:0:0:0:
256,128,181337,1,0,0:0:0:0:
256,128,181421,1,0,0:0:0:0:
256,128,181504,1,8,0:0:0:0:
256,128,181671,1,0,0:0:0:0:
256,128,181754,1,0,0:0:0:0:
256,128,181837,1,8,0:0:0:0:
256,128,181921,1,0,0:0:0:0:
256,128,182087,1,8,0:0:0:0:
256,128,182171,1,0,0:0:0:0:
256,128,182337,1,0,0:0:0:0:
256,128,182421,1,8,0:0:0:0:
256,128,182504,1,0,0:0:0:0:
256,128,182587,1,0,0:0:0:0:
256,128,182671,1,8,0:0:0:0:
256,128,182754,1,8,0:0:0:0:
256,128,182837,1,0,0:0:0:0:
256,128,183004,1,0,0:0:0:0:
256,128,183087,1,8,0:0:0:0:
256,128,183171,1,0,0:0:0:0:
256,128,183337,1,12,0:0:0:0:
256,128,183671,1,8,0:0:0:0:
256,128,183754,1,0,0:0:0:0:
256,128,183837,1,8,0:0:0:0:
256,128,183921,1,8,0:0:0:0:
256,128,184004,1,0,0:0:0:0:
256,128,184087,1,0,0:0:0:0:
256,128,184171,1,8,0:0:0:0:
256,128,184254,1,8,0:0:0:0:
256,128,184337,1,0,0:0:0:0:
256,128,184421,1,8,0:0:0:0:
256,128,184504,1,0,0:0:0:0:
256,128,184671,1,8,0:0:0:0:
256,128,184837,1,0,0:0:0:0:
256,128,184921,1,0,0:0:0:0:
256,128,185087,1,8,0:0:0:0:
256,128,185337,1,0,0:0:0:0:
256,128,185421,1,0,0:0:0:0:
256,128,185587,1,8,0:0:0:0:
256,128,186171,1,8,0:0:0:0:
256,128,186254,1,8,0:0:0:0:
256,128,186421,1,8,0:0:0:0:
256,128,186671,1,8,0:0:0:0:
256,128,186754,1,8,0:0:0:0:
256,128,186921,1,8,0:0:0:0:
256,128,187171,1,0,0:0:0:0:
256,128,187226,1,0,0:0:0:0:
256,128,187282,1,0,0:0:0:0:
256,128,187337,1,0,0:0:0:0:
256,128,187421,1,0,0:0:0:0:
256,128,187504,1,8,0:0:0:0:
256,192,187671,12,0,188837,0:0:0:0:
256,128,189504,5,8,0:0:0:0:
256,128,189587,1,8,0:0:0:0:
256,128,189754,1,8,0:0:0:0:
256,128,190004,1,8,0:0:0:0:
256,128,190171,1,0,0:0:0:0:
256,128,190504,1,8,0:0:0:0:
256,128,191171,1,8,0:0:0:0:
256,128,191504,1,0,0:0:0:0:
256,128,191837,1,8,0:0:0:0:
256,128,192171,1,0,0:0:0:0:
256,128,192337,1,8,0:0:0:0:
256,128,192504,1,8,0:0:0:0:
256,128,192671,1,8,0:0:0:0:
256,128,192754,1,8,0:0:0:0:
256,128,192837,1,0,0:0:0:0:
256,128,193171,1,8,0:0:0:0:
256,128,193837,1,8,0:0:0:0:
256,128,194171,1,0,0:0:0:0:
256,128,194504,1,8,0:0:0:0:
256,128,194671,1,0,0:0:0:0:
256,128,194754,1,0,0:0:0:0:
256,128,194837,1,8,0:0:0:0:
256,128,195004,1,0,0:0:0:0:
256,128,195171,1,8,0:0:0:0:
256,128,195254,1,8,0:0:0:0:
256,128,195337,1,0,0:0:0:0:
256,128,195421,1,0,0:0:0:0:
256,128,195504,1,0,0:0:0:0:
256,128,195754,1,0,0:0:0:0:
256,128,195837,1,8,0:0:0:0:
256,128,196004,1,8,0:0:0:0:
256,128,196087,1,0,0:0:0:0:
256,128,196254,1,0,0:0:0:0:
256,128,196421,1,8,0:0:0:0:
256,128,196504,1,0,0:0:0:0:
256,128,196671,1,0,0:0:0:0:
256,128,196754,1,8,0:0:0:0:
256,128,196837,1,0,0:0:0:0:
256,128,197088,1,0,0:0:0:0:
256,128,197171,1,8,0:0:0:0:
256,128,197337,1,8,0:0:0:0:
256,128,197421,1,0,0:0:0:0:
256,128,197587,1,0,0:0:0:0:
256,128,197754,1,8,0:0:0:0:
256,128,197837,1,0,0:0:0:0:
256,128,197921,1,8,0:0:0:0:
256,128,198004,1,8,0:0:0:0:
256,128,198171,1,0,0:0:0:0:
256,128,198421,1,8,0:0:0:0:
256,128,198671,1,0,0:0:0:0:
256,128,198754,1,0,0:0:0:0:
256,128,198921,1,0,0:0:0:0:
256,128,199087,1,8,0:0:0:0:
256,128,199337,1,8,0:0:0:0:
256,128,199504,1,0,0:0:0:0:
256,128,199587,1,0,0:0:0:0:
256,128,199671,1,8,0:0:0:0:
256,128,199754,1,8,0:0:0:0:
256,128,199837,1,0,0:0:0:0:
256,128,199921,1,8,0:0:0:0:
256,128,200004,1,0,0:0:0:0:
256,128,200087,1,0,0:0:0:0:
256,128,200171,1,8,0:0:0:0:
256,128,200254,1,0,0:0:0:0:
256,128,200337,1,8,0:0:0:0:
256,128,200421,1,8,0:0:0:0:
256,128,200504,1,0,0:0:0:0:
256,128,200587,1,0,0:0:0:0:
256,128,200671,1,8,0:0:0:0:
256,128,200754,1,8,0:0:0:0:
256,128,200837,1,0,0:0:0:0:
256,128,201004,1,0,0:0:0:0:
256,128,201171,1,8,0:0:0:0:
256,128,201337,1,0,0:0:0:0:
256,128,201421,1,8,0:0:0:0:
256,128,201587,1,8,0:0:0:0:
256,128,201671,1,0,0:0:0:0:
256,128,201837,1,8,0:0:0:0:
256,128,202004,1,8,0:0:0:0:
256,128,202087,1,8,0:0:0:0:
256,128,202171,1,0,0:0:0:0:
256,128,202337,1,0,0:0:0:0:
256,128,202504,1,8,0:0:0:0:
256,128,202587,1,0,0:0:0:0:
256,128,202754,1,8,0:0:0:0:
256,128,202921,1,0,0:0:0:0:
256,128,203004,1,8,0:0:0:0:
256,128,203087,1,0,0:0:0:0:
256,128,203171,1,0,0:0:0:0:
256,128,203254,1,8,0:0:0:0:
256,128,203421,1,8,0:0:0:0:
256,128,203504,1,0,0:0:0:0:
256,128,203671,1,0,0:0:0:0:
256,128,203754,1,0,0:0:0:0:
256,128,203837,1,8,0:0:0:0:
256,128,204004,1,0,0:0:0:0:
256,128,204087,1,8,0:0:0:0:
256,128,204254,1,8,0:0:0:0:
256,128,204337,1,0,0:0:0:0:
256,128,204504,1,8,0:0:0:0:
256,128,204587,1,8,0:0:0:0:
256,128,204671,1,0,0:0:0:0:
256,128,204754,1,8,0:0:0:0:
256,128,204921,1,8,0:0:0:0:
256,128,205004,1,0,0:0:0:0:
256,128,205087,1,0,0:0:0:0:
256,128,205171,1,8,0:0:0:0:
256,128,205254,1,0,0:0:0:0:
256,128,205337,1,0,0:0:0:0:
256,128,205421,1,8,0:0:0:0:
256,128,205587,1,0,0:0:0:0:
256,128,205671,1,8,0:0:0:0:
256,128,205837,1,0,0:0:0:0:
256,128,205921,1,0,0:0:0:0:
256,128,206004,1,8,0:0:0:0:
256,128,206087,1,8,0:0:0:0:
256,128,206171,1,0,0:0:0:0:
256,128,206254,1,8,0:0:0:0:
256,128,206420,1,8,0:0:0:0:
256,128,206504,1,0,0:0:0:0:
256,128,206587,1,8,0:0:0:0:
256,128,206671,1,8,0:0:0:0:
256,128,206754,1,0,0:0:0:0:
256,128,206837,1,0,0:0:0:0:
256,128,207004,1,8,0:0:0:0:
256,128,207171,1,0,0:0:0:0:
256,128,207254,1,0,0:0:0:0:
256,128,207337,1,8,0:0:0:0:
256,128,207421,1,8,0:0:0:0:
256,128,207504,1,0,0:0:0:0:
256,128,207671,1,8,0:0:0:0:
256,128,207754,1,0,0:0:0:0:
256,128,207837,1,8,0:0:0:0:
256,128,207921,1,8,0:0:0:0:
256,128,208004,1,0,0:0:0:0:
256,128,208087,1,8,0:0:0:0:
256,128,208254,1,0,0:0:0:0:
256,128,208337,1,8,0:0:0:0:
256,128,208504,1,0,0:0:0:0:
256,128,208587,1,0,0:0:0:0:
256,128,208671,1,8,0:0:0:0:
256,128,208754,1,8,0:0:0:0:
256,128,208837,1,0,0:0:0:0:
256,128,209004,1,0,0:0:0:0:
256,128,209171,1,8,0:0:0:0:
256,128,209254,1,0,0:0:0:0:
256,128,209337,1,0,0:0:0:0:
256,128,209421,1,8,0:0:0:0:
256,128,209504,1,0,0:0:0:0:
256,128,209587,1,0,0:0:0:0:
256,128,209671,1,8,0:0:0:0:
256,128,209754,1,8,0:0:0:0:
256,128,209837,1,0,0:0:0:0:
256,128,209921,1,8,0:0:0:0:
256,128,210004,1,8,0:0:0:0:
256,128,210087,1,8,0:0:0:0:
256,128,210171,1,0,0:0:0:0:
256,128,210254,1,8,0:0:0:0:
256,128,210337,1,0,0:0:0:0:
256,128,210421,1,0,0:0:0:0:
256,128,210504,1,8,0:0:0:0:
256,128,210671,1,8,0:0:0:0:
256,128,210754,1,0,0:0:0:0:
256,128,210921,1,0,0:0:0:0:
256,128,211004,1,8,0:0:0:0:
256,128,211171,1,8,0:0:0:0:
256,128,211254,1,0,0:0:0:0:
256,128,211337,1,8,0:0:0:0:
256,128,211421,1,8,0:0:0:0:
256,128,211504,1,0,0:0:0:0:
256,128,211837,1,0,0:0:0:0:
256,128,211921,1,0,0:0:0:0:
256,128,212004,1,0,0:0:0:0:
256,128,212087,1,0,0:0:0:0:
256,128,212171,1,8,0:0:0:0:
256,128,212504,1,8,0:0:0:0:
256,128,212587,1,8,0:0:0:0:
256,128,212671,1,8,0:0:0:0:
256,128,212754,1,8,0:0:0:0:
256,128,212837,1,0,0:0:0:0:
256,128,213171,1,0,0:0:0:0:
256,128,213504,1,0,0:0:0:0:
256,128,213587,1,0,0:0:0:0:
256,128,213754,1,8,0:0:0:0:
256,128,214004,1,8,0:0:0:0:
256,128,214171,1,0,0:0:0:0:
256,128,214504,1,8,0:0:0:0:
256,128,214838,1,0,0:0:0:0:
256,128,214921,1,0,0:0:0:0:
256,128,215087,1,8,0:0:0:0:
256,128,215171,1,0,0:0:0:0:
256,128,215337,1,0,0:0:0:0:
256,128,215393,1,0,0:0:0:0:
256,128,215449,1,0,0:0:0:0:
256,128,215504,1,8,0:0:0:0:
256,128,216837,1,0,0:0:0:0:
256,128,216921,1,0,0:0:0:0:
256,128,217004,1,0,0:0:0:0:
256,128,217087,1,0,0:0:0:0:
256,128,217171,1,0,0:0:0:0:
256,128,217504,1,8,0:0:0:0:
256,128,217587,1,8,0:0:0:0:
256,128,217671,1,0,0:0:0:0:
256,128,217754,1,0,0:0:0:0:
256,128,217837,1,8,0:0:0:0:
256,128,217921,1,0,0:0:0:0:
256,128,218004,1,8,0:0:0:0:
256,128,218087,1,8,0:0:0:0:
256,128,218171,1,0,0:0:0:0:
256,128,218254,1,8,0:0:0:0:
256,128,218338,1,0,0:0:0:0:
256,128,218421,1,0,0:0:0:0:
256,128,218504,1,8,0:0:0:0:
256,128,218588,1,8,0:0:0:0:
256,128,218671,1,8,0:0:0:0:
256,128,218754,1,8,0:0:0:0:
256,128,218837,1,0,0:0:0:0:
256,128,219337,1,0,0:0:0:0:
256,128,219837,1,0,0:0:0:0:
256,128,220004,1,0,0:0:0:0:
256,128,220837,1,0,0:0:0:0:
256,128,221087,1,0,0:0:0:0:
256,128,221337,1,0,0:0:0:0:
256,128,222171,1,0,0:0:0:0:
256,128,222671,1,0,0:0:0:0:
256,128,223504,1,0,0:0:0:0:
256,128,223837,1,0,0:0:0:0:
256,128,224171,1,0,0:0:0:0:
256,128,224837,1,8,0:0:0:0:
256,128,225170,1,0,0:0:0:0:
256,128,225337,1,0,0:0:0:0:
256,128,225670,1,0,0:0:0:0:
256,128,225837,1,0,0:0:0:0:
256,128,226171,1,8,0:0:0:0:
256,128,226670,1,0,0:0:0:0:
256,128,226837,1,0,0:0:0:0:
256,128,227170,1,0,0:0:0:0:
256,128,227504,1,8,0:0:0:0:
256,128,228004,1,8,0:0:0:0:
256,128,228170,1,0,0:0:0:0:
256,128,228504,1,0,0:0:0:0:
256,128,228670,1,0,0:0:0:0:
256,128,228837,1,8,0:0:0:0:
256,128,229004,1,0,0:0:0:0:
256,128,229170,1,8,0:0:0:0:
256,128,229254,1,8,0:0:0:0:
256,128,229337,1,8,0:0:0:0:
256,128,229392,1,8,0:0:0:0:
256,128,229448,1,8,0:0:0:0:
256,128,229503,1,0,0:0:0:0:
256,128,229670,1,8,0:0:0:0:
256,128,229837,1,0,0:0:0:0:
256,128,229920,1,8,0:0:0:0:
256,128,230004,1,0,0:0:0:0:
256,128,230170,1,8,0:0:0:0:
256,128,230337,1,0,0:0:0:0:
256,128,230420,1,8,0:0:0:0:
256,128,230504,1,0,0:0:0:0:
256,128,230587,1,0,0:0:0:0:
256,128,230670,1,8,0:0:0:0:
256,128,230837,1,0,0:0:0:0:
256,128,231004,1,8,0:0:0:0:
256,128,231087,1,8,0:0:0:0:
256,128,231170,1,0,0:0:0:0:
256,128,231337,1,8,0:0:0:0:
256,128,231504,1,0,0:0:0:0:
256,128,231587,1,8,0:0:0:0:
256,128,231754,1,8,0:0:0:0:
256,128,231837,1,0,0:0:0:0:
256,128,232004,1,0,0:0:0:0:
256,128,232087,1,8,0:0:0:0:
256,128,232170,1,0,0:0:0:0:
256,128,232337,1,8,0:0:0:0:
256,128,232504,1,0,0:0:0:0:
256,128,232587,1,0,0:0:0:0:
256,128,232670,1,8,0:0:0:0:
256,128,232837,1,0,0:0:0:0:
256,128,232920,1,0,0:0:0:0:
256,128,233087,1,8,0:0:0:0:
256,128,233170,1,0,0:0:0:0:
256,128,233337,1,8,0:0:0:0:
256,128,233420,1,8,0:0:0:0:
256,128,233503,1,0,0:0:0:0:
256,128,233587,1,8,0:0:0:0:
256,128,233753,1,8,0:0:0:0:
256,128,233836,1,0,0:0:0:0:
256,128,234003,1,8,0:0:0:0:
256,128,234170,1,0,0:0:0:0:
256,128,234253,1,8,0:0:0:0:
256,128,234337,1,0,0:0:0:0:
256,128,234420,1,0,0:0:0:0:
256,128,234504,1,8,0:0:0:0:
256,128,234587,1,0,0:0:0:0:
256,128,234670,1,8,0:0:0:0:
256,128,234753,1,8,0:0:0:0:
256,128,234837,1,0,0:0:0:0:
256,128,235002,1,8,0:0:0:0:
256,128,235169,1,0,0:0:0:0:
256,128,235254,1,8,0:0:0:0:
256,128,235336,1,0,0:0:0:0:
256,128,235502,1,8,0:0:0:0:
256,128,235669,1,0,0:0:0:0:
256,128,235752,1,8,0:0:0:0:
256,128,235836,1,0,0:0:0:0:
256,128,235919,1,0,0:0:0:0:
256,128,236002,1,8,0:0:0:0:
256,128,236169,1,0,0:0:0:0:
256,128,236336,1,8,0:0:0:0:
256,128,236419,1,8,0:0:0:0:
256,128,236502,1,0,0:0:0:0:
256,128,236670,1,8,0:0:0:0:
256,128,236836,1,0,0:0:0:0:
256,128,236919,1,8,0:0:0:0:
256,128,237086,1,8,0:0:0:0:
256,128,237169,1,0,0:0:0:0:
256,128,237336,1,8,0:0:0:0:
256,128,237419,1,8,0:0:0:0:
256,128,237503,1,0,0:0:0:0:
256,128,237586,1,8,0:0:0:0:
256,128,237752,1,8,0:0:0:0:
256,128,237836,1,0,0:0:0:0:
256,128,238004,1,0,0:0:0:0:
256,128,238170,1,8,0:0:0:0:
256,128,238337,1,0,0:0:0:0:
256,128,238420,1,8,0:0:0:0:
256,128,238504,1,0,0:0:0:0:
256,128,238670,1,8,0:0:0:0:
256,128,239003,1,0,0:0:0:0:
256,128,239170,1,8,0:0:0:0:
256,128,239337,1,0,0:0:0:0:
256,128,239503,1,8,0:0:0:0:
256,128,239586,1,8,0:0:0:0:
256,128,239669,1,0,0:0:0:0:
256,128,239726,1,8,0:0:0:0:
256,128,239781,1,8,0:0:0:0:
256,128,239836,1,0,0:0:0:0:
256,128,239920,1,0,0:0:0:0:
256,128,240004,1,8,0:0:0:0:
256,128,240087,1,8,0:0:0:0:
256,128,240170,1,0,0:0:0:0:
256,128,240337,1,8,0:0:0:0:
256,128,240504,1,0,0:0:0:0:
256,128,240587,1,8,0:0:0:0:
256,128,240669,1,0,0:0:0:0:
256,128,240837,1,8,0:0:0:0:
256,128,241003,1,0,0:0:0:0:
256,128,241086,1,8,0:0:0:0:
256,128,241170,1,0,0:0:0:0:
256,128,241253,1,0,0:0:0:0:
256,128,241336,1,8,0:0:0:0:
256,128,241503,1,0,0:0:0:0:
256,128,241669,1,8,0:0:0:0:
256,128,241752,1,8,0:0:0:0:
256,128,241836,1,0,0:0:0:0:
256,128,242002,1,8,0:0:0:0:
256,128,242169,1,0,0:0:0:0:
256,128,242252,1,8,0:0:0:0:
256,128,242419,1,8,0:0:0:0:
256,128,242502,1,0,0:0:0:0:
256,128,242671,1,8,0:0:0:0:
256,128,242754,1,8,0:0:0:0:
256,128,242837,1,0,0:0:0:0:
256,128,242919,1,8,0:0:0:0:
256,128,243086,1,8,0:0:0:0:
256,128,243171,1,0,0:0:0:0:
256,128,243337,1,8,0:0:0:0:
256,128,243504,1,0,0:0:0:0:
256,128,243586,1,0,0:0:0:0:
256,128,243754,1,8,0:0:0:0:
256,128,243836,1,0,0:0:0:0:
256,128,244002,1,0,0:0:0:0:
256,128,244086,1,8,0:0:0:0:
256,128,244171,1,0,0:0:0:0:
256,128,244337,1,8,0:0:0:0:
256,128,244421,1,8,0:0:0:0:
256,128,244504,1,0,0:0:0:0:
256,128,244586,1,8,0:0:0:0:
256,128,244670,1,0,0:0:0:0:
256,128,244752,1,0,0:0:0:0:
256,128,244837,1,8,0:0:0:0:
256,128,244921,1,0,0:0:0:0:
256,128,245003,1,8,0:0:0:0:
256,128,245059,1,0,0:0:0:0:
256,128,245115,1,0,0:0:0:0:
256,128,245171,1,8,0:0:0:0:
256,128,245254,1,0,0:0:0:0:
256,128,245337,1,8,0:0:0:0:
256,128,245421,1,8,0:0:0:0:
256,128,245504,1,0,0:0:0:0:
256,128,245671,1,8,0:0:0:0:
256,128,245836,1,0,0:0:0:0:
256,128,245919,1,8,0:0:0:0:
256,128,246002,1,0,0:0:0:0:
256,128,246169,1,8,0:0:0:0:
256,128,246337,1,0,0:0:0:0:
256,128,246420,1,8,0:0:0:0:
256,128,246502,1,0,0:0:0:0:
256,128,246587,1,0,0:0:0:0:
256,128,246669,1,8,0:0:0:0:
256,128,246836,1,0,0:0:0:0:
256,128,247002,1,8,0:0:0:0:
256,128,247086,1,8,0:0:0:0:
256,128,247169,1,0,0:0:0:0:
256,128,247336,1,8,0:0:0:0:
256,128,247504,1,0,0:0:0:0:
256,128,247587,1,8,0:0:0:0:
256,128,247754,1,8,0:0:0:0:
256,128,247838,1,0,0:0:0:0:
256,128,248003,1,8,0:0:0:0:
256,128,248086,1,8,0:0:0:0:
256,128,248170,1,0,0:0:0:0:
256,128,248336,1,8,0:0:0:0:
256,128,248503,1,0,0:0:0:0:
256,128,248586,1,8,0:0:0:0:
256,128,248670,1,8,0:0:0:0:
256,128,248836,1,8,0:0:0:0:
256,128,249003,1,0,0:0:0:0:
256,128,249087,1,8,0:0:0:0:
256,128,249337,1,0,0:0:0:0:
256,128,250837,1,0,0:0:0:0:
256,128,251087,1,8,0:0:0:0:
256,128,251170,1,0,0:0:0:0:
256,128,251337,1,0,0:0:0:0:
256,128,251420,1,8,0:0:0:0:
256,128,251503,1,0,0:0:0:0:
256,128,251670,1,0,0:0:0:0:
256,128,251753,1,0,0:0:0:0:
256,128,251837,1,8,0:0:0:0:
256,128,252003,1,8,0:0:0:0:
256,128,252170,1,0,0:0:0:0:
256,128,252337,1,8,0:0:0:0:
256,128,252420,1,8,0:0:0:0:
256,128,252503,1,0,0:0:0:0:
256,128,252670,1,8,0:0:0:0:
256,128,252837,1,8,0:0:0:0:
256,128,252920,1,0,0:0:0:0:
256,128,253003,1,0,0:0:0:0:
256,128,253087,1,8,0:0:0:0:
256,128,253170,1,0,0:0:0:0:
256,128,253253,1,0,0:0:0:0:
256,128,253337,1,8,0:0:0:0:
256,128,253503,1,0,0:0:0:0:
256,128,253670,1,0,0:0:0:0:
256,128,253753,1,8,0:0:0:0:
256,128,253837,1,0,0:0:0:0:
256,128,254003,1,0,0:0:0:0:
256,128,254087,1,0,0:0:0:0:
256,128,254170,1,8,0:0:0:0:
256,128,254337,1,8,0:0:0:0:
256,128,254503,1,0,0:0:0:0:
256,128,254587,1,0,0:0:0:0:
256,128,254670,1,8,0:0:0:0:
256,128,254753,1,8,0:0:0:0:
256,128,254837,1,0,0:0:0:0:
256,128,255003,1,0,0:0:0:0:
256,128,255087,1,8,0:0:0:0:
256,128,255170,1,0,0:0:0:0:
256,128,255253,1,0,0:0:0:0:
256,128,255337,1,8,0:0:0:0:
256,128,255503,1,8,0:0:0:0:
256,128,255587,1,8,0:0:0:0:
256,128,255670,1,0,0:0:0:0:
256,128,255726,1,8,0:0:0:0:
256,128,255781,1,8,0:0:0:0:
256,128,255837,1,0,0:0:0:0:
256,128,255921,1,0,0:0:0:0:
256,128,256004,1,8,0:0:0:0:
256,128,256171,1,8,0:0:0:0:
256,128,256254,1,0,0:0:0:0:
256,128,256337,1,0,0:0:0:0:
256,128,256421,1,8,0:0:0:0:
256,128,256504,1,0,0:0:0:0:
256,128,256587,1,0,0:0:0:0:
256,128,256671,1,8,0:0:0:0:
256,128,256754,1,0,0:0:0:0:
256,128,256837,1,8,0:0:0:0:
256,128,256920,1,8,0:0:0:0:
256,128,257003,1,0,0:0:0:0:
256,128,257087,1,0,0:0:0:0:
256,128,257170,1,8,0:0:0:0:
256,128,257253,1,0,0:0:0:0:
256,128,257337,1,8,0:0:0:0:
256,128,257420,1,8,0:0:0:0:
256,128,257504,1,0,0:0:0:0:
256,128,257587,1,8,0:0:0:0:
256,128,257670,1,0,0:0:0:0:
256,128,257754,1,8,0:0:0:0:
256,128,257837,1,8,0:0:0:0:
256,128,257920,1,0,0:0:0:0:
256,128,258004,1,8,0:0:0:0:
256,128,258087,1,0,0:0:0:0:
256,128,258171,1,0,0:0:0:0:
256,128,258254,1,8,0:0:0:0:
256,128,258337,1,0,0:0:0:0:
256,128,258421,1,0,0:0:0:0:
256,128,258504,1,8,0:0:0:0:
256,128,258587,1,0,0:0:0:0:
256,128,258671,1,8,0:0:0:0:
256,128,258754,1,8,0:0:0:0:
256,128,258837,1,0,0:0:0:0:
256,128,258920,1,8,0:0:0:0:
256,128,259004,1,0,0:0:0:0:
256,128,259087,1,8,0:0:0:0:
256,128,259170,1,8,0:0:0:0:
256,128,259253,1,0,0:0:0:0:
256,128,259337,1,8,0:0:0:0:
256,128,259420,1,0,0:0:0:0:
256,128,259504,1,0,0:0:0:0:
256,128,259587,1,8,0:0:0:0:
256,128,259670,1,0,0:0:0:0:
256,128,259754,1,0,0:0:0:0:
256,128,259837,1,8,0:0:0:0:
256,128,259920,1,0,0:0:0:0:
256,128,260004,1,8,0:0:0:0:
256,128,260087,1,8,0:0:0:0:
256,128,260171,1,0,0:0:0:0:
256,128,260254,1,8,0:0:0:0:
256,128,260337,1,0,0:0:0:0:
256,128,260421,1,0,0:0:0:0:
256,128,260504,1,8,0:0:0:0:
256,128,260587,1,0,0:0:0:0:
256,128,260671,1,8,0:0:0:0:
256,128,260754,1,8,0:0:0:0:
256,128,260837,1,0,0:0:0:0:
256,128,260920,1,0,0:0:0:0:
256,128,261003,1,8,0:0:0:0:
256,128,261087,1,0,0:0:0:0:
256,128,261170,1,8,0:0:0:0:
256,128,261253,1,8,0:0:0:0:
256,128,261337,1,0,0:0:0:0:
256,128,261420,1,0,0:0:0:0:
256,128,261504,1,8,0:0:0:0:
256,128,261754,1,8,0:0:0:0:
256,128,261837,1,0,0:0:0:0:
256,128,262004,1,8,0:0:0:0:
256,128,262171,1,0,0:0:0:0:
256,128,262254,1,8,0:0:0:0:
256,128,262337,1,8,0:0:0:0:
256,128,262504,1,0,0:0:0:0:
256,128,262671,1,0,0:0:0:0:
256,128,262837,1,12,0:0:0:0:
256,128,264170,1,0,0:0:0:0:
256,128,264253,1,8,0:0:0:0:
256,128,264420,1,8,0:0:0:0:
256,128,264503,1,0,0:0:0:0:
256,128,264670,1,0,0:0:0:0:
256,128,264753,1,8,0:0:0:0:
256,128,264920,1,8,0:0:0:0:
256,128,265003,1,0,0:0:0:0:
256,128,265170,1,12,0:0:0:0:
256,128,265336,1,12,0:0:0:0:
256,128,265503,1,12,0:0:0:0:
