osu file format v14

[General]
AudioFilename: audio.mp3
AudioLeadIn: 0
PreviewTime: 38171
Countdown: 0
SampleSet: Normal
StackLeniency: 0.7
Mode: 1
LetterboxInBreaks: 0
WidescreenStoryboard: 1

[Editor]
Bookmarks: 38171,59504,142171
DistanceSpacing: 1
BeatDivisor: 2
GridSize: 32
TimelineZoom: 1.2

[Metadata]
Title:Jackknife
TitleUnicode:Jackknife
Artist:xi
ArtistUnicode:xi
Creator:Arrival
Version:Kantan
Source:
Tags:Evolved Chronicles piano C.H.S with Lick Dom Records diverse system blacky sta diceros bicornis comic market 91 mira APPO (Katana Bits) 鑓田 (alpha complex) YsK439
BeatmapID:1375675
BeatmapSetID:646616

[Difficulty]
HPDrainRate:8
CircleSize:2
OverallDifficulty:4
ApproachRate:0
SliderMultiplier:1.4
SliderTickRate:1

[Events]
//Background and Video events
0,0,"cropped-1920-1080-595862.jpg",0,40
//Break Periods
//Storyboard Layer 0 (Background)
//Storyboard Layer 1 (Fail)
//Storyboard Layer 2 (Pass)
//Storyboard Layer 3 (Foreground)
//Storyboard Sound Samples

[TimingPoints]
838,333.333333333333,4,1,0,80,1,0
38171,-100,4,1,0,90,0,0
83587,-100,4,1,0,60,0,0
104837,-100,4,1,0,80,0,1
118171,-100,4,1,0,80,0,0
120837,-100,4,1,0,90,0,0
163671,-100,4,1,0,60,0,0
168171,-100,4,1,0,80,0,0
174337,-100,4,1,0,60,0,0
178837,-100,4,1,0,80,0,0
190171,-100,4,1,0,70,0,0
200837,-100,4,1,0,80,0,0
217504,333.333333333333,4,1,0,80,1,0
229504,-100,4,1,0,90,0,1
249337,-100,4,1,0,90,0,0
256170,-100,4,1,0,100,0,1
261503,-100,4,1,0,100,0,0
264170,-100,4,1,0,100,0,1
265503,-100,4,1,0,100,0,0

[HitObjects]
256,128,838,5,0,0:0:0:0:
256,128,1837,1,8,0:0:0:0:
256,128,2171,1,0,0:0:0:0:
256,128,3504,1,0,0:0:0:0:
256,128,4171,1,8,0:0:0:0:
256,128,4837,1,0,0:0:0:0:
256,128,6171,1,0,0:0:0:0:
256,128,6837,1,8,0:0:0:0:
256,128,7504,1,8,0:0:0:0:
256,128,8171,1,8,0:0:0:0:
256,128,8837,1,0,0:0:0:0:
256,128,9504,1,8,0:0:0:0:
256,128,10171,1,0,0:0:0:0:
256,128,10837,1,8,0:0:0:0:
256,128,11504,1,0,0:0:0:0:
256,128,12837,1,0,0:0:0:0:
256,128,13504,1,0,0:0:0:0:
256,128,14171,1,8,0:0:0:0:
256,128,14837,1,8,0:0:0:0:
256,128,15504,1,0,0:0:0:0:
256,128,16171,1,8,0:0:0:0:
256,128,16837,1,0,0:0:0:0:
256,128,17504,1,8,0:0:0:0:
256,128,17837,1,8,0:0:0:0:
256,128,18171,1,0,0:0:0:0:
256,128,18837,1,0,0:0:0:0:
256,128,19504,1,8,0:0:0:0:
256,128,20171,1,8,0:0:0:0:
256,128,20837,1,0,0:0:0:0:
256,128,21504,1,8,0:0:0:0:
256,128,22171,1,0,0:0:0:0:
256,128,22504,1,8,0:0:0:0:
256,128,22837,1,12,0:0:0:0:
256,128,23504,1,0,0:0:0:0:
256,128,24171,1,0,0:0:0:0:
256,128,24837,1,8,0:0:0:0:
256,128,25504,1,8,0:0:0:0:
256,128,26170,1,0,0:0:0:0:
256,128,26837,1,8,0:0:0:0:
256,128,27503,1,0,0:0:0:0:
256,128,28171,1,8,0:0:0:0:
256,128,28503,1,8,0:0:0:0:
256,128,28837,1,0,0:0:0:0:
256,128,29504,1,0,0:0:0:0:
256,128,30170,1,8,0:0:0:0:
256,128,30837,1,8,0:0:0:0:
256,128,31503,1,0,0:0:0:0:
256,128,32171,1,8,0:0:0:0:
256,128,32837,1,0,0:0:0:0:
256,128,33837,1,8,0:0:0:0:
256,128,34171,1,0,0:0:0:0:
256,128,34837,1,0,0:0:0:0:
256,128,35504,1,8,0:0:0:0:
256,128,36171,1,8,0:0:0:0:
256,128,36837,1,0,0:0:0:0:
256,128,38171,1,0,0:0:0:0:
256,128,39337,1,8,0:0:0:0:
256,128,40171,1,8,0:0:0:0:
256,128,40671,1,8,0:0:0:0:
256,128,42004,1,0,0:0:0:0:
256,128,42837,1,8,0:0:0:0:
256,128,43504,1,0,0:0:0:0:
256,128,44670,1,8,0:0:0:0:
256,128,45504,1,8,0:0:0:0:
256,128,46004,1,8,0:0:0:0:
256,128,47337,1,0,0:0:0:0:
256,128,48004,1,0,0:0:0:0:
256,128,48837,1,4,0:0:0:0:
256,128,50003,1,8,0:0:0:0:
256,128,50837,1,8,0:0:0:0:
256,128,51337,1,8,0:0:0:0:
256,128,52670,1,8,0:0:0:0:
256,128,53503,1,8,0:0:0:0:
256,128,54170,1,0,0:0:0:0:
256,128,55336,1,8,0:0:0:0:
256,128,56170,1,8,0:0:0:0:
256,128,56670,1,8,0:0:0:0:
256,128,58003,1,0,0:0:0:0:
256,128,58671,1,0,0:0:0:0:
256,128,59503,1,4,0:0:0:0:
256,192,59837,12,0,60837,0:0:0:0:
256,128,62171,5,0,0:0:0:0:
256,128,62837,1,8,0:0:0:0:
256,128,63171,1,8,0:0:0:0:
256,128,63504,1,0,0:0:0:0:
256,128,64837,1,0,0:0:0:0:
256,128,65504,1,8,0:0:0:0:
256,128,65837,1,8,0:0:0:0:
256,128,66171,1,0,0:0:0:0:
256,128,66837,1,8,0:0:0:0:
256,128,67504,1,0,0:0:0:0:
256,128,67837,1,12,0:0:0:0:
256,128,68504,1,12,0:0:0:0:
256,128,70171,1,0,0:0:0:0:
256,128,70837,1,8,0:0:0:0:
256,128,72837,1,0,0:0:0:0:
256,128,73503,1,8,0:0:0:0:
256,128,73837,1,8,0:0:0:0:
256,128,74170,1,0,0:0:0:0:
256,128,75503,1,0,0:0:0:0:
256,128,76170,1,8,0:0:0:0:
256,128,76503,1,8,0:0:0:0:
256,128,76837,1,0,0:0:0:0:
256,128,77503,1,8,0:0:0:0:
256,128,78170,1,0,0:0:0:0:
256,128,78503,1,12,0:0:0:0:
256,128,79170,1,12,0:0:0:0:
256,128,80837,1,0,0:0:0:0:
256,128,81504,1,8,0:0:0:0:
256,128,82171,1,0,0:0:0:0:
256,128,83504,1,4,0:0:0:0:
256,128,84837,1,0,0:0:0:0:
256,128,86171,1,0,0:0:0:0:
256,128,87504,1,0,0:0:0:0:
256,128,88837,1,8,0:0:0:0:
256,128,90171,1,0,0:0:0:0:
256,128,91504,1,0,0:0:0:0:
256,128,92837,1,0,0:0:0:0:
256,128,93504,1,8,0:0:0:0:
256,128,94171,1,0,0:0:0:0:
256,128,95504,1,8,0:0:0:0:
256,128,96837,1,0,0:0:0:0:
256,128,98171,1,8,0:0:0:0:
256,128,98837,1,0,0:0:0:0:
256,128,99504,1,0,0:0:0:0:
256,128,100837,1,8,0:0:0:0:
256,128,102171,1,0,0:0:0:0:
256,128,103504,1,8,0:0:0:0:
256,128,104171,1,0,0:0:0:0:
256,128,104837,1,4,0:0:0:0:
256,128,105504,1,8,0:0:0:0:
256,128,106837,1,0,0:0:0:0:
256,128,107337,1,8,0:0:0:0:
256,128,108171,1,0,0:0:0:0:
256,128,108671,1,12,0:0:0:0:
256,128,109504,1,8,0:0:0:0:
256,128,110171,1,0,0:0:0:0:
256,128,110837,1,8,0:0:0:0:
256,128,112171,1,0,0:0:0:0:
256,128,112671,1,8,0:0:0:0:
256,128,113504,1,0,0:0:0:0:
256,128,114004,1,8,0:0:0:0:
256,128,114837,1,8,0:0:0:0:
256,128,115504,1,0,0:0:0:0:
256,128,116171,1,0,0:0:0:0:
256,128,116837,1,0,0:0:0:0:
256,128,117504,1,12,0:0:0:0:
256,128,118171,1,0,0:0:0:0:
256,192,118337,12,0,119171,0:0:0:0:
256,128,119504,5,0,0:0:0:0:
256,128,120837,1,0,0:0:0:0:
256,128,122003,1,8,0:0:0:0:
256,128,122837,1,8,0:0:0:0:
256,128,123337,1,8,0:0:0:0:
256,128,124670,1,8,0:0:0:0:
256,128,125503,1,8,0:0:0:0:
256,128,125837,1,8,0:0:0:0:
256,128,126170,1,0,0:0:0:0:
256,128,127336,1,8,0:0:0:0:
256,128,128170,1,8,0:0:0:0:
256,128,128670,1,8,0:0:0:0:
256,128,129504,1,8,0:0:0:0:
256,128,130003,1,0,0:0:0:0:
256,128,130671,1,0,0:0:0:0:
256,128,131503,1,0,0:0:0:0:
256,128,132671,1,8,0:0:0:0:
256,128,133503,1,8,0:0:0:0:
256,128,134003,1,8,0:0:0:0:
256,128,135336,1,8,0:0:0:0:
256,128,136171,1,8,0:0:0:0:
256,128,136504,1,8,0:0:0:0:
256,128,136836,1,0,0:0:0:0:
256,128,138004,1,8,0:0:0:0:
256,128,138836,1,8,0:0:0:0:
256,128,139336,1,8,0:0:0:0:
256,128,140171,1,8,0:0:0:0:
256,128,140671,1,0,0:0:0:0:
256,128,141337,1,0,0:0:0:0:
256,128,142171,5,0,0:0:0:0:
256,128,142837,1,0,0:0:0:0:
256,128,143504,1,8,0:0:0:0:
256,128,144171,1,0,0:0:0:0:
256,128,144504,1,8,0:0:0:0:
256,128,144837,1,0,0:0:0:0:
256,128,145504,1,0,0:0:0:0:
256,128,146171,1,8,0:0:0:0:
256,128,146837,1,8,0:0:0:0:
256,128,147171,1,8,0:0:0:0:
256,128,147504,1,0,0:0:0:0:
256,128,148837,1,8,0:0:0:0:
256,128,149504,1,0,0:0:0:0:
256,128,149837,1,8,0:0:0:0:
256,128,150171,1,0,0:0:0:0:
256,128,150837,1,0,0:0:0:0:
256,128,151504,1,8,0:0:0:0:
256,128,152171,1,8,0:0:0:0:
256,128,152504,1,8,0:0:0:0:
256,128,152837,1,4,0:0:0:0:
256,128,154171,1,8,0:0:0:0:
256,128,155171,1,8,0:0:0:0:
256,128,155504,1,0,0:0:0:0:
256,128,156837,1,0,0:0:0:0:
256,128,157171,2,0,L|320:128,8,35
256,128,158171,1,0,0:0:0:0:
256,128,159504,1,8,0:0:0:0:
256,128,160504,1,8,0:0:0:0:
256,128,160837,1,0,0:0:0:0:
256,128,161504,1,0,0:0:0:0:
256,128,161837,1,0,0:0:0:0:
256,128,162171,1,8,0:0:0:0:
256,128,162837,1,8,0:0:0:0:
256,128,163171,1,8,0:0:0:0:
256,128,163504,1,0,0:0:0:0:
256,128,165504,1,0,0:0:0:0:
256,128,166837,1,0,0:0:0:0:
256,128,168171,1,8,0:0:0:0:
256,128,168837,1,0,0:0:0:0:
256,128,170004,1,0,0:0:0:0:
256,128,171337,1,8,0:0:0:0:
256,128,172671,1,0,0:0:0:0:
256,128,173504,1,8,0:0:0:0:
256,128,174171,1,0,0:0:0:0:
256,128,176171,1,0,0:0:0:0:
256,128,177504,1,0,0:0:0:0:
256,128,178837,1,8,0:0:0:0:
256,128,179504,1,0,0:0:0:0:
256,128,180004,1,0,0:0:0:0:
256,128,180837,1,8,0:0:0:0:
256,128,181337,1,8,0:0:0:0:
256,128,182171,1,0,0:0:0:0:
256,128,182671,1,0,0:0:0:0:
256,128,183337,1,12,0:0:0:0:
256,128,184171,1,0,0:0:0:0:
256,128,184837,1,0,0:0:0:0:
256,128,185337,1,0,0:0:0:0:
256,128,186171,1,8,0:0:0:0:
256,128,186671,1,8,0:0:0:0:
256,128,187504,1,0,0:0:0:0:
256,192,187837,12,0,188837,0:0:0:0:
256,128,190171,5,0,0:0:0:0:
256,128,190504,1,8,0:0:0:0:
256,128,191171,1,8,0:0:0:0:
256,128,191837,1,8,0:0:0:0:
256,128,192837,1,0,0:0:0:0:
256,128,193171,1,8,0:0:0:0:
256,128,193837,1,8,0:0:0:0:
256,128,194504,1,8,0:0:0:0:
256,128,195504,1,0,0:0:0:0:
256,128,196004,1,0,0:0:0:0:
256,128,196837,1,8,0:0:0:0:
256,128,197337,1,8,0:0:0:0:
256,128,198171,1,0,0:0:0:0:
256,128,198671,1,0,0:0:0:0:
256,128,199504,2,0,L|320:128,12,35
256,128,200837,1,0,0:0:0:0:
256,128,201171,1,8,0:0:0:0:
256,128,201837,1,8,0:0:0:0:
256,128,202171,1,0,0:0:0:0:
256,128,202504,1,8,0:0:0:0:
256,128,202837,1,8,0:0:0:0:
256,128,203504,1,0,0:0:0:0:
256,128,203837,1,8,0:0:0:0:
256,128,204504,1,8,0:0:0:0:
256,128,204837,1,0,0:0:0:0:
256,128,205171,1,8,0:0:0:0:
256,128,205504,1,8,0:0:0:0:
256,128,206171,1,0,0:0:0:0:
256,128,206504,1,8,0:0:0:0:
256,128,207171,1,8,0:0:0:0:
256,128,207504,1,0,0:0:0:0:
256,128,207837,1,8,0:0:0:0:
256,128,208504,1,8,0:0:0:0:
256,128,208837,1,0,0:0:0:0:
256,128,209171,2,0,L|320:128,12,35
256,128,210504,1,0,0:0:0:0:
256,128,211171,1,8,0:0:0:0:
256,128,211504,1,4,0:0:0:0:
256,128,212171,1,12,0:0:0:0:
256,128,212837,1,4,0:0:0:0:
256,128,213504,1,8,0:0:0:0:
256,128,214171,1,0,0:0:0:0:
256,128,214837,1,12,0:0:0:0:
256,128,215504,1,12,0:0:0:0:
256,128,217504,2,0,L|320:128,16,35.0137397146234
256,128,220170,5,0,0:0:0:0:
256,128,221504,1,0,0:0:0:0:
256,128,222837,1,0,0:0:0:0:
256,128,224170,1,0,0:0:0:0:
256,128,224837,1,8,0:0:0:0:
256,128,226170,1,8,0:0:0:0:
256,128,226837,1,0,0:0:0:0:
256,128,227504,1,8,0:0:0:0:
256,128,228004,1,8,0:0:0:0:
256,128,229504,1,0,0:0:0:0:
256,128,230670,1,8,0:0:0:0:
256,128,231504,1,8,0:0:0:0:
256,128,232004,1,8,0:0:0:0:
256,128,233337,1,8,0:0:0:0:
256,128,234170,1,8,0:0:0:0:
256,128,234503,1,8,0:0:0:0:
256,128,234837,1,0,0:0:0:0:
256,128,236003,1,8,0:0:0:0:
256,128,237337,1,8,0:0:0:0:
256,128,238170,1,8,0:0:0:0:
256,128,238670,1,0,0:0:0:0:
256,128,239337,1,0,0:0:0:0:
256,128,240170,1,0,0:0:0:0:
256,128,241336,1,8,0:0:0:0:
256,128,242170,1,8,0:0:0:0:
256,128,242670,1,8,0:0:0:0:
256,128,244003,1,8,0:0:0:0:
256,128,244836,1,8,0:0:0:0:
256,128,245170,1,8,0:0:0:0:
256,128,245503,1,0,0:0:0:0:
256,128,246669,1,8,0:0:0:0:
256,128,247503,1,8,0:0:0:0:
256,128,248003,1,8,0:0:0:0:
256,128,248837,1,8,0:0:0:0:
256,128,250837,1,0,0:0:0:0:
256,128,251503,1,8,0:0:0:0:
256,128,252170,1,0,0:0:0:0:
256,128,252837,1,8,0:0:0:0:
256,128,253170,1,8,0:0:0:0:
256,128,253503,1,0,0:0:0:0:
256,128,254170,1,8,0:0:0:0:
256,128,254837,1,0,0:0:0:0:
256,128,255503,1,0,0:0:0:0:
256,128,255837,1,8,0:0:0:0:
256,128,256170,1,0,0:0:0:0:
256,128,257170,1,0,0:0:0:0:
256,128,257503,1,8,0:0:0:0:
256,128,258503,1,8,0:0:0:0:
256,128,258837,1,0,0:0:0:0:
256,128,259837,1,0,0:0:0:0:
256,128,260170,1,8,0:0:0:0:
256,128,261170,1,8,0:0:0:0:
256,128,261503,1,0,0:0:0:0:
256,128,262503,1,0,0:0:0:0:
256,128,262837,1,12,0:0:0:0:
256,128,264170,1,8,0:0:0:0:
256,128,264670,1,8,0:0:0:0:
256,128,265170,1,12,0:0:0:0:
256,128,265503,1,12,0:0:0:0:
