osu file format v14

[General]
AudioFilename: audio.mp3
AudioLeadIn: 0
PreviewTime: -1
Countdown: 0
SampleSet: Soft
StackLeniency: 0.3
Mode: 0
LetterboxInBreaks: 0
WidescreenStoryboard: 1

[Editor]
DistanceSpacing: 2
BeatDivisor: 4
GridSize: 16
TimelineZoom: 1.2

[Metadata]
Title:Hesperides
TitleUnicode:Hesperides
Artist:xi
ArtistUnicode:xi
Creator:Weriko
Version:Light
Source:
Tags:
BeatmapID:1185822
BeatmapSetID:560782

[Difficulty]
HPDrainRate:0
CircleSize:4.2
OverallDifficulty:10
ApproachRate:10
SliderMultiplier:2.2
SliderTickRate:1

[Events]
//Background and Video events
0,0,"BG.jpg",0,0
//Break Periods
//Storyboard Layer 0 (Background)
//Storyboard Layer 1 (Fail)
//Storyboard Layer 2 (Pass)
//Storyboard Layer 3 (Foreground)
//Storyboard Sound Samples

[TimingPoints]
711,300,4,2,1,40,1,0
1911,600,4,2,1,40,1,0
38211,-100,4,2,0,60,0,0
43911,300,4,2,1,80,1,0
43911,-125,4,2,1,80,0,0
49161,-111.111111111111,4,2,1,80,0,0
55911,-83.3333333333333,4,2,1,80,0,0
60111,-58.8235294117647,4,2,1,80,0,0
60861,-100,4,2,1,80,0,0
61911,-66.6666666666667,4,2,1,80,0,0
62211,-50,4,2,1,80,0,0
62361,-100,4,2,1,80,0,0
63861,-83.3333333333333,4,2,1,80,0,0
64161,-71.4285714285714,4,2,1,80,0,0
64461,-83.3333333333333,4,2,1,80,0,0
69711,-58.8235294117647,4,2,1,80,0,0
70161,-66.6666666666667,4,2,1,80,0,0
70461,-71.4285714285714,4,2,1,80,0,0
71661,-100,4,2,1,80,0,0
78711,-133.333333333333,4,2,1,80,0,0
97911,-166.666666666667,4,2,1,80,0,0
102711,-90.9090909090909,4,2,1,80,0,0
115311,-83.3333333333333,4,2,1,80,0,0
115911,-76.9230769230769,4,2,1,80,0,0
118311,-133.333333333333,4,2,1,80,0,0
137511,-111.111111111111,4,2,1,80,0,0
140511,-58.8235294117647,4,2,1,80,0,0
140961,-66.6666666666667,4,2,1,80,0,0
141411,-111.111111111111,4,2,1,80,0,0
150111,-58.8235294117647,4,2,1,80,0,0
150561,-66.6666666666667,4,2,1,80,0,0
151011,-111.111111111111,4,2,1,80,0,0
159111,-76.9230769230769,4,2,1,80,0,0
171111,-133.333333333333,4,2,1,80,0,0
188211,-125,4,2,1,80,0,0
188661,-111.111111111111,4,2,1,80,0,0
190311,-100,4,2,1,80,0,0
209511,-83.3333333333333,4,2,1,80,0,0
211911,-71.4285714285714,4,2,1,80,0,0
216711,-200,4,2,1,80,0,0
226311,-133.333333333333,4,2,1,80,0,0
228711,-100,4,2,1,80,0,0
231111,-80,4,2,1,80,0,0
232011,-66.6666666666667,4,2,1,80,0,0
232911,-60.6060606060606,4,2,1,80,0,0
235311,-76.9230769230769,4,2,1,80,0,0
235911,-125,4,2,1,80,0,0
243111,-100,4,2,1,80,0,0
244011,-90.9090909090909,4,2,1,80,0,0
244461,-83.3333333333333,4,2,1,80,0,0
244911,-68.9655172413793,4,2,1,80,0,0
245211,-66.6666666666667,4,2,1,80,0,0
247911,-83.3333333333333,4,2,1,80,0,0
249261,-200,4,2,1,80,0,0
252861,-58.8235294117647,4,2,1,80,0,0
253911,-90.9090909090909,4,2,1,80,0,0
258711,-111.111111111111,4,2,1,80,0,0
261711,-58.8235294117647,4,2,1,80,0,0
262161,-66.6666666666667,4,2,1,80,0,0
262611,-111.111111111111,4,2,1,80,0,0
268311,-83.3333333333333,4,2,1,80,0,0
271311,-58.8235294117647,4,2,1,80,0,0
271761,-66.6666666666667,4,2,1,80,0,0
275361,-76.9230769230769,4,2,1,80,0,0
277911,-111.111111111111,4,2,1,80,0,0
280911,-58.8235294117647,4,2,1,80,0,0
281361,-66.6666666666667,4,2,1,80,0,0
281811,-111.111111111111,4,2,1,80,0,0
287511,-83.3333333333333,4,2,1,80,0,0
289911,-71.4285714285714,4,2,1,80,0,0
302436,-90.9090909090909,4,2,1,5,0,0

[Colours]
Combo1 : 249,81,0
Combo2 : 255,0,0
Combo3 : 242,0,242
Combo4 : 174,174,0

[HitObjects]
24,280,1911,5,0,0:0:0:0:
24,280,2511,6,0,B|128:176|248:312|344:188,1,330
240,144,3711,1,0,0:0:0:0:
240,144,4311,6,0,B|284:88|376:92|424:136|452:188|452:188|500:144|504:64|504:64|448:0|332:15|332:15|332:207,1,770
391,307,6711,6,0,B|364:306|296:299|249:270|209:197|209:197|165:138|98:117|26:163|34:264|144:290|187:252|250:193|250:95|250:95,1,605
246,123,8511,2,0,L|224:82,2,27.5
383,96,9111,6,0,L|370:215,1,110
375,314,9711,2,0,P|448:279|473:176,2,165
374,315,11511,6,0,B|52:323|52:323|101:280|128:200|53:177|53:177|150:73|284:131|220:263|168:216,1,797.5
168,216,14361,6,0,B|224:216|224:216|306:209|335:157|335:157|431:139|431:139,1,275
421,140,15561,6,0,L|401:69,1,68.75
263,18,15898,2,0,L|279:85,1,55
308,251,16311,2,0,P|250:231|214:202,2,82.5
232,219,17061,2,0,P|196:239|120:248,1,110
25,339,17773,1,0,0:0:0:0:
46,206,18148,6,0,B|88:124|133:194|176:133,2,151.25
457,109,19911,6,0,L|455:151,1,27.5
500,235,21111,6,0,P|438:221|348:72,1,247.5
328,38,22211,2,0,P|287:42|208:87,1,123.75
126,49,22836,1,0,0:0:0:0:
37,162,23211,6,0,B|67:188|226:148|226:148|266:226|256:343|256:343|172:341|164:311,1,495
164,311,26436,6,0,L|197:310,1,27.5
164,311,27036,2,0,L|197:310,1,27.5
164,311,27523,2,0,L|197:310,1,27.5
164,311,27973,6,0,B|253:309|253:309|239:133|239:133|312:162|312:162|399:71|399:71|307:95,1,563.75
176,70,30711,6,0,B|125:15|63:105|155:150|133:288|133:288|103:382|43:362|-4:305|51:224|179:271|250:365,1,660
273,363,33111,5,0,0:0:0:0:
285,362,33711,1,0,0:0:0:0:
285,362,34311,6,0,P|322:330|357:137,1,247.5
299,59,35361,2,0,P|272:99|260:196,1,137.5
255,186,36486,6,0,B|214:185|178:166|120:109|120:109|72:202,1,261.25
73,199,37911,6,0,B|92:190|161:226|154:338|154:338|206:231|301:208|328:191|370:202|391:240|435:284|326:297|279:294|244:357|244:357|348:380|407:332|407:332|464:277|457:231|431:155|390:146|322:137|322:137|177:29|303:-11|412:31|245:153|245:153|186:125|167:78|197:10|197:10|52:106,1,1760
17,303,43911,5,4,0:0:0:0:
37,264,43986,1,0,0:0:0:0:
73,239,44061,1,0,0:0:0:0:
116,233,44136,1,0,0:0:0:0:
158,247,44211,1,0,0:0:0:0:
188,278,44286,1,0,0:0:0:0:
253,336,44361,5,4,0:0:0:0:
285,364,44436,1,0,0:0:0:0:
328,370,44511,1,0,0:0:0:0:
368,352,44586,1,0,0:0:0:0:
391,315,44661,1,0,0:0:0:0:
390,272,44736,1,0,0:0:0:0:
382,184,44811,5,4,0:0:0:0:
364,145,44886,1,0,0:0:0:0:
388,111,44961,1,0,0:0:0:0:
430,114,45036,1,0,0:0:0:0:
449,151,45111,1,0,0:0:0:0:
427,187,45186,1,0,0:0:0:0:
314,209,45261,5,4,0:0:0:0:
299,167,45336,1,0,0:0:0:0:
301,124,45411,1,0,0:0:0:0:
319,84,45486,1,0,0:0:0:0:
352,55,45561,1,0,0:0:0:0:
393,41,45636,1,0,0:0:0:0:
481,91,45711,5,4,0:0:0:0:
508,124,45786,1,0,0:0:0:0:
512,167,45861,1,0,0:0:0:0:
491,205,45936,1,0,0:0:0:0:
417,253,46011,5,4,0:0:0:0:
373,260,46086,1,0,0:0:0:0:
331,273,46161,1,0,0:0:0:0:
292,293,46236,1,0,0:0:0:0:
210,325,46311,5,4,0:0:0:0:
168,337,46386,1,0,0:0:0:0:
126,327,46461,1,0,0:0:0:0:
93,298,46536,1,0,0:0:0:0:
78,257,46611,1,0,0:0:0:0:
85,214,46686,1,0,0:0:0:0:
111,129,46761,5,4,0:0:0:0:
139,97,46836,1,0,0:0:0:0:
125,58,46911,1,0,0:0:0:0:
83,51,46986,1,0,0:0:0:0:
57,84,47061,1,0,0:0:0:0:
73,122,47136,1,0,0:0:0:0:
169,181,47211,5,4,0:0:0:0:
202,153,47286,1,0,0:0:0:0:
217,112,47361,1,0,0:0:0:0:
211,69,47436,1,0,0:0:0:0:
220,27,47511,1,0,0:0:0:0:
254,0,47586,1,0,0:0:0:0:
350,19,47661,5,4,0:0:0:0:
366,63,47736,1,0,0:0:0:0:
367,106,47811,1,0,0:0:0:0:
369,149,47886,1,0,0:0:0:0:
388,188,47961,1,0,0:0:0:0:
421,217,48036,1,0,0:0:0:0:
512,208,48111,1,0,0:0:0:0:
504,251,48186,1,0,0:0:0:0:
464,256,48261,1,0,0:0:0:0:
456,299,48336,1,0,0:0:0:0:
416,304,48411,1,0,0:0:0:0:
408,347,48486,1,0,0:0:0:0:
368,336,48561,1,0,0:0:0:0:
360,379,48636,5,4,0:0:0:0:
320,384,48711,1,0,0:0:0:0:
278,369,48786,1,0,0:0:0:0:
243,343,48861,1,0,0:0:0:0:
217,308,48936,1,0,0:0:0:0:
202,267,49011,1,0,0:0:0:0:
199,223,49086,1,0,0:0:0:0:
194,124,49161,5,4,0:0:0:0:
188,77,49236,1,0,0:0:0:0:
145,59,49311,1,0,0:0:0:0:
108,90,49386,1,0,0:0:0:0:
118,136,49461,1,0,0:0:0:0:
163,149,49536,1,0,0:0:0:0:
258,174,49611,5,4,0:0:0:0:
307,171,49686,1,0,0:0:0:0:
352,152,49761,1,0,0:0:0:0:
396,131,49836,1,0,0:0:0:0:
443,142,49911,1,0,0:0:0:0:
472,181,49986,1,0,0:0:0:0:
469,230,50061,1,0,0:0:0:0:
436,265,50136,1,0,0:0:0:0:
356,324,50211,5,4,0:0:0:0:
307,315,50286,1,0,0:0:0:0:
218,272,50361,1,0,0:0:0:0:
169,280,50436,1,0,0:0:0:0:
81,326,50511,1,0,0:0:0:0:
32,318,50586,1,0,0:0:0:0:
24,219,50661,1,0,0:0:0:0:
57,182,50736,1,0,0:0:0:0:
136,243,50811,1,0,0:0:0:0:
169,280,50886,1,0,0:0:0:0:
226,345,50961,1,0,0:0:0:0:
256,306,51036,1,0,0:0:0:0:
333,227,51111,5,4,0:0:0:0:
362,181,51186,1,0,0:0:0:0:
364,127,51261,1,0,0:0:0:0:
339,79,51336,1,0,0:0:0:0:
292,51,51411,1,0,0:0:0:0:
238,51,51486,1,0,0:0:0:0:
159,126,51561,5,4,0:0:0:0:
186,172,51636,1,0,0:0:0:0:
234,199,51711,1,0,0:0:0:0:
288,199,51786,1,0,0:0:0:0:
336,173,51861,1,0,0:0:0:0:
364,126,51936,1,0,0:0:0:0:
465,60,52011,5,4,0:0:0:0:
479,118,52086,1,0,0:0:0:0:
474,178,52161,1,0,0:0:0:0:
451,233,52236,1,0,0:0:0:0:
410,278,52311,1,0,0:0:0:0:
358,307,52386,1,0,0:0:0:0:
224,303,52461,5,4,0:0:0:0:
161,298,52536,1,0,0:0:0:0:
134,241,52611,1,0,0:0:0:0:
171,190,52686,1,0,0:0:0:0:
234,199,52761,1,0,0:0:0:0:
257,257,52836,1,0,0:0:0:0:
88,338,52911,5,4,0:0:0:0:
54,267,52986,1,0,0:0:0:0:
64,189,53061,1,0,0:0:0:0:
117,130,53136,1,0,0:0:0:0:
292,122,53211,5,4,0:0:0:0:
341,187,53286,1,0,0:0:0:0:
362,264,53361,1,0,0:0:0:0:
345,347,53436,1,0,0:0:0:0:
257,257,53511,5,4,0:0:0:0:
203,195,53586,1,0,0:0:0:0:
200,115,53661,1,0,0:0:0:0:
247,49,53736,1,0,0:0:0:0:
326,28,53811,1,0,0:0:0:0:
400,60,53886,1,0,0:0:0:0:
438,131,53961,1,0,0:0:0:0:
423,211,54036,1,0,0:0:0:0:
362,264,54111,1,0,0:0:0:0:
280,252,54186,1,0,0:0:0:0:
196,258,54261,1,0,0:0:0:0:
119,286,54336,1,0,0:0:0:0:
123,363,54411,1,0,0:0:0:0:
197,384,54486,1,0,0:0:0:0:
241,320,54561,1,0,0:0:0:0:
196,258,54636,1,0,0:0:0:0:
139,197,54711,5,4,0:0:0:0:
110,124,54786,1,0,0:0:0:0:
162,65,54861,1,0,0:0:0:0:
239,83,54936,1,0,0:0:0:0:
255,169,55011,1,0,0:0:0:0:
180,142,55086,1,0,0:0:0:0:
162,65,55161,1,0,0:0:0:0:
218,9,55236,1,0,0:0:0:0:
295,26,55311,1,0,0:0:0:0:
322,100,55386,1,0,0:0:0:0:
347,175,55461,1,0,0:0:0:0:
423,199,55536,1,0,0:0:0:0:
487,153,55611,1,0,0:0:0:0:
488,73,55686,1,0,0:0:0:0:
425,25,55761,1,0,0:0:0:0:
349,48,55836,1,0,0:0:0:0:
323,126,55911,6,0,B|248:148|248:148|234:238|234:238|149:146|149:146|150:267|150:267|89:211|89:211|-3:151|-74:362|108:380|318:365,1,923.999971801759,4|0,0:0|0:0,0:0:0:0:
390,364,57111,5,0,0:0:0:0:
506,203,57261,1,0,0:0:0:0:
340,93,57411,1,0,0:0:0:0:
390,364,57561,2,0,L|350:147,1,197.99999395752
340,93,57861,2,0,L|376:290,1,197.99999395752
390,364,58161,6,0,L|314:-44,1,395.999987915039
13,67,58911,5,0,0:0:0:0:
388,362,59061,6,0,L|190:205,1,197.99999395752
181,197,59361,2,0,L|365:344,1,197.99999395752
388,360,59661,1,0,0:0:0:0:
414,300,59736,1,0,0:0:0:0:
420,234,59811,1,0,0:0:0:0:
404,170,59886,1,0,0:0:0:0:
368,115,59961,1,0,0:0:0:0:
317,75,60036,1,0,0:0:0:0:
248,47,60111,6,0,P|170:37|109:90,1,140.250002675057
64,128,60261,2,0,P|142:138|203:85,1,140.250002675057
235,48,60411,2,0,P|156:45|100:103,1,140.250002675057
59,144,60561,2,0,P|137:148|285:-12,1,280.500005350113
388,8,60861,5,0,0:0:0:0:
384,23,60936,1,0,0:0:0:0:
364,114,61011,5,0,0:0:0:0:
346,166,61086,1,0,0:0:0:0:
313,209,61161,1,0,0:0:0:0:
268,240,61236,1,0,0:0:0:0:
231,136,61311,5,0,0:0:0:0:
285,133,61386,1,0,0:0:0:0:
346,166,61461,1,0,0:0:0:0:
384,205,61536,1,0,0:0:0:0:
397,258,61611,5,0,0:0:0:0:
382,310,61686,1,0,0:0:0:0:
342,347,61761,1,0,0:0:0:0:
289,358,61836,1,0,0:0:0:0:
237,342,61911,2,0,P|160:310|115:151,1,247.500009441376
239,233,62211,2,0,P|150:168|103:162,1,110
111,163,62361,5,0,0:0:0:0:
150,124,62436,1,0,0:0:0:0:
197,97,62511,1,0,0:0:0:0:
250,83,62586,1,0,0:0:0:0:
332,89,62661,1,0,0:0:0:0:
307,138,62736,1,0,0:0:0:0:
250,83,62811,1,0,0:0:0:0:
275,34,62886,1,0,0:0:0:0:
370,14,62961,6,0,P|419:75|436:166,1,165
412,238,63261,1,0,0:0:0:0:
357,242,63336,1,0,0:0:0:0:
308,210,63411,1,0,0:0:0:0:
253,214,63486,1,0,0:0:0:0:
161,219,63561,6,0,P|74:210|26:118,1,165
24,69,63861,1,0,0:0:0:0:
85,80,63936,1,0,0:0:0:0:
112,122,64011,1,0,0:0:0:0:
170,93,64086,1,0,0:0:0:0:
279,63,64161,5,0,0:0:0:0:
266,138,64236,1,0,0:0:0:0:
253,214,64311,1,0,0:0:0:0:
240,290,64386,1,0,0:0:0:0:
227,365,64461,1,0,0:0:0:0:
287,338,64536,1,0,0:0:0:0:
336,294,64611,1,0,0:0:0:0:
368,237,64686,1,0,0:0:0:0:
379,174,64761,1,0,0:0:0:0:
439,152,64836,1,0,0:0:0:0:
487,193,64911,1,0,0:0:0:0:
476,255,64986,1,0,0:0:0:0:
417,277,65061,1,0,0:0:0:0:
368,237,65136,1,0,0:0:0:0:
309,229,65211,5,0,0:0:0:0:
251,198,65286,1,0,0:0:0:0:
219,141,65361,1,0,0:0:0:0:
223,76,65436,1,0,0:0:0:0:
262,24,65511,1,0,0:0:0:0:
324,14,65586,1,0,0:0:0:0:
395,26,65661,5,0,0:0:0:0:
394,25,65736,1,0,0:0:0:0:
393,25,65811,1,0,0:0:0:0:
393,25,65886,1,0,0:0:0:0:
393,25,65961,2,0,L|392:102,1,65.9999979858399
414,341,66111,5,0,0:0:0:0:
414,341,66186,1,0,0:0:0:0:
414,341,66261,2,0,B|421:305|421:305|414:263,1,65.9999979858399
292,138,66411,5,0,0:0:0:0:
292,138,66486,1,0,0:0:0:0:
292,138,66561,2,0,B|284:173|284:173|291:215,1,65.9999979858399
166,360,66711,5,0,0:0:0:0:
71,111,66861,1,0,0:0:0:0:
290,202,67011,1,0,0:0:0:0:
166,360,67161,2,0,L|90:166,1,197.99999395752
71,111,67461,2,0,L|144:307,1,197.99999395752
166,360,67761,6,0,L|22:-15,1,395.999987915039
436,96,68511,5,0,0:0:0:0:
290,92,68661,2,0,L|217:288,1,197.99999395752
195,341,68961,2,0,L|270:146,1,197.99999395752
290,92,69261,5,0,0:0:0:0:
239,51,69336,1,0,0:0:0:0:
174,41,69411,1,0,0:0:0:0:
113,64,69486,1,0,0:0:0:0:
72,115,69561,1,0,0:0:0:0:
62,179,69636,1,0,0:0:0:0:
85,240,69711,6,0,P|136:194|167:119,1,140.250002675057
113,64,69861,2,0,P|62:110|31:185,1,140.250002675057
89,254,70011,2,0,P|136:204|160:127,1,140.250002675057
102,76,70161,2,0,P|55:127|200:343,1,330.000012588501
321,49,70611,6,0,L|189:287,1,230.99999295044
253,315,70911,2,0,L|365:112,1,230.99999295044
409,175,71211,1,0,0:0:0:0:
253,315,71361,1,0,0:0:0:0:
321,48,71511,6,0,L|234:49,1,76.9999976501466
125,53,71661,1,0,0:0:0:0:
88,90,71736,1,0,0:0:0:0:
100,142,71811,1,0,0:0:0:0:
120,191,71886,1,0,0:0:0:0:
99,241,71961,1,0,0:0:0:0:
50,262,72036,1,0,0:0:0:0:
0,239,72111,1,0,0:0:0:0:
50,219,72186,1,0,0:0:0:0:
99,241,72261,1,0,0:0:0:0:
116,291,72336,1,0,0:0:0:0:
91,338,72411,5,0,0:0:0:0:
131,300,72486,1,0,0:0:0:0:
171,262,72561,1,0,0:0:0:0:
225,255,72636,1,0,0:0:0:0:
280,247,72711,5,0,0:0:0:0:
334,240,72786,1,0,0:0:0:0:
389,232,72861,1,0,0:0:0:0:
416,277,72936,1,0,0:0:0:0:
390,323,73011,1,0,0:0:0:0:
443,311,73086,1,0,0:0:0:0:
482,273,73161,1,0,0:0:0:0:
497,221,73236,1,0,0:0:0:0:
490,164,73311,1,0,0:0:0:0:
84,34,73511,1,0,0:0:0:0:
234,368,73711,1,0,0:0:0:0:
10,206,73911,1,0,0:0:0:0:
299,54,74061,2,0,L|423:124,1,110
490,164,74361,1,0,0:0:0:0:
189,110,74511,1,0,0:0:0:0:
473,73,74661,1,0,0:0:0:0:
415,303,74811,6,0,P|354:295|333:283,1,55
306,292,74961,2,0,P|367:300|388:312,1,55
234,368,75111,1,0,0:0:0:0:
203,323,75186,1,0,0:0:0:0:
200,269,75261,1,0,0:0:0:0:
226,221,75336,1,0,0:0:0:0:
274,194,75411,1,0,0:0:0:0:
309,153,75486,1,0,0:0:0:0:
312,100,75561,1,0,0:0:0:0:
282,54,75636,1,0,0:0:0:0:
169,24,75711,5,0,0:0:0:0:
167,77,75786,1,0,0:0:0:0:
228,130,75861,1,0,0:0:0:0:
181,159,75936,1,0,0:0:0:0:
99,212,76011,1,0,0:0:0:0:
122,261,76086,1,0,0:0:0:0:
203,323,76161,1,0,0:0:0:0:
168,365,76236,1,0,0:0:0:0:
79,355,76311,6,0,B|106:318|123:257|123:257|147:316|205:325|205:325|273:306|310:217|310:217|360:309|416:184|416:184|486:362|501:137,1,715
500,126,77361,1,0,0:0:0:0:
500,71,77436,1,0,0:0:0:0:
497,17,77511,6,0,B|435:22|435:22|426:89|395:165|236:228|236:228|314:217,1,440
477,269,78261,1,0,0:0:0:0:
477,269,78711,5,0,0:0:0:0:
434,167,78861,1,0,0:0:0:0:
366,82,79011,1,0,0:0:0:0:
175,255,79161,1,0,0:0:0:0:
366,82,79461,1,0,0:0:0:0:
175,255,79761,6,0,P|235:250|326:325,1,165.000006294251
224,327,80211,1,0,0:0:0:0:
317,126,80511,1,0,0:0:0:0:
224,327,80811,5,0,0:0:0:0:
317,126,80961,2,0,B|343:66|343:66|382:118|382:118|265:216|265:216,1,247.500009441376
182,132,81561,6,0,P|109:275|291:190,1,495.000018882752
198,231,82611,1,0,0:0:0:0:
276,70,82761,1,0,0:0:0:0:
443,318,82911,1,0,0:0:0:0:
482,40,83211,5,0,0:0:0:0:
454,236,83361,1,0,0:0:0:0:
448,276,83436,1,0,0:0:0:0:
443,318,83511,1,0,0:0:0:0:
402,325,83586,1,0,0:0:0:0:
362,319,83661,1,0,0:0:0:0:
326,299,83736,1,0,0:0:0:0:
299,268,83811,1,0,0:0:0:0:
285,229,83886,1,0,0:0:0:0:
285,188,83961,1,0,0:0:0:0:
281,148,84036,1,0,0:0:0:0:
257,114,84111,1,0,0:0:0:0:
220,98,84186,1,0,0:0:0:0:
180,102,84261,1,0,0:0:0:0:
147,127,84336,1,0,0:0:0:0:
131,164,84411,1,0,0:0:0:0:
136,205,84486,1,0,0:0:0:0:
115,284,84561,5,0,0:0:0:0:
76,297,84636,1,0,0:0:0:0:
11,228,84711,5,0,0:0:0:0:
10,186,84786,1,0,0:0:0:0:
18,146,84861,1,0,0:0:0:0:
34,108,84936,1,0,0:0:0:0:
56,73,85011,1,0,0:0:0:0:
85,44,85086,1,0,0:0:0:0:
119,21,85161,1,0,0:0:0:0:
157,5,85236,1,0,0:0:0:0:
198,0,85311,1,0,0:0:0:0:
239,0,85386,1,0,0:0:0:0:
279,4,85461,1,0,0:0:0:0:
317,20,85536,1,0,0:0:0:0:
352,43,85611,1,0,0:0:0:0:
381,72,85686,1,0,0:0:0:0:
404,106,85761,1,0,0:0:0:0:
420,144,85836,1,0,0:0:0:0:
412,226,85911,5,0,0:0:0:0:
388,259,85986,1,0,0:0:0:0:
354,283,86061,1,0,0:0:0:0:
315,295,86136,1,0,0:0:0:0:
274,293,86211,1,0,0:0:0:0:
236,278,86286,1,0,0:0:0:0:
156,253,86361,5,0,0:0:0:0:
120,232,86436,1,0,0:0:0:0:
57,178,86511,5,0,0:0:0:0:
90,154,86586,1,0,0:0:0:0:
130,150,86661,1,0,0:0:0:0:
168,166,86736,1,0,0:0:0:0:
246,192,86811,5,0,0:0:0:0:
287,193,86886,1,0,0:0:0:0:
368,183,86961,5,0,0:0:0:0:
400,157,87036,1,0,0:0:0:0:
448,90,87111,5,0,0:0:0:0:
420,59,87186,1,0,0:0:0:0:
384,39,87261,1,0,0:0:0:0:
344,30,87336,1,0,0:0:0:0:
269,65,87411,1,0,0:0:0:0:
240,94,87486,1,0,0:0:0:0:
208,120,87561,1,0,0:0:0:0:
174,143,87636,1,0,0:0:0:0:
84,148,87711,5,0,0:0:0:0:
45,143,87786,1,0,0:0:0:0:
28,177,87861,1,0,0:0:0:0:
56,204,87936,1,0,0:0:0:0:
62,173,88011,1,0,0:0:0:0:
97,193,88086,1,0,0:0:0:0:
121,226,88161,1,0,0:0:0:0:
129,266,88236,1,0,0:0:0:0:
119,306,88311,5,0,0:0:0:0:
360,207,88461,1,0,0:0:0:0:
119,306,88611,1,0,0:0:0:0:
360,207,88761,1,0,0:0:0:0:
119,306,89061,5,0,0:0:0:0:
360,207,89361,1,0,0:0:0:0:
119,306,89661,5,0,0:0:0:0:
79,298,89736,1,0,0:0:0:0:
55,265,89811,1,0,0:0:0:0:
57,130,89961,1,0,0:0:0:0:
228,328,90111,5,0,0:0:0:0:
18,355,90261,1,0,0:0:0:0:
240,108,90411,1,0,0:0:0:0:
18,355,90561,5,0,0:0:0:0:
57,364,90636,1,0,0:0:0:0:
98,356,90711,1,0,0:0:0:0:
132,334,90786,1,0,0:0:0:0:
155,300,90861,1,0,0:0:0:0:
162,260,90936,1,0,0:0:0:0:
154,220,91011,1,0,0:0:0:0:
130,186,91086,1,0,0:0:0:0:
56,128,91161,5,0,0:0:0:0:
65,88,91236,1,0,0:0:0:0:
90,55,91311,1,0,0:0:0:0:
125,34,91386,1,0,0:0:0:0:
165,27,91461,1,0,0:0:0:0:
370,255,91611,5,0,0:0:0:0:
130,186,91761,1,0,0:0:0:0:
162,161,91836,1,0,0:0:0:0:
199,142,91911,1,0,0:0:0:0:
239,132,91986,1,0,0:0:0:0:
280,130,92061,1,0,0:0:0:0:
320,136,92136,1,0,0:0:0:0:
356,152,92211,1,0,0:0:0:0:
263,313,92361,1,0,0:0:0:0:
427,94,92511,5,0,0:0:0:0:
444,131,92586,1,0,0:0:0:0:
446,171,92661,1,0,0:0:0:0:
431,210,92736,1,0,0:0:0:0:
377,272,92811,5,0,0:0:0:0:
342,294,92886,1,0,0:0:0:0:
303,307,92961,1,0,0:0:0:0:
262,312,93036,1,0,0:0:0:0:
182,296,93111,5,0,0:0:0:0:
171,256,93186,1,0,0:0:0:0:
173,215,93261,1,0,0:0:0:0:
186,176,93336,1,0,0:0:0:0:
210,143,93411,1,0,0:0:0:0:
243,118,93486,1,0,0:0:0:0:
314,75,93561,5,0,0:0:0:0:
339,43,93636,1,0,0:0:0:0:
378,34,93711,1,0,0:0:0:0:
414,53,93786,1,0,0:0:0:0:
431,90,93861,1,0,0:0:0:0:
420,129,93936,1,0,0:0:0:0:
387,152,94011,5,0,0:0:0:0:
117,69,94161,1,0,0:0:0:0:
453,212,94311,5,0,0:0:0:0:
415,228,94386,1,0,0:0:0:0:
374,232,94461,1,0,0:0:0:0:
333,224,94536,1,0,0:0:0:0:
251,210,94611,5,0,0:0:0:0:
209,209,94686,1,0,0:0:0:0:
169,215,94761,1,0,0:0:0:0:
129,227,94836,1,0,0:0:0:0:
60,273,94911,5,0,0:0:0:0:
23,256,94986,1,0,0:0:0:0:
6,220,95061,1,0,0:0:0:0:
12,180,95136,1,0,0:0:0:0:
62,86,95211,5,0,0:0:0:0:
102,92,95286,1,0,0:0:0:0:
143,98,95361,1,0,0:0:0:0:
184,105,95436,1,0,0:0:0:0:
224,111,95511,5,0,0:0:0:0:
203,361,95661,1,0,0:0:0:0:
280,104,95961,5,0,0:0:0:0:
149,323,96111,1,0,0:0:0:0:
309,109,96411,5,0,0:0:0:0:
112,270,96561,1,0,0:0:0:0:
336,123,96861,5,0,0:0:0:0:
95,207,97011,1,0,0:0:0:0:
355,146,97311,5,0,0:0:0:0:
100,142,97611,5,0,0:0:0:0:
31,96,97911,5,4,0:0:0:0:
55,74,97986,1,0,0:0:0:0:
86,64,98061,1,0,0:0:0:0:
119,65,98136,1,0,0:0:0:0:
149,79,98211,1,0,0:0:0:0:
171,103,98286,1,0,0:0:0:0:
183,134,98361,1,0,0:0:0:0:
183,167,98436,1,0,0:0:0:0:
169,191,98511,5,4,0:0:0:0:
153,163,98586,1,0,0:0:0:0:
154,130,98661,1,0,0:0:0:0:
171,103,98736,1,0,0:0:0:0:
199,87,98811,5,4,0:0:0:0:
218,113,98886,1,0,0:0:0:0:
234,160,98961,5,4,0:0:0:0:
235,188,99036,1,0,0:0:0:0:
249,235,99111,5,4,0:0:0:0:
274,214,99186,1,0,0:0:0:0:
290,186,99261,1,0,0:0:0:0:
294,153,99336,1,0,0:0:0:0:
286,122,99411,5,4,0:0:0:0:
314,139,99486,1,0,0:0:0:0:
331,167,99561,1,0,0:0:0:0:
334,200,99636,1,0,0:0:0:0:
323,230,99711,1,4,0:0:0:0:
349,211,99786,1,0,0:0:0:0:
364,181,99861,1,0,0:0:0:0:
365,149,99936,1,0,0:0:0:0:
351,119,100011,5,4,0:0:0:0:
384,121,100086,1,0,0:0:0:0:
411,138,100161,1,0,0:0:0:0:
426,167,100236,1,0,0:0:0:0:
424,200,100311,5,4,0:0:0:0:
455,191,100386,1,0,0:0:0:0:
485,203,100461,1,0,0:0:0:0:
504,230,100536,1,0,0:0:0:0:
504,262,100611,1,0,0:0:0:0:
485,289,100686,1,0,0:0:0:0:
454,300,100761,1,0,0:0:0:0:
423,291,100836,1,0,0:0:0:0:
402,265,100911,5,4,0:0:0:0:
393,297,100986,1,0,0:0:0:0:
367,316,101061,1,0,0:0:0:0:
334,315,101136,1,0,0:0:0:0:
310,293,101211,1,0,0:0:0:0:
304,262,101286,1,0,0:0:0:0:
319,233,101361,1,0,0:0:0:0:
348,220,101436,1,0,0:0:0:0:
379,227,101511,5,4,0:0:0:0:
362,200,101586,1,0,0:0:0:0:
368,168,101661,1,0,0:0:0:0:
394,149,101736,1,0,0:0:0:0:
426,152,101811,1,0,0:0:0:0:
447,177,101886,1,0,0:0:0:0:
446,209,101961,1,0,0:0:0:0:
424,232,102036,1,0,0:0:0:0:
379,227,102111,5,4,0:0:0:0:
347,223,102186,1,0,0:0:0:0:
315,215,102261,1,0,0:0:0:0:
284,204,102336,1,0,0:0:0:0:
254,190,102411,1,4,0:0:0:0:
226,173,102486,1,0,0:0:0:0:
200,152,102561,1,0,0:0:0:0:
176,129,102636,1,0,0:0:0:0:
116,86,102711,5,4,0:0:0:0:
64,117,102786,1,0,0:0:0:0:
37,170,102861,1,0,0:0:0:0:
43,229,102936,1,0,0:0:0:0:
79,277,103011,1,0,0:0:0:0:
134,298,103086,1,0,0:0:0:0:
193,287,103161,1,0,0:0:0:0:
237,247,103236,1,0,0:0:0:0:
258,195,103311,5,4,0:0:0:0:
210,230,103386,1,0,0:0:0:0:
193,287,103461,1,0,0:0:0:0:
215,342,103536,1,0,0:0:0:0:
265,373,103611,1,0,0:0:0:0:
324,366,103686,1,0,0:0:0:0:
367,325,103761,1,0,0:0:0:0:
376,267,103836,1,0,0:0:0:0:
373,176,103911,5,4,0:0:0:0:
349,120,103986,1,0,0:0:0:0:
305,79,104061,1,0,0:0:0:0:
248,59,104136,1,0,0:0:0:0:
188,64,104211,1,0,0:0:0:0:
135,92,104286,1,0,0:0:0:0:
98,139,104361,1,0,0:0:0:0:
83,197,104436,1,0,0:0:0:0:
90,253,104511,5,4,0:0:0:0:
131,209,104586,1,0,0:0:0:0:
147,151,104661,1,0,0:0:0:0:
135,92,104736,1,0,0:0:0:0:
54,49,104811,5,4,0:0:0:0:
25,102,104886,1,0,0:0:0:0:
8,160,104961,1,0,0:0:0:0:
5,220,105036,1,0,0:0:0:0:
22,310,105111,5,4,0:0:0:0:
73,339,105186,1,0,0:0:0:0:
133,335,105261,1,0,0:0:0:0:
181,300,105336,1,0,0:0:0:0:
203,244,105411,1,0,0:0:0:0:
219,187,105486,1,0,0:0:0:0:
257,140,105561,1,0,0:0:0:0:
309,110,105636,1,0,0:0:0:0:
399,120,105711,5,4,0:0:0:0:
421,66,105786,1,0,0:0:0:0:
392,16,105861,1,0,0:0:0:0:
334,10,105936,1,0,0:0:0:0:
295,54,106011,1,0,0:0:0:0:
309,110,106086,1,0,0:0:0:0:
342,160,106161,1,0,0:0:0:0:
361,217,106236,1,0,0:0:0:0:
361,308,106311,5,4,0:0:0:0:
309,338,106386,1,0,0:0:0:0:
250,348,106461,1,0,0:0:0:0:
191,334,106536,1,0,0:0:0:0:
142,299,106611,1,0,0:0:0:0:
111,248,106686,1,0,0:0:0:0:
100,188,106761,1,0,0:0:0:0:
114,130,106836,1,0,0:0:0:0:
156,52,106911,5,4,0:0:0:0:
183,39,106986,1,0,0:0:0:0:
212,32,107061,1,0,0:0:0:0:
242,30,107136,1,0,0:0:0:0:
251,120,107211,5,4,0:0:0:0:
280,133,107286,1,0,0:0:0:0:
309,140,107361,1,0,0:0:0:0:
339,142,107436,1,0,0:0:0:0:
365,61,107511,5,4,0:0:0:0:
424,68,107586,1,0,0:0:0:0:
472,103,107661,1,0,0:0:0:0:
498,157,107736,1,0,0:0:0:0:
494,217,107811,1,0,0:0:0:0:
461,267,107886,1,0,0:0:0:0:
408,295,107961,1,0,0:0:0:0:
348,294,108036,1,0,0:0:0:0:
229,274,108111,5,4,0:0:0:0:
170,261,108186,1,0,0:0:0:0:
111,274,108261,1,0,0:0:0:0:
64,311,108336,1,0,0:0:0:0:
172,364,108411,5,4,0:0:0:0:
231,354,108486,1,0,0:0:0:0:
348,294,108561,5,4,0:0:0:0:
324,229,108636,1,0,0:0:0:0:
290,111,108711,5,4,0:0:0:0:
290,52,108786,1,0,0:0:0:0:
332,10,108861,1,0,0:0:0:0:
391,12,108936,1,0,0:0:0:0:
432,54,109011,1,0,0:0:0:0:
430,113,109086,1,0,0:0:0:0:
387,153,109161,1,0,0:0:0:0:
328,151,109236,1,0,0:0:0:0:
208,166,109311,5,4,0:0:0:0:
181,112,109386,1,0,0:0:0:0:
182,52,109461,1,0,0:0:0:0:
210,0,109536,1,0,0:0:0:0:
309,93,109611,5,4,0:0:0:0:
328,151,109686,1,0,0:0:0:0:
331,211,109761,1,0,0:0:0:0:
318,270,109836,1,0,0:0:0:0:
209,303,109911,5,4,0:0:0:0:
150,305,109986,1,0,0:0:0:0:
107,264,110061,1,0,0:0:0:0:
107,205,110136,1,0,0:0:0:0:
149,164,110211,1,0,0:0:0:0:
208,166,110286,1,0,0:0:0:0:
248,209,110361,1,0,0:0:0:0:
245,268,110436,1,0,0:0:0:0:
187,384,110511,5,4,0:0:0:0:
127,377,110586,1,0,0:0:0:0:
74,348,110661,1,0,0:0:0:0:
37,301,110736,1,0,0:0:0:0:
22,243,110811,1,0,0:0:0:0:
30,183,110886,1,0,0:0:0:0:
62,132,110961,1,0,0:0:0:0:
110,97,111036,1,0,0:0:0:0:
234,81,111111,5,4,0:0:0:0:
282,116,111186,1,0,0:0:0:0:
317,165,111261,1,0,0:0:0:0:
335,222,111336,1,0,0:0:0:0:
329,285,111411,1,0,0:0:0:0:
381,305,111486,1,0,0:0:0:0:
419,263,111561,1,0,0:0:0:0:
391,213,111636,1,0,0:0:0:0:
248,251,111711,5,4,0:0:0:0:
253,311,111786,1,0,0:0:0:0:
350,383,111861,5,4,0:0:0:0:
409,379,111936,1,0,0:0:0:0:
499,326,112011,5,4,0:0:0:0:
502,265,112086,1,0,0:0:0:0:
470,166,112161,5,4,0:0:0:0:
421,130,112236,1,0,0:0:0:0:
297,98,112311,5,4,0:0:0:0:
237,100,112386,1,0,0:0:0:0:
185,131,112461,1,0,0:0:0:0:
155,182,112536,1,0,0:0:0:0:
145,303,112611,5,4,0:0:0:0:
193,335,112686,1,0,0:0:0:0:
242,306,112761,1,0,0:0:0:0:
237,249,112836,1,0,0:0:0:0:
155,182,112911,5,4,0:0:0:0:
111,147,112986,1,0,0:0:0:0:
64,178,113061,1,0,0:0:0:0:
79,232,113136,1,0,0:0:0:0:
135,234,113211,1,0,0:0:0:0:
155,182,113286,1,0,0:0:0:0:
185,131,113361,1,0,0:0:0:0:
237,100,113436,1,0,0:0:0:0:
350,91,113511,5,4,0:0:0:0:
359,150,113586,1,0,0:0:0:0:
337,207,113661,1,0,0:0:0:0:
292,245,113736,1,0,0:0:0:0:
175,276,113811,5,4,0:0:0:0:
135,234,113886,1,0,0:0:0:0:
155,181,113961,1,0,0:0:0:0:
212,176,114036,1,0,0:0:0:0:
292,245,114111,5,4,0:0:0:0:
334,282,114186,1,0,0:0:0:0:
312,334,114261,1,0,0:0:0:0:
256,329,114336,1,0,0:0:0:0:
244,274,114411,5,4,0:0:0:0:
292,245,114486,1,0,0:0:0:0:
337,207,114561,1,0,0:0:0:0:
359,150,114636,1,0,0:0:0:0:
315,37,114711,5,4,0:0:0:0:
255,27,114786,1,0,0:0:0:0:
196,37,114861,1,0,0:0:0:0:
142,66,114936,1,0,0:0:0:0:
100,109,115011,1,0,0:0:0:0:
74,163,115086,1,0,0:0:0:0:
62,284,115161,5,4,0:0:0:0:
112,317,115236,1,0,0:0:0:0:
227,382,115311,5,4,0:0:0:0:
289,371,115386,1,0,0:0:0:0:
311,312,115461,1,0,0:0:0:0:
271,263,115536,1,0,0:0:0:0:
209,274,115611,1,0,0:0:0:0:
187,333,115686,1,0,0:0:0:0:
289,371,115761,1,4,0:0:0:0:
311,312,115836,1,4,0:0:0:0:
318,169,115911,5,0,0:0:0:0:
334,102,115986,1,0,0:0:0:0:
399,83,116061,1,0,0:0:0:0:
448,131,116136,1,0,0:0:0:0:
432,197,116211,1,0,0:0:0:0:
366,215,116286,1,0,0:0:0:0:
399,83,116361,5,4,0:0:0:0:
448,131,116436,1,0,0:0:0:0:
477,286,116511,5,4,0:0:0:0:
405,292,116586,1,0,0:0:0:0:
271,243,116661,5,4,0:0:0:0:
199,249,116736,1,0,0:0:0:0:
56,245,116811,5,4,0:0:0:0:
50,173,116886,1,0,0:0:0:0:
164,97,116961,5,4,0:0:0:0:
210,139,117036,1,0,0:0:0:0:
199,249,117111,5,4,0:0:0:0:
247,300,117186,1,0,0:0:0:0:
316,311,117261,1,4,0:0:0:0:
378,278,117336,1,0,0:0:0:0:
407,214,117411,1,4,0:0:0:0:
391,146,117486,1,0,0:0:0:0:
337,101,117561,1,4,0:0:0:0:
267,98,117636,1,0,0:0:0:0:
210,139,117711,6,0,L|174:100,1,47.6666644846599
186,180,117811,2,0,L|134:174,1,47.6666644846599
195,228,117911,2,0,L|151:256,1,47.6666644846599
233,258,118011,2,0,L|217:309,1,47.6666644846599
281,257,118111,2,0,L|301:306,1,47.6666644846599
317,226,118211,2,0,L|364:250,1,47.6666644846599
337,179,118311,5,0,0:0:0:0:
495,134,118461,1,0,0:0:0:0:
351,52,118611,1,0,0:0:0:0:
311,41,118686,1,0,0:0:0:0:
270,44,118761,1,0,0:0:0:0:
232,60,118836,1,0,0:0:0:0:
195,90,118911,1,0,0:0:0:0:
164,117,118986,1,0,0:0:0:0:
125,127,119061,1,0,0:0:0:0:
85,117,119136,1,0,0:0:0:0:
55,89,119211,5,0,0:0:0:0:
299,122,119361,1,0,0:0:0:0:
124,50,119511,1,0,0:0:0:0:
156,24,119586,1,0,0:0:0:0:
195,14,119661,1,0,0:0:0:0:
236,21,119736,1,0,0:0:0:0:
270,44,119811,1,0,0:0:0:0:
310,51,119886,1,0,0:0:0:0:
351,50,119961,1,0,0:0:0:0:
392,41,120036,1,0,0:0:0:0:
432,39,120111,1,0,0:0:0:0:
461,66,120186,1,0,0:0:0:0:
462,106,120261,1,0,0:0:0:0:
433,134,120336,1,0,0:0:0:0:
393,133,120411,1,0,0:0:0:0:
366,103,120486,1,0,0:0:0:0:
377,69,120561,1,0,0:0:0:0:
413,70,120636,1,0,0:0:0:0:
408,106,120711,5,0,0:0:0:0:
227,217,120861,1,0,0:0:0:0:
493,226,121011,1,0,0:0:0:0:
452,230,121086,1,0,0:0:0:0:
411,225,121161,1,0,0:0:0:0:
372,211,121236,1,0,0:0:0:0:
337,188,121311,1,0,0:0:0:0:
309,159,121386,1,0,0:0:0:0:
288,123,121461,1,0,0:0:0:0:
275,84,121536,1,0,0:0:0:0:
271,43,121611,5,0,0:0:0:0:
416,89,121761,1,0,0:0:0:0:
170,27,121911,1,0,0:0:0:0:
165,67,121986,1,0,0:0:0:0:
167,109,122061,1,0,0:0:0:0:
176,149,122136,1,0,0:0:0:0:
192,187,122211,1,0,0:0:0:0:
214,221,122286,1,0,0:0:0:0:
242,252,122361,1,0,0:0:0:0:
201,254,122436,1,0,0:0:0:0:
175,275,122511,1,0,0:0:0:0:
133,276,122586,1,0,0:0:0:0:
117,246,122661,1,0,0:0:0:0:
75,247,122736,1,0,0:0:0:0:
49,268,122811,1,0,0:0:0:0:
7,269,122886,1,0,0:0:0:0:
18,229,122961,1,0,0:0:0:0:
36,192,123036,1,0,0:0:0:0:
37,151,123111,5,0,0:0:0:0:
311,133,123261,1,0,0:0:0:0:
117,163,123411,1,0,0:0:0:0:
128,123,123486,1,0,0:0:0:0:
148,87,123561,1,0,0:0:0:0:
178,59,123636,1,0,0:0:0:0:
213,38,123711,1,0,0:0:0:0:
253,28,123786,1,0,0:0:0:0:
294,28,123861,1,0,0:0:0:0:
334,38,123936,1,0,0:0:0:0:
370,59,124011,5,0,0:0:0:0:
186,246,124161,1,0,0:0:0:0:
455,181,124311,1,0,0:0:0:0:
462,221,124386,1,0,0:0:0:0:
455,261,124461,1,0,0:0:0:0:
434,297,124536,1,0,0:0:0:0:
402,322,124611,1,0,0:0:0:0:
363,335,124686,1,0,0:0:0:0:
322,333,124761,1,0,0:0:0:0:
284,316,124836,1,0,0:0:0:0:
258,283,124911,1,0,0:0:0:0:
225,259,124986,1,0,0:0:0:0:
186,246,125061,1,0,0:0:0:0:
145,245,125136,1,0,0:0:0:0:
105,255,125211,1,0,0:0:0:0:
70,276,125286,1,0,0:0:0:0:
42,307,125361,1,0,0:0:0:0:
24,344,125436,1,0,0:0:0:0:
18,384,125511,5,0,0:0:0:0:
351,200,125661,1,0,0:0:0:0:
245,89,125811,1,0,0:0:0:0:
277,63,125886,1,0,0:0:0:0:
315,47,125961,1,0,0:0:0:0:
355,41,126036,1,0,0:0:0:0:
396,47,126111,1,0,0:0:0:0:
434,63,126186,1,0,0:0:0:0:
466,88,126261,1,0,0:0:0:0:
490,121,126336,1,0,0:0:0:0:
505,160,126411,5,0,0:0:0:0:
245,89,126561,1,0,0:0:0:0:
215,251,126711,5,0,0:0:0:0:
178,234,126786,1,0,0:0:0:0:
147,207,126861,1,0,0:0:0:0:
124,172,126936,1,0,0:0:0:0:
51,133,127011,5,0,0:0:0:0:
41,172,127086,1,0,0:0:0:0:
44,213,127161,1,0,0:0:0:0:
60,251,127236,1,0,0:0:0:0:
112,315,127311,5,0,0:0:0:0:
150,329,127386,1,0,0:0:0:0:
191,337,127461,1,0,0:0:0:0:
232,338,127536,1,0,0:0:0:0:
312,319,127611,5,0,0:0:0:0:
341,290,127686,1,0,0:0:0:0:
362,255,127761,1,0,0:0:0:0:
373,215,127836,1,0,0:0:0:0:
368,133,127911,5,0,0:0:0:0:
344,99,127986,1,0,0:0:0:0:
277,69,128061,5,0,0:0:0:0:
236,70,128136,1,0,0:0:0:0:
198,86,128211,1,0,0:0:0:0:
168,114,128286,1,0,0:0:0:0:
149,151,128361,1,0,0:0:0:0:
131,187,128436,1,0,0:0:0:0:
98,212,128511,1,0,0:0:0:0:
58,219,128586,1,0,0:0:0:0:
19,208,128661,1,0,0:0:0:0:
0,172,128736,1,0,0:0:0:0:
49,105,128811,5,0,0:0:0:0:
88,94,128886,1,0,0:0:0:0:
168,114,128961,5,0,0:0:0:0:
207,126,129036,1,0,0:0:0:0:
240,150,129111,1,0,0:0:0:0:
263,184,129186,1,0,0:0:0:0:
275,223,129261,1,0,0:0:0:0:
272,264,129336,1,0,0:0:0:0:
285,303,129411,1,0,0:0:0:0:
318,326,129486,1,0,0:0:0:0:
358,325,129561,1,0,0:0:0:0:
390,300,129636,1,0,0:0:0:0:
401,261,129711,1,0,0:0:0:0:
386,223,129786,1,0,0:0:0:0:
380,183,129861,1,0,0:0:0:0:
386,142,129936,1,0,0:0:0:0:
402,104,130011,1,0,0:0:0:0:
428,72,130086,1,0,0:0:0:0:
461,48,130161,1,0,0:0:0:0:
500,34,130236,1,0,0:0:0:0:
494,125,130311,5,0,0:0:0:0:
467,156,130386,1,0,0:0:0:0:
380,183,130461,5,0,0:0:0:0:
340,174,130536,5,0,0:0:0:0:
301,160,130611,1,0,0:0:0:0:
265,141,130686,1,0,0:0:0:0:
231,117,130761,1,0,0:0:0:0:
201,89,130836,1,0,0:0:0:0:
167,66,130911,1,0,0:0:0:0:
127,62,130986,1,0,0:0:0:0:
90,79,131061,1,0,0:0:0:0:
66,113,131136,1,0,0:0:0:0:
80,194,131211,5,0,0:0:0:0:
111,221,131286,1,0,0:0:0:0:
185,256,131361,5,0,0:0:0:0:
223,269,131436,1,0,0:0:0:0:
264,271,131511,1,0,0:0:0:0:
304,260,131586,1,0,0:0:0:0:
339,239,131661,1,0,0:0:0:0:
367,209,131736,1,0,0:0:0:0:
385,172,131811,1,0,0:0:0:0:
391,131,131886,1,0,0:0:0:0:
375,94,131961,1,0,0:0:0:0:
388,55,132036,1,0,0:0:0:0:
423,34,132111,1,0,0:0:0:0:
463,41,132186,1,0,0:0:0:0:
488,72,132261,1,0,0:0:0:0:
488,112,132336,1,0,0:0:0:0:
462,143,132411,1,0,0:0:0:0:
422,149,132486,1,0,0:0:0:0:
381,152,132561,1,0,0:0:0:0:
339,150,132636,1,0,0:0:0:0:
258,135,132711,5,0,0:0:0:0:
217,141,132786,1,0,0:0:0:0:
134,144,132861,5,0,0:0:0:0:
95,155,132936,1,0,0:0:0:0:
78,191,133011,1,0,0:0:0:0:
95,228,133086,1,0,0:0:0:0:
134,239,133161,1,0,0:0:0:0:
167,217,133236,1,0,0:0:0:0:
217,141,133311,1,0,0:0:0:0:
219,100,133386,1,0,0:0:0:0:
248,22,133461,5,0,0:0:0:0:
288,29,133536,1,0,0:0:0:0:
323,50,133611,1,0,0:0:0:0:
348,82,133686,1,0,0:0:0:0:
360,122,133761,1,0,0:0:0:0:
356,163,133836,1,0,0:0:0:0:
332,254,133911,5,0,0:0:0:0:
318,292,133986,1,0,0:0:0:0:
285,316,134061,1,0,0:0:0:0:
203,324,134136,5,0,0:0:0:0:
169,300,134211,1,0,0:0:0:0:
138,272,134286,1,0,0:0:0:0:
118,192,134361,5,0,0:0:0:0:
119,150,134436,1,0,0:0:0:0:
161,79,134511,1,0,0:0:0:0:
197,60,134586,1,0,0:0:0:0:
280,57,134661,1,0,0:0:0:0:
305,89,134736,1,0,0:0:0:0:
340,163,134811,1,0,0:0:0:0:
349,202,134886,1,0,0:0:0:0:
377,231,134961,1,0,0:0:0:0:
417,240,135036,1,0,0:0:0:0:
486,286,135111,1,0,0:0:0:0:
457,315,135186,1,0,0:0:0:0:
421,335,135261,1,0,0:0:0:0:
381,343,135336,1,0,0:0:0:0:
340,339,135411,1,0,0:0:0:0:
302,323,135486,1,0,0:0:0:0:
271,297,135561,1,0,0:0:0:0:
249,262,135636,1,0,0:0:0:0:
238,223,135711,1,0,0:0:0:0:
239,181,135786,1,0,0:0:0:0:
245,141,135861,1,0,0:0:0:0:
227,105,135936,1,0,0:0:0:0:
191,85,136011,1,0,0:0:0:0:
151,89,136086,1,0,0:0:0:0:
119,114,136161,1,0,0:0:0:0:
108,153,136236,1,0,0:0:0:0:
108,236,136311,5,0,0:0:0:0:
107,275,136386,1,0,0:0:0:0:
75,299,136461,1,0,0:0:0:0:
37,289,136536,1,0,0:0:0:0:
22,252,136611,1,0,0:0:0:0:
41,217,136686,1,0,0:0:0:0:
81,212,136761,1,0,0:0:0:0:
120,225,136836,1,0,0:0:0:0:
161,230,136911,1,0,0:0:0:0:
202,230,136986,1,0,0:0:0:0:
243,222,137061,1,0,0:0:0:0:
281,208,137136,1,0,0:0:0:0:
317,188,137211,6,0,L|365:158,1,41.2500015735627
411,58,137361,2,0,L|363:88,1,41.2500015735627
139,16,137511,2,0,L|184:169,1,148.49999546814
202,230,137811,1,0,0:0:0:0:
139,16,137961,2,0,L|184:169,1,148.49999546814
202,230,138261,2,0,L|157:77,1,148.49999546814
139,16,138561,2,0,L|231:328,1,296.99999093628
390,81,139311,1,0,0:0:0:0:
139,16,139461,2,0,L|184:169,1,148.49999546814
202,230,139761,2,0,L|157:77,1,148.49999546814
139,18,140061,5,0,0:0:0:0:
103,52,140136,1,0,0:0:0:0:
78,94,140211,1,0,0:0:0:0:
64,142,140286,1,0,0:0:0:0:
62,191,140361,1,0,0:0:0:0:
73,239,140436,1,0,0:0:0:0:
109,275,140511,6,0,P|169:275|248:221,1,140.250002675057
283,157,140661,2,0,P|223:157|144:211,1,140.250002675057
109,275,140811,2,0,P|169:275|248:221,1,140.250002675057
282,156,140961,6,0,P|128:198|53:340,1,330.000012588501
408,262,141411,6,0,L|265:303,1,148.49999546814
194,325,141711,2,0,L|336:283,1,148.49999546814
408,262,142011,6,0,L|265:303,1,148.49999546814
190,326,142311,1,0,0:0:0:0:
186,276,142386,1,0,0:0:0:0:
193,227,142461,1,0,0:0:0:0:
210,181,142536,1,0,0:0:0:0:
236,139,142611,1,0,0:0:0:0:
271,103,142686,1,0,0:0:0:0:
312,76,142761,2,0,P|358:102|290:120,1,148.49999546814
271,103,143061,5,0,0:0:0:0:
228,79,143136,1,0,0:0:0:0:
179,80,143211,1,0,0:0:0:0:
138,106,143286,1,0,0:0:0:0:
101,137,143361,6,0,P|123:184|213:246,1,148.49999546814
248,258,143661,1,0,0:0:0:0:
296,254,143736,1,0,0:0:0:0:
339,277,143811,1,0,0:0:0:0:
362,320,143886,1,0,0:0:0:0:
358,369,143961,5,0,0:0:0:0:
366,320,144036,1,0,0:0:0:0:
380,272,144111,1,0,0:0:0:0:
399,227,144186,1,0,0:0:0:0:
424,184,144261,1,0,0:0:0:0:
453,144,144336,1,0,0:0:0:0:
487,108,144411,5,0,0:0:0:0:
444,132,144486,1,0,0:0:0:0:
396,146,144561,1,0,0:0:0:0:
347,152,144636,1,0,0:0:0:0:
298,148,144711,1,0,0:0:0:0:
251,134,144786,1,0,0:0:0:0:
207,111,144861,1,0,0:0:0:0:
168,80,144936,1,0,0:0:0:0:
124,57,145011,1,0,0:0:0:0:
75,57,145086,1,0,0:0:0:0:
32,79,145161,1,0,0:0:0:0:
4,120,145236,1,0,0:0:0:0:
0,168,145311,1,0,0:0:0:0:
16,214,145386,1,0,0:0:0:0:
54,246,145461,1,0,0:0:0:0:
101,257,145536,1,0,0:0:0:0:
149,244,145611,1,0,0:0:0:0:
185,211,145686,1,0,0:0:0:0:
207,168,145761,5,0,0:0:0:0:
211,216,145836,1,0,0:0:0:0:
243,253,145911,1,0,0:0:0:0:
290,264,145986,1,0,0:0:0:0:
335,246,146061,1,0,0:0:0:0:
361,204,146136,1,0,0:0:0:0:
358,156,146211,1,0,0:0:0:0:
327,118,146286,1,0,0:0:0:0:
280,106,146361,1,0,0:0:0:0:
245,72,146436,1,0,0:0:0:0:
247,24,146511,1,0,0:0:0:0:
284,0,146586,1,0,0:0:0:0:
332,1,146661,1,0,0:0:0:0:
358,41,146736,1,0,0:0:0:0:
352,85,146811,1,0,0:0:0:0:
327,118,146886,1,0,0:0:0:0:
303,161,146961,1,0,0:0:0:0:
164,94,147111,6,0,L|87:60,1,49.4999984893799
0,112,147261,2,0,L|84:138,1,49.4999984893799
164,94,147411,2,0,L|86:59,1,49.4999984893799
0,112,147561,2,0,L|175:157,1,148.49999546814
193,163,147861,2,0,L|18:118,1,148.49999546814
0,112,148161,6,0,L|324:196,1,296.99999093628
399,86,148911,5,0,0:0:0:0:
431,255,149061,2,0,L|256:300,1,148.49999546814
238,306,149361,2,0,L|413:261,1,148.49999546814
431,255,149661,5,0,0:0:0:0:
476,242,149736,1,0,0:0:0:0:
506,204,149811,1,0,0:0:0:0:
511,155,149886,1,0,0:0:0:0:
489,111,149961,1,0,0:0:0:0:
448,86,150036,1,0,0:0:0:0:
399,86,150111,6,0,P|339:86|260:140,1,140.250002675057
225,204,150261,2,0,P|285:204|364:150,1,140.250002675057
399,86,150411,2,0,P|339:86|260:140,1,140.250002675057
225,204,150561,6,0,P|285:204|455:12,1,330.000012588501
295,44,151011,2,0,L|120:89,1,148.49999546814
102,95,151311,2,0,L|277:50,1,148.49999546814
296,42,151611,5,0,0:0:0:0:
343,345,151761,1,0,0:0:0:0:
81,261,151911,1,0,0:0:0:0:
321,135,152061,5,0,0:0:0:0:
325,154,152136,1,0,0:0:0:0:
330,181,152211,1,0,0:0:0:0:
353,223,152286,1,0,0:0:0:0:
397,246,152361,1,0,0:0:0:0:
445,241,152436,1,0,0:0:0:0:
483,210,152511,1,0,0:0:0:0:
499,164,152586,1,0,0:0:0:0:
486,117,152661,1,0,0:0:0:0:
450,84,152736,1,0,0:0:0:0:
406,75,152811,1,0,0:0:0:0:
356,77,152886,1,0,0:0:0:0:
309,61,152961,5,0,0:0:0:0:
304,110,153036,1,0,0:0:0:0:
285,156,153111,1,0,0:0:0:0:
256,196,153186,1,0,0:0:0:0:
216,226,153261,1,0,0:0:0:0:
171,245,153336,1,0,0:0:0:0:
124,248,153411,1,0,0:0:0:0:
161,215,153486,1,0,0:0:0:0:
206,197,153561,1,0,0:0:0:0:
256,196,153636,1,0,0:0:0:0:
302,211,153711,5,0,0:0:0:0:
17,353,153911,5,0,0:0:0:0:
458,37,154111,5,0,0:0:0:0:
245,357,154311,2,0,L|186:249,1,98.9999969787599
126,75,154611,5,0,0:0:0:0:
156,36,154686,1,0,0:0:0:0:
200,14,154761,1,0,0:0:0:0:
249,14,154836,1,0,0:0:0:0:
293,34,154911,1,0,0:0:0:0:
324,72,154986,1,0,0:0:0:0:
336,120,155061,1,0,0:0:0:0:
326,168,155136,1,0,0:0:0:0:
295,207,155211,1,0,0:0:0:0:
126,75,155361,5,0,0:0:0:0:
172,62,155436,1,0,0:0:0:0:
216,82,155511,1,0,0:0:0:0:
237,126,155586,1,0,0:0:0:0:
224,173,155661,1,0,0:0:0:0:
184,200,155736,1,0,0:0:0:0:
135,195,155811,1,0,0:0:0:0:
87,188,155886,1,0,0:0:0:0:
44,210,155961,1,0,0:0:0:0:
21,253,156036,1,0,0:0:0:0:
27,301,156111,1,0,0:0:0:0:
60,337,156186,1,0,0:0:0:0:
108,347,156261,1,0,0:0:0:0:
153,328,156336,1,0,0:0:0:0:
178,287,156411,2,0,P|194:208|177:152,1,98.9999969787599
210,69,156711,5,0,0:0:0:0:
239,29,156786,1,0,0:0:0:0:
279,1,156861,1,0,0:0:0:0:
326,0,156936,1,0,0:0:0:0:
376,0,157011,1,0,0:0:0:0:
422,4,157086,1,0,0:0:0:0:
461,34,157161,1,0,0:0:0:0:
489,75,157236,1,0,0:0:0:0:
503,122,157311,1,0,0:0:0:0:
501,171,157386,1,0,0:0:0:0:
484,217,157461,1,0,0:0:0:0:
453,256,157536,1,0,0:0:0:0:
412,283,157611,1,0,0:0:0:0:
364,296,157686,1,0,0:0:0:0:
277,292,157761,5,0,0:0:0:0:
232,271,157836,1,0,0:0:0:0:
188,182,157911,5,0,0:0:0:0:
157,144,157986,1,0,0:0:0:0:
112,126,158061,1,0,0:0:0:0:
63,133,158136,1,0,0:0:0:0:
24,162,158211,1,0,0:0:0:0:
5,207,158286,1,0,0:0:0:0:
10,256,158361,1,0,0:0:0:0:
38,296,158436,1,0,0:0:0:0:
161,316,158511,5,0,0:0:0:0:
206,296,158586,1,0,0:0:0:0:
290,194,158661,5,0,0:0:0:0:
308,148,158736,1,0,0:0:0:0:
323,46,158811,1,0,0:0:0:0:
369,31,158886,1,0,0:0:0:0:
416,46,158961,1,0,0:0:0:0:
446,84,159036,1,0,0:0:0:0:
450,132,159111,1,0,0:0:0:0:
380,119,159186,1,0,0:0:0:0:
309,123,159261,1,0,0:0:0:0:
241,145,159336,1,0,0:0:0:0:
181,183,159411,1,0,0:0:0:0:
132,236,159486,1,0,0:0:0:0:
66,252,159561,1,0,0:0:0:0:
14,207,159636,1,0,0:0:0:0:
22,139,159711,1,0,0:0:0:0:
82,106,159786,1,0,0:0:0:0:
144,137,159861,1,0,0:0:0:0:
204,175,159936,1,0,0:0:0:0:
260,219,160011,1,0,0:0:0:0:
311,270,160086,1,0,0:0:0:0:
356,325,160161,1,0,0:0:0:0:
395,385,160236,1,0,0:0:0:0:
504,293,160311,5,0,0:0:0:0:
505,221,160386,1,0,0:0:0:0:
483,91,160461,1,0,0:0:0:0:
412,86,160536,1,0,0:0:0:0:
344,109,160611,1,0,0:0:0:0:
291,155,160686,1,0,0:0:0:0:
260,219,160761,1,0,0:0:0:0:
224,279,160836,1,0,0:0:0:0:
156,290,160911,5,0,0:0:0:0:
124,42,161061,1,0,0:0:0:0:
156,290,161211,2,0,P|79:311|17:317,1,142.99999345398
256,192,161511,12,0,170961,0:0:0:0:
256,192,171111,5,0,0:0:0:0:
131,128,171261,1,0,0:0:0:0:
131,128,171561,5,0,0:0:0:0:
256,192,171861,5,0,0:0:0:0:
131,128,172161,2,0,L|179:159,1,41.2500015735627
381,257,172461,5,0,0:0:0:0:
256,192,172611,1,0,0:0:0:0:
131,128,172761,1,0,0:0:0:0:
131,128,173061,5,0,0:0:0:0:
112,164,173136,1,0,0:0:0:0:
93,201,173211,1,0,0:0:0:0:
313,95,173361,1,0,0:0:0:0:
194,251,173511,6,0,L|217:288,1,41.2500015735627
351,349,173961,6,0,L|328:386,1,41.2500015735627
350,348,174411,5,0,0:0:0:0:
315,210,174561,1,0,0:0:0:0:
290,370,174711,1,0,0:0:0:0:
305,229,174861,1,0,0:0:0:0:
227,371,175011,1,0,0:0:0:0:
289,243,175161,1,0,0:0:0:0:
167,351,175311,5,0,0:0:0:0:
269,252,175461,1,0,0:0:0:0:
118,311,175611,1,0,0:0:0:0:
248,253,175761,1,0,0:0:0:0:
169,100,175911,6,0,L|186:140,1,41.2500015735627
366,249,176211,2,0,L|349:289,1,41.2500015735627
496,64,176511,6,0,L|243:94,1,247.500009441376
250,93,177411,5,0,0:0:0:0:
242,280,177561,1,0,0:0:0:0:
250,93,177711,5,0,0:0:0:0:
251,51,177786,1,0,0:0:0:0:
251,10,177861,2,0,L|248:192,1,165.000006294251
242,280,178311,5,0,0:0:0:0:
334,196,178461,1,0,0:0:0:0:
137,101,178611,1,0,0:0:0:0:
415,78,178761,1,0,0:0:0:0:
87,29,178911,6,0,P|68:68|70:168,1,123.750004720688
80,184,179211,1,0,0:0:0:0:
118,178,179286,1,0,0:0:0:0:
125,140,179361,1,0,0:0:0:0:
92,121,179436,1,0,0:0:0:0:
63,147,179511,6,0,P|83:194|204:233,1,165.000006294251
325,238,179961,1,0,0:0:0:0:
349,233,180036,1,0,0:0:0:0:
368,220,180111,1,0,0:0:0:0:
397,193,180186,1,0,0:0:0:0:
434,207,180261,1,0,0:0:0:0:
439,245,180336,1,0,0:0:0:0:
408,269,180411,1,0,0:0:0:0:
328,80,180561,1,0,0:0:0:0:
403,229,180711,5,0,0:0:0:0:
252,11,180861,2,0,P|253:77|227:164,1,123.750004720688
152,190,181161,2,0,P|151:124|177:37,1,123.750004720688
252,11,181461,6,0,P|255:47|253:83,1,41.2500015735627
242,133,181611,1,0,0:0:0:0:
233,173,181686,1,0,0:0:0:0:
229,214,181761,2,0,P|266:250|363:204,1,165.000006294251
468,110,182211,5,0,0:0:0:0:
467,300,182361,1,0,0:0:0:0:
489,145,182511,1,0,0:0:0:0:
437,328,182661,1,0,0:0:0:0:
500,184,182811,1,0,0:0:0:0:
401,347,182961,1,0,0:0:0:0:
500,225,183111,1,0,0:0:0:0:
360,355,183261,1,0,0:0:0:0:
489,265,183411,5,0,0:0:0:0:
467,300,183486,1,0,0:0:0:0:
437,328,183561,1,0,0:0:0:0:
400,346,183636,1,0,0:0:0:0:
360,355,183711,6,0,P|297:326|201:186,1,206.250007867813
196,183,184161,1,0,0:0:0:0:
238,65,184311,1,0,0:0:0:0:
260,98,184386,1,0,0:0:0:0:
259,139,184461,1,0,0:0:0:0:
235,171,184536,1,0,0:0:0:0:
196,183,184611,6,0,P|122:175|89:118,1,123.750004720688
79,107,184911,1,0,0:0:0:0:
302,232,185061,1,0,0:0:0:0:
27,247,185211,1,0,0:0:0:0:
376,325,185361,1,0,0:0:0:0:
21,372,185511,5,0,0:0:0:0:
61,368,185586,1,0,0:0:0:0:
100,354,185661,1,0,0:0:0:0:
134,331,185736,1,0,0:0:0:0:
162,300,185811,1,0,0:0:0:0:
180,264,185886,1,0,0:0:0:0:
196,183,185961,5,0,0:0:0:0:
226,155,186036,1,0,0:0:0:0:
303,126,186111,1,0,0:0:0:0:
338,147,186186,5,0,0:0:0:0:
414,178,186261,5,0,0:0:0:0:
416,137,186336,1,0,0:0:0:0:
402,98,186411,1,0,0:0:0:0:
374,68,186486,1,0,0:0:0:0:
295,45,186561,5,0,0:0:0:0:
253,47,186636,1,0,0:0:0:0:
215,62,186711,1,0,0:0:0:0:
182,86,186786,1,0,0:0:0:0:
156,118,186861,1,0,0:0:0:0:
121,140,186936,1,0,0:0:0:0:
81,149,187011,1,0,0:0:0:0:
41,146,187086,1,0,0:0:0:0:
51,64,187161,5,0,0:0:0:0:
91,71,187236,1,0,0:0:0:0:
156,118,187311,5,0,0:0:0:0:
196,110,187386,1,0,0:0:0:0:
296,69,187461,1,0,0:0:0:0:
397,311,187611,5,0,0:0:0:0:
463,64,187761,1,0,0:0:0:0:
236,186,187911,5,0,0:0:0:0:
196,197,187986,1,0,0:0:0:0:
167,225,188061,1,0,0:0:0:0:
154,264,188136,1,0,0:0:0:0:
204,336,188211,5,0,0:0:0:0:
239,310,188286,1,0,0:0:0:0:
269,278,188361,1,0,0:0:0:0:
293,241,188436,1,0,0:0:0:0:
308,200,188511,1,0,0:0:0:0:
314,156,188586,1,0,0:0:0:0:
287,60,188661,5,0,0:0:0:0:
238,69,188736,1,0,0:0:0:0:
192,87,188811,1,0,0:0:0:0:
150,114,188886,1,0,0:0:0:0:
115,148,188961,1,0,0:0:0:0:
86,188,189036,1,0,0:0:0:0:
57,280,189111,5,0,0:0:0:0:
57,327,189186,1,0,0:0:0:0:
94,358,189261,1,0,0:0:0:0:
141,348,189336,1,0,0:0:0:0:
164,306,189411,1,0,0:0:0:0:
146,262,189486,1,0,0:0:0:0:
86,188,189561,5,0,0:0:0:0:
48,155,189636,1,0,0:0:0:0:
11,123,189711,5,0,0:0:0:0:
373,86,189861,1,0,0:0:0:0:
15,60,190011,1,0,0:0:0:0:
368,148,190161,1,0,0:0:0:0:
28,295,190311,1,0,0:0:0:0:
321,245,190461,5,0,0:0:0:0:
352,200,190536,1,0,0:0:0:0:
368,148,190611,2,0,P|364:59|240:4,1,220
191,312,191061,6,0,L|265:145,1,165
288,94,191361,2,0,L|214:261,1,165
190,313,191661,1,0,0:0:0:0:
176,326,191736,1,0,0:0:0:0:
115,326,191811,1,0,0:0:0:0:
68,297,191886,1,0,0:0:0:0:
45,248,191961,1,0,0:0:0:0:
53,194,192036,1,0,0:0:0:0:
89,154,192111,6,0,L|177:110,1,55
276,223,192261,2,0,L|82:290,1,165
68,297,192561,2,0,L|261:226,1,165
276,223,192861,1,0,0:0:0:0:
325,205,192936,1,0,0:0:0:0:
336,154,193011,5,0,0:0:0:0:
279,38,193161,1,0,0:0:0:0:
361,298,193311,1,0,0:0:0:0:
165,144,193461,1,0,0:0:0:0:
419,215,193611,1,0,0:0:0:0:
160,232,193761,6,0,P|96:186|89:94,1,165
114,40,194061,2,0,L|177:66,1,55
215,164,194211,2,0,L|152:138,1,55
114,40,194361,6,0,L|311:123,1,165
316,125,194661,1,0,0:0:0:0:
167,268,194811,1,0,0:0:0:0:
232,29,194961,1,0,0:0:0:0:
430,184,195111,5,0,0:0:0:0:
167,268,195261,1,0,0:0:0:0:
296,325,195411,1,0,0:0:0:0:
146,232,195561,1,0,0:0:0:0:
248,330,195711,6,0,L|254:244,1,55
189,49,195861,2,0,L|171:230,1,165
167,268,196161,2,0,L|184:88,1,165
189,49,196461,2,0,L|171:230,1,165
166,268,196761,2,0,P|250:268|395:169,1,220
405,83,197211,5,0,0:0:0:0:
351,82,197286,1,0,0:0:0:0:
316,121,197361,1,0,0:0:0:0:
322,174,197436,1,0,0:0:0:0:
366,204,197511,1,0,0:0:0:0:
487,38,197661,1,0,0:0:0:0:
199,52,197811,1,0,0:0:0:0:
354,311,197961,6,0,P|415:297|466:182,1,165
366,204,198261,2,0,P|305:218|254:333,1,165
354,311,198561,6,0,L|229:159,1,165
205,126,198861,1,0,0:0:0:0:
205,126,198936,1,0,0:0:0:0:
110,66,199086,1,0,0:0:0:0:
110,66,199161,2,0,L|97:153,1,55
70,246,199311,5,0,0:0:0:0:
205,126,199461,1,0,0:0:0:0:
201,71,199536,1,0,0:0:0:0:
198,16,199611,2,0,L|216:247,1,220
298,351,200061,5,0,0:0:0:0:
330,307,200136,1,0,0:0:0:0:
340,253,200211,2,0,P|331:182|286:16,1,220
59,36,200661,2,0,L|206:142,1,165
237,164,200961,2,0,L|89:59,1,165
59,36,201261,5,0,0:0:0:0:
49,90,201336,1,0,0:0:0:0:
57,144,201411,1,0,0:0:0:0:
80,193,201486,1,0,0:0:0:0:
117,234,201561,1,0,0:0:0:0:
164,262,201636,1,0,0:0:0:0:
218,274,201711,2,0,L|279:272,1,55
388,167,201861,6,0,L|175:165,1,165
155,165,202161,2,0,L|368:163,1,165
390,167,202461,1,0,0:0:0:0:
386,112,202536,1,0,0:0:0:0:
353,70,202611,5,0,0:0:0:0:
225,31,202761,1,0,0:0:0:0:
152,164,202911,1,0,0:0:0:0:
439,28,203061,1,0,0:0:0:0:
96,76,203211,1,0,0:0:0:0:
356,335,203361,6,0,P|399:275|400:154,1,165
379,118,203661,2,0,L|322:162,1,55
283,279,203811,2,0,L|340:235,1,55
379,118,203961,2,0,L|322:162,1,55
266,197,204111,5,0,0:0:0:0:
222,230,204186,1,0,0:0:0:0:
179,264,204261,1,0,0:0:0:0:
135,298,204336,1,0,0:0:0:0:
90,338,204411,1,0,0:0:0:0:
103,284,204486,1,0,0:0:0:0:
103,230,204561,1,0,0:0:0:0:
89,177,204636,1,0,0:0:0:0:
62,129,204711,5,0,0:0:0:0:
313,64,204861,1,0,0:0:0:0:
283,341,205011,1,0,0:0:0:0:
62,129,205161,1,0,0:0:0:0:
363,228,205311,1,0,0:0:0:0:
158,82,205461,6,0,L|332:204,1,165
363,228,205761,2,0,L|191:107,1,165
158,82,206061,2,0,L|332:204,1,165
363,228,206361,2,0,L|191:107,1,165
159,80,206661,1,0,0:0:0:0:
476,99,206811,1,0,0:0:0:0:
263,346,206961,1,0,0:0:0:0:
318,53,207111,2,0,L|285:241,1,165
263,346,207411,5,0,0:0:0:0:
379,102,207561,2,0,L|256:248,1,165
185,328,207861,5,0,0:0:0:0:
407,176,208011,2,0,L|228:241,1,165
126,275,208311,5,0,0:0:0:0:
81,243,208386,1,0,0:0:0:0:
57,194,208461,1,0,0:0:0:0:
57,140,208536,1,0,0:0:0:0:
83,92,208611,1,0,0:0:0:0:
128,61,208686,1,0,0:0:0:0:
182,55,208761,1,0,0:0:0:0:
233,74,208836,1,0,0:0:0:0:
269,115,208911,1,0,0:0:0:0:
225,375,209061,1,0,0:0:0:0:
43,31,209211,1,0,0:0:0:0:
431,146,209361,1,0,0:0:0:0:
225,375,209511,6,0,L|261:176,1,197.99999395752
283,49,209811,5,0,0:0:0:0:
137,334,209961,2,0,L|268:180,1,197.99999395752
350,81,210261,5,0,0:0:0:0:
82,256,210411,2,0,L|272:188,1,197.99999395752
393,143,210711,5,0,0:0:0:0:
73,160,210861,1,0,0:0:0:0:
364,299,211011,5,0,0:0:0:0:
298,308,211086,1,0,0:0:0:0:
233,304,211161,1,0,0:0:0:0:
169,286,211236,1,0,0:0:0:0:
65,226,211311,5,0,0:0:0:0:
72,160,211386,1,0,0:0:0:0:
193,108,211461,5,0,0:0:0:0:
200,42,211536,1,0,0:0:0:0:
79,94,211611,5,0,0:0:0:0:
72,159,211686,1,0,0:0:0:0:
186,168,211761,5,0,0:0:0:0:
180,234,211836,1,0,0:0:0:0:
167,342,211911,5,0,0:0:0:0:
233,304,211986,1,0,0:0:0:0:
281,245,212061,1,0,0:0:0:0:
307,170,212136,1,0,0:0:0:0:
295,95,212211,1,0,0:0:0:0:
345,40,212286,1,0,0:0:0:0:
419,45,212361,1,0,0:0:0:0:
462,106,212436,1,0,0:0:0:0:
441,177,212511,1,0,0:0:0:0:
373,206,212586,1,0,0:0:0:0:
307,170,212661,1,0,0:0:0:0:
233,147,212736,1,0,0:0:0:0:
158,139,212811,1,0,0:0:0:0:
95,181,212886,1,0,0:0:0:0:
73,253,212961,1,0,0:0:0:0:
101,323,213036,1,0,0:0:0:0:
252,351,213111,5,0,0:0:0:0:
238,275,213186,1,0,0:0:0:0:
307,170,213261,5,0,0:0:0:0:
299,93,213336,1,0,0:0:0:0:
164,20,213411,5,0,0:0:0:0:
100,63,213486,1,0,0:0:0:0:
95,181,213561,5,0,0:0:0:0:
162,219,213636,1,0,0:0:0:0:
256,192,214311,12,0,215361,0:0:0:0:
256,192,215511,5,0,0:0:0:0:
272,208,215811,1,0,0:0:0:0:
288,224,216111,1,0,0:0:0:0:
304,240,216411,1,0,0:0:0:0:
393,340,216711,5,0,0:0:0:0:
403,314,216786,1,0,0:0:0:0:
409,287,216861,1,0,0:0:0:0:
410,260,216936,1,0,0:0:0:0:
407,233,217011,1,0,0:0:0:0:
398,207,217086,1,0,0:0:0:0:
386,182,217161,1,0,0:0:0:0:
369,161,217236,1,0,0:0:0:0:
348,142,217311,1,0,0:0:0:0:
325,128,217386,1,0,0:0:0:0:
313,103,217461,1,0,0:0:0:0:
322,78,217536,1,0,0:0:0:0:
346,67,217611,1,0,0:0:0:0:
371,76,217686,1,0,0:0:0:0:
383,100,217761,1,0,0:0:0:0:
373,125,217836,1,0,0:0:0:0:
299,204,217911,5,0,0:0:0:0:
277,187,217986,1,0,0:0:0:0:
259,165,218061,1,0,0:0:0:0:
247,141,218136,1,0,0:0:0:0:
240,114,218211,1,0,0:0:0:0:
239,87,218286,1,0,0:0:0:0:
247,63,218361,1,0,0:0:0:0:
234,38,218436,1,0,0:0:0:0:
213,21,218511,1,0,0:0:0:0:
186,14,218586,1,0,0:0:0:0:
159,19,218661,1,0,0:0:0:0:
136,34,218736,1,0,0:0:0:0:
122,57,218811,1,0,0:0:0:0:
118,84,218886,1,0,0:0:0:0:
125,110,218961,1,0,0:0:0:0:
142,131,219036,1,0,0:0:0:0:
186,199,219111,5,0,0:0:0:0:
201,221,219186,1,0,0:0:0:0:
207,248,219261,1,0,0:0:0:0:
203,274,219336,1,0,0:0:0:0:
188,298,219411,1,0,0:0:0:0:
166,314,219486,1,0,0:0:0:0:
140,320,219561,1,0,0:0:0:0:
113,316,219636,1,0,0:0:0:0:
89,302,219711,1,0,0:0:0:0:
73,280,219786,1,0,0:0:0:0:
66,254,219861,1,0,0:0:0:0:
70,227,219936,1,0,0:0:0:0:
83,203,220011,1,0,0:0:0:0:
105,186,220086,1,0,0:0:0:0:
131,179,220161,1,0,0:0:0:0:
158,182,220236,1,0,0:0:0:0:
254,202,220311,5,0,0:0:0:0:
281,204,220386,1,0,0:0:0:0:
308,199,220461,1,0,0:0:0:0:
333,189,220536,1,0,0:0:0:0:
356,173,220611,1,0,0:0:0:0:
374,152,220686,1,0,0:0:0:0:
386,128,220761,1,0,0:0:0:0:
405,108,220836,1,0,0:0:0:0:
428,94,220911,1,0,0:0:0:0:
454,89,220986,1,0,0:0:0:0:
476,74,221061,1,0,0:0:0:0:
482,48,221136,1,0,0:0:0:0:
466,26,221211,1,0,0:0:0:0:
440,23,221286,1,0,0:0:0:0:
419,39,221361,1,0,0:0:0:0:
417,66,221436,1,0,0:0:0:0:
450,168,221511,5,0,0:0:0:0:
436,192,221586,1,0,0:0:0:0:
420,214,221661,1,0,0:0:0:0:
401,234,221736,1,0,0:0:0:0:
380,252,221811,1,0,0:0:0:0:
357,267,221886,1,0,0:0:0:0:
332,279,221961,1,0,0:0:0:0:
307,288,222036,1,0,0:0:0:0:
281,292,222111,1,0,0:0:0:0:
253,287,222186,1,0,0:0:0:0:
226,285,222261,1,0,0:0:0:0:
198,285,222336,1,0,0:0:0:0:
171,287,222411,1,0,0:0:0:0:
144,292,222486,1,0,0:0:0:0:
117,299,222561,1,0,0:0:0:0:
91,308,222636,1,0,0:0:0:0:
66,319,222711,1,0,0:0:0:0:
45,303,222786,1,0,0:0:0:0:
30,280,222861,1,0,0:0:0:0:
23,253,222936,1,0,0:0:0:0:
27,226,223011,1,0,0:0:0:0:
39,202,223086,1,0,0:0:0:0:
59,183,223161,1,0,0:0:0:0:
90,172,223236,1,0,0:0:0:0:
106,150,223311,1,0,0:0:0:0:
109,123,223386,1,0,0:0:0:0:
98,97,223461,1,0,0:0:0:0:
77,81,223536,1,0,0:0:0:0:
50,77,223611,1,0,0:0:0:0:
25,86,223686,1,0,0:0:0:0:
7,107,223761,1,0,0:0:0:0:
4,134,223836,1,0,0:0:0:0:
90,172,223911,5,0,0:0:0:0:
114,184,223986,1,0,0:0:0:0:
140,192,224061,1,0,0:0:0:0:
167,195,224136,1,0,0:0:0:0:
195,193,224211,1,0,0:0:0:0:
222,187,224286,1,0,0:0:0:0:
247,175,224361,1,0,0:0:0:0:
269,160,224436,1,0,0:0:0:0:
293,146,224511,1,0,0:0:0:0:
319,140,224586,1,0,0:0:0:0:
347,144,224661,1,0,0:0:0:0:
371,156,224736,1,0,0:0:0:0:
390,176,224811,1,0,0:0:0:0:
401,201,224886,1,0,0:0:0:0:
404,228,224961,1,0,0:0:0:0:
397,255,225036,1,0,0:0:0:0:
357,331,225111,5,0,0:0:0:0:
334,314,225186,1,0,0:0:0:0:
316,294,225261,1,0,0:0:0:0:
303,270,225336,1,0,0:0:0:0:
295,244,225411,1,0,0:0:0:0:
292,216,225486,1,0,0:0:0:0:
296,189,225561,1,0,0:0:0:0:
305,163,225636,1,0,0:0:0:0:
317,138,225711,1,0,0:0:0:0:
329,113,225786,1,0,0:0:0:0:
333,86,225861,1,0,0:0:0:0:
328,59,225936,1,0,0:0:0:0:
314,36,226011,1,0,0:0:0:0:
293,19,226086,1,0,0:0:0:0:
267,9,226161,1,0,0:0:0:0:
240,9,226236,1,0,0:0:0:0:
161,35,226311,5,0,0:0:0:0:
120,31,226386,1,0,0:0:0:0:
84,51,226461,1,0,0:0:0:0:
65,86,226536,1,0,0:0:0:0:
67,127,226611,1,0,0:0:0:0:
92,160,226686,1,0,0:0:0:0:
130,174,226761,1,0,0:0:0:0:
170,165,226836,1,0,0:0:0:0:
198,136,226911,1,0,0:0:0:0:
207,96,226986,1,0,0:0:0:0:
192,58,227061,1,0,0:0:0:0:
155,40,227136,1,0,0:0:0:0:
115,35,227211,1,0,0:0:0:0:
75,43,227286,1,0,0:0:0:0:
40,65,227361,1,0,0:0:0:0:
14,96,227436,1,0,0:0:0:0:
0,135,227511,1,0,0:0:0:0:
0,176,227586,1,0,0:0:0:0:
13,215,227661,1,0,0:0:0:0:
38,247,227736,1,0,0:0:0:0:
73,269,227811,1,0,0:0:0:0:
113,278,227886,1,0,0:0:0:0:
154,273,227961,1,0,0:0:0:0:
194,263,228036,1,0,0:0:0:0:
235,259,228111,1,0,0:0:0:0:
276,261,228186,1,0,0:0:0:0:
317,268,228261,1,0,0:0:0:0:
356,281,228336,1,0,0:0:0:0:
393,299,228411,1,0,0:0:0:0:
426,323,228486,1,0,0:0:0:0:
457,351,228561,1,0,0:0:0:0:
337,348,228636,5,0,0:0:0:0:
322,309,228711,1,0,0:0:0:0:
317,268,228786,1,0,0:0:0:0:
323,227,228861,1,0,0:0:0:0:
338,189,228936,1,0,0:0:0:0:
362,156,229011,1,0,0:0:0:0:
379,104,229086,1,0,0:0:0:0:
365,52,229161,5,0,0:0:0:0:
326,91,229236,1,0,0:0:0:0:
277,115,229311,1,0,0:0:0:0:
223,124,229386,1,0,0:0:0:0:
169,115,229461,1,0,0:0:0:0:
120,90,229536,1,0,0:0:0:0:
81,54,229611,5,0,0:0:0:0:
142,56,229686,1,0,0:0:0:0:
191,80,229761,1,0,0:0:0:0:
223,124,229836,1,0,0:0:0:0:
231,177,229911,1,0,0:0:0:0:
211,228,229986,1,0,0:0:0:0:
173,263,230061,5,0,0:0:0:0:
176,316,230136,1,0,0:0:0:0:
219,347,230211,1,0,0:0:0:0:
270,331,230286,1,0,0:0:0:0:
290,282,230361,1,0,0:0:0:0:
263,236,230436,1,0,0:0:0:0:
211,228,230511,5,0,0:0:0:0:
157,227,230586,1,0,0:0:0:0:
116,191,230661,1,0,0:0:0:0:
108,138,230736,1,0,0:0:0:0:
137,92,230811,1,0,0:0:0:0:
188,76,230886,1,0,0:0:0:0:
243,84,230961,1,0,0:0:0:0:
297,80,231036,1,0,0:0:0:0:
427,113,231111,5,0,0:0:0:0:
433,179,231186,1,0,0:0:0:0:
391,232,231261,1,0,0:0:0:0:
325,241,231336,1,0,0:0:0:0:
271,201,231411,1,0,0:0:0:0:
259,135,231486,1,0,0:0:0:0:
297,80,231561,5,0,0:0:0:0:
302,141,231636,1,0,0:0:0:0:
271,201,231711,1,0,0:0:0:0:
214,239,231786,1,0,0:0:0:0:
146,245,231861,1,0,0:0:0:0:
84,219,231936,1,0,0:0:0:0:
41,166,232011,5,0,0:0:0:0:
87,98,232086,1,0,0:0:0:0:
151,46,232161,1,0,0:0:0:0:
227,15,232236,1,0,0:0:0:0:
309,8,232311,1,0,0:0:0:0:
389,25,232386,1,0,0:0:0:0:
436,90,232461,5,0,0:0:0:0:
425,170,232536,1,0,0:0:0:0:
361,219,232611,1,0,0:0:0:0:
281,209,232686,1,0,0:0:0:0:
230,147,232761,1,0,0:0:0:0:
237,67,232836,1,0,0:0:0:0:
309,8,232911,5,0,0:0:0:0:
299,90,232986,1,0,0:0:0:0:
230,147,233061,1,0,0:0:0:0:
142,145,233136,1,0,0:0:0:0:
55,160,233211,1,0,0:0:0:0:
14,238,233286,1,0,0:0:0:0:
49,318,233361,1,0,0:0:0:0:
134,340,233436,1,0,0:0:0:0:
204,287,233511,5,0,0:0:0:0:
249,214,233586,1,0,0:0:0:0:
334,226,233661,1,0,0:0:0:0:
357,309,233736,1,0,0:0:0:0:
290,363,233811,1,0,0:0:0:0:
214,324,233886,1,0,0:0:0:0:
188,239,233961,1,0,0:0:0:0:
226,159,234036,1,0,0:0:0:0:
307,125,234111,1,0,0:0:0:0:
303,39,234186,1,0,0:0:0:0:
223,9,234261,1,0,0:0:0:0:
165,72,234336,1,0,0:0:0:0:
133,150,234411,1,0,0:0:0:0:
50,139,234486,1,0,0:0:0:0:
40,55,234561,1,0,0:0:0:0:
119,26,234636,1,0,0:0:0:0:
203,72,234711,5,0,0:0:0:0:
226,159,234786,1,0,0:0:0:0:
294,217,234861,1,0,0:0:0:0:
383,226,234936,1,0,0:0:0:0:
457,187,235011,1,0,0:0:0:0:
369,171,235086,1,0,0:0:0:0:
294,217,235161,1,0,0:0:0:0:
269,302,235236,1,0,0:0:0:0:
307,382,235311,1,0,0:0:0:0:
244,347,235386,1,0,0:0:0:0:
181,313,235461,1,0,0:0:0:0:
118,279,235536,1,0,0:0:0:0:
70,238,235611,2,0,P|62:211|83:130,3,71.4999967269899
44,53,235911,5,0,0:0:0:0:
87,44,235986,1,0,0:0:0:0:
130,49,236061,1,0,0:0:0:0:
170,67,236136,1,0,0:0:0:0:
203,97,236211,1,0,0:0:0:0:
225,135,236286,1,0,0:0:0:0:
270,211,236361,5,0,0:0:0:0:
298,243,236436,1,0,0:0:0:0:
340,254,236511,1,0,0:0:0:0:
380,239,236586,1,0,0:0:0:0:
405,204,236661,1,0,0:0:0:0:
405,160,236736,1,0,0:0:0:0:
388,74,236811,5,0,0:0:0:0:
377,33,236886,1,0,0:0:0:0:
408,4,236961,1,0,0:0:0:0:
447,17,237036,1,0,0:0:0:0:
455,58,237111,1,0,0:0:0:0:
423,85,237186,1,0,0:0:0:0:
332,131,237261,5,0,0:0:0:0:
288,135,237336,1,0,0:0:0:0:
247,150,237411,1,0,0:0:0:0:
211,176,237486,1,0,0:0:0:0:
169,190,237561,1,0,0:0:0:0:
125,196,237636,1,0,0:0:0:0:
41,219,237711,5,0,0:0:0:0:
47,175,237786,1,0,0:0:0:0:
68,137,237861,1,0,0:0:0:0:
101,108,237936,1,0,0:0:0:0:
180,69,238011,5,0,0:0:0:0:
222,58,238086,1,0,0:0:0:0:
266,55,238161,1,0,0:0:0:0:
310,58,238236,1,0,0:0:0:0:
379,112,238311,1,0,0:0:0:0:
395,151,238386,1,0,0:0:0:0:
378,190,238461,1,0,0:0:0:0:
338,203,238536,1,0,0:0:0:0:
300,182,238611,1,0,0:0:0:0:
291,140,238686,1,0,0:0:0:0:
310,58,238761,5,0,0:0:0:0:
347,35,238836,1,0,0:0:0:0:
390,32,238911,1,0,0:0:0:0:
430,49,238986,1,0,0:0:0:0:
459,82,239061,1,0,0:0:0:0:
469,124,239136,1,0,0:0:0:0:
451,211,239211,5,0,0:0:0:0:
425,246,239286,1,0,0:0:0:0:
389,270,239361,1,0,0:0:0:0:
346,279,239436,1,0,0:0:0:0:
303,271,239511,1,0,0:0:0:0:
265,249,239586,1,0,0:0:0:0:
197,192,239661,5,0,0:0:0:0:
167,159,239736,1,0,0:0:0:0:
128,140,239811,1,0,0:0:0:0:
84,135,239886,1,0,0:0:0:0:
42,147,239961,1,0,0:0:0:0:
7,174,240036,1,0,0:0:0:0:
96,208,240111,5,0,0:0:0:0:
134,229,240186,1,0,0:0:0:0:
128,256,240261,1,0,0:0:0:0:
166,277,240336,1,0,0:0:0:0:
160,304,240411,1,0,0:0:0:0:
198,325,240486,1,0,0:0:0:0:
192,352,240561,1,0,0:0:0:0:
230,373,240636,5,0,0:0:0:0:
238,338,240711,1,0,0:0:0:0:
267,305,240786,1,0,0:0:0:0:
289,267,240861,1,0,0:0:0:0:
304,226,240936,1,0,0:0:0:0:
311,182,241011,1,0,0:0:0:0:
310,138,241086,1,0,0:0:0:0:
289,67,241161,5,0,0:0:0:0:
292,25,241236,1,0,0:0:0:0:
330,6,241311,1,0,0:0:0:0:
365,30,241386,1,0,0:0:0:0:
362,72,241461,1,0,0:0:0:0:
325,91,241536,1,0,0:0:0:0:
239,116,241611,5,0,0:0:0:0:
195,124,241686,1,0,0:0:0:0:
156,143,241761,1,0,0:0:0:0:
123,171,241836,1,0,0:0:0:0:
98,208,241911,1,0,0:0:0:0:
84,249,241986,1,0,0:0:0:0:
117,331,242061,5,0,0:0:0:0:
160,324,242136,1,0,0:0:0:0:
231,272,242211,5,0,0:0:0:0:
274,277,242286,1,0,0:0:0:0:
346,327,242361,5,0,0:0:0:0:
388,314,242436,1,0,0:0:0:0:
431,237,242511,5,0,0:0:0:0:
430,193,242586,1,0,0:0:0:0:
405,96,242661,5,0,0:0:0:0:
371,124,242736,1,0,0:0:0:0:
286,178,242811,5,0,0:0:0:0:
320,205,242886,1,0,0:0:0:0:
417,237,242961,5,0,0:0:0:0:
416,193,243036,1,0,0:0:0:0:
405,96,243111,5,0,0:0:0:0:
364,59,243186,1,0,0:0:0:0:
314,35,243261,1,0,0:0:0:0:
260,26,243336,1,0,0:0:0:0:
206,32,243411,1,0,0:0:0:0:
155,53,243486,1,0,0:0:0:0:
80,114,243561,5,0,0:0:0:0:
97,165,243636,1,0,0:0:0:0:
135,203,243711,1,0,0:0:0:0:
188,220,243786,1,0,0:0:0:0:
241,210,243861,1,0,0:0:0:0:
285,177,243936,1,0,0:0:0:0:
391,121,244011,5,0,0:0:0:0:
448,131,244086,1,0,0:0:0:0:
481,180,244161,1,0,0:0:0:0:
468,237,244236,1,0,0:0:0:0:
418,268,244311,1,0,0:0:0:0:
361,253,244386,1,0,0:0:0:0:
285,177,244461,5,0,0:0:0:0:
219,174,244536,1,0,0:0:0:0:
156,193,244611,1,0,0:0:0:0:
103,231,244686,1,0,0:0:0:0:
65,285,244761,1,0,0:0:0:0:
47,348,244836,1,0,0:0:0:0:
171,372,244911,5,0,0:0:0:0:
149,295,244986,1,0,0:0:0:0:
103,231,245061,1,0,0:0:0:0:
37,186,245136,1,0,0:0:0:0:
11,66,245211,5,0,0:0:0:0:
92,74,245286,1,0,0:0:0:0:
165,112,245361,1,0,0:0:0:0:
218,174,245436,1,0,0:0:0:0:
310,267,245511,5,0,0:0:0:0:
383,297,245586,1,0,0:0:0:0:
450,255,245661,1,0,0:0:0:0:
455,176,245736,1,0,0:0:0:0:
393,126,245811,1,0,0:0:0:0:
316,148,245886,1,0,0:0:0:0:
257,96,245961,1,0,0:0:0:0:
273,19,246036,1,0,0:0:0:0:
348,0,246111,1,0,0:0:0:0:
406,47,246186,1,0,0:0:0:0:
393,126,246261,1,0,0:0:0:0:
347,195,246336,1,0,0:0:0:0:
277,236,246411,1,0,0:0:0:0:
195,241,246486,1,0,0:0:0:0:
119,210,246561,1,0,0:0:0:0:
65,149,246636,1,0,0:0:0:0:
40,77,246711,5,0,0:0:0:0:
100,131,246786,1,0,0:0:0:0:
119,210,246861,1,0,0:0:0:0:
89,285,246936,1,0,0:0:0:0:
21,330,247011,1,0,0:0:0:0:
103,325,247086,1,0,0:0:0:0:
185,328,247161,1,0,0:0:0:0:
267,337,247236,1,0,0:0:0:0:
349,352,247311,1,0,0:0:0:0:
427,329,247386,1,0,0:0:0:0:
478,266,247461,1,0,0:0:0:0:
483,185,247536,1,0,0:0:0:0:
441,116,247611,1,0,0:0:0:0:
367,83,247686,1,0,0:0:0:0:
287,99,247761,1,0,0:0:0:0:
231,158,247836,1,0,0:0:0:0:
220,237,247911,6,0,B|80:209|80:209|172:120|172:120|32:59|32:59|193:14|372:82|372:82|280:162|428:331,1,1055.99996777344
382,321,249261,1,0,0:0:0:0:
336,333,249411,1,0,0:0:0:0:
291,337,249561,1,0,0:0:0:0:
350,81,249861,1,0,0:0:0:0:
291,337,250161,1,0,0:0:0:0:
291,337,250911,1,0,0:0:0:0:
350,81,251061,1,0,0:0:0:0:
273,334,251361,1,0,0:0:0:0:
135,299,251661,5,0,0:0:0:0:
134,285,251736,1,0,0:0:0:0:
135,272,251811,1,0,0:0:0:0:
138,259,251886,1,0,0:0:0:0:
143,247,251961,1,0,0:0:0:0:
150,236,252036,1,0,0:0:0:0:
167,213,252111,5,0,0:0:0:0:
354,240,252261,1,0,0:0:0:0:
185,88,252411,1,0,0:0:0:0:
312,313,252561,2,0,P|384:321|411:309,1,82.5
434,307,252861,6,0,L|394:171,1,93.500001783371
327,150,253011,2,0,L|367:286,1,93.500001783371
423,322,253161,2,0,L|395:183,1,93.500001783371
330,156,253311,2,0,L|381:404,1,187.000003566742
311,65,253611,2,0,L|348:248,1,187.000003566742
232,322,253911,5,0,0:0:0:0:
174,303,253986,1,0,0:0:0:0:
128,265,254061,1,0,0:0:0:0:
98,213,254136,1,0,0:0:0:0:
89,153,254211,1,0,0:0:0:0:
199,124,254361,6,0,P|273:249|256:294,1,181.500005538941
232,322,254661,1,0,0:0:0:0:
174,303,254736,1,0,0:0:0:0:
128,265,254811,1,0,0:0:0:0:
98,213,254886,1,0,0:0:0:0:
89,153,254961,6,0,P|99:62|179:6,1,181.500005538941
227,19,255261,1,0,0:0:0:0:
277,51,255336,1,0,0:0:0:0:
317,97,255411,1,0,0:0:0:0:
342,151,255486,1,0,0:0:0:0:
356,209,255561,6,0,P|370:297|453:347,1,181.500005538941
512,384,255861,2,0,P|498:296|415:246,1,181.500005538941
357,209,256161,5,0,0:0:0:0:
302,184,256236,1,0,0:0:0:0:
242,177,256311,1,0,0:0:0:0:
183,189,256386,1,0,0:0:0:0:
132,223,256461,1,0,0:0:0:0:
74,211,256536,1,0,0:0:0:0:
42,162,256611,1,0,0:0:0:0:
54,104,256686,1,0,0:0:0:0:
103,71,256761,1,0,0:0:0:0:
161,83,256836,1,0,0:0:0:0:
194,131,256911,1,0,0:0:0:0:
183,189,256986,1,0,0:0:0:0:
174,248,257061,1,0,0:0:0:0:
204,299,257136,1,0,0:0:0:0:
259,321,257211,1,0,0:0:0:0:
316,304,257286,1,0,0:0:0:0:
349,254,257361,1,0,0:0:0:0:
345,195,257436,1,0,0:0:0:0:
304,152,257511,2,0,L|245:129,1,60.5000018463135
464,64,257661,5,0,0:0:0:0:
465,124,257736,1,0,0:0:0:0:
432,128,257811,1,0,0:0:0:0:
433,188,257886,1,0,0:0:0:0:
397,190,257961,1,0,0:0:0:0:
398,250,258036,1,0,0:0:0:0:
368,256,258111,1,0,0:0:0:0:
369,316,258186,1,0,0:0:0:0:
326,322,258261,1,0,0:0:0:0:
266,325,258336,1,0,0:0:0:0:
209,305,258411,1,0,0:0:0:0:
165,264,258486,1,0,0:0:0:0:
141,209,258561,1,0,0:0:0:0:
141,149,258636,1,0,0:0:0:0:
164,94,258711,6,0,L|87:60,1,49.4999984893799
0,112,258861,2,0,L|84:138,1,49.4999984893799
164,94,259011,2,0,L|86:59,1,49.4999984893799
0,112,259161,2,0,L|175:157,1,148.49999546814
193,163,259461,2,0,L|18:118,1,148.49999546814
0,112,259761,6,0,L|324:196,1,296.99999093628
399,86,260511,1,0,0:0:0:0:
431,255,260661,2,0,L|256:300,1,148.49999546814
238,306,260961,2,0,L|413:261,1,148.49999546814
431,255,261261,5,0,0:0:0:0:
476,242,261336,1,0,0:0:0:0:
506,204,261411,1,0,0:0:0:0:
511,155,261486,1,0,0:0:0:0:
489,111,261561,1,0,0:0:0:0:
448,86,261636,1,0,0:0:0:0:
399,86,261711,6,0,P|339:86|260:140,1,140.250002675057
225,204,261861,2,0,P|285:204|364:150,1,140.250002675057
399,86,262011,2,0,P|339:86|260:140,1,140.250002675057
225,204,262161,6,0,P|285:204|455:12,1,330.000012588501
295,44,262611,2,0,L|120:89,1,148.49999546814
102,95,262911,2,0,L|277:50,1,148.49999546814
296,42,263211,1,0,0:0:0:0:
343,345,263361,1,0,0:0:0:0:
81,261,263511,1,0,0:0:0:0:
321,135,263661,5,0,0:0:0:0:
325,154,263736,1,0,0:0:0:0:
330,181,263811,1,0,0:0:0:0:
353,223,263886,1,0,0:0:0:0:
397,246,263961,1,0,0:0:0:0:
445,241,264036,1,0,0:0:0:0:
483,210,264111,1,0,0:0:0:0:
499,164,264186,1,0,0:0:0:0:
486,117,264261,1,0,0:0:0:0:
450,84,264336,1,0,0:0:0:0:
406,75,264411,1,0,0:0:0:0:
356,77,264486,1,0,0:0:0:0:
309,61,264561,5,0,0:0:0:0:
304,110,264636,1,0,0:0:0:0:
285,156,264711,1,0,0:0:0:0:
256,196,264786,1,0,0:0:0:0:
216,226,264861,1,0,0:0:0:0:
171,245,264936,1,0,0:0:0:0:
124,248,265011,1,0,0:0:0:0:
161,215,265086,1,0,0:0:0:0:
206,197,265161,1,0,0:0:0:0:
256,196,265236,1,0,0:0:0:0:
302,211,265311,5,0,0:0:0:0:
17,353,265511,5,0,0:0:0:0:
458,37,265711,5,0,0:0:0:0:
245,357,265911,2,0,L|186:249,1,98.9999969787599
126,75,266211,5,0,0:0:0:0:
156,36,266286,1,0,0:0:0:0:
200,14,266361,1,0,0:0:0:0:
249,14,266436,1,0,0:0:0:0:
293,34,266511,1,0,0:0:0:0:
324,72,266586,1,0,0:0:0:0:
336,120,266661,1,0,0:0:0:0:
326,168,266736,1,0,0:0:0:0:
295,207,266811,1,0,0:0:0:0:
126,75,266961,5,0,0:0:0:0:
172,62,267036,1,0,0:0:0:0:
216,82,267111,1,0,0:0:0:0:
237,126,267186,1,0,0:0:0:0:
224,173,267261,1,0,0:0:0:0:
184,200,267336,1,0,0:0:0:0:
135,195,267411,1,0,0:0:0:0:
87,188,267486,1,0,0:0:0:0:
44,210,267561,1,0,0:0:0:0:
21,253,267636,1,0,0:0:0:0:
27,301,267711,1,0,0:0:0:0:
60,337,267786,1,0,0:0:0:0:
108,347,267861,1,0,0:0:0:0:
153,328,267936,1,0,0:0:0:0:
178,287,268011,6,0,P|194:208|177:152,1,98.9999969787599
339,0,268311,6,0,L|354:231,1,197.99999395752
356,268,268611,1,0,0:0:0:0:
339,0,268761,2,0,L|354:231,1,197.99999395752
356,268,269061,2,0,L|341:37,1,197.99999395752
339,0,269361,6,0,L|365:402,1,395.999987915039
160,100,270111,5,0,0:0:0:0:
339,0,270261,2,0,L|354:231,1,197.99999395752
356,268,270561,2,0,L|341:37,1,197.99999395752
337,0,270861,5,0,0:0:0:0:
278,29,270936,1,0,0:0:0:0:
231,75,271011,1,0,0:0:0:0:
202,134,271086,1,0,0:0:0:0:
192,199,271161,1,0,0:0:0:0:
204,264,271236,1,0,0:0:0:0:
233,317,271311,6,0,P|293:317|372:263,1,140.250002675057
407,199,271461,2,0,P|347:199|268:253,1,140.250002675057
233,317,271611,2,0,P|293:317|372:263,1,140.250002675057
407,199,271761,6,0,P|347:199|177:391,1,330.000012588501
81,51,272211,2,0,L|100:306,1,247.500009441376
104,359,272511,2,0,L|85:104,1,247.500009441376
81,51,272811,2,0,L|100:306,1,247.500009441376
105,360,273111,5,0,0:0:0:0:
186,361,273186,1,0,0:0:0:0:
263,331,273261,1,0,0:0:0:0:
321,273,273336,1,0,0:0:0:0:
352,198,273411,1,0,0:0:0:0:
352,116,273486,1,0,0:0:0:0:
320,40,273561,6,0,P|267:33|166:202,1,247.500009441376
184,241,273861,1,0,0:0:0:0:
265,242,273936,1,0,0:0:0:0:
329,193,274011,1,0,0:0:0:0:
351,115,274086,1,0,0:0:0:0:
320,40,274161,6,0,P|267:33|166:202,1,247.500009441376
184,241,274461,1,0,0:0:0:0:
156,315,274536,1,0,0:0:0:0:
79,335,274611,1,0,0:0:0:0:
19,283,274686,1,0,0:0:0:0:
26,204,274761,1,0,0:0:0:0:
447,219,275061,1,0,0:0:0:0:
26,204,275361,5,0,0:0:0:0:
45,137,275436,1,0,0:0:0:0:
102,95,275511,1,0,0:0:0:0:
172,96,275586,1,0,0:0:0:0:
227,140,275661,1,0,0:0:0:0:
244,208,275736,1,0,0:0:0:0:
212,274,275811,1,0,0:0:0:0:
199,204,275886,1,0,0:0:0:0:
227,140,275961,1,0,0:0:0:0:
286,102,276036,1,0,0:0:0:0:
356,103,276111,1,0,0:0:0:0:
414,144,276186,1,0,0:0:0:0:
439,210,276261,1,0,0:0:0:0:
423,278,276336,1,0,0:0:0:0:
372,326,276411,1,0,0:0:0:0:
433,289,276486,1,0,0:0:0:0:
472,230,276561,1,0,0:0:0:0:
481,160,276636,1,0,0:0:0:0:
458,93,276711,5,0,0:0:0:0:
408,43,276786,1,0,0:0:0:0:
341,19,276861,1,0,0:0:0:0:
271,28,276936,1,0,0:0:0:0:
211,66,277011,1,0,0:0:0:0:
179,129,277086,1,0,0:0:0:0:
185,199,277161,1,0,0:0:0:0:
227,256,277236,1,0,0:0:0:0:
287,281,277311,1,0,0:0:0:0:
251,221,277386,1,0,0:0:0:0:
185,199,277461,1,0,0:0:0:0:
120,227,277536,1,0,0:0:0:0:
90,290,277611,2,0,P|148:315|253:336,1,142.99999345398
348,94,277911,6,0,L|425:60,1,49.4999984893799
512,112,278061,2,0,L|428:138,1,49.4999984893799
348,94,278211,2,0,L|426:59,1,49.4999984893799
512,112,278361,2,0,L|337:157,1,148.49999546814
319,163,278661,2,0,L|494:118,1,148.49999546814
512,112,278961,6,0,L|188:196,1,296.99999093628
113,86,279711,5,0,0:0:0:0:
81,255,279861,2,0,L|256:300,1,148.49999546814
274,306,280161,2,0,L|99:261,1,148.49999546814
81,255,280461,5,0,0:0:0:0:
36,242,280536,1,0,0:0:0:0:
6,204,280611,1,0,0:0:0:0:
1,155,280686,1,0,0:0:0:0:
23,111,280761,1,0,0:0:0:0:
64,86,280836,1,0,0:0:0:0:
113,86,280911,6,0,P|173:86|252:140,1,140.250002675057
287,204,281061,2,0,P|227:204|148:150,1,140.250002675057
113,86,281211,2,0,P|173:86|252:140,1,140.250002675057
287,204,281361,6,0,P|227:204|57:12,1,330.000012588501
217,44,281811,2,0,L|392:89,1,148.49999546814
410,95,282111,2,0,L|235:50,1,148.49999546814
216,42,282411,5,0,0:0:0:0:
169,345,282561,1,0,0:0:0:0:
431,261,282711,1,0,0:0:0:0:
191,135,282861,5,0,0:0:0:0:
187,154,282936,1,0,0:0:0:0:
182,181,283011,1,0,0:0:0:0:
159,223,283086,1,0,0:0:0:0:
115,246,283161,1,0,0:0:0:0:
67,241,283236,1,0,0:0:0:0:
29,210,283311,1,0,0:0:0:0:
13,164,283386,1,0,0:0:0:0:
26,117,283461,1,0,0:0:0:0:
62,84,283536,1,0,0:0:0:0:
106,75,283611,1,0,0:0:0:0:
156,77,283686,1,0,0:0:0:0:
203,61,283761,5,0,0:0:0:0:
208,110,283836,1,0,0:0:0:0:
227,156,283911,1,0,0:0:0:0:
256,196,283986,1,0,0:0:0:0:
296,226,284061,1,0,0:0:0:0:
341,245,284136,1,0,0:0:0:0:
388,248,284211,1,0,0:0:0:0:
351,215,284286,1,0,0:0:0:0:
306,197,284361,1,0,0:0:0:0:
256,196,284436,1,0,0:0:0:0:
210,211,284511,5,0,0:0:0:0:
495,353,284711,5,0,0:0:0:0:
54,37,284911,5,0,0:0:0:0:
267,357,285111,2,0,L|326:249,1,98.9999969787599
386,75,285411,5,0,0:0:0:0:
356,36,285486,1,0,0:0:0:0:
312,14,285561,1,0,0:0:0:0:
263,14,285636,1,0,0:0:0:0:
219,34,285711,1,0,0:0:0:0:
188,72,285786,1,0,0:0:0:0:
176,120,285861,1,0,0:0:0:0:
186,168,285936,1,0,0:0:0:0:
217,207,286011,1,0,0:0:0:0:
386,75,286161,5,0,0:0:0:0:
340,62,286236,1,0,0:0:0:0:
296,82,286311,1,0,0:0:0:0:
275,126,286386,1,0,0:0:0:0:
288,173,286461,1,0,0:0:0:0:
328,200,286536,1,0,0:0:0:0:
377,195,286611,1,0,0:0:0:0:
425,188,286686,1,0,0:0:0:0:
468,210,286761,1,0,0:0:0:0:
491,253,286836,1,0,0:0:0:0:
485,301,286911,1,0,0:0:0:0:
452,337,286986,1,0,0:0:0:0:
404,347,287061,1,0,0:0:0:0:
359,328,287136,1,0,0:0:0:0:
334,287,287211,2,0,P|318:208|335:152,1,98.9999969787599
269,8,287511,5,0,0:0:0:0:
217,48,287586,1,0,0:0:0:0:
183,104,287661,1,0,0:0:0:0:
171,169,287736,1,0,0:0:0:0:
183,233,287811,1,0,0:0:0:0:
182,296,287886,1,0,0:0:0:0:
131,335,287961,1,0,0:0:0:0:
69,319,288036,1,0,0:0:0:0:
44,260,288111,1,0,0:0:0:0:
75,204,288186,1,0,0:0:0:0:
138,194,288261,1,0,0:0:0:0:
204,199,288336,1,0,0:0:0:0:
270,197,288411,1,0,0:0:0:0:
335,187,288486,1,0,0:0:0:0:
445,113,288561,5,0,0:0:0:0:
399,66,288636,1,0,0:0:0:0:
272,18,288711,5,0,0:0:0:0:
234,72,288786,1,0,0:0:0:0:
211,133,288861,1,0,0:0:0:0:
204,199,288936,1,0,0:0:0:0:
214,264,289011,1,0,0:0:0:0:
203,326,289086,1,0,0:0:0:0:
145,351,289161,1,0,0:0:0:0:
92,317,289236,1,0,0:0:0:0:
80,186,289311,5,0,0:0:0:0:
85,120,289386,1,0,0:0:0:0:
234,72,289461,1,0,0:0:0:0:
298,84,289536,1,0,0:0:0:0:
427,111,289611,5,0,0:0:0:0:
444,174,289686,1,0,0:0:0:0:
436,239,289761,1,0,0:0:0:0:
405,296,289836,1,0,0:0:0:0:
354,337,289911,5,0,0:0:0:0:
325,266,289986,1,0,0:0:0:0:
270,214,290061,1,0,0:0:0:0:
197,190,290136,1,0,0:0:0:0:
121,199,290211,1,0,0:0:0:0:
56,239,290286,1,0,0:0:0:0:
14,300,290361,1,0,0:0:0:0:
80,263,290436,1,0,0:0:0:0:
121,199,290511,1,0,0:0:0:0:
130,125,290586,1,0,0:0:0:0:
164,57,290661,1,0,0:0:0:0:
231,22,290736,1,0,0:0:0:0:
306,33,290811,5,0,0:0:0:0:
276,103,290886,1,0,0:0:0:0:
272,180,290961,1,0,0:0:0:0:
296,253,291036,1,0,0:0:0:0:
344,312,291111,1,0,0:0:0:0:
411,350,291186,1,0,0:0:0:0:
486,363,291261,1,0,0:0:0:0:
420,324,291336,1,0,0:0:0:0:
344,312,291411,1,0,0:0:0:0:
270,329,291486,1,0,0:0:0:0:
195,342,291561,1,0,0:0:0:0:
128,307,291636,1,0,0:0:0:0:
97,239,291711,5,0,0:0:0:0:
171,220,291786,1,0,0:0:0:0:
234,176,291861,1,0,0:0:0:0:
277,113,291936,1,0,0:0:0:0:
295,39,292011,5,0,0:0:0:0:
298,115,292086,1,0,0:0:0:0:
328,186,292161,1,0,0:0:0:0:
382,240,292236,1,0,0:0:0:0:
453,270,292311,6,0,L|454:181,1,76.9999976501466
385,28,292461,2,0,L|384:117,1,76.9999976501466
345,321,292611,5,0,0:0:0:0:
345,321,292686,1,0,0:0:0:0:
345,321,292761,2,0,L|252:304,1,76.9999976501466
100,264,292911,6,0,L|100:175,1,76.9999976501466
218,76,293061,2,0,L|218:165,1,76.9999976501466
200,340,293211,5,0,0:0:0:0:
200,340,293286,1,0,0:0:0:0:
200,340,293361,2,0,L|274:307,1,76.9999976501466
399,249,293511,6,0,P|415:149|375:-6,1,230.99999295044
366,17,293811,1,0,0:0:0:0:
365,17,295011,1,0,0:0:0:0:
214,97,295686,1,0,0:0:0:0:
328,243,296361,1,0,0:0:0:0:
310,263,297411,6,0,L|297:322,1,51.3333317667644
267,280,297511,2,0,L|226:325,1,51.3333317667644
221,274,297611,2,0,L|163:292,1,51.3333317667644
185,246,297711,2,0,L|126:233,1,51.3333317667644
167,203,297811,2,0,L|122:162,1,51.3333317667644
173,157,297911,2,0,L|155:99,1,51.3333317667644
202,121,298011,2,0,L|214:62,1,51.3333317667644
256,192,298311,12,0,302511,0:0:0:0:
