osu file format v14

[General]
AudioFilename: audio.mp3
AudioLeadIn: 0
PreviewTime: 55070
Countdown: 0
SampleSet: Soft
StackLeniency: 0.7
Mode: 3
LetterboxInBreaks: 0
SpecialStyle: 0
WidescreenStoryboard: 0

[Editor]
DistanceSpacing: 1.3
BeatDivisor: 4
GridSize: 8
TimelineZoom: 2.4

[Metadata]
Title:Hesperides
TitleUnicode:Hesperides
Artist:xi
ArtistUnicode:xi
Creator:ExKagii-
Version:Infinity
Source:CROSSxBEATS
Tags:
BeatmapID:1035079
BeatmapSetID:485363

[Difficulty]
HPDrainRate:9
CircleSize:7
OverallDifficulty:8.5
ApproachRate:5
SliderMultiplier:1.4
SliderTickRate:1

[Events]
//Background and Video events
0,0,"BG Hesperides.jpg",0,0
//Break Periods
//Storyboard Layer 0 (Background)
//Storyboard Layer 1 (Fail)
//Storyboard Layer 2 (Pass)
//Storyboard Layer 3 (Foreground)
//Storyboard Sound Samples

[TimingPoints]
1070,300,4,2,1,40,1,0
30170,-76.9230769230769,4,2,1,40,0,0
30270,-200,4,2,1,40,0,0
30320,-76.9230769230769,4,2,1,40,0,0
30420,-333.333333333333,4,2,1,40,0,0
30470,-76.9230769230769,4,2,1,40,0,0
30570,-200,4,2,1,40,0,0
30670,-76.9230769230769,4,2,1,40,0,0
30770,-200,4,2,1,40,0,0
30870,-100,4,2,1,40,0,0
31070,-200,4,2,1,40,0,0
31295,-66.6666666666667,4,2,1,40,0,0
31370,-100,4,2,1,40,0,0
35570,-200,4,2,1,40,0,0
35795,-66.6666666666667,4,2,1,40,0,0
35870,-100,4,2,1,40,0,0
52670,-76.9230769230769,4,2,1,40,0,0
52745,-200,4,2,1,40,0,0
52820,-100,4,2,1,40,0,0
52970,-133.333333333333,4,2,1,40,0,0
53120,-76.9230769230769,4,2,1,40,0,0
53195,-200,4,2,1,40,0,0
53270,-100,4,2,1,40,0,0
53420,-133.333333333333,4,2,1,40,0,0
53570,-76.9230769230769,4,2,1,40,0,0
53645,-200,4,2,1,40,0,0
53720,-100,4,2,1,40,0,0
53870,-133.333333333333,4,2,1,40,0,0
54020,-76.9230769230769,4,2,1,40,0,0
54095,-200,4,2,1,40,0,0
54170,-100,4,2,1,40,0,0
85070,-100,4,2,1,40,0,1
100970,-76.9230769230769,4,2,1,40,0,1
101070,-200,4,2,1,40,0,1
101120,-76.9230769230769,4,2,1,40,0,1
101220,-200,4,2,1,40,0,1
101270,-76.9230769230769,4,2,1,40,0,1
101370,-200,4,2,1,40,0,1
101470,-76.9230769230769,4,2,1,40,0,1
101570,-200,4,2,1,40,0,1
101670,-100,4,2,1,40,0,1
101870,-200,4,2,1,40,0,1
102095,-66.6666666666667,4,2,1,40,0,1
102170,-100,4,2,1,40,0,1
109070,-200,4,2,1,40,0,0
109295,-76.9230769230769,4,2,1,40,0,0
109370,-100,4,2,1,40,0,0

[HitObjects]
36,192,170,128,0,470:0:0:0:0:
182,192,170,1,0,0:0:0:0:
182,192,470,128,0,770:0:0:0:0:
329,192,470,1,0,0:0:0:0:
329,192,770,128,0,1070:0:0:0:0:
475,192,770,1,0,0:0:0:0:
475,192,1070,128,0,3470:0:0:0:0:
36,192,1070,1,2,0:0:0:0:
256,192,1070,1,0,0:0:0:0:
182,192,1070,1,4,0:0:0:0:
329,192,1145,1,0,0:0:0:0:
402,192,1220,1,0,0:0:0:0:
109,192,1220,1,0,0:0:0:0:
182,192,1295,1,0,0:0:0:0:
256,192,1370,1,0,0:0:0:0:
329,192,1445,1,0,0:0:0:0:
402,192,1520,1,0,0:0:0:0:
36,192,1520,1,2,0:0:0:0:
109,192,1520,1,4,0:0:0:0:
329,192,1595,1,0,0:0:0:0:
256,192,1670,1,0,0:0:0:0:
182,192,1745,1,0,0:0:0:0:
402,192,1820,1,0,0:0:0:0:
109,192,1820,1,0,0:0:0:0:
329,192,1895,1,0,0:0:0:0:
256,192,1970,1,4,0:0:0:0:
36,192,1970,1,0,0:0:0:0:
182,192,1970,1,2,0:0:0:0:
329,192,2045,1,0,0:0:0:0:
402,192,2120,1,0,0:0:0:0:
109,192,2120,1,0,0:0:0:0:
182,192,2195,1,0,0:0:0:0:
256,192,2270,1,0,0:0:0:0:
36,192,2270,1,0,0:0:0:0:
329,192,2345,1,0,0:0:0:0:
182,192,2345,1,0,0:0:0:0:
402,192,2420,1,0,0:0:0:0:
109,192,2420,1,2,0:0:0:0:
182,192,2495,1,0,0:0:0:0:
256,192,2570,1,0,0:0:0:0:
329,192,2645,1,2,0:0:0:0:
182,192,2645,1,0,0:0:0:0:
402,192,2720,1,2,0:0:0:0:
109,192,2720,1,0,0:0:0:0:
36,192,2795,1,0,0:0:0:0:
256,192,2870,1,0,0:0:0:0:
182,192,2870,1,2,0:0:0:0:
402,192,2870,1,0,0:0:0:0:
109,192,2945,1,0,0:0:0:0:
36,192,3020,1,0,0:0:0:0:
402,192,3020,1,2,0:0:0:0:
329,192,3057,1,2,0:0:0:0:
256,192,3095,1,2,0:0:0:0:
182,192,3132,1,2,0:0:0:0:
109,192,3170,1,0,0:0:0:0:
36,192,3170,1,0,0:0:0:0:
402,192,3245,1,0,0:0:0:0:
329,192,3320,1,0,0:0:0:0:
36,192,3320,1,0,0:0:0:0:
109,192,3395,1,0,0:0:0:0:
256,192,3395,1,2,0:0:0:0:
182,192,3470,1,2,0:0:0:0:
402,192,3470,1,0,0:0:0:0:
329,192,3545,1,0,0:0:0:0:
256,192,3620,1,0,0:0:0:0:
109,192,3620,1,0,0:0:0:0:
329,192,3695,1,0,0:0:0:0:
402,192,3770,1,0,0:0:0:0:
36,192,3770,1,0,0:0:0:0:
109,192,3845,1,0,0:0:0:0:
182,192,3920,1,2,0:0:0:0:
475,192,3920,1,0,0:0:0:0:
402,192,3995,1,0,0:0:0:0:
329,192,4070,1,0,0:0:0:0:
109,192,4070,1,0,0:0:0:0:
402,192,4145,1,0,0:0:0:0:
36,192,4220,1,0,0:0:0:0:
475,192,4220,1,0,0:0:0:0:
109,192,4295,1,0,0:0:0:0:
182,192,4370,1,0,0:0:0:0:
402,192,4370,1,0,0:0:0:0:
329,192,4370,1,2,0:0:0:0:
109,192,4445,1,0,0:0:0:0:
36,192,4520,1,0,0:0:0:0:
475,192,4520,1,2,0:0:0:0:
402,192,4557,1,2,0:0:0:0:
329,192,4595,1,2,0:0:0:0:
256,192,4632,1,2,0:0:0:0:
182,192,4670,1,2,0:0:0:0:
109,192,4670,1,0,0:0:0:0:
402,192,4745,1,0,0:0:0:0:
475,192,4745,1,2,0:0:0:0:
36,192,4820,1,0,0:0:0:0:
109,192,4820,1,2,0:0:0:0:
329,192,4895,1,0,0:0:0:0:
402,192,4895,1,2,0:0:0:0:
182,192,4970,1,0,0:0:0:0:
36,192,4970,1,0,0:0:0:0:
329,192,5045,1,0,0:0:0:0:
475,192,5120,1,0,0:0:0:0:
182,192,5120,1,2,0:0:0:0:
256,192,5157,1,2,0:0:0:0:
329,192,5195,1,2,0:0:0:0:
402,192,5232,1,2,0:0:0:0:
109,192,5270,1,0,0:0:0:0:
182,192,5270,1,0,0:0:0:0:
402,192,5345,1,0,0:0:0:0:
475,192,5345,1,0,0:0:0:0:
36,192,5420,1,0,0:0:0:0:
109,192,5420,1,2,0:0:0:0:
256,192,5495,1,0,0:0:0:0:
329,192,5495,1,2,0:0:0:0:
36,192,5570,128,0,5645:0:0:0:0:
475,192,5570,1,0,0:0:0:0:
182,192,5645,128,0,5720:0:0:0:0:
109,192,5645,1,0,0:0:0:0:
329,192,5720,128,0,5795:0:0:0:0:
256,192,5720,1,0,0:0:0:0:
475,192,5795,128,0,5870:0:0:0:0:
402,192,5795,1,0,0:0:0:0:
256,192,5870,1,0,0:0:0:0:
182,192,5870,1,4,0:0:0:0:
109,192,5870,1,2,0:0:0:0:
36,192,5870,128,0,7220:0:0:0:0:
329,192,5945,1,0,0:0:0:0:
402,192,6020,1,0,0:0:0:0:
475,192,6095,1,0,0:0:0:0:
109,192,6170,1,2,0:0:0:0:
182,192,6170,1,0,0:0:0:0:
256,192,6245,1,0,0:0:0:0:
329,192,6320,1,0,0:0:0:0:
402,192,6395,1,0,0:0:0:0:
475,192,6470,1,2,0:0:0:0:
109,192,6470,1,0,0:0:0:0:
402,192,6545,1,0,0:0:0:0:
329,192,6620,1,0,0:0:0:0:
256,192,6695,1,0,0:0:0:0:
182,192,6770,1,0,0:0:0:0:
109,192,6770,1,2,0:0:0:0:
256,192,6845,1,0,0:0:0:0:
329,192,6920,1,0,0:0:0:0:
402,192,6995,1,0,0:0:0:0:
475,192,7070,1,2,0:0:0:0:
109,192,7070,1,0,0:0:0:0:
182,192,7145,1,0,0:0:0:0:
256,192,7220,1,0,0:0:0:0:
329,192,7295,1,0,0:0:0:0:
182,192,7295,1,0,0:0:0:0:
402,192,7370,1,0,0:0:0:0:
109,192,7370,1,2,0:0:0:0:
256,192,7445,1,0,0:0:0:0:
36,192,7520,1,0,0:0:0:0:
475,192,7520,1,0,0:0:0:0:
109,192,7595,1,0,0:0:0:0:
329,192,7595,1,0,0:0:0:0:
182,192,7670,1,0,0:0:0:0:
475,192,7670,1,0,0:0:0:0:
109,192,7745,1,0,0:0:0:0:
329,192,7745,1,0,0:0:0:0:
36,192,7820,1,2,0:0:0:0:
475,192,7820,1,0,0:0:0:0:
109,192,7857,1,2,0:0:0:0:
182,192,7895,1,2,0:0:0:0:
256,192,7932,1,2,0:0:0:0:
329,192,7970,1,0,0:0:0:0:
402,192,7970,1,0,0:0:0:0:
36,192,8045,1,0,0:0:0:0:
109,192,8120,1,0,0:0:0:0:
182,192,8120,1,2,0:0:0:0:
256,192,8195,1,0,0:0:0:0:
329,192,8270,1,0,0:0:0:0:
402,192,8270,1,2,0:0:0:0:
36,192,8270,1,0,0:0:0:0:
475,192,8270,1,4,0:0:0:0:
36,192,8420,1,0,0:0:0:0:
475,192,8420,1,0,0:0:0:0:
329,192,8420,1,2,0:0:0:0:
36,192,8570,1,0,0:0:0:0:
256,192,8570,1,2,0:0:0:0:
402,192,8570,1,0,0:0:0:0:
36,192,8720,1,0,0:0:0:0:
182,192,8720,1,4,0:0:0:0:
109,192,8720,1,2,0:0:0:0:
475,192,8720,1,0,0:0:0:0:
36,192,8870,1,0,0:0:0:0:
475,192,8870,1,0,0:0:0:0:
182,192,8870,1,2,0:0:0:0:
109,192,9020,1,0,0:0:0:0:
256,192,9020,1,2,0:0:0:0:
475,192,9020,1,0,0:0:0:0:
475,192,9170,1,0,0:0:0:0:
402,192,9170,1,4,0:0:0:0:
36,192,9170,1,0,0:0:0:0:
329,192,9170,1,2,0:0:0:0:
109,192,9245,1,0,0:0:0:0:
256,192,9320,1,0,0:0:0:0:
182,192,9320,1,2,0:0:0:0:
329,192,9395,1,0,0:0:0:0:
109,192,9470,1,4,0:0:0:0:
182,192,9470,1,0,0:0:0:0:
402,192,9470,1,0,0:0:0:0:
36,192,9470,1,2,0:0:0:0:
475,192,9545,1,0,0:0:0:0:
256,192,9545,1,0,0:0:0:0:
402,192,9620,1,0,0:0:0:0:
182,192,9620,1,0,0:0:0:0:
109,192,9695,1,0,0:0:0:0:
329,192,9695,1,0,0:0:0:0:
402,192,9770,1,2,0:0:0:0:
36,192,9770,1,0,0:0:0:0:
256,192,9770,1,0,0:0:0:0:
475,192,9770,1,4,0:0:0:0:
109,192,9845,1,2,0:0:0:0:
182,192,9845,1,0,0:0:0:0:
402,192,9920,1,2,0:0:0:0:
329,192,9920,1,0,0:0:0:0:
109,192,9995,1,2,0:0:0:0:
182,192,9995,1,0,0:0:0:0:
329,192,10070,1,0,0:0:0:0:
402,192,10070,128,0,10670:0:0:0:0:
256,192,10145,1,0,0:0:0:0:
182,192,10220,1,0,0:0:0:0:
256,192,10295,1,0,0:0:0:0:
109,192,10370,128,0,10670:0:0:0:0:
329,192,10370,1,0,0:0:0:0:
36,192,10370,1,0,0:0:0:0:
256,192,10445,1,0,0:0:0:0:
182,192,10520,1,0,0:0:0:0:
475,192,10520,1,0,0:0:0:0:
256,192,10595,1,0,0:0:0:0:
36,192,10670,128,0,11870:0:0:0:0:
329,192,10670,128,0,11870:0:0:0:0:
182,192,10670,1,4,0:0:0:0:
475,192,10670,1,0,0:0:0:0:
402,192,10745,1,0,0:0:0:0:
256,192,10820,1,0,0:0:0:0:
182,192,10895,1,0,0:0:0:0:
109,192,10970,1,0,0:0:0:0:
182,192,11045,1,0,0:0:0:0:
256,192,11120,1,0,0:0:0:0:
402,192,11195,1,0,0:0:0:0:
475,192,11270,1,0,0:0:0:0:
109,192,11345,1,0,0:0:0:0:
402,192,11345,1,0,0:0:0:0:
182,192,11420,1,0,0:0:0:0:
256,192,11495,1,0,0:0:0:0:
475,192,11495,1,0,0:0:0:0:
402,192,11570,1,0,0:0:0:0:
475,192,11645,1,0,0:0:0:0:
182,192,11645,1,0,0:0:0:0:
109,192,11720,1,0,0:0:0:0:
182,192,11795,1,0,0:0:0:0:
256,192,11870,128,0,13070:0:0:0:0:
475,192,11870,128,0,13070:0:0:0:0:
109,192,11945,1,0,0:0:0:0:
182,192,12020,1,0,0:0:0:0:
36,192,12095,1,0,0:0:0:0:
109,192,12170,1,0,0:0:0:0:
182,192,12245,1,0,0:0:0:0:
402,192,12245,1,0,0:0:0:0:
329,192,12320,1,0,0:0:0:0:
109,192,12395,1,0,0:0:0:0:
182,192,12470,1,0,0:0:0:0:
36,192,12545,1,0,0:0:0:0:
109,192,12620,1,0,0:0:0:0:
402,192,12695,1,0,0:0:0:0:
329,192,12770,1,0,0:0:0:0:
36,192,12845,1,0,0:0:0:0:
109,192,12920,1,0,0:0:0:0:
182,192,12995,1,0,0:0:0:0:
402,192,13070,128,0,14270:0:0:0:0:
329,192,13070,128,0,14270:0:0:0:0:
36,192,13070,1,0,0:0:0:0:
36,192,14270,1,0,0:0:0:0:
182,192,14270,1,2,0:0:0:0:
256,192,14270,1,4,0:0:0:0:
475,192,14270,1,0,0:0:0:0:
109,192,14420,1,0,0:0:0:0:
329,192,14420,1,0,0:0:0:0:
36,192,14570,1,0,0:0:0:0:
256,192,14570,1,2,0:0:0:0:
475,192,14570,1,0,0:0:0:0:
182,192,14720,1,2,0:0:0:0:
109,192,14720,128,0,14870:0:0:0:0:
36,192,14720,128,0,14870:0:0:0:0:
256,192,14757,1,0,0:0:0:0:
329,192,14795,1,0,0:0:0:0:
402,192,14832,1,0,0:0:0:0:
475,192,14870,1,0,0:0:0:0:
182,192,14870,1,0,0:0:0:0:
329,192,15020,1,2,0:0:0:0:
109,192,15020,128,0,15170:0:0:0:0:
36,192,15020,128,0,15170:0:0:0:0:
182,192,15170,1,0,0:0:0:0:
402,192,15170,1,0,0:0:0:0:
256,192,15170,1,2,0:0:0:0:
109,192,15320,1,2,0:0:0:0:
475,192,15320,128,0,15770:0:0:0:0:
329,192,15320,128,0,15620:0:0:0:0:
36,192,15620,1,2,0:0:0:0:
182,192,15620,1,0,0:0:0:0:
109,192,15770,1,2,0:0:0:0:
256,192,15770,1,0,0:0:0:0:
402,192,15770,1,0,0:0:0:0:
475,192,15920,1,0,0:0:0:0:
36,192,16070,128,0,16445:0:0:0:0:
329,192,16070,128,0,16445:0:0:0:0:
182,192,16070,1,0,0:0:0:0:
109,192,16220,128,0,16445:0:0:0:0:
402,192,16220,128,0,16445:0:0:0:0:
256,192,16220,1,2,0:0:0:0:
182,192,16370,128,0,16445:0:0:0:0:
475,192,16370,128,0,16445:0:0:0:0:
182,192,16520,128,0,16820:0:0:0:0:
475,192,16520,128,0,16820:0:0:0:0:
402,192,16520,1,4,0:0:0:0:
109,192,16520,1,0,0:0:0:0:
36,192,16520,1,0,0:0:0:0:
329,192,16520,1,2,0:0:0:0:
36,192,16820,1,0,0:0:0:0:
402,192,16820,1,0,0:0:0:0:
256,192,16895,1,0,0:0:0:0:
329,192,16970,1,0,0:0:0:0:
109,192,16970,1,0,0:0:0:0:
36,192,16970,1,2,0:0:0:0:
182,192,17045,1,0,0:0:0:0:
402,192,17045,1,0,0:0:0:0:
256,192,17120,1,0,0:0:0:0:
475,192,17120,1,0,0:0:0:0:
182,192,17195,1,0,0:0:0:0:
402,192,17195,1,0,0:0:0:0:
109,192,17270,1,4,0:0:0:0:
36,192,17270,1,2,0:0:0:0:
329,192,17270,1,0,0:0:0:0:
475,192,17270,1,0,0:0:0:0:
182,192,17420,1,2,0:0:0:0:
402,192,17420,128,0,17570:0:0:0:0:
256,192,17420,128,0,17570:0:0:0:0:
109,192,17570,1,2,0:0:0:0:
329,192,17570,128,0,17720:0:0:0:0:
182,192,17570,128,0,17720:0:0:0:0:
256,192,17720,1,2,0:0:0:0:
475,192,17720,1,4,0:0:0:0:
36,192,17720,128,0,18170:0:0:0:0:
109,192,17720,128,0,18020:0:0:0:0:
329,192,18020,1,2,0:0:0:0:
402,192,18020,128,0,18170:0:0:0:0:
256,192,18095,1,0,0:0:0:0:
182,192,18170,128,0,18470:0:0:0:0:
109,192,18170,1,2,0:0:0:0:
475,192,18170,1,0,0:0:0:0:
256,192,18320,1,0,0:0:0:0:
329,192,18395,1,0,0:0:0:0:
402,192,18470,1,2,0:0:0:0:
36,192,18470,1,0,0:0:0:0:
475,192,18470,128,0,18770:0:0:0:0:
109,192,18620,1,0,0:0:0:0:
329,192,18620,1,0,0:0:0:0:
182,192,18695,1,0,0:0:0:0:
256,192,18770,1,2,0:0:0:0:
36,192,18770,128,0,19070:0:0:0:0:
402,192,18920,1,0,0:0:0:0:
109,192,19070,1,0,0:0:0:0:
256,192,19070,1,2,0:0:0:0:
475,192,19070,1,0,0:0:0:0:
329,192,19070,1,4,0:0:0:0:
402,192,19220,1,2,0:0:0:0:
36,192,19220,1,0,0:0:0:0:
109,192,19295,1,0,0:0:0:0:
182,192,19370,1,0,0:0:0:0:
256,192,19370,1,0,0:0:0:0:
475,192,19370,1,0,0:0:0:0:
329,192,19445,1,0,0:0:0:0:
36,192,19520,1,2,0:0:0:0:
109,192,19520,1,4,0:0:0:0:
475,192,19520,1,0,0:0:0:0:
402,192,19520,1,0,0:0:0:0:
182,192,19670,1,0,0:0:0:0:
256,192,19670,1,0,0:0:0:0:
329,192,19745,1,0,0:0:0:0:
402,192,19820,1,2,0:0:0:0:
36,192,19820,1,0,0:0:0:0:
109,192,19895,1,0,0:0:0:0:
329,192,19895,1,0,0:0:0:0:
182,192,19970,1,0,0:0:0:0:
256,192,19970,1,2,0:0:0:0:
329,192,20045,1,0,0:0:0:0:
402,192,20120,1,4,0:0:0:0:
109,192,20120,1,2,0:0:0:0:
36,192,20120,128,0,20420:0:0:0:0:
475,192,20120,128,0,20420:0:0:0:0:
182,192,20270,1,0,0:0:0:0:
256,192,20345,1,0,0:0:0:0:
329,192,20420,1,0,0:0:0:0:
109,192,20420,1,0,0:0:0:0:
182,192,20495,1,0,0:0:0:0:
256,192,20570,1,2,0:0:0:0:
475,192,20570,1,0,0:0:0:0:
36,192,20570,1,0,0:0:0:0:
402,192,20645,1,0,0:0:0:0:
109,192,20720,128,0,20870:0:0:0:0:
36,192,20720,128,0,20870:0:0:0:0:
182,192,20720,1,2,0:0:0:0:
329,192,20720,1,0,0:0:0:0:
475,192,20870,1,0,0:0:0:0:
402,192,20945,1,0,0:0:0:0:
329,192,21020,1,0,0:0:0:0:
109,192,21020,128,0,21170:0:0:0:0:
182,192,21020,128,0,21170:0:0:0:0:
256,192,21020,1,2,0:0:0:0:
402,192,21170,1,0,0:0:0:0:
36,192,21245,1,0,0:0:0:0:
182,192,21320,128,0,21470:0:0:0:0:
329,192,21320,1,2,0:0:0:0:
475,192,21320,128,4,22370:0:0:0:0:
256,192,21320,128,0,21470:0:0:0:0:
109,192,21470,1,0,0:0:0:0:
36,192,21620,1,0,0:0:0:0:
256,192,21620,1,0,0:0:0:0:
182,192,21770,1,0,0:0:0:0:
329,192,21770,1,2,0:0:0:0:
402,192,21770,1,0,0:0:0:0:
109,192,21920,1,0,0:0:0:0:
36,192,22070,1,0,0:0:0:0:
256,192,22070,1,2,0:0:0:0:
402,192,22070,1,0,0:0:0:0:
182,192,22070,1,0,0:0:0:0:
329,192,22220,1,0,0:0:0:0:
256,192,22370,1,2,0:0:0:0:
182,192,22370,128,0,22445:0:0:0:0:
109,192,22445,128,0,22520:0:0:0:0:
329,192,22520,1,0,0:0:0:0:
402,192,22520,1,0,0:0:0:0:
36,192,22520,128,0,22670:0:0:0:0:
109,192,22670,1,2,0:0:0:0:
475,192,22670,1,0,0:0:0:0:
329,192,22670,1,0,0:0:0:0:
182,192,22670,1,4,0:0:0:0:
36,192,22820,1,2,0:0:0:0:
475,192,22820,1,0,0:0:0:0:
109,192,22857,1,2,0:0:0:0:
182,192,22895,1,2,0:0:0:0:
256,192,22932,1,2,0:0:0:0:
329,192,22970,1,0,0:0:0:0:
402,192,22970,1,0,0:0:0:0:
109,192,23045,1,0,0:0:0:0:
182,192,23045,1,0,0:0:0:0:
329,192,23120,1,0,0:0:0:0:
36,192,23120,1,0,0:0:0:0:
182,192,23195,1,0,0:0:0:0:
402,192,23195,1,0,0:0:0:0:
475,192,23270,1,0,0:0:0:0:
109,192,23270,1,0,0:0:0:0:
36,192,23270,1,0,0:0:0:0:
402,192,23345,1,0,0:0:0:0:
329,192,23420,1,0,0:0:0:0:
36,192,23420,1,2,0:0:0:0:
109,192,23457,1,2,0:0:0:0:
182,192,23495,1,2,0:0:0:0:
256,192,23532,1,2,0:0:0:0:
329,192,23570,1,2,0:0:0:0:
36,192,23570,1,0,0:0:0:0:
402,192,23645,1,0,0:0:0:0:
109,192,23645,1,0,0:0:0:0:
475,192,23720,1,0,0:0:0:0:
182,192,23720,1,0,0:0:0:0:
402,192,23795,1,0,0:0:0:0:
109,192,23795,1,0,0:0:0:0:
475,192,23870,1,0,0:0:0:0:
36,192,23870,1,0,0:0:0:0:
182,192,23870,1,2,0:0:0:0:
329,192,23870,1,4,0:0:0:0:
402,192,24020,1,0,0:0:0:0:
256,192,24020,1,2,0:0:0:0:
182,192,24170,1,2,0:0:0:0:
329,192,24170,1,0,0:0:0:0:
109,192,24170,1,0,0:0:0:0:
36,192,24320,1,2,0:0:0:0:
402,192,24320,128,0,24470:0:0:0:0:
475,192,24320,128,0,24470:0:0:0:0:
109,192,24357,1,0,0:0:0:0:
182,192,24395,1,0,0:0:0:0:
256,192,24432,1,0,0:0:0:0:
36,192,24470,1,0,0:0:0:0:
329,192,24470,1,0,0:0:0:0:
475,192,24620,128,0,24770:0:0:0:0:
402,192,24620,128,0,24770:0:0:0:0:
256,192,24620,1,2,0:0:0:0:
109,192,24770,1,0,0:0:0:0:
329,192,24770,1,0,0:0:0:0:
182,192,24770,1,2,0:0:0:0:
402,192,24920,1,0,0:0:0:0:
36,192,24920,128,0,25370:0:0:0:0:
256,192,24920,128,0,25220:0:0:0:0:
182,192,25220,1,0,0:0:0:0:
475,192,25220,1,2,0:0:0:0:
402,192,25370,1,2,0:0:0:0:
256,192,25370,1,0,0:0:0:0:
109,192,25370,1,0,0:0:0:0:
329,192,25520,1,0,0:0:0:0:
182,192,25670,128,0,26045:0:0:0:0:
475,192,25670,128,0,26045:0:0:0:0:
36,192,25670,1,0,0:0:0:0:
402,192,25820,128,0,26045:0:0:0:0:
109,192,25820,128,0,26045:0:0:0:0:
256,192,25820,1,2,0:0:0:0:
329,192,25970,128,0,26045:0:0:0:0:
36,192,25970,128,0,26045:0:0:0:0:
109,192,26120,1,2,0:0:0:0:
36,192,26120,128,0,26420:0:0:0:0:
329,192,26120,128,0,26420:0:0:0:0:
402,192,26120,1,0,0:0:0:0:
475,192,26120,1,0,0:0:0:0:
182,192,26120,1,4,0:0:0:0:
475,192,26420,1,0,0:0:0:0:
109,192,26420,1,2,0:0:0:0:
256,192,26495,1,0,0:0:0:0:
329,192,26570,1,0,0:0:0:0:
109,192,26570,1,2,0:0:0:0:
36,192,26570,1,0,0:0:0:0:
402,192,26645,1,0,0:0:0:0:
182,192,26645,1,0,0:0:0:0:
256,192,26720,1,0,0:0:0:0:
36,192,26720,1,0,0:0:0:0:
329,192,26795,1,0,0:0:0:0:
109,192,26795,1,0,0:0:0:0:
402,192,26870,1,2,0:0:0:0:
475,192,26870,1,4,0:0:0:0:
182,192,26870,1,0,0:0:0:0:
256,192,26870,1,0,0:0:0:0:
329,192,27020,1,2,0:0:0:0:
109,192,27020,128,0,27170:0:0:0:0:
36,192,27020,128,0,27170:0:0:0:0:
402,192,27170,1,2,0:0:0:0:
182,192,27170,128,0,27320:0:0:0:0:
256,192,27170,128,0,27320:0:0:0:0:
329,192,27320,1,4,0:0:0:0:
36,192,27320,1,2,0:0:0:0:
475,192,27320,128,0,27770:0:0:0:0:
402,192,27320,128,0,27620:0:0:0:0:
182,192,27620,1,2,0:0:0:0:
109,192,27620,128,0,27770:0:0:0:0:
256,192,27695,1,0,0:0:0:0:
329,192,27770,128,0,28070:0:0:0:0:
402,192,27770,1,0,0:0:0:0:
36,192,27770,1,2,0:0:0:0:
256,192,27920,1,0,0:0:0:0:
182,192,27995,1,0,0:0:0:0:
109,192,28070,1,0,0:0:0:0:
475,192,28070,1,2,0:0:0:0:
36,192,28070,128,0,28370:0:0:0:0:
402,192,28220,1,0,0:0:0:0:
182,192,28220,1,0,0:0:0:0:
329,192,28295,1,0,0:0:0:0:
256,192,28370,1,2,0:0:0:0:
475,192,28370,128,0,28670:0:0:0:0:
36,192,28520,128,0,28670:0:0:0:0:
182,192,28520,1,0,0:0:0:0:
109,192,28670,1,0,0:0:0:0:
256,192,28670,1,0,0:0:0:0:
402,192,28670,128,0,28820:0:0:0:0:
329,192,28820,1,0,0:0:0:0:
256,192,28895,1,0,0:0:0:0:
182,192,28970,1,0,0:0:0:0:
36,192,28970,1,0,0:0:0:0:
475,192,28970,1,4,0:0:0:0:
402,192,28970,1,2,0:0:0:0:
329,192,29045,1,0,0:0:0:0:
256,192,29120,1,0,0:0:0:0:
36,192,29120,1,0,0:0:0:0:
109,192,29195,1,0,0:0:0:0:
329,192,29195,1,0,0:0:0:0:
402,192,29270,1,2,0:0:0:0:
182,192,29270,1,0,0:0:0:0:
475,192,29270,1,0,0:0:0:0:
256,192,29345,1,0,0:0:0:0:
36,192,29420,1,0,0:0:0:0:
475,192,29420,1,0,0:0:0:0:
109,192,29495,1,0,0:0:0:0:
402,192,29495,1,0,0:0:0:0:
182,192,29570,1,2,0:0:0:0:
329,192,29570,1,0,0:0:0:0:
402,192,29645,1,0,0:0:0:0:
109,192,29645,1,2,0:0:0:0:
182,192,29720,1,2,0:0:0:0:
329,192,29720,1,4,0:0:0:0:
36,192,29720,128,0,30020:0:0:0:0:
475,192,29720,128,0,30020:0:0:0:0:
109,192,30020,1,0,0:0:0:0:
402,192,30020,1,0,0:0:0:0:
329,192,30070,1,0,0:0:0:0:
256,192,30120,1,0,0:0:0:0:
182,192,30170,1,4,0:0:0:0:
36,192,30170,1,2,0:0:0:0:
475,192,30170,128,0,30470:0:0:0:0:
402,192,30170,128,0,30470:0:0:0:0:
256,192,30320,1,4,0:0:0:0:
329,192,30320,1,0,0:0:0:0:
109,192,30320,1,2,0:0:0:0:
36,192,30470,1,2,0:0:0:0:
182,192,30470,1,4,0:0:0:0:
329,192,30470,128,0,30670:0:0:0:0:
256,192,30470,128,0,30670:0:0:0:0:
182,192,30670,128,0,30870:0:0:0:0:
109,192,30670,128,0,30870:0:0:0:0:
36,192,30670,1,2,0:0:0:0:
475,192,30670,1,4,0:0:0:0:
329,192,30870,1,2,0:0:0:0:
402,192,30870,1,4,0:0:0:0:
475,192,30870,1,0,0:0:0:0:
36,192,31370,1,2,0:0:0:0:
109,192,31370,1,4,0:0:0:0:
329,192,31370,1,0,0:0:0:0:
475,192,31370,1,0,0:0:0:0:
256,192,31445,1,0,0:0:0:0:
182,192,31520,1,0,0:0:0:0:
402,192,31520,1,0,0:0:0:0:
329,192,31595,1,0,0:0:0:0:
256,192,31670,1,0,0:0:0:0:
36,192,31670,1,2,0:0:0:0:
475,192,31670,1,4,0:0:0:0:
329,192,31745,1,0,0:0:0:0:
402,192,31820,1,0,0:0:0:0:
109,192,31820,1,0,0:0:0:0:
182,192,31895,1,0,0:0:0:0:
36,192,31970,1,0,0:0:0:0:
475,192,31970,1,0,0:0:0:0:
256,192,31970,1,2,0:0:0:0:
109,192,32045,1,0,0:0:0:0:
402,192,32045,1,0,0:0:0:0:
256,192,32120,1,0,0:0:0:0:
329,192,32120,1,4,0:0:0:0:
182,192,32120,1,2,0:0:0:0:
109,192,32195,1,0,0:0:0:0:
402,192,32195,1,0,0:0:0:0:
36,192,32270,1,0,0:0:0:0:
475,192,32270,1,0,0:0:0:0:
402,192,32345,1,0,0:0:0:0:
109,192,32345,1,0,0:0:0:0:
182,192,32420,1,0,0:0:0:0:
329,192,32420,1,0,0:0:0:0:
109,192,32495,1,0,0:0:0:0:
402,192,32495,1,0,0:0:0:0:
182,192,32570,1,0,0:0:0:0:
475,192,32570,1,4,0:0:0:0:
329,192,32570,1,0,0:0:0:0:
36,192,32570,1,2,0:0:0:0:
256,192,32645,1,0,0:0:0:0:
182,192,32720,1,0,0:0:0:0:
329,192,32720,1,0,0:0:0:0:
402,192,32795,1,0,0:0:0:0:
109,192,32795,1,0,0:0:0:0:
36,192,32870,1,0,0:0:0:0:
475,192,32870,1,0,0:0:0:0:
256,192,32870,1,2,0:0:0:0:
329,192,32870,1,4,0:0:0:0:
109,192,32920,1,0,0:0:0:0:
182,192,32970,1,0,0:0:0:0:
256,192,33020,1,0,0:0:0:0:
475,192,33070,1,0,0:0:0:0:
402,192,33120,1,0,0:0:0:0:
329,192,33170,1,0,0:0:0:0:
256,192,33220,1,0,0:0:0:0:
182,192,33270,1,0,0:0:0:0:
109,192,33320,1,4,0:0:0:0:
36,192,33320,1,2,0:0:0:0:
475,192,33320,1,0,0:0:0:0:
402,192,33370,1,0,0:0:0:0:
329,192,33420,1,0,0:0:0:0:
36,192,33470,1,2,0:0:0:0:
182,192,33470,1,4,0:0:0:0:
475,192,33470,128,0,34670:0:0:0:0:
256,192,33470,128,0,34520:0:0:0:0:
36,192,34520,1,0,0:0:0:0:
402,192,34520,1,0,0:0:0:0:
182,192,34595,1,0,0:0:0:0:
329,192,34670,1,4,0:0:0:0:
36,192,34670,1,2,0:0:0:0:
402,192,34670,128,0,35270:0:0:0:0:
109,192,34670,128,0,35270:0:0:0:0:
182,192,35195,1,0,0:0:0:0:
256,192,35270,1,2,0:0:0:0:
329,192,35270,1,4,0:0:0:0:
475,192,35270,1,0,0:0:0:0:
36,192,35270,1,0,0:0:0:0:
36,192,35420,1,0,0:0:0:0:
182,192,35420,1,2,0:0:0:0:
256,192,35420,1,4,0:0:0:0:
475,192,35420,1,0,0:0:0:0:
36,192,35870,1,2,0:0:0:0:
109,192,35870,1,4,0:0:0:0:
402,192,35870,1,0,0:0:0:0:
256,192,35870,1,0,0:0:0:0:
475,192,35870,128,0,36320:0:0:0:0:
36,192,36320,128,0,36620:0:0:0:0:
182,192,36320,1,0,0:0:0:0:
109,192,36620,128,0,36920:0:0:0:0:
256,192,36620,1,0,0:0:0:0:
182,192,36920,128,0,37220:0:0:0:0:
329,192,36920,1,0,0:0:0:0:
475,192,37220,128,0,37370:0:0:0:0:
402,192,37370,128,0,37670:0:0:0:0:
36,192,37370,1,0,0:0:0:0:
109,192,37520,128,0,37670:0:0:0:0:
182,192,37670,128,0,37820:0:0:0:0:
329,192,37670,1,0,0:0:0:0:
256,192,37820,1,0,0:0:0:0:
36,192,37820,128,0,37970:0:0:0:0:
109,192,37970,128,0,38120:0:0:0:0:
182,192,37970,1,0,0:0:0:0:
402,192,38120,128,0,38720:0:0:0:0:
329,192,38120,1,0,0:0:0:0:
475,192,38120,1,0,0:0:0:0:
182,192,38420,128,0,38570:0:0:0:0:
182,192,38645,128,0,38720:0:0:0:0:
36,192,38720,128,0,39620:0:0:0:0:
329,192,38720,1,0,0:0:0:0:
475,192,38720,1,0,0:0:0:0:
329,192,39020,128,0,39095:0:0:0:0:
329,192,39170,128,0,39320:0:0:0:0:
329,192,39395,128,0,39620:0:0:0:0:
182,192,39620,128,0,39770:0:0:0:0:
256,192,39620,1,0,0:0:0:0:
256,192,39770,128,0,39920:0:0:0:0:
329,192,39770,1,0,0:0:0:0:
329,192,39920,128,0,40070:0:0:0:0:
402,192,39920,1,0,0:0:0:0:
475,192,40070,128,0,40370:0:0:0:0:
109,192,40070,1,0,0:0:0:0:
402,192,40370,128,0,40670:0:0:0:0:
36,192,40370,1,0,0:0:0:0:
109,192,40520,1,2,0:0:0:0:
329,192,40520,1,0,0:0:0:0:
182,192,40595,1,2,0:0:0:0:
256,192,40670,1,2,0:0:0:0:
475,192,40670,1,0,0:0:0:0:
36,192,40745,1,0,0:0:0:0:
109,192,40820,1,0,0:0:0:0:
182,192,40895,1,0,0:0:0:0:
256,192,40970,1,2,0:0:0:0:
475,192,40970,1,0,0:0:0:0:
402,192,41045,1,0,0:0:0:0:
329,192,41120,1,0,0:0:0:0:
182,192,41120,1,2,0:0:0:0:
109,192,41195,1,0,0:0:0:0:
36,192,41270,1,0,0:0:0:0:
475,192,41270,1,0,0:0:0:0:
402,192,41345,1,0,0:0:0:0:
329,192,41420,1,0,0:0:0:0:
109,192,41420,1,0,0:0:0:0:
182,192,41495,1,0,0:0:0:0:
256,192,41570,1,2,0:0:0:0:
475,192,41570,1,0,0:0:0:0:
109,192,41645,1,0,0:0:0:0:
402,192,41720,1,0,0:0:0:0:
182,192,41720,1,2,0:0:0:0:
329,192,41795,1,0,0:0:0:0:
256,192,41870,1,0,0:0:0:0:
109,192,41870,1,2,0:0:0:0:
475,192,41870,1,0,0:0:0:0:
36,192,41870,128,0,42170:0:0:0:0:
402,192,41945,1,0,0:0:0:0:
329,192,42020,1,0,0:0:0:0:
109,192,42095,1,0,0:0:0:0:
182,192,42170,1,2,0:0:0:0:
475,192,42170,128,0,42470:0:0:0:0:
402,192,42245,1,0,0:0:0:0:
329,192,42320,1,0,0:0:0:0:
256,192,42395,1,0,0:0:0:0:
182,192,42470,128,0,42770:0:0:0:0:
36,192,42470,1,2,0:0:0:0:
109,192,42545,1,0,0:0:0:0:
329,192,42620,1,0,0:0:0:0:
256,192,42695,1,0,0:0:0:0:
475,192,42770,1,2,0:0:0:0:
329,192,42770,128,0,43070:0:0:0:0:
36,192,42845,1,0,0:0:0:0:
109,192,42920,1,0,0:0:0:0:
182,192,42995,1,0,0:0:0:0:
256,192,43070,1,0,0:0:0:0:
475,192,43070,1,4,0:0:0:0:
402,192,43070,1,2,0:0:0:0:
36,192,43070,128,0,43520:0:0:0:0:
109,192,43145,1,0,0:0:0:0:
182,192,43220,1,0,0:0:0:0:
256,192,43295,1,0,0:0:0:0:
329,192,43370,1,0,0:0:0:0:
402,192,43445,1,0,0:0:0:0:
256,192,43520,128,0,43970:0:0:0:0:
475,192,43520,1,2,0:0:0:0:
329,192,43595,1,0,0:0:0:0:
182,192,43670,1,4,0:0:0:0:
475,192,43670,1,0,0:0:0:0:
109,192,43670,1,2,0:0:0:0:
36,192,43745,1,0,0:0:0:0:
182,192,43820,1,0,0:0:0:0:
329,192,43895,1,0,0:0:0:0:
475,192,43970,1,0,0:0:0:0:
109,192,43970,1,2,0:0:0:0:
36,192,43970,128,0,44120:0:0:0:0:
402,192,44045,1,0,0:0:0:0:
182,192,44120,1,2,0:0:0:0:
329,192,44120,1,0,0:0:0:0:
109,192,44120,128,0,44270:0:0:0:0:
402,192,44195,1,0,0:0:0:0:
475,192,44270,1,0,0:0:0:0:
36,192,44270,1,2,0:0:0:0:
329,192,44270,1,4,0:0:0:0:
256,192,44270,128,0,44720:0:0:0:0:
182,192,44345,1,0,0:0:0:0:
109,192,44420,1,0,0:0:0:0:
329,192,44495,1,0,0:0:0:0:
36,192,44570,1,0,0:0:0:0:
402,192,44570,1,0,0:0:0:0:
109,192,44645,1,0,0:0:0:0:
182,192,44720,1,2,0:0:0:0:
475,192,44720,128,0,45020:0:0:0:0:
402,192,44795,1,0,0:0:0:0:
109,192,44870,1,2,0:0:0:0:
329,192,44870,1,0,0:0:0:0:
36,192,44870,1,0,0:0:0:0:
256,192,44945,1,0,0:0:0:0:
329,192,45020,1,0,0:0:0:0:
402,192,45020,128,0,45470:0:0:0:0:
36,192,45020,1,2,0:0:0:0:
109,192,45057,1,2,0:0:0:0:
182,192,45095,1,2,0:0:0:0:
256,192,45132,1,2,0:0:0:0:
36,192,45170,1,0,0:0:0:0:
329,192,45170,1,2,0:0:0:0:
109,192,45245,1,0,0:0:0:0:
182,192,45320,1,0,0:0:0:0:
256,192,45320,1,2,0:0:0:0:
109,192,45395,1,2,0:0:0:0:
36,192,45395,1,0,0:0:0:0:
329,192,45470,1,4,0:0:0:0:
182,192,45470,1,0,0:0:0:0:
256,192,45470,1,2,0:0:0:0:
475,192,45470,1,0,0:0:0:0:
402,192,45620,1,0,0:0:0:0:
109,192,45620,1,2,0:0:0:0:
182,192,45770,1,2,0:0:0:0:
329,192,45770,1,0,0:0:0:0:
36,192,45920,128,0,46220:0:0:0:0:
256,192,45920,1,2,0:0:0:0:
402,192,45920,1,0,0:0:0:0:
475,192,46070,1,0,0:0:0:0:
109,192,46220,128,0,46520:0:0:0:0:
329,192,46220,1,2,0:0:0:0:
402,192,46220,1,4,0:0:0:0:
182,192,46220,1,0,0:0:0:0:
256,192,46370,1,0,0:0:0:0:
182,192,46520,128,0,46820:0:0:0:0:
329,192,46520,1,0,0:0:0:0:
402,192,46520,1,2,0:0:0:0:
475,192,46520,1,4,0:0:0:0:
329,192,46670,1,0,0:0:0:0:
475,192,46820,128,0,46970:0:0:0:0:
36,192,46820,1,2,0:0:0:0:
109,192,46857,1,2,0:0:0:0:
182,192,46895,1,2,0:0:0:0:
256,192,46932,1,2,0:0:0:0:
402,192,46970,128,0,47270:0:0:0:0:
329,192,46970,1,2,0:0:0:0:
109,192,47120,128,0,47270:0:0:0:0:
36,192,47120,1,0,0:0:0:0:
182,192,47270,128,0,47420:0:0:0:0:
256,192,47270,1,2,0:0:0:0:
36,192,47420,128,0,47570:0:0:0:0:
329,192,47420,1,2,0:0:0:0:
402,192,47495,1,2,0:0:0:0:
109,192,47570,128,0,47720:0:0:0:0:
256,192,47570,1,2,0:0:0:0:
36,192,47720,1,0,0:0:0:0:
402,192,47720,1,4,0:0:0:0:
475,192,47720,128,0,48320:0:0:0:0:
329,192,47720,1,2,0:0:0:0:
182,192,47870,1,0,0:0:0:0:
109,192,48020,1,0,0:0:0:0:
402,192,48020,1,0,0:0:0:0:
329,192,48020,1,2,0:0:0:0:
256,192,48170,1,2,0:0:0:0:
36,192,48170,1,0,0:0:0:0:
36,192,48320,128,0,49220:0:0:0:0:
109,192,48320,1,0,0:0:0:0:
182,192,48320,1,2,0:0:0:0:
402,192,48470,1,0,0:0:0:0:
256,192,48470,1,2,0:0:0:0:
109,192,48620,1,0,0:0:0:0:
475,192,48620,1,0,0:0:0:0:
182,192,48770,1,2,0:0:0:0:
329,192,48770,1,0,0:0:0:0:
402,192,48920,1,0,0:0:0:0:
329,192,49070,1,2,0:0:0:0:
475,192,49070,1,0,0:0:0:0:
182,192,49220,128,0,49370:0:0:0:0:
109,192,49220,1,0,0:0:0:0:
256,192,49370,128,0,49520:0:0:0:0:
402,192,49370,1,2,0:0:0:0:
329,192,49520,128,0,49670:0:0:0:0:
109,192,49520,1,2,0:0:0:0:
475,192,49670,128,0,49970:0:0:0:0:
182,192,49670,1,2,0:0:0:0:
256,192,49820,1,0,0:0:0:0:
402,192,49970,128,0,50270:0:0:0:0:
36,192,49970,1,2,0:0:0:0:
109,192,50120,1,2,0:0:0:0:
329,192,50120,1,0,0:0:0:0:
182,192,50195,1,2,0:0:0:0:
475,192,50270,1,4,0:0:0:0:
36,192,50270,1,2,0:0:0:0:
329,192,50270,1,0,0:0:0:0:
256,192,50270,128,0,50570:0:0:0:0:
402,192,50420,1,0,0:0:0:0:
36,192,50570,1,0,0:0:0:0:
182,192,50570,1,2,0:0:0:0:
475,192,50570,128,0,50720:0:0:0:0:
109,192,50720,128,0,50870:0:0:0:0:
329,192,50720,1,0,0:0:0:0:
475,192,50870,1,0,0:0:0:0:
256,192,50870,1,2,0:0:0:0:
109,192,51020,128,0,51170:0:0:0:0:
402,192,51020,1,0,0:0:0:0:
182,192,51170,128,0,51320:0:0:0:0:
329,192,51170,1,2,0:0:0:0:
36,192,51320,1,2,0:0:0:0:
475,192,51320,1,0,0:0:0:0:
256,192,51320,128,0,51470:0:0:0:0:
109,192,51470,1,2,0:0:0:0:
402,192,51470,1,0,0:0:0:0:
329,192,51470,1,0,0:0:0:0:
475,192,51545,1,0,0:0:0:0:
36,192,51620,1,0,0:0:0:0:
182,192,51620,1,2,0:0:0:0:
256,192,51695,1,2,0:0:0:0:
475,192,51770,1,0,0:0:0:0:
329,192,51770,1,2,0:0:0:0:
256,192,51845,1,0,0:0:0:0:
182,192,51920,1,2,0:0:0:0:
36,192,51920,1,0,0:0:0:0:
329,192,51995,1,2,0:0:0:0:
402,192,51995,1,0,0:0:0:0:
109,192,52070,1,0,0:0:0:0:
256,192,52070,1,2,0:0:0:0:
402,192,52145,1,2,0:0:0:0:
475,192,52145,1,0,0:0:0:0:
182,192,52220,1,0,0:0:0:0:
329,192,52220,1,2,0:0:0:0:
109,192,52295,1,0,0:0:0:0:
36,192,52370,1,0,0:0:0:0:
475,192,52370,1,2,0:0:0:0:
402,192,52445,1,2,0:0:0:0:
109,192,52445,1,0,0:0:0:0:
329,192,52520,1,2,0:0:0:0:
182,192,52520,1,0,0:0:0:0:
109,192,52595,1,0,0:0:0:0:
402,192,52595,1,2,0:0:0:0:
36,192,52670,1,2,0:0:0:0:
475,192,52670,1,4,0:0:0:0:
182,192,52670,1,0,0:0:0:0:
329,192,52670,1,0,0:0:0:0:
36,192,52820,1,2,0:0:0:0:
329,192,52820,1,0,0:0:0:0:
182,192,52820,1,0,0:0:0:0:
475,192,52820,1,4,0:0:0:0:
36,192,53120,1,2,0:0:0:0:
109,192,53120,1,0,0:0:0:0:
402,192,53120,1,0,0:0:0:0:
475,192,53120,1,4,0:0:0:0:
109,192,53270,1,0,0:0:0:0:
36,192,53270,1,2,0:0:0:0:
402,192,53270,1,0,0:0:0:0:
475,192,53270,1,4,0:0:0:0:
109,192,53570,1,2,0:0:0:0:
182,192,53570,1,0,0:0:0:0:
329,192,53570,1,0,0:0:0:0:
402,192,53570,1,4,0:0:0:0:
109,192,53720,1,2,0:0:0:0:
182,192,53720,1,0,0:0:0:0:
402,192,53720,1,4,0:0:0:0:
329,192,53720,1,0,0:0:0:0:
36,192,54020,1,2,0:0:0:0:
182,192,54020,1,0,0:0:0:0:
329,192,54020,1,0,0:0:0:0:
475,192,54020,1,4,0:0:0:0:
36,192,54170,1,2,0:0:0:0:
182,192,54170,1,0,0:0:0:0:
329,192,54170,1,0,0:0:0:0:
475,192,54170,1,4,0:0:0:0:
109,192,54320,1,2,0:0:0:0:
402,192,54320,1,0,0:0:0:0:
36,192,54470,1,0,0:0:0:0:
256,192,54470,1,4,0:0:0:0:
475,192,54470,1,0,0:0:0:0:
182,192,54470,1,2,0:0:0:0:
475,192,54620,1,2,0:0:0:0:
36,192,54620,1,0,0:0:0:0:
402,192,54657,1,2,0:0:0:0:
329,192,54695,1,2,0:0:0:0:
256,192,54732,1,2,0:0:0:0:
182,192,54770,1,0,0:0:0:0:
109,192,54770,1,0,0:0:0:0:
475,192,54845,1,0,0:0:0:0:
402,192,54920,1,0,0:0:0:0:
109,192,54920,1,2,0:0:0:0:
329,192,54995,1,0,0:0:0:0:
182,192,54995,1,2,0:0:0:0:
256,192,55070,1,2,0:0:0:0:
36,192,55070,1,0,0:0:0:0:
475,192,55070,128,0,56270:0:0:0:0:
109,192,55145,1,0,0:0:0:0:
182,192,55220,1,0,0:0:0:0:
256,192,55295,1,0,0:0:0:0:
329,192,55370,1,0,0:0:0:0:
256,192,55445,1,0,0:0:0:0:
182,192,55520,1,0,0:0:0:0:
109,192,55595,1,0,0:0:0:0:
36,192,55670,1,0,0:0:0:0:
402,192,55670,1,0,0:0:0:0:
109,192,55745,1,0,0:0:0:0:
182,192,55820,1,0,0:0:0:0:
256,192,55895,1,0,0:0:0:0:
329,192,55970,1,0,0:0:0:0:
36,192,55970,1,0,0:0:0:0:
402,192,56045,1,0,0:0:0:0:
109,192,56045,1,0,0:0:0:0:
36,192,56120,1,0,0:0:0:0:
256,192,56120,1,0,0:0:0:0:
109,192,56195,1,0,0:0:0:0:
329,192,56195,1,0,0:0:0:0:
182,192,56270,1,0,0:0:0:0:
402,192,56270,1,0,0:0:0:0:
329,192,56345,1,0,0:0:0:0:
256,192,56420,1,0,0:0:0:0:
182,192,56495,1,0,0:0:0:0:
109,192,56570,1,0,0:0:0:0:
329,192,56570,1,0,0:0:0:0:
256,192,56645,1,0,0:0:0:0:
36,192,56645,1,0,0:0:0:0:
329,192,56720,1,0,0:0:0:0:
109,192,56720,1,0,0:0:0:0:
402,192,56795,1,0,0:0:0:0:
475,192,56870,1,0,0:0:0:0:
256,192,56870,1,0,0:0:0:0:
182,192,56945,1,0,0:0:0:0:
402,192,56945,1,0,0:0:0:0:
109,192,57020,1,0,0:0:0:0:
329,192,57020,1,0,0:0:0:0:
36,192,57095,1,0,0:0:0:0:
475,192,57170,1,0,0:0:0:0:
256,192,57170,1,0,0:0:0:0:
182,192,57245,1,0,0:0:0:0:
402,192,57245,1,0,0:0:0:0:
109,192,57320,1,0,0:0:0:0:
329,192,57320,1,0,0:0:0:0:
36,192,57395,1,0,0:0:0:0:
109,192,57470,1,0,0:0:0:0:
329,192,57470,1,0,0:0:0:0:
182,192,57545,1,0,0:0:0:0:
402,192,57545,1,0,0:0:0:0:
256,192,57620,1,0,0:0:0:0:
475,192,57620,1,0,0:0:0:0:
329,192,57695,1,0,0:0:0:0:
402,192,57770,1,0,0:0:0:0:
109,192,57770,1,0,0:0:0:0:
182,192,57845,1,0,0:0:0:0:
256,192,57920,1,0,0:0:0:0:
36,192,57920,1,0,0:0:0:0:
329,192,57995,1,0,0:0:0:0:
109,192,57995,1,0,0:0:0:0:
256,192,58070,1,0,0:0:0:0:
475,192,58070,1,0,0:0:0:0:
36,192,58070,1,0,0:0:0:0:
402,192,58145,1,0,0:0:0:0:
329,192,58220,1,0,0:0:0:0:
109,192,58220,1,0,0:0:0:0:
182,192,58295,1,0,0:0:0:0:
402,192,58295,1,0,0:0:0:0:
256,192,58370,1,0,0:0:0:0:
36,192,58370,1,0,0:0:0:0:
475,192,58370,1,0,0:0:0:0:
109,192,58445,1,0,0:0:0:0:
182,192,58520,1,0,0:0:0:0:
402,192,58520,1,0,0:0:0:0:
329,192,58595,1,0,0:0:0:0:
109,192,58595,1,0,0:0:0:0:
475,192,58670,1,0,0:0:0:0:
256,192,58670,1,0,0:0:0:0:
36,192,58670,1,0,0:0:0:0:
329,192,58745,1,0,0:0:0:0:
109,192,58745,1,0,0:0:0:0:
182,192,58820,1,0,0:0:0:0:
402,192,58820,1,0,0:0:0:0:
256,192,58895,1,0,0:0:0:0:
475,192,58895,1,0,0:0:0:0:
36,192,58970,128,0,59270:0:0:0:0:
109,192,58970,1,0,0:0:0:0:
182,192,58970,1,0,0:0:0:0:
402,192,59045,1,0,0:0:0:0:
329,192,59120,1,0,0:0:0:0:
256,192,59195,1,0,0:0:0:0:
475,192,59270,128,0,59645:0:0:0:0:
402,192,59270,1,0,0:0:0:0:
182,192,59270,1,0,0:0:0:0:
329,192,59345,1,0,0:0:0:0:
109,192,59345,1,0,0:0:0:0:
256,192,59420,1,0,0:0:0:0:
36,192,59420,1,0,0:0:0:0:
402,192,59495,1,0,0:0:0:0:
182,192,59495,1,0,0:0:0:0:
109,192,59570,1,0,0:0:0:0:
36,192,59570,1,0,0:0:0:0:
402,192,59645,128,0,59720:0:0:0:0:
329,192,59645,1,0,0:0:0:0:
256,192,59720,128,0,59795:0:0:0:0:
182,192,59720,1,0,0:0:0:0:
109,192,59795,128,0,59870:0:0:0:0:
36,192,59795,1,0,0:0:0:0:
329,192,59870,1,4,0:0:0:0:
475,192,59870,1,0,0:0:0:0:
182,192,59870,1,2,0:0:0:0:
402,192,59870,128,0,60320:0:0:0:0:
36,192,59945,1,2,0:0:0:0:
109,192,59945,1,0,0:0:0:0:
256,192,60020,1,0,0:0:0:0:
182,192,60020,1,2,0:0:0:0:
36,192,60095,1,2,0:0:0:0:
109,192,60095,1,0,0:0:0:0:
256,192,60170,1,0,0:0:0:0:
182,192,60170,1,2,0:0:0:0:
36,192,60245,1,2,0:0:0:0:
109,192,60245,1,0,0:0:0:0:
329,192,60320,128,0,60395:0:0:0:0:
256,192,60320,1,2,0:0:0:0:
182,192,60395,128,0,60470:0:0:0:0:
109,192,60395,1,2,0:0:0:0:
36,192,60470,128,0,60545:0:0:0:0:
475,192,60470,128,0,61520:0:0:0:0:
256,192,60470,1,2,0:0:0:0:
329,192,60545,1,0,0:0:0:0:
402,192,60545,1,2,0:0:0:0:
182,192,60620,1,2,0:0:0:0:
109,192,60620,1,0,0:0:0:0:
402,192,60695,1,2,0:0:0:0:
329,192,60695,1,0,0:0:0:0:
182,192,60770,1,2,0:0:0:0:
109,192,60770,1,0,0:0:0:0:
329,192,60845,1,0,0:0:0:0:
402,192,60845,1,2,0:0:0:0:
182,192,60920,1,2,0:0:0:0:
109,192,60920,1,0,0:0:0:0:
329,192,60995,1,0,0:0:0:0:
402,192,60995,1,2,0:0:0:0:
182,192,61070,1,0,0:0:0:0:
109,192,61070,1,4,0:0:0:0:
36,192,61070,1,2,0:0:0:0:
256,192,61070,1,0,0:0:0:0:
329,192,61145,1,0,0:0:0:0:
402,192,61145,1,2,0:0:0:0:
36,192,61220,1,2,0:0:0:0:
109,192,61220,1,0,0:0:0:0:
256,192,61295,1,0,0:0:0:0:
182,192,61295,1,2,0:0:0:0:
109,192,61370,1,0,0:0:0:0:
36,192,61370,1,2,0:0:0:0:
182,192,61445,1,2,0:0:0:0:
256,192,61445,1,0,0:0:0:0:
402,192,61520,128,0,61595:0:0:0:0:
329,192,61520,1,2,0:0:0:0:
256,192,61595,128,0,61670:0:0:0:0:
182,192,61595,1,2,0:0:0:0:
109,192,61670,128,0,61745:0:0:0:0:
36,192,61670,1,2,0:0:0:0:
329,192,61670,128,0,61970:0:0:0:0:
402,192,61745,1,0,0:0:0:0:
475,192,61745,1,2,0:0:0:0:
256,192,61820,1,2,0:0:0:0:
182,192,61820,1,0,0:0:0:0:
36,192,61895,1,2,0:0:0:0:
109,192,61895,1,0,0:0:0:0:
182,192,61970,128,0,62270:0:0:0:0:
256,192,61970,1,2,0:0:0:0:
402,192,62045,1,2,0:0:0:0:
475,192,62045,1,0,0:0:0:0:
36,192,62120,1,2,0:0:0:0:
109,192,62120,1,0,0:0:0:0:
256,192,62195,1,2,0:0:0:0:
329,192,62195,1,0,0:0:0:0:
36,192,62270,128,0,62870:0:0:0:0:
109,192,62270,1,0,0:0:0:0:
402,192,62270,1,2,0:0:0:0:
475,192,62270,1,4,0:0:0:0:
182,192,62345,1,2,0:0:0:0:
256,192,62345,1,0,0:0:0:0:
402,192,62420,1,2,0:0:0:0:
475,192,62420,1,0,0:0:0:0:
182,192,62495,1,2,0:0:0:0:
256,192,62495,1,0,0:0:0:0:
402,192,62570,1,2,0:0:0:0:
475,192,62570,1,0,0:0:0:0:
329,192,62645,1,0,0:0:0:0:
256,192,62645,1,2,0:0:0:0:
402,192,62720,1,2,0:0:0:0:
475,192,62720,1,0,0:0:0:0:
256,192,62795,1,2,0:0:0:0:
329,192,62795,1,0,0:0:0:0:
475,192,62870,128,0,63470:0:0:0:0:
402,192,62870,1,0,0:0:0:0:
182,192,62870,1,4,0:0:0:0:
109,192,62870,1,2,0:0:0:0:
329,192,62945,1,2,0:0:0:0:
256,192,62945,1,0,0:0:0:0:
109,192,63020,1,2,0:0:0:0:
182,192,63020,1,0,0:0:0:0:
329,192,63095,1,2,0:0:0:0:
256,192,63095,1,0,0:0:0:0:
36,192,63170,1,2,0:0:0:0:
109,192,63170,1,0,0:0:0:0:
256,192,63245,1,0,0:0:0:0:
182,192,63245,1,2,0:0:0:0:
329,192,63320,1,2,0:0:0:0:
402,192,63320,1,0,0:0:0:0:
36,192,63395,1,2,0:0:0:0:
109,192,63395,1,0,0:0:0:0:
256,192,63470,128,0,64670:0:0:0:0:
182,192,63470,1,2,0:0:0:0:
329,192,63470,1,4,0:0:0:0:
36,192,63545,1,2,0:0:0:0:
109,192,63545,1,0,0:0:0:0:
402,192,63620,1,0,0:0:0:0:
475,192,63620,1,2,0:0:0:0:
109,192,63695,1,0,0:0:0:0:
36,192,63695,1,2,0:0:0:0:
402,192,63770,1,2,0:0:0:0:
475,192,63770,1,4,0:0:0:0:
329,192,63770,1,0,0:0:0:0:
36,192,63845,1,2,0:0:0:0:
109,192,63845,1,0,0:0:0:0:
402,192,63920,1,0,0:0:0:0:
475,192,63920,1,2,0:0:0:0:
36,192,63995,1,2,0:0:0:0:
109,192,63995,1,4,0:0:0:0:
182,192,63995,1,0,0:0:0:0:
402,192,64070,1,0,0:0:0:0:
475,192,64070,1,2,0:0:0:0:
329,192,64145,1,0,0:0:0:0:
182,192,64145,1,0,0:0:0:0:
109,192,64220,1,0,0:0:0:0:
402,192,64220,1,0,0:0:0:0:
182,192,64295,1,0,0:0:0:0:
329,192,64295,1,0,0:0:0:0:
109,192,64370,1,0,0:0:0:0:
402,192,64370,1,0,0:0:0:0:
36,192,64445,1,0,0:0:0:0:
475,192,64445,1,0,0:0:0:0:
329,192,64520,1,0,0:0:0:0:
182,192,64520,1,0,0:0:0:0:
402,192,64595,1,0,0:0:0:0:
109,192,64595,1,0,0:0:0:0:
36,192,64670,1,2,0:0:0:0:
182,192,64670,1,4,0:0:0:0:
329,192,64670,1,0,0:0:0:0:
475,192,64670,128,0,65870:0:0:0:0:
256,192,64745,1,0,0:0:0:0:
329,192,64820,1,0,0:0:0:0:
402,192,64895,1,0,0:0:0:0:
36,192,64970,1,2,0:0:0:0:
109,192,64970,1,0,0:0:0:0:
182,192,65045,1,0,0:0:0:0:
256,192,65120,1,0,0:0:0:0:
329,192,65195,1,0,0:0:0:0:
109,192,65195,1,0,0:0:0:0:
402,192,65270,1,2,0:0:0:0:
36,192,65270,1,0,0:0:0:0:
109,192,65345,1,0,0:0:0:0:
182,192,65420,1,0,0:0:0:0:
256,192,65495,1,0,0:0:0:0:
36,192,65495,1,0,0:0:0:0:
329,192,65570,1,2,0:0:0:0:
402,192,65570,1,0,0:0:0:0:
256,192,65645,1,0,0:0:0:0:
182,192,65720,1,0,0:0:0:0:
36,192,65720,1,0,0:0:0:0:
256,192,65795,1,0,0:0:0:0:
109,192,65795,1,0,0:0:0:0:
182,192,65870,1,0,0:0:0:0:
329,192,65870,1,2,0:0:0:0:
402,192,65870,1,0,0:0:0:0:
109,192,65945,1,0,0:0:0:0:
36,192,66020,1,0,0:0:0:0:
475,192,66020,1,0,0:0:0:0:
402,192,66095,1,0,0:0:0:0:
109,192,66095,1,0,0:0:0:0:
329,192,66170,1,0,0:0:0:0:
182,192,66170,1,2,0:0:0:0:
402,192,66245,1,0,0:0:0:0:
256,192,66245,1,0,0:0:0:0:
36,192,66320,1,0,0:0:0:0:
475,192,66320,1,0,0:0:0:0:
109,192,66395,1,0,0:0:0:0:
182,192,66470,1,2,0:0:0:0:
256,192,66470,1,0,0:0:0:0:
475,192,66470,1,0,0:0:0:0:
329,192,66545,1,0,0:0:0:0:
109,192,66545,1,0,0:0:0:0:
402,192,66620,1,0,0:0:0:0:
36,192,66620,1,0,0:0:0:0:
475,192,66695,1,0,0:0:0:0:
109,192,66695,1,0,0:0:0:0:
182,192,66770,1,2,0:0:0:0:
256,192,66770,1,0,0:0:0:0:
329,192,66845,1,0,0:0:0:0:
109,192,66845,1,0,0:0:0:0:
402,192,66920,1,2,0:0:0:0:
36,192,66920,1,0,0:0:0:0:
475,192,66995,1,0,0:0:0:0:
182,192,67070,1,0,0:0:0:0:
329,192,67070,1,2,0:0:0:0:
109,192,67145,1,0,0:0:0:0:
402,192,67145,1,0,0:0:0:0:
36,192,67220,1,0,0:0:0:0:
475,192,67295,1,0,0:0:0:0:
402,192,67370,1,0,0:0:0:0:
256,192,67370,1,2,0:0:0:0:
182,192,67445,1,0,0:0:0:0:
109,192,67520,1,0,0:0:0:0:
329,192,67520,1,0,0:0:0:0:
402,192,67595,1,0,0:0:0:0:
475,192,67670,1,0,0:0:0:0:
36,192,67670,1,0,0:0:0:0:
182,192,67670,1,2,0:0:0:0:
256,192,67745,1,0,0:0:0:0:
329,192,67820,1,0,0:0:0:0:
256,192,67895,1,0,0:0:0:0:
182,192,67970,1,2,0:0:0:0:
475,192,67970,1,0,0:0:0:0:
36,192,67970,1,0,0:0:0:0:
402,192,68045,1,0,0:0:0:0:
36,192,68120,1,0,0:0:0:0:
329,192,68120,1,0,0:0:0:0:
109,192,68195,1,0,0:0:0:0:
402,192,68195,1,0,0:0:0:0:
182,192,68270,1,0,0:0:0:0:
475,192,68270,1,0,0:0:0:0:
256,192,68270,1,2,0:0:0:0:
109,192,68345,1,0,0:0:0:0:
36,192,68420,1,0,0:0:0:0:
329,192,68420,1,0,0:0:0:0:
256,192,68495,1,0,0:0:0:0:
36,192,68570,1,0,0:0:0:0:
475,192,68570,1,2,0:0:0:0:
182,192,68570,128,0,68870:0:0:0:0:
402,192,68645,1,0,0:0:0:0:
329,192,68720,1,0,0:0:0:0:
402,192,68795,1,0,0:0:0:0:
256,192,68870,128,0,69170:0:0:0:0:
475,192,68870,1,0,0:0:0:0:
36,192,68945,1,0,0:0:0:0:
109,192,69020,1,2,0:0:0:0:
182,192,69057,1,2,0:0:0:0:
329,192,69095,1,2,0:0:0:0:
402,192,69132,1,2,0:0:0:0:
36,192,69170,128,0,69245:0:0:0:0:
109,192,69170,1,0,0:0:0:0:
475,192,69170,1,2,0:0:0:0:
182,192,69245,128,0,69320:0:0:0:0:
256,192,69245,1,0,0:0:0:0:
329,192,69320,128,0,69395:0:0:0:0:
402,192,69320,1,0,0:0:0:0:
475,192,69395,128,0,69470:0:0:0:0:
36,192,69395,1,0,0:0:0:0:
109,192,69470,1,2,0:0:0:0:
256,192,69470,1,0,0:0:0:0:
182,192,69470,1,4,0:0:0:0:
402,192,69470,128,0,70070:0:0:0:0:
329,192,69545,1,0,0:0:0:0:
109,192,69620,1,0,0:0:0:0:
182,192,69695,1,0,0:0:0:0:
36,192,69770,128,0,70070:0:0:0:0:
256,192,69770,1,2,0:0:0:0:
329,192,69845,1,0,0:0:0:0:
109,192,69845,1,0,0:0:0:0:
182,192,69920,1,0,0:0:0:0:
256,192,69995,1,0,0:0:0:0:
109,192,70070,128,0,70670:0:0:0:0:
329,192,70070,1,2,0:0:0:0:
256,192,70145,1,0,0:0:0:0:
182,192,70220,1,0,0:0:0:0:
402,192,70295,1,0,0:0:0:0:
475,192,70295,1,0,0:0:0:0:
329,192,70370,1,2,0:0:0:0:
256,192,70370,1,0,0:0:0:0:
182,192,70445,1,0,0:0:0:0:
402,192,70520,1,0,0:0:0:0:
36,192,70520,1,0,0:0:0:0:
329,192,70595,1,0,0:0:0:0:
36,192,70670,1,0,0:0:0:0:
256,192,70670,1,4,0:0:0:0:
182,192,70670,1,2,0:0:0:0:
475,192,70670,128,0,71270:0:0:0:0:
402,192,70745,1,0,0:0:0:0:
329,192,70820,1,0,0:0:0:0:
256,192,70895,1,0,0:0:0:0:
182,192,70895,1,0,0:0:0:0:
109,192,70970,128,0,71270:0:0:0:0:
36,192,70970,1,2,0:0:0:0:
182,192,71045,1,0,0:0:0:0:
256,192,71120,1,0,0:0:0:0:
329,192,71195,1,0,0:0:0:0:
36,192,71195,1,0,0:0:0:0:
402,192,71270,128,0,71570:0:0:0:0:
182,192,71270,1,2,0:0:0:0:
256,192,71345,1,0,0:0:0:0:
329,192,71420,1,0,0:0:0:0:
109,192,71495,1,0,0:0:0:0:
36,192,71495,1,0,0:0:0:0:
182,192,71570,128,0,71870:0:0:0:0:
256,192,71570,1,2,0:0:0:0:
329,192,71645,1,0,0:0:0:0:
109,192,71720,1,0,0:0:0:0:
402,192,71720,1,2,0:0:0:0:
36,192,71795,1,0,0:0:0:0:
475,192,71795,1,0,0:0:0:0:
256,192,71870,128,0,72470:0:0:0:0:
329,192,71870,1,2,0:0:0:0:
109,192,71870,1,0,0:0:0:0:
402,192,71870,1,4,0:0:0:0:
475,192,71945,1,0,0:0:0:0:
36,192,72020,1,0,0:0:0:0:
182,192,72020,1,2,0:0:0:0:
329,192,72095,1,0,0:0:0:0:
402,192,72170,1,0,0:0:0:0:
475,192,72170,1,2,0:0:0:0:
182,192,72245,1,0,0:0:0:0:
36,192,72320,1,0,0:0:0:0:
109,192,72320,1,2,0:0:0:0:
329,192,72320,1,0,0:0:0:0:
402,192,72395,1,0,0:0:0:0:
475,192,72395,1,2,0:0:0:0:
109,192,72470,1,2,0:0:0:0:
36,192,72470,128,0,73070:0:0:0:0:
182,192,72470,1,4,0:0:0:0:
329,192,72470,1,0,0:0:0:0:
402,192,72545,1,0,0:0:0:0:
475,192,72620,1,0,0:0:0:0:
256,192,72620,1,0,0:0:0:0:
182,192,72695,1,0,0:0:0:0:
109,192,72770,1,0,0:0:0:0:
329,192,72770,1,2,0:0:0:0:
475,192,72770,1,0,0:0:0:0:
256,192,72845,1,0,0:0:0:0:
182,192,72920,1,0,0:0:0:0:
402,192,72920,1,2,0:0:0:0:
109,192,72995,1,0,0:0:0:0:
329,192,72995,1,2,0:0:0:0:
256,192,73070,1,2,0:0:0:0:
402,192,73070,128,0,73670:0:0:0:0:
475,192,73070,1,4,0:0:0:0:
182,192,73145,1,0,0:0:0:0:
36,192,73145,1,0,0:0:0:0:
256,192,73220,1,0,0:0:0:0:
109,192,73220,1,0,0:0:0:0:
182,192,73295,1,0,0:0:0:0:
329,192,73295,1,0,0:0:0:0:
475,192,73370,1,0,0:0:0:0:
36,192,73370,1,2,0:0:0:0:
109,192,73370,1,4,0:0:0:0:
256,192,73370,1,0,0:0:0:0:
329,192,73445,1,0,0:0:0:0:
182,192,73445,1,0,0:0:0:0:
36,192,73520,1,0,0:0:0:0:
109,192,73520,1,0,0:0:0:0:
256,192,73595,1,0,0:0:0:0:
182,192,73595,1,0,0:0:0:0:
36,192,73670,1,2,0:0:0:0:
475,192,73670,128,0,73820:0:0:0:0:
329,192,73670,128,0,73820:0:0:0:0:
109,192,73707,1,2,0:0:0:0:
182,192,73745,1,2,0:0:0:0:
256,192,73782,1,2,0:0:0:0:
402,192,73820,1,2,0:0:0:0:
36,192,73895,128,0,74045:0:0:0:0:
182,192,73895,128,0,74045:0:0:0:0:
475,192,73895,1,2,0:0:0:0:
402,192,73932,1,2,0:0:0:0:
329,192,73970,1,2,0:0:0:0:
256,192,74007,1,2,0:0:0:0:
109,192,74045,1,2,0:0:0:0:
475,192,74120,128,0,74270:0:0:0:0:
36,192,74120,1,2,0:0:0:0:
329,192,74120,128,0,74270:0:0:0:0:
109,192,74157,1,2,0:0:0:0:
182,192,74195,1,2,0:0:0:0:
256,192,74232,1,2,0:0:0:0:
402,192,74270,1,2,0:0:0:0:
36,192,74270,1,0,0:0:0:0:
109,192,74345,1,2,0:0:0:0:
182,192,74345,1,0,0:0:0:0:
256,192,74420,1,0,0:0:0:0:
329,192,74420,1,2,0:0:0:0:
402,192,74495,1,0,0:0:0:0:
475,192,74495,1,2,0:0:0:0:
36,192,74570,1,2,0:0:0:0:
109,192,74570,1,0,0:0:0:0:
256,192,74645,1,0,0:0:0:0:
182,192,74645,1,2,0:0:0:0:
329,192,74720,1,2,0:0:0:0:
402,192,74720,1,0,0:0:0:0:
36,192,74795,1,2,0:0:0:0:
109,192,74795,1,0,0:0:0:0:
329,192,74870,1,2,0:0:0:0:
402,192,74870,1,0,0:0:0:0:
256,192,74907,1,0,0:0:0:0:
182,192,74945,1,0,0:0:0:0:
109,192,74982,1,0,0:0:0:0:
36,192,75020,1,0,0:0:0:0:
475,192,75057,1,0,0:0:0:0:
402,192,75095,1,0,0:0:0:0:
329,192,75132,1,0,0:0:0:0:
256,192,75170,1,0,0:0:0:0:
182,192,75207,1,0,0:0:0:0:
109,192,75245,1,0,0:0:0:0:
36,192,75282,1,0,0:0:0:0:
475,192,75320,1,0,0:0:0:0:
402,192,75357,1,0,0:0:0:0:
329,192,75395,1,0,0:0:0:0:
256,192,75432,1,0,0:0:0:0:
182,192,75470,1,0,0:0:0:0:
109,192,75470,1,4,0:0:0:0:
36,192,75470,1,2,0:0:0:0:
475,192,75470,1,0,0:0:0:0:
36,192,75620,1,2,0:0:0:0:
109,192,75620,1,4,0:0:0:0:
182,192,75620,1,0,0:0:0:0:
475,192,75620,1,0,0:0:0:0:
475,192,75770,128,0,75845:0:0:0:0:
402,192,75845,128,0,75920:0:0:0:0:
329,192,75920,128,0,75995:0:0:0:0:
36,192,75995,128,0,76070:0:0:0:0:
109,192,76070,128,0,76145:0:0:0:0:
182,192,76145,128,0,76220:0:0:0:0:
256,192,76220,128,0,76295:0:0:0:0:
329,192,76295,128,0,76370:0:0:0:0:
36,192,76370,1,2,0:0:0:0:
109,192,76370,1,4,0:0:0:0:
182,192,76370,1,0,0:0:0:0:
475,192,76370,1,0,0:0:0:0:
36,192,76520,1,2,0:0:0:0:
109,192,76520,1,4,0:0:0:0:
182,192,76520,1,0,0:0:0:0:
475,192,76520,1,0,0:0:0:0:
475,192,76670,128,0,76745:0:0:0:0:
402,192,76745,128,0,76820:0:0:0:0:
329,192,76820,128,0,76895:0:0:0:0:
256,192,76895,128,0,76970:0:0:0:0:
36,192,76970,128,0,77045:0:0:0:0:
109,192,77045,128,0,77120:0:0:0:0:
182,192,77120,128,0,77195:0:0:0:0:
475,192,77195,128,0,77270:0:0:0:0:
402,192,77270,128,0,77345:0:0:0:0:
329,192,77345,128,0,77420:0:0:0:0:
256,192,77420,128,0,77495:0:0:0:0:
182,192,77495,128,0,77570:0:0:0:0:
109,192,77570,128,0,77645:0:0:0:0:
182,192,77645,128,0,77720:0:0:0:0:
256,192,77720,128,0,77795:0:0:0:0:
329,192,77795,128,0,77870:0:0:0:0:
36,192,77870,1,2,0:0:0:0:
475,192,77870,1,0,0:0:0:0:
109,192,77870,1,4,0:0:0:0:
182,192,77870,1,0,0:0:0:0:
36,192,78020,1,2,0:0:0:0:
475,192,78020,1,0,0:0:0:0:
182,192,78020,1,0,0:0:0:0:
109,192,78020,1,4,0:0:0:0:
256,192,78170,128,0,78245:0:0:0:0:
329,192,78245,128,0,78320:0:0:0:0:
402,192,78320,128,0,78395:0:0:0:0:
475,192,78395,128,0,78470:0:0:0:0:
36,192,78470,128,0,78545:0:0:0:0:
109,192,78545,128,0,78620:0:0:0:0:
182,192,78620,128,0,78695:0:0:0:0:
256,192,78695,128,0,78770:0:0:0:0:
402,192,78770,1,2,0:0:0:0:
475,192,78770,1,4,0:0:0:0:
329,192,78770,1,0,0:0:0:0:
36,192,78770,1,0,0:0:0:0:
329,192,78920,1,0,0:0:0:0:
402,192,78920,1,2,0:0:0:0:
475,192,78920,1,4,0:0:0:0:
36,192,78920,1,0,0:0:0:0:
109,192,79070,128,0,79145:0:0:0:0:
182,192,79145,128,0,79220:0:0:0:0:
256,192,79220,128,0,79295:0:0:0:0:
329,192,79295,128,0,79370:0:0:0:0:
36,192,79370,128,0,79445:0:0:0:0:
182,192,79445,128,0,79520:0:0:0:0:
329,192,79520,128,0,79595:0:0:0:0:
475,192,79595,128,0,79670:0:0:0:0:
256,192,79670,128,0,79745:0:0:0:0:
36,192,79745,128,0,79820:0:0:0:0:
182,192,79820,128,0,79895:0:0:0:0:
329,192,79895,128,0,79970:0:0:0:0:
475,192,79970,128,0,80045:0:0:0:0:
109,192,80045,128,0,80120:0:0:0:0:
256,192,80120,128,0,80195:0:0:0:0:
182,192,80195,128,0,80270:0:0:0:0:
402,192,80270,1,2,0:0:0:0:
475,192,80270,1,4,0:0:0:0:
329,192,80270,1,0,0:0:0:0:
36,192,80270,1,0,0:0:0:0:
329,192,80420,1,0,0:0:0:0:
402,192,80420,1,2,0:0:0:0:
475,192,80420,1,4,0:0:0:0:
36,192,80420,1,0,0:0:0:0:
109,192,80570,128,0,80645:0:0:0:0:
182,192,80645,128,0,80720:0:0:0:0:
256,192,80720,128,0,80795:0:0:0:0:
329,192,80795,128,0,80870:0:0:0:0:
36,192,80870,1,2,0:0:0:0:
182,192,80870,1,0,0:0:0:0:
109,192,80870,1,4,0:0:0:0:
475,192,80870,1,0,0:0:0:0:
36,192,81020,1,2,0:0:0:0:
109,192,81020,1,4,0:0:0:0:
182,192,81020,1,0,0:0:0:0:
475,192,81020,1,0,0:0:0:0:
402,192,81170,128,0,81245:0:0:0:0:
329,192,81245,128,0,81320:0:0:0:0:
256,192,81320,128,0,81395:0:0:0:0:
182,192,81395,128,0,81470:0:0:0:0:
329,192,81470,1,0,0:0:0:0:
402,192,81470,1,2,0:0:0:0:
475,192,81470,1,4,0:0:0:0:
36,192,81470,1,0,0:0:0:0:
109,192,81545,1,0,0:0:0:0:
182,192,81620,1,0,0:0:0:0:
329,192,81620,1,0,0:0:0:0:
475,192,81695,1,4,0:0:0:0:
256,192,81695,1,0,0:0:0:0:
402,192,81695,1,2,0:0:0:0:
36,192,81695,1,0,0:0:0:0:
109,192,81770,1,0,0:0:0:0:
329,192,81770,1,0,0:0:0:0:
402,192,81845,1,0,0:0:0:0:
182,192,81845,1,0,0:0:0:0:
256,192,81920,1,0,0:0:0:0:
475,192,81920,1,0,0:0:0:0:
109,192,81920,1,4,0:0:0:0:
36,192,81920,1,2,0:0:0:0:
329,192,81995,1,0,0:0:0:0:
182,192,81995,1,0,0:0:0:0:
402,192,82070,1,0,0:0:0:0:
109,192,82070,1,0,0:0:0:0:
475,192,82145,1,0,0:0:0:0:
329,192,82145,1,4,0:0:0:0:
36,192,82145,1,0,0:0:0:0:
256,192,82145,1,2,0:0:0:0:
402,192,82220,1,0,0:0:0:0:
182,192,82220,1,0,0:0:0:0:
109,192,82295,1,0,0:0:0:0:
329,192,82295,1,0,0:0:0:0:
475,192,82370,1,0,0:0:0:0:
256,192,82370,1,4,0:0:0:0:
182,192,82370,1,2,0:0:0:0:
36,192,82370,1,0,0:0:0:0:
402,192,82445,1,0,0:0:0:0:
109,192,82445,1,0,0:0:0:0:
329,192,82520,1,0,0:0:0:0:
182,192,82520,1,0,0:0:0:0:
256,192,82595,1,0,0:0:0:0:
36,192,82595,1,0,0:0:0:0:
402,192,82670,1,4,0:0:0:0:
109,192,82670,1,2,0:0:0:0:
475,192,82670,128,0,83870:0:0:0:0:
329,192,82745,1,0,0:0:0:0:
256,192,82820,1,0,0:0:0:0:
182,192,82895,1,0,0:0:0:0:
109,192,82970,1,0,0:0:0:0:
256,192,83045,1,0,0:0:0:0:
182,192,83120,1,0,0:0:0:0:
109,192,83195,1,0,0:0:0:0:
36,192,83270,1,0,0:0:0:0:
329,192,83270,1,0,0:0:0:0:
109,192,83345,1,0,0:0:0:0:
182,192,83420,1,0,0:0:0:0:
402,192,83420,1,0,0:0:0:0:
256,192,83495,1,0,0:0:0:0:
36,192,83495,1,0,0:0:0:0:
329,192,83570,1,0,0:0:0:0:
402,192,83645,1,0,0:0:0:0:
329,192,83720,1,0,0:0:0:0:
256,192,83795,1,0,0:0:0:0:
36,192,83870,128,0,84770:0:0:0:0:
182,192,83870,1,0,0:0:0:0:
256,192,83945,1,0,0:0:0:0:
329,192,84020,1,0,0:0:0:0:
402,192,84095,1,0,0:0:0:0:
109,192,84095,1,0,0:0:0:0:
475,192,84170,1,0,0:0:0:0:
182,192,84170,1,0,0:0:0:0:
256,192,84245,1,0,0:0:0:0:
329,192,84320,1,0,0:0:0:0:
402,192,84357,1,0,0:0:0:0:
475,192,84395,1,0,0:0:0:0:
182,192,84395,1,0,0:0:0:0:
329,192,84470,1,0,0:0:0:0:
109,192,84470,1,0,0:0:0:0:
402,192,84545,1,0,0:0:0:0:
182,192,84545,1,0,0:0:0:0:
475,192,84620,1,0,0:0:0:0:
256,192,84620,1,0,0:0:0:0:
402,192,84695,1,0,0:0:0:0:
182,192,84695,1,0,0:0:0:0:
256,192,84770,128,0,85070:0:0:0:0:
109,192,84770,1,0,0:0:0:0:
182,192,84820,1,0,0:0:0:0:
329,192,84870,1,0,0:0:0:0:
402,192,84920,1,0,0:0:0:0:
182,192,84970,1,0,0:0:0:0:
475,192,84970,1,0,0:0:0:0:
109,192,85020,1,0,0:0:0:0:
329,192,85020,1,0,0:0:0:0:
402,192,85070,1,2,0:0:0:0:
475,192,85070,1,4,0:0:0:0:
36,192,85070,1,0,0:0:0:0:
109,192,85220,1,0,0:0:0:0:
329,192,85220,1,2,0:0:0:0:
36,192,85370,1,0,0:0:0:0:
256,192,85370,1,2,0:0:0:0:
475,192,85370,1,0,0:0:0:0:
402,192,85520,1,2,0:0:0:0:
475,192,85520,128,0,85670:0:0:0:0:
36,192,85520,128,0,85670:0:0:0:0:
329,192,85557,1,0,0:0:0:0:
256,192,85595,1,0,0:0:0:0:
182,192,85632,1,0,0:0:0:0:
109,192,85670,1,0,0:0:0:0:
402,192,85670,1,0,0:0:0:0:
475,192,85820,128,0,85970:0:0:0:0:
36,192,85820,128,0,85970:0:0:0:0:
256,192,85820,1,2,0:0:0:0:
182,192,85970,1,2,0:0:0:0:
329,192,85970,1,0,0:0:0:0:
109,192,85970,1,0,0:0:0:0:
256,192,86120,1,2,0:0:0:0:
402,192,86120,128,0,86570:0:0:0:0:
109,192,86120,128,0,86420:0:0:0:0:
36,192,86420,1,0,0:0:0:0:
182,192,86420,1,2,0:0:0:0:
109,192,86570,1,0,0:0:0:0:
475,192,86570,1,0,0:0:0:0:
256,192,86570,1,2,0:0:0:0:
329,192,86720,1,0,0:0:0:0:
36,192,86870,128,0,87245:0:0:0:0:
475,192,86870,128,0,87245:0:0:0:0:
182,192,86870,1,2,0:0:0:0:
256,192,86945,1,2,0:0:0:0:
109,192,87020,128,0,87245:0:0:0:0:
402,192,87020,128,0,87245:0:0:0:0:
329,192,87020,1,2,0:0:0:0:
182,192,87170,128,0,87245:0:0:0:0:
329,192,87170,128,0,87245:0:0:0:0:
402,192,87320,1,0,0:0:0:0:
109,192,87320,1,4,0:0:0:0:
329,192,87320,128,0,87620:0:0:0:0:
182,192,87320,128,0,87620:0:0:0:0:
36,192,87320,1,2,0:0:0:0:
475,192,87320,1,0,0:0:0:0:
36,192,87620,1,0,0:0:0:0:
475,192,87620,1,2,0:0:0:0:
109,192,87695,1,0,0:0:0:0:
329,192,87770,1,2,0:0:0:0:
182,192,87770,1,0,0:0:0:0:
475,192,87770,1,0,0:0:0:0:
109,192,87845,1,0,0:0:0:0:
402,192,87845,1,0,0:0:0:0:
36,192,87920,1,0,0:0:0:0:
329,192,87920,1,0,0:0:0:0:
475,192,87995,1,0,0:0:0:0:
256,192,87995,1,0,0:0:0:0:
109,192,88070,1,4,0:0:0:0:
36,192,88070,1,2,0:0:0:0:
402,192,88070,1,0,0:0:0:0:
182,192,88070,1,0,0:0:0:0:
109,192,88220,1,2,0:0:0:0:
475,192,88220,128,0,88370:0:0:0:0:
256,192,88220,128,0,88370:0:0:0:0:
36,192,88370,1,2,0:0:0:0:
402,192,88370,128,0,88520:0:0:0:0:
182,192,88370,128,0,88520:0:0:0:0:
256,192,88520,1,2,0:0:0:0:
329,192,88520,1,4,0:0:0:0:
36,192,88520,128,0,88970:0:0:0:0:
109,192,88520,128,0,88820:0:0:0:0:
329,192,88820,128,0,88970:0:0:0:0:
402,192,88820,1,2,0:0:0:0:
475,192,88820,1,0,0:0:0:0:
256,192,88895,1,0,0:0:0:0:
182,192,88970,128,0,89270:0:0:0:0:
109,192,88970,1,2,0:0:0:0:
475,192,88970,1,0,0:0:0:0:
36,192,89045,1,0,0:0:0:0:
256,192,89120,1,0,0:0:0:0:
329,192,89195,1,0,0:0:0:0:
402,192,89270,1,2,0:0:0:0:
36,192,89270,1,0,0:0:0:0:
475,192,89270,128,0,89570:0:0:0:0:
109,192,89420,1,0,0:0:0:0:
329,192,89420,1,0,0:0:0:0:
182,192,89495,1,0,0:0:0:0:
256,192,89570,1,2,0:0:0:0:
36,192,89570,128,0,89870:0:0:0:0:
402,192,89720,1,0,0:0:0:0:
256,192,89870,1,2,0:0:0:0:
109,192,89870,1,0,0:0:0:0:
475,192,89870,1,0,0:0:0:0:
329,192,89870,1,4,0:0:0:0:
182,192,90020,1,2,0:0:0:0:
402,192,90020,1,0,0:0:0:0:
109,192,90095,1,0,0:0:0:0:
256,192,90170,1,0,0:0:0:0:
475,192,90170,1,0,0:0:0:0:
36,192,90170,1,0,0:0:0:0:
182,192,90245,1,0,0:0:0:0:
475,192,90320,1,4,0:0:0:0:
402,192,90320,1,2,0:0:0:0:
36,192,90320,1,0,0:0:0:0:
109,192,90320,1,0,0:0:0:0:
329,192,90470,1,0,0:0:0:0:
256,192,90470,1,0,0:0:0:0:
182,192,90545,1,0,0:0:0:0:
109,192,90620,1,2,0:0:0:0:
475,192,90620,1,0,0:0:0:0:
402,192,90695,1,0,0:0:0:0:
182,192,90695,1,0,0:0:0:0:
329,192,90770,1,0,0:0:0:0:
256,192,90770,1,2,0:0:0:0:
182,192,90845,1,0,0:0:0:0:
109,192,90920,1,2,0:0:0:0:
402,192,90920,1,4,0:0:0:0:
475,192,90920,128,0,91220:0:0:0:0:
36,192,90920,128,0,91220:0:0:0:0:
256,192,91070,1,0,0:0:0:0:
182,192,91145,1,0,0:0:0:0:
109,192,91220,1,0,0:0:0:0:
329,192,91220,1,0,0:0:0:0:
256,192,91295,1,0,0:0:0:0:
402,192,91370,1,2,0:0:0:0:
182,192,91370,1,0,0:0:0:0:
475,192,91370,1,0,0:0:0:0:
329,192,91445,1,0,0:0:0:0:
109,192,91520,128,0,91670:0:0:0:0:
36,192,91520,128,0,91670:0:0:0:0:
182,192,91520,1,2,0:0:0:0:
256,192,91520,1,4,0:0:0:0:
475,192,91670,1,0,0:0:0:0:
402,192,91745,1,0,0:0:0:0:
329,192,91820,1,4,0:0:0:0:
109,192,91820,128,0,91970:0:0:0:0:
182,192,91820,128,0,91970:0:0:0:0:
256,192,91820,1,2,0:0:0:0:
402,192,91970,1,0,0:0:0:0:
36,192,92045,1,0,0:0:0:0:
182,192,92120,128,0,92270:0:0:0:0:
329,192,92120,1,2,0:0:0:0:
475,192,92120,128,4,93170:0:0:0:0:
256,192,92120,128,0,92270:0:0:0:0:
109,192,92270,1,0,0:0:0:0:
36,192,92420,1,0,0:0:0:0:
256,192,92420,1,0,0:0:0:0:
182,192,92570,1,0,0:0:0:0:
329,192,92570,1,2,0:0:0:0:
402,192,92570,1,0,0:0:0:0:
109,192,92720,1,0,0:0:0:0:
36,192,92870,1,0,0:0:0:0:
256,192,92870,1,2,0:0:0:0:
402,192,92870,1,0,0:0:0:0:
182,192,92870,1,0,0:0:0:0:
329,192,93020,1,0,0:0:0:0:
36,192,93170,128,0,93245:0:0:0:0:
256,192,93170,1,2,0:0:0:0:
109,192,93245,128,0,93320:0:0:0:0:
182,192,93320,128,0,93470:0:0:0:0:
329,192,93320,1,0,0:0:0:0:
402,192,93320,1,0,0:0:0:0:
109,192,93470,1,4,0:0:0:0:
475,192,93470,1,0,0:0:0:0:
256,192,93470,1,0,0:0:0:0:
36,192,93470,1,2,0:0:0:0:
475,192,93620,1,2,0:0:0:0:
36,192,93620,1,0,0:0:0:0:
402,192,93657,1,2,0:0:0:0:
329,192,93695,1,2,0:0:0:0:
256,192,93732,1,2,0:0:0:0:
182,192,93770,1,0,0:0:0:0:
109,192,93770,1,0,0:0:0:0:
402,192,93845,1,0,0:0:0:0:
329,192,93845,1,0,0:0:0:0:
475,192,93920,1,0,0:0:0:0:
182,192,93920,1,0,0:0:0:0:
329,192,93995,1,0,0:0:0:0:
109,192,93995,1,0,0:0:0:0:
36,192,94070,1,0,0:0:0:0:
402,192,94070,1,4,0:0:0:0:
475,192,94070,1,0,0:0:0:0:
109,192,94145,1,0,0:0:0:0:
182,192,94220,1,0,0:0:0:0:
475,192,94220,1,2,0:0:0:0:
402,192,94257,1,2,0:0:0:0:
329,192,94295,1,2,0:0:0:0:
256,192,94332,1,2,0:0:0:0:
182,192,94370,1,2,0:0:0:0:
475,192,94370,1,0,0:0:0:0:
109,192,94445,1,0,0:0:0:0:
402,192,94445,1,0,0:0:0:0:
36,192,94520,1,0,0:0:0:0:
329,192,94520,1,0,0:0:0:0:
109,192,94595,1,0,0:0:0:0:
402,192,94595,1,0,0:0:0:0:
36,192,94670,1,0,0:0:0:0:
475,192,94670,1,0,0:0:0:0:
329,192,94670,1,4,0:0:0:0:
182,192,94670,1,2,0:0:0:0:
402,192,94820,1,0,0:0:0:0:
256,192,94820,1,2,0:0:0:0:
109,192,94895,1,0,0:0:0:0:
36,192,94970,1,0,0:0:0:0:
182,192,94970,1,0,0:0:0:0:
329,192,94970,1,2,0:0:0:0:
109,192,95120,1,2,0:0:0:0:
36,192,95120,128,0,95270:0:0:0:0:
475,192,95120,128,0,95270:0:0:0:0:
182,192,95157,1,0,0:0:0:0:
256,192,95195,1,0,0:0:0:0:
329,192,95232,1,0,0:0:0:0:
402,192,95270,1,0,0:0:0:0:
109,192,95270,1,0,0:0:0:0:
475,192,95420,128,0,95570:0:0:0:0:
36,192,95420,128,0,95570:0:0:0:0:
256,192,95420,1,2,0:0:0:0:
402,192,95570,1,0,0:0:0:0:
329,192,95570,1,2,0:0:0:0:
182,192,95570,1,0,0:0:0:0:
402,192,95720,128,0,96170:0:0:0:0:
109,192,95720,128,0,96020:0:0:0:0:
256,192,95720,1,2,0:0:0:0:
182,192,96020,1,2,0:0:0:0:
36,192,96020,1,0,0:0:0:0:
329,192,96095,1,2,0:0:0:0:
36,192,96170,1,0,0:0:0:0:
182,192,96170,1,2,0:0:0:0:
475,192,96170,1,0,0:0:0:0:
256,192,96320,1,0,0:0:0:0:
475,192,96470,128,0,96845:0:0:0:0:
402,192,96470,128,0,96845:0:0:0:0:
182,192,96470,1,0,0:0:0:0:
109,192,96620,128,0,96845:0:0:0:0:
36,192,96620,128,0,96845:0:0:0:0:
329,192,96620,1,2,0:0:0:0:
182,192,96770,128,0,96845:0:0:0:0:
256,192,96770,128,0,96845:0:0:0:0:
182,192,96920,1,2,0:0:0:0:
402,192,96920,1,0,0:0:0:0:
36,192,96920,128,0,97220:0:0:0:0:
109,192,96920,128,0,97220:0:0:0:0:
256,192,96920,1,4,0:0:0:0:
475,192,96920,1,0,0:0:0:0:
402,192,97220,1,0,0:0:0:0:
182,192,97220,1,2,0:0:0:0:
329,192,97295,1,0,0:0:0:0:
256,192,97370,1,2,0:0:0:0:
36,192,97370,1,0,0:0:0:0:
475,192,97370,1,0,0:0:0:0:
402,192,97445,1,0,0:0:0:0:
182,192,97445,1,0,0:0:0:0:
329,192,97520,1,0,0:0:0:0:
109,192,97520,1,0,0:0:0:0:
256,192,97595,1,0,0:0:0:0:
36,192,97595,1,0,0:0:0:0:
402,192,97670,1,2,0:0:0:0:
475,192,97670,1,4,0:0:0:0:
109,192,97670,1,0,0:0:0:0:
182,192,97670,1,0,0:0:0:0:
329,192,97820,1,2,0:0:0:0:
109,192,97820,128,0,97970:0:0:0:0:
36,192,97820,128,0,97970:0:0:0:0:
402,192,97970,1,2,0:0:0:0:
182,192,97970,128,0,98120:0:0:0:0:
256,192,97970,128,0,98120:0:0:0:0:
329,192,98120,1,4,0:0:0:0:
36,192,98120,1,2,0:0:0:0:
475,192,98120,128,0,98570:0:0:0:0:
402,192,98120,128,0,98420:0:0:0:0:
109,192,98420,1,2,0:0:0:0:
36,192,98420,128,0,98570:0:0:0:0:
182,192,98495,1,0,0:0:0:0:
256,192,98570,128,0,98870:0:0:0:0:
402,192,98570,1,2,0:0:0:0:
329,192,98570,1,0,0:0:0:0:
475,192,98720,1,0,0:0:0:0:
402,192,98795,1,0,0:0:0:0:
109,192,98870,1,2,0:0:0:0:
329,192,98870,1,0,0:0:0:0:
36,192,98870,128,0,99170:0:0:0:0:
256,192,99020,1,0,0:0:0:0:
182,192,99020,1,0,0:0:0:0:
329,192,99095,1,0,0:0:0:0:
402,192,99170,1,2,0:0:0:0:
475,192,99170,128,0,99470:0:0:0:0:
36,192,99320,128,0,99470:0:0:0:0:
109,192,99320,1,0,0:0:0:0:
256,192,99470,1,0,0:0:0:0:
182,192,99470,1,0,0:0:0:0:
402,192,99470,128,0,99620:0:0:0:0:
329,192,99620,1,0,0:0:0:0:
256,192,99695,1,0,0:0:0:0:
182,192,99770,1,0,0:0:0:0:
36,192,99770,1,0,0:0:0:0:
475,192,99770,1,4,0:0:0:0:
402,192,99770,1,2,0:0:0:0:
329,192,99845,1,0,0:0:0:0:
256,192,99920,1,0,0:0:0:0:
36,192,99920,1,0,0:0:0:0:
109,192,99995,1,0,0:0:0:0:
329,192,99995,1,0,0:0:0:0:
402,192,100070,1,0,0:0:0:0:
182,192,100070,1,2,0:0:0:0:
256,192,100145,1,0,0:0:0:0:
36,192,100145,1,0,0:0:0:0:
329,192,100220,1,2,0:0:0:0:
109,192,100220,1,0,0:0:0:0:
182,192,100295,1,0,0:0:0:0:
402,192,100295,1,0,0:0:0:0:
109,192,100370,1,0,0:0:0:0:
329,192,100370,1,2,0:0:0:0:
402,192,100445,1,0,0:0:0:0:
182,192,100445,1,0,0:0:0:0:
329,192,100520,1,4,0:0:0:0:
109,192,100520,1,2,0:0:0:0:
475,192,100520,128,0,100820:0:0:0:0:
36,192,100520,128,0,100820:0:0:0:0:
402,192,100820,1,0,0:0:0:0:
109,192,100820,1,0,0:0:0:0:
182,192,100870,1,0,0:0:0:0:
256,192,100920,1,0,0:0:0:0:
329,192,100970,1,2,0:0:0:0:
475,192,100970,1,4,0:0:0:0:
36,192,100970,128,0,101270:0:0:0:0:
109,192,100970,128,0,101270:0:0:0:0:
256,192,101120,1,2,0:0:0:0:
182,192,101120,1,0,0:0:0:0:
402,192,101120,1,4,0:0:0:0:
475,192,101270,1,4,0:0:0:0:
329,192,101270,1,2,0:0:0:0:
182,192,101270,128,0,101470:0:0:0:0:
256,192,101270,128,0,101470:0:0:0:0:
329,192,101470,128,0,101670:0:0:0:0:
402,192,101470,128,0,101670:0:0:0:0:
475,192,101470,1,0,0:0:0:0:
36,192,101470,1,2,0:0:0:0:
109,192,101670,1,4,0:0:0:0:
182,192,101670,1,0,0:0:0:0:
36,192,101670,1,2,0:0:0:0:
329,192,102170,1,0,0:0:0:0:
475,192,102170,1,0,0:0:0:0:
36,192,102170,1,2,0:0:0:0:
109,192,102170,1,4,0:0:0:0:
256,192,102245,1,0,0:0:0:0:
402,192,102320,1,0,0:0:0:0:
182,192,102320,1,0,0:0:0:0:
329,192,102395,1,0,0:0:0:0:
475,192,102470,1,4,0:0:0:0:
36,192,102470,1,2,0:0:0:0:
256,192,102470,1,0,0:0:0:0:
329,192,102545,1,0,0:0:0:0:
109,192,102620,1,0,0:0:0:0:
402,192,102620,1,0,0:0:0:0:
182,192,102695,1,0,0:0:0:0:
256,192,102770,1,2,0:0:0:0:
475,192,102770,1,0,0:0:0:0:
36,192,102770,1,0,0:0:0:0:
402,192,102845,1,0,0:0:0:0:
109,192,102845,1,0,0:0:0:0:
182,192,102920,1,2,0:0:0:0:
329,192,102920,1,4,0:0:0:0:
256,192,102920,1,0,0:0:0:0:
402,192,102995,1,0,0:0:0:0:
109,192,102995,1,0,0:0:0:0:
475,192,103070,1,0,0:0:0:0:
36,192,103070,1,0,0:0:0:0:
109,192,103145,1,0,0:0:0:0:
402,192,103145,1,0,0:0:0:0:
329,192,103220,1,0,0:0:0:0:
182,192,103220,1,0,0:0:0:0:
402,192,103295,1,0,0:0:0:0:
109,192,103295,1,0,0:0:0:0:
329,192,103370,1,4,0:0:0:0:
36,192,103370,1,0,0:0:0:0:
182,192,103370,1,2,0:0:0:0:
475,192,103370,1,0,0:0:0:0:
256,192,103445,1,0,0:0:0:0:
329,192,103520,1,0,0:0:0:0:
182,192,103520,1,0,0:0:0:0:
109,192,103595,1,0,0:0:0:0:
402,192,103595,1,0,0:0:0:0:
256,192,103670,1,2,0:0:0:0:
329,192,103670,1,4,0:0:0:0:
36,192,103670,1,0,0:0:0:0:
475,192,103670,1,0,0:0:0:0:
109,192,103720,1,0,0:0:0:0:
182,192,103770,1,0,0:0:0:0:
256,192,103820,1,0,0:0:0:0:
475,192,103870,1,0,0:0:0:0:
402,192,103920,1,0,0:0:0:0:
329,192,103970,1,0,0:0:0:0:
256,192,104020,1,0,0:0:0:0:
182,192,104070,1,0,0:0:0:0:
475,192,104120,1,0,0:0:0:0:
36,192,104120,1,2,0:0:0:0:
109,192,104120,1,4,0:0:0:0:
402,192,104170,1,0,0:0:0:0:
329,192,104220,1,0,0:0:0:0:
256,192,104270,1,2,0:0:0:0:
109,192,104270,1,0,0:0:0:0:
475,192,104270,128,4,105470:0:0:0:0:
182,192,104270,128,0,105320:0:0:0:0:
36,192,105320,1,0,0:0:0:0:
402,192,105320,1,0,0:0:0:0:
182,192,105395,1,0,0:0:0:0:
329,192,105470,1,4,0:0:0:0:
36,192,105470,1,2,0:0:0:0:
402,192,105470,128,0,106070:0:0:0:0:
109,192,105470,128,0,106070:0:0:0:0:
36,192,105920,1,0,0:0:0:0:
182,192,105995,1,0,0:0:0:0:
256,192,106070,1,2,0:0:0:0:
329,192,106070,1,4,0:0:0:0:
475,192,106070,1,0,0:0:0:0:
36,192,106070,1,0,0:0:0:0:
109,192,106220,1,0,0:0:0:0:
256,192,106220,1,2,0:0:0:0:
475,192,106220,1,4,0:0:0:0:
182,192,106220,128,0,106370:0:0:0:0:
36,192,106370,1,0,0:0:0:0:
475,192,106370,1,4,0:0:0:0:
402,192,106370,1,2,0:0:0:0:
329,192,106370,128,0,106670:0:0:0:0:
109,192,106520,1,0,0:0:0:0:
182,192,106595,1,0,0:0:0:0:
256,192,106670,1,2,0:0:0:0:
36,192,106670,1,0,0:0:0:0:
475,192,106670,1,0,0:0:0:0:
402,192,106745,1,0,0:0:0:0:
329,192,106820,1,0,0:0:0:0:
109,192,106820,1,0,0:0:0:0:
182,192,106895,1,0,0:0:0:0:
256,192,106970,1,2,0:0:0:0:
475,192,106970,1,0,0:0:0:0:
402,192,107045,1,0,0:0:0:0:
329,192,107120,1,0,0:0:0:0:
109,192,107120,1,4,0:0:0:0:
36,192,107120,1,2,0:0:0:0:
182,192,107120,1,0,0:0:0:0:
402,192,107195,1,0,0:0:0:0:
475,192,107270,1,0,0:0:0:0:
36,192,107270,1,0,0:0:0:0:
109,192,107345,1,0,0:0:0:0:
182,192,107420,1,2,0:0:0:0:
329,192,107420,1,0,0:0:0:0:
402,192,107495,1,0,0:0:0:0:
475,192,107570,1,0,0:0:0:0:
36,192,107570,1,2,0:0:0:0:
256,192,107570,1,0,0:0:0:0:
109,192,107570,1,4,0:0:0:0:
329,192,107645,1,0,0:0:0:0:
402,192,107720,1,0,0:0:0:0:
182,192,107720,1,0,0:0:0:0:
256,192,107795,1,0,0:0:0:0:
109,192,107795,1,0,0:0:0:0:
329,192,107870,1,2,0:0:0:0:
36,192,107870,1,0,0:0:0:0:
402,192,107945,1,0,0:0:0:0:
475,192,108020,1,0,0:0:0:0:
256,192,108020,1,4,0:0:0:0:
36,192,108020,1,0,0:0:0:0:
182,192,108020,1,2,0:0:0:0:
109,192,108170,1,0,0:0:0:0:
329,192,108170,1,2,0:0:0:0:
256,192,108245,1,0,0:0:0:0:
182,192,108320,1,2,0:0:0:0:
475,192,108320,1,0,0:0:0:0:
402,192,108395,1,0,0:0:0:0:
109,192,108395,1,0,0:0:0:0:
329,192,108470,1,4,0:0:0:0:
36,192,108470,1,0,0:0:0:0:
256,192,108470,1,2,0:0:0:0:
475,192,108470,1,0,0:0:0:0:
182,192,108545,1,0,0:0:0:0:
109,192,108620,1,2,0:0:0:0:
36,192,108620,1,0,0:0:0:0:
182,192,108657,1,2,0:0:0:0:
256,192,108695,1,2,0:0:0:0:
329,192,108732,1,2,0:0:0:0:
402,192,108770,1,2,0:0:0:0:
475,192,108770,1,0,0:0:0:0:
36,192,108770,1,0,0:0:0:0:
109,192,108770,1,0,0:0:0:0:
182,192,108845,1,0,0:0:0:0:
256,192,108920,1,0,0:0:0:0:
329,192,108920,1,0,0:0:0:0:
402,192,108995,1,0,0:0:0:0:
475,192,109070,1,0,0:0:0:0:
36,192,109070,1,2,0:0:0:0:
36,192,109370,128,0,111470:0:0:0:0:
475,192,109370,128,0,111470:0:0:0:0:
329,192,109370,1,4,0:0:0:0:
256,192,109370,128,0,110870:0:0:0:0:
182,192,109370,1,2,0:0:0:0:
109,192,110870,1,0,0:0:0:0:
182,192,110907,1,0,0:0:0:0:
256,192,110945,1,0,0:0:0:0:
329,192,110982,1,0,0:0:0:0:
402,192,111020,1,0,0:0:0:0:
109,192,111057,1,0,0:0:0:0:
182,192,111095,1,0,0:0:0:0:
256,192,111132,1,0,0:0:0:0:
329,192,111170,1,0,0:0:0:0:
402,192,111207,1,0,0:0:0:0:
109,192,111245,1,0,0:0:0:0:
182,192,111282,1,0,0:0:0:0:
256,192,111320,1,0,0:0:0:0:
329,192,111357,1,0,0:0:0:0:
402,192,111395,1,0,0:0:0:0:
109,192,111470,1,2,0:0:0:0:
182,192,111470,1,4,0:0:0:0:
256,192,111470,1,0,0:0:0:0:
