osu file format v14

[General]
AudioFilename: audio.mp3
AudioLeadIn: 0
PreviewTime: 55070
Countdown: 0
SampleSet: Soft
StackLeniency: 0.7
Mode: 3
LetterboxInBreaks: 0
SpecialStyle: 0
WidescreenStoryboard: 1

[Editor]
DistanceSpacing: 1.3
BeatDivisor: 4
GridSize: 8
TimelineZoom: 2.4

[Metadata]
Title:Hesperides
TitleUnicode:Hesperides
Artist:xi
ArtistUnicode:xi
Creator:ExKagii-
Version:Hard
Source:CROSSxBEATS
Tags:
BeatmapID:1035078
BeatmapSetID:485363

[Difficulty]
HPDrainRate:8
CircleSize:7
OverallDifficulty:7.5
ApproachRate:5
SliderMultiplier:1.4
SliderTickRate:1

[Events]
//Background and Video events
0,0,"BG Hesperides.jpg",0,0
//Break Periods
//Storyboard Layer 0 (Background)
//Storyboard Layer 1 (Fail)
//Storyboard Layer 2 (Pass)
//Storyboard Layer 3 (Foreground)
//Storyboard Sound Samples

[TimingPoints]
1070,300,4,2,1,30,1,0
85070,-100,4,2,1,30,0,1
109070,-100,4,2,1,30,0,0

[HitObjects]
320,192,170,128,0,470:0:0:0:0:
192,192,470,128,0,770:0:0:0:0:
475,192,470,1,0,0:0:0:0:
64,192,770,128,0,1070:0:0:0:0:
329,192,1070,1,2,0:0:0:0:
475,192,1070,128,4,3470:0:0:0:0:
182,192,1370,1,0,0:0:0:0:
64,192,1520,1,2,0:0:0:0:
402,192,1520,1,4,0:0:0:0:
320,192,1820,1,0,0:0:0:0:
64,192,1970,1,4,0:0:0:0:
192,192,1970,1,2,0:0:0:0:
256,192,2270,1,0,0:0:0:0:
64,192,2420,1,2,0:0:0:0:
402,192,2420,1,0,0:0:0:0:
109,192,2720,1,2,0:0:0:0:
256,192,2870,1,2,0:0:0:0:
402,192,2870,1,0,0:0:0:0:
192,192,3170,1,0,0:0:0:0:
320,192,3170,1,0,0:0:0:0:
109,192,3470,1,2,0:0:0:0:
256,192,3470,1,0,0:0:0:0:
329,192,3770,1,0,0:0:0:0:
475,192,3920,1,2,0:0:0:0:
36,192,3920,1,0,0:0:0:0:
182,192,4220,1,0,0:0:0:0:
36,192,4370,1,2,0:0:0:0:
448,192,4370,1,0,0:0:0:0:
256,192,4670,1,2,0:0:0:0:
192,192,4820,1,2,0:0:0:0:
329,192,4820,1,0,0:0:0:0:
475,192,5120,128,2,5570:0:0:0:0:
36,192,5270,1,0,0:0:0:0:
192,192,5345,1,0,0:0:0:0:
320,192,5420,1,2,0:0:0:0:
36,192,5495,1,2,0:0:0:0:
192,192,5570,128,0,5870:0:0:0:0:
256,192,5645,1,0,0:0:0:0:
475,192,5720,1,0,0:0:0:0:
64,192,5870,1,4,0:0:0:0:
320,192,5870,1,2,0:0:0:0:
402,192,5870,1,0,0:0:0:0:
256,192,6020,1,0,0:0:0:0:
182,192,6170,1,2,0:0:0:0:
448,192,6170,1,0,0:0:0:0:
402,192,6320,1,0,0:0:0:0:
64,192,6470,1,2,0:0:0:0:
329,192,6470,1,0,0:0:0:0:
109,192,6620,1,0,0:0:0:0:
448,192,6770,1,2,0:0:0:0:
182,192,6770,1,0,0:0:0:0:
402,192,6920,1,0,0:0:0:0:
320,192,7070,1,2,0:0:0:0:
256,192,7070,1,0,0:0:0:0:
64,192,7220,1,0,0:0:0:0:
192,192,7370,1,2,0:0:0:0:
402,192,7370,1,0,0:0:0:0:
64,192,7520,1,0,0:0:0:0:
256,192,7670,1,0,0:0:0:0:
448,192,7670,1,0,0:0:0:0:
192,192,7820,128,2,7970:0:0:0:0:
109,192,7970,1,0,0:0:0:0:
402,192,7970,1,0,0:0:0:0:
192,192,8120,1,2,0:0:0:0:
320,192,8120,1,0,0:0:0:0:
448,192,8270,1,2,0:0:0:0:
64,192,8270,1,4,0:0:0:0:
192,192,8420,1,2,0:0:0:0:
192,192,8570,1,2,0:0:0:0:
448,192,8720,1,4,0:0:0:0:
64,192,8720,1,2,0:0:0:0:
320,192,8870,1,2,0:0:0:0:
320,192,9020,1,2,0:0:0:0:
448,192,9170,1,4,0:0:0:0:
64,192,9170,1,2,0:0:0:0:
192,192,9320,1,2,0:0:0:0:
448,192,9470,1,4,0:0:0:0:
64,192,9470,1,2,0:0:0:0:
320,192,9620,128,0,9770:0:0:0:0:
109,192,9770,1,2,0:0:0:0:
192,192,9845,1,2,0:0:0:0:
402,192,9920,1,2,0:0:0:0:
320,192,9995,1,2,0:0:0:0:
182,192,10070,1,0,0:0:0:0:
109,192,10070,1,0,0:0:0:0:
320,192,10220,1,0,0:0:0:0:
402,192,10220,1,0,0:0:0:0:
109,192,10370,1,0,0:0:0:0:
192,192,10370,1,0,0:0:0:0:
329,192,10520,1,0,0:0:0:0:
448,192,10670,1,4,0:0:0:0:
64,192,10670,128,0,11870:0:0:0:0:
182,192,10670,1,0,0:0:0:0:
448,192,11870,128,0,12770:0:0:0:0:
402,192,11870,1,0,0:0:0:0:
64,192,12470,128,0,12770:0:0:0:0:
192,192,12770,128,0,13070:0:0:0:0:
320,192,12770,128,0,13070:0:0:0:0:
64,192,13070,1,0,0:0:0:0:
448,192,13070,1,0,0:0:0:0:
256,192,13070,128,0,14270:0:0:0:0:
64,192,14270,1,2,0:0:0:0:
320,192,14270,1,4,0:0:0:0:
448,192,14270,1,0,0:0:0:0:
109,192,14570,1,2,0:0:0:0:
192,192,14570,1,0,0:0:0:0:
320,192,14720,1,2,0:0:0:0:
402,192,14720,128,0,14870:0:0:0:0:
402,192,15020,128,2,15170:0:0:0:0:
36,192,15020,1,0,0:0:0:0:
109,192,15020,1,0,0:0:0:0:
256,192,15170,1,2,0:0:0:0:
329,192,15170,1,0,0:0:0:0:
64,192,15320,1,2,0:0:0:0:
182,192,15320,1,0,0:0:0:0:
475,192,15320,128,0,15770:0:0:0:0:
182,192,15620,1,2,0:0:0:0:
256,192,15620,1,0,0:0:0:0:
36,192,15770,1,2,0:0:0:0:
402,192,15770,1,0,0:0:0:0:
109,192,16070,1,0,0:0:0:0:
182,192,16070,128,0,16220:0:0:0:0:
329,192,16220,128,2,16520:0:0:0:0:
256,192,16220,1,0,0:0:0:0:
448,192,16520,1,4,0:0:0:0:
182,192,16520,1,2,0:0:0:0:
36,192,16520,128,0,16820:0:0:0:0:
256,192,16820,1,0,0:0:0:0:
402,192,16820,1,0,0:0:0:0:
182,192,16970,1,2,0:0:0:0:
320,192,16970,1,0,0:0:0:0:
109,192,17120,1,0,0:0:0:0:
256,192,17120,1,0,0:0:0:0:
36,192,17270,1,4,0:0:0:0:
320,192,17270,1,2,0:0:0:0:
402,192,17270,1,0,0:0:0:0:
109,192,17420,1,2,0:0:0:0:
475,192,17420,128,0,17570:0:0:0:0:
182,192,17570,1,2,0:0:0:0:
402,192,17570,128,0,17720:0:0:0:0:
64,192,17720,1,2,0:0:0:0:
256,192,17720,1,4,0:0:0:0:
329,192,17720,128,0,18020:0:0:0:0:
192,192,18020,1,2,0:0:0:0:
475,192,18170,1,2,0:0:0:0:
109,192,18170,128,0,18470:0:0:0:0:
329,192,18320,1,0,0:0:0:0:
256,192,18470,128,2,18770:0:0:0:0:
192,192,18470,1,0,0:0:0:0:
402,192,18770,128,2,19070:0:0:0:0:
109,192,18770,1,0,0:0:0:0:
329,192,19070,1,2,0:0:0:0:
192,192,19070,1,4,0:0:0:0:
36,192,19220,1,2,0:0:0:0:
192,192,19295,1,0,0:0:0:0:
448,192,19370,1,0,0:0:0:0:
320,192,19370,1,0,0:0:0:0:
64,192,19520,1,2,0:0:0:0:
109,192,19520,1,4,0:0:0:0:
182,192,19520,1,0,0:0:0:0:
448,192,19670,1,0,0:0:0:0:
329,192,19745,1,0,0:0:0:0:
182,192,19820,1,2,0:0:0:0:
36,192,19895,1,0,0:0:0:0:
475,192,19970,1,2,0:0:0:0:
329,192,20045,1,0,0:0:0:0:
182,192,20120,1,4,0:0:0:0:
64,192,20120,1,2,0:0:0:0:
109,192,20120,1,0,0:0:0:0:
448,192,20420,1,0,0:0:0:0:
402,192,20495,1,0,0:0:0:0:
192,192,20570,1,2,0:0:0:0:
329,192,20570,1,0,0:0:0:0:
448,192,20720,1,2,0:0:0:0:
36,192,20720,1,0,0:0:0:0:
256,192,20720,1,0,0:0:0:0:
64,192,21020,1,2,0:0:0:0:
320,192,21020,1,0,0:0:0:0:
182,192,21020,1,0,0:0:0:0:
192,192,21320,1,2,0:0:0:0:
329,192,21320,1,4,0:0:0:0:
475,192,21320,128,0,22370:0:0:0:0:
109,192,21620,1,0,0:0:0:0:
256,192,21620,1,0,0:0:0:0:
36,192,21770,1,2,0:0:0:0:
402,192,21770,1,0,0:0:0:0:
182,192,21920,1,0,0:0:0:0:
109,192,22070,1,2,0:0:0:0:
329,192,22070,1,0,0:0:0:0:
402,192,22370,1,2,0:0:0:0:
192,192,22370,1,0,0:0:0:0:
256,192,22520,1,0,0:0:0:0:
64,192,22670,1,2,0:0:0:0:
329,192,22670,1,4,0:0:0:0:
448,192,22820,128,2,22970:0:0:0:0:
64,192,22970,1,0,0:0:0:0:
192,192,23045,1,0,0:0:0:0:
320,192,23120,1,0,0:0:0:0:
448,192,23195,1,0,0:0:0:0:
256,192,23270,1,0,0:0:0:0:
182,192,23420,128,2,23570:0:0:0:0:
402,192,23570,1,2,0:0:0:0:
329,192,23720,1,0,0:0:0:0:
64,192,23870,1,2,0:0:0:0:
256,192,23870,1,4,0:0:0:0:
475,192,23870,1,0,0:0:0:0:
402,192,24170,1,2,0:0:0:0:
329,192,24170,1,0,0:0:0:0:
182,192,24320,1,2,0:0:0:0:
109,192,24320,128,0,24470:0:0:0:0:
109,192,24620,128,2,24770:0:0:0:0:
475,192,24620,1,0,0:0:0:0:
402,192,24620,1,0,0:0:0:0:
256,192,24770,1,2,0:0:0:0:
182,192,24770,1,0,0:0:0:0:
475,192,24920,1,0,0:0:0:0:
36,192,24920,128,0,25370:0:0:0:0:
329,192,25220,1,2,0:0:0:0:
256,192,25220,1,0,0:0:0:0:
475,192,25370,1,2,0:0:0:0:
109,192,25370,1,0,0:0:0:0:
402,192,25670,1,0,0:0:0:0:
329,192,25670,128,0,25820:0:0:0:0:
256,192,25820,1,2,0:0:0:0:
182,192,25820,128,0,26120:0:0:0:0:
36,192,26120,1,2,0:0:0:0:
329,192,26120,1,4,0:0:0:0:
475,192,26120,128,0,26420:0:0:0:0:
256,192,26420,1,2,0:0:0:0:
109,192,26420,1,0,0:0:0:0:
329,192,26570,1,2,0:0:0:0:
182,192,26570,1,0,0:0:0:0:
402,192,26720,1,0,0:0:0:0:
256,192,26720,1,0,0:0:0:0:
475,192,26870,1,2,0:0:0:0:
182,192,26870,1,4,0:0:0:0:
109,192,26870,1,0,0:0:0:0:
402,192,27020,1,2,0:0:0:0:
36,192,27020,128,0,27170:0:0:0:0:
329,192,27170,1,2,0:0:0:0:
109,192,27170,128,0,27320:0:0:0:0:
475,192,27320,1,4,0:0:0:0:
256,192,27320,1,2,0:0:0:0:
182,192,27320,128,0,27620:0:0:0:0:
329,192,27620,1,2,0:0:0:0:
36,192,27770,1,2,0:0:0:0:
402,192,27770,128,0,28070:0:0:0:0:
182,192,27920,1,0,0:0:0:0:
256,192,28070,128,2,28370:0:0:0:0:
329,192,28070,1,0,0:0:0:0:
109,192,28370,128,2,28670:0:0:0:0:
402,192,28370,1,0,0:0:0:0:
182,192,28670,1,0,0:0:0:0:
329,192,28670,1,0,0:0:0:0:
475,192,28820,1,0,0:0:0:0:
402,192,28895,1,0,0:0:0:0:
64,192,28970,1,4,0:0:0:0:
329,192,28970,1,2,0:0:0:0:
109,192,29045,1,0,0:0:0:0:
182,192,29120,1,0,0:0:0:0:
256,192,29195,1,0,0:0:0:0:
475,192,29270,1,2,0:0:0:0:
329,192,29270,1,0,0:0:0:0:
256,192,29345,1,0,0:0:0:0:
192,192,29420,1,0,0:0:0:0:
109,192,29495,1,0,0:0:0:0:
36,192,29570,1,2,0:0:0:0:
402,192,29570,1,0,0:0:0:0:
329,192,29645,1,2,0:0:0:0:
182,192,29720,1,2,0:0:0:0:
256,192,29720,128,4,30020:0:0:0:0:
36,192,30020,1,0,0:0:0:0:
475,192,30020,1,0,0:0:0:0:
402,192,30095,1,0,0:0:0:0:
329,192,30170,1,4,0:0:0:0:
182,192,30170,1,2,0:0:0:0:
182,192,30320,1,4,0:0:0:0:
329,192,30320,1,2,0:0:0:0:
109,192,30470,1,2,0:0:0:0:
402,192,30470,1,4,0:0:0:0:
36,192,30670,1,2,0:0:0:0:
448,192,30670,1,4,0:0:0:0:
329,192,30870,1,2,0:0:0:0:
192,192,30870,1,4,0:0:0:0:
64,192,31370,1,2,0:0:0:0:
256,192,31370,1,4,0:0:0:0:
448,192,31370,1,0,0:0:0:0:
109,192,31670,1,2,0:0:0:0:
402,192,31670,1,4,0:0:0:0:
182,192,31970,1,2,0:0:0:0:
320,192,31970,1,0,0:0:0:0:
36,192,32120,1,4,0:0:0:0:
448,192,32120,1,2,0:0:0:0:
320,192,32270,1,0,0:0:0:0:
182,192,32270,1,0,0:0:0:0:
256,192,32570,1,4,0:0:0:0:
475,192,32570,128,2,32870:0:0:0:0:
192,192,32870,1,2,0:0:0:0:
402,192,32870,128,4,33095:0:0:0:0:
109,192,33095,1,0,0:0:0:0:
329,192,33095,128,0,33320:0:0:0:0:
36,192,33320,1,4,0:0:0:0:
256,192,33320,1,2,0:0:0:0:
182,192,33470,1,2,0:0:0:0:
448,192,33470,128,4,34520:0:0:0:0:
402,192,33470,1,0,0:0:0:0:
256,192,34520,1,0,0:0:0:0:
182,192,34595,1,0,0:0:0:0:
64,192,34670,128,4,35270:0:0:0:0:
109,192,34670,1,2,0:0:0:0:
402,192,34670,1,0,0:0:0:0:
256,192,35270,1,2,0:0:0:0:
182,192,35270,1,4,0:0:0:0:
475,192,35270,1,0,0:0:0:0:
402,192,35420,1,2,0:0:0:0:
192,192,35420,1,4,0:0:0:0:
109,192,35420,1,0,0:0:0:0:
64,192,35870,1,2,0:0:0:0:
256,192,35870,1,4,0:0:0:0:
475,192,35870,1,0,0:0:0:0:
192,192,36320,128,0,36620:0:0:0:0:
256,192,36620,128,0,36920:0:0:0:0:
320,192,36920,128,0,37220:0:0:0:0:
36,192,37220,128,0,37370:0:0:0:0:
402,192,37370,128,0,37670:0:0:0:0:
109,192,37670,128,0,37970:0:0:0:0:
256,192,37970,128,0,38120:0:0:0:0:
475,192,38120,128,0,38720:0:0:0:0:
36,192,38720,128,0,39620:0:0:0:0:
109,192,39620,128,0,39770:0:0:0:0:
256,192,39770,128,0,39920:0:0:0:0:
402,192,39920,128,0,40070:0:0:0:0:
448,192,40070,128,0,40370:0:0:0:0:
64,192,40370,128,0,40670:0:0:0:0:
329,192,40520,1,2,0:0:0:0:
256,192,40595,1,2,0:0:0:0:
448,192,40670,128,2,41420:0:0:0:0:
192,192,40670,1,0,0:0:0:0:
402,192,40670,1,0,0:0:0:0:
329,192,40970,1,2,0:0:0:0:
36,192,41120,128,2,41420:0:0:0:0:
109,192,41420,1,0,0:0:0:0:
256,192,41570,1,2,0:0:0:0:
109,192,41720,1,2,0:0:0:0:
448,192,41870,128,2,42170:0:0:0:0:
329,192,41870,1,0,0:0:0:0:
402,192,41870,1,0,0:0:0:0:
36,192,42170,128,2,42470:0:0:0:0:
402,192,42470,128,2,42770:0:0:0:0:
109,192,42770,128,2,43070:0:0:0:0:
182,192,43070,1,4,0:0:0:0:
329,192,43070,1,2,0:0:0:0:
256,192,43070,128,0,43520:0:0:0:0:
475,192,43520,1,2,0:0:0:0:
36,192,43520,128,0,43970:0:0:0:0:
320,192,43670,1,4,0:0:0:0:
109,192,43670,1,2,0:0:0:0:
182,192,43970,128,2,44270:0:0:0:0:
256,192,44120,1,2,0:0:0:0:
329,192,44195,1,0,0:0:0:0:
64,192,44270,1,2,0:0:0:0:
475,192,44270,1,4,0:0:0:0:
402,192,44270,128,0,44720:0:0:0:0:
192,192,44570,1,0,0:0:0:0:
320,192,44570,1,0,0:0:0:0:
109,192,44720,1,2,0:0:0:0:
256,192,44720,128,0,45020:0:0:0:0:
192,192,44870,1,2,0:0:0:0:
320,192,44870,1,0,0:0:0:0:
36,192,45020,128,2,45470:0:0:0:0:
448,192,45170,1,2,0:0:0:0:
402,192,45245,1,0,0:0:0:0:
329,192,45320,1,2,0:0:0:0:
256,192,45395,1,2,0:0:0:0:
182,192,45470,1,4,0:0:0:0:
109,192,45470,1,2,0:0:0:0:
475,192,45470,1,0,0:0:0:0:
256,192,45620,1,2,0:0:0:0:
402,192,45620,1,0,0:0:0:0:
475,192,45770,1,2,0:0:0:0:
36,192,45770,1,0,0:0:0:0:
329,192,45920,128,2,46220:0:0:0:0:
182,192,45920,1,0,0:0:0:0:
256,192,46220,128,2,46520:0:0:0:0:
109,192,46220,1,4,0:0:0:0:
475,192,46220,1,0,0:0:0:0:
182,192,46520,128,2,46820:0:0:0:0:
36,192,46520,1,4,0:0:0:0:
402,192,46520,1,0,0:0:0:0:
475,192,46820,128,2,46970:0:0:0:0:
329,192,46820,1,0,0:0:0:0:
109,192,46970,128,2,47270:0:0:0:0:
256,192,46970,1,0,0:0:0:0:
402,192,47270,128,2,47420:0:0:0:0:
475,192,47270,1,0,0:0:0:0:
329,192,47420,128,2,47570:0:0:0:0:
182,192,47420,1,0,0:0:0:0:
256,192,47570,128,2,47720:0:0:0:0:
109,192,47570,1,0,0:0:0:0:
36,192,47720,128,4,48320:0:0:0:0:
475,192,47720,1,2,0:0:0:0:
402,192,47720,1,0,0:0:0:0:
182,192,47870,1,0,0:0:0:0:
256,192,48020,1,2,0:0:0:0:
402,192,48020,1,0,0:0:0:0:
329,192,48170,1,2,0:0:0:0:
475,192,48320,128,2,49220:0:0:0:0:
109,192,48320,1,0,0:0:0:0:
182,192,48470,1,2,0:0:0:0:
256,192,48620,1,0,0:0:0:0:
36,192,48770,1,2,0:0:0:0:
329,192,48770,1,0,0:0:0:0:
109,192,48920,1,0,0:0:0:0:
182,192,49070,1,2,0:0:0:0:
402,192,49220,128,0,49370:0:0:0:0:
36,192,49220,1,0,0:0:0:0:
256,192,49370,128,2,49520:0:0:0:0:
182,192,49370,1,0,0:0:0:0:
109,192,49520,128,2,49670:0:0:0:0:
475,192,49520,1,0,0:0:0:0:
36,192,49670,128,2,49970:0:0:0:0:
329,192,49670,1,0,0:0:0:0:
402,192,49820,1,0,0:0:0:0:
475,192,49970,128,2,50270:0:0:0:0:
329,192,49970,1,0,0:0:0:0:
109,192,49970,1,0,0:0:0:0:
182,192,50120,1,2,0:0:0:0:
256,192,50195,1,2,0:0:0:0:
36,192,50270,128,4,51020:0:0:0:0:
329,192,50270,1,2,0:0:0:0:
109,192,50270,1,0,0:0:0:0:
256,192,50420,1,0,0:0:0:0:
182,192,50570,1,2,0:0:0:0:
402,192,50570,1,0,0:0:0:0:
475,192,50720,128,0,51020:0:0:0:0:
256,192,50720,1,0,0:0:0:0:
329,192,50870,1,2,0:0:0:0:
402,192,51020,1,0,0:0:0:0:
256,192,51170,1,2,0:0:0:0:
402,192,51320,1,2,0:0:0:0:
36,192,51470,128,2,51770:0:0:0:0:
182,192,51470,1,0,0:0:0:0:
109,192,51470,1,0,0:0:0:0:
256,192,51620,1,2,0:0:0:0:
329,192,51695,1,2,0:0:0:0:
475,192,51770,128,2,52070:0:0:0:0:
402,192,51770,1,0,0:0:0:0:
256,192,51920,1,2,0:0:0:0:
182,192,51995,1,2,0:0:0:0:
36,192,52070,128,2,52370:0:0:0:0:
109,192,52070,1,0,0:0:0:0:
256,192,52220,1,2,0:0:0:0:
329,192,52295,1,0,0:0:0:0:
475,192,52370,128,2,52670:0:0:0:0:
402,192,52370,1,0,0:0:0:0:
182,192,52670,1,2,0:0:0:0:
36,192,52670,1,4,0:0:0:0:
36,192,52820,1,2,0:0:0:0:
182,192,52820,1,4,0:0:0:0:
109,192,53120,1,2,0:0:0:0:
256,192,53120,1,4,0:0:0:0:
256,192,53270,1,2,0:0:0:0:
109,192,53270,1,4,0:0:0:0:
182,192,53570,1,2,0:0:0:0:
320,192,53570,1,4,0:0:0:0:
192,192,53720,1,2,0:0:0:0:
320,192,53720,1,4,0:0:0:0:
256,192,54020,1,2,0:0:0:0:
402,192,54020,1,4,0:0:0:0:
402,192,54170,1,2,0:0:0:0:
256,192,54170,1,4,0:0:0:0:
182,192,54320,1,2,0:0:0:0:
109,192,54470,1,4,0:0:0:0:
475,192,54470,1,2,0:0:0:0:
36,192,54470,1,0,0:0:0:0:
320,192,54620,128,2,54770:0:0:0:0:
64,192,54770,1,0,0:0:0:0:
448,192,54770,1,0,0:0:0:0:
109,192,54845,1,0,0:0:0:0:
182,192,54920,1,2,0:0:0:0:
256,192,54995,1,2,0:0:0:0:
329,192,55070,1,2,0:0:0:0:
448,192,55070,128,0,56270:0:0:0:0:
36,192,55070,1,0,0:0:0:0:
64,192,56270,128,0,56870:0:0:0:0:
109,192,56270,1,0,0:0:0:0:
320,192,56870,128,0,57170:0:0:0:0:
256,192,56870,1,0,0:0:0:0:
192,192,57170,128,0,57470:0:0:0:0:
109,192,57170,1,0,0:0:0:0:
448,192,57470,128,0,58070:0:0:0:0:
402,192,57470,1,0,0:0:0:0:
320,192,58070,128,0,58670:0:0:0:0:
256,192,58070,1,0,0:0:0:0:
192,192,58670,128,0,59870:0:0:0:0:
109,192,58670,1,0,0:0:0:0:
64,192,59270,128,0,59870:0:0:0:0:
475,192,59270,1,0,0:0:0:0:
256,192,59720,1,0,0:0:0:0:
329,192,59795,1,0,0:0:0:0:
448,192,59870,128,4,60470:0:0:0:0:
402,192,59870,1,2,0:0:0:0:
109,192,59870,1,0,0:0:0:0:
36,192,60320,1,2,0:0:0:0:
109,192,60395,1,2,0:0:0:0:
192,192,60470,128,2,61070:0:0:0:0:
256,192,60470,1,0,0:0:0:0:
402,192,60470,1,0,0:0:0:0:
320,192,61070,128,4,61670:0:0:0:0:
36,192,61070,1,2,0:0:0:0:
475,192,61070,1,0,0:0:0:0:
36,192,61520,1,2,0:0:0:0:
109,192,61595,1,2,0:0:0:0:
192,192,61670,128,2,61970:0:0:0:0:
256,192,61670,1,0,0:0:0:0:
475,192,61670,1,0,0:0:0:0:
64,192,61970,128,2,62270:0:0:0:0:
402,192,61970,1,0,0:0:0:0:
320,192,62270,128,2,62870:0:0:0:0:
109,192,62270,1,4,0:0:0:0:
475,192,62270,1,0,0:0:0:0:
64,192,62870,128,4,63470:0:0:0:0:
182,192,62870,1,2,0:0:0:0:
256,192,62870,1,0,0:0:0:0:
109,192,63320,1,2,0:0:0:0:
256,192,63395,1,2,0:0:0:0:
448,192,63470,128,2,64670:0:0:0:0:
402,192,63470,1,4,0:0:0:0:
182,192,63770,1,2,0:0:0:0:
329,192,63770,1,4,0:0:0:0:
64,192,64070,128,2,64670:0:0:0:0:
182,192,64070,1,0,0:0:0:0:
329,192,64070,1,0,0:0:0:0:
109,192,64370,1,0,0:0:0:0:
402,192,64370,1,0,0:0:0:0:
192,192,64520,1,0,0:0:0:0:
320,192,64670,1,2,0:0:0:0:
256,192,64970,1,2,0:0:0:0:
36,192,64970,1,0,0:0:0:0:
320,192,65120,1,0,0:0:0:0:
402,192,65270,1,2,0:0:0:0:
448,192,65270,1,0,0:0:0:0:
109,192,65420,1,0,0:0:0:0:
192,192,65570,1,2,0:0:0:0:
256,192,65570,1,0,0:0:0:0:
320,192,65720,1,0,0:0:0:0:
402,192,65870,1,2,0:0:0:0:
64,192,65870,1,0,0:0:0:0:
109,192,66020,1,0,0:0:0:0:
182,192,66170,1,2,0:0:0:0:
320,192,66170,1,0,0:0:0:0:
402,192,66320,1,0,0:0:0:0:
64,192,66470,1,2,0:0:0:0:
475,192,66470,1,0,0:0:0:0:
192,192,66620,1,0,0:0:0:0:
329,192,66620,1,0,0:0:0:0:
64,192,66770,1,2,0:0:0:0:
475,192,66770,1,0,0:0:0:0:
402,192,66920,1,2,0:0:0:0:
256,192,67070,1,2,0:0:0:0:
329,192,67070,1,0,0:0:0:0:
182,192,67220,1,0,0:0:0:0:
448,192,67370,1,2,0:0:0:0:
109,192,67370,1,0,0:0:0:0:
402,192,67520,1,0,0:0:0:0:
36,192,67670,1,2,0:0:0:0:
329,192,67670,1,0,0:0:0:0:
109,192,67820,1,0,0:0:0:0:
182,192,67970,1,2,0:0:0:0:
475,192,67970,1,0,0:0:0:0:
402,192,68120,1,0,0:0:0:0:
329,192,68270,1,2,0:0:0:0:
64,192,68270,1,0,0:0:0:0:
256,192,68420,1,0,0:0:0:0:
182,192,68570,1,2,0:0:0:0:
402,192,68570,1,0,0:0:0:0:
475,192,68570,128,0,68870:0:0:0:0:
329,192,68720,1,0,0:0:0:0:
36,192,68870,1,0,0:0:0:0:
256,192,68870,128,0,69320:0:0:0:0:
329,192,69170,1,2,0:0:0:0:
182,192,69170,1,0,0:0:0:0:
109,192,69320,1,0,0:0:0:0:
402,192,69320,1,0,0:0:0:0:
64,192,69470,1,2,0:0:0:0:
448,192,69470,1,4,0:0:0:0:
320,192,69620,1,0,0:0:0:0:
109,192,69770,1,2,0:0:0:0:
182,192,69770,128,0,70070:0:0:0:0:
256,192,69920,1,0,0:0:0:0:
329,192,70070,1,2,0:0:0:0:
402,192,70070,128,0,70670:0:0:0:0:
36,192,70220,1,0,0:0:0:0:
182,192,70370,1,2,0:0:0:0:
109,192,70370,1,0,0:0:0:0:
256,192,70520,1,0,0:0:0:0:
36,192,70670,1,4,0:0:0:0:
329,192,70670,1,2,0:0:0:0:
475,192,70820,1,0,0:0:0:0:
256,192,70970,1,2,0:0:0:0:
329,192,70970,128,0,71270:0:0:0:0:
182,192,71120,1,0,0:0:0:0:
64,192,71270,1,2,0:0:0:0:
402,192,71270,1,0,0:0:0:0:
109,192,71270,128,0,71570:0:0:0:0:
448,192,71420,1,0,0:0:0:0:
402,192,71570,1,2,0:0:0:0:
192,192,71570,1,0,0:0:0:0:
109,192,71720,1,2,0:0:0:0:
329,192,71720,1,0,0:0:0:0:
256,192,71870,1,2,0:0:0:0:
36,192,71870,1,4,0:0:0:0:
475,192,71870,1,0,0:0:0:0:
329,192,72020,1,2,0:0:0:0:
192,192,72020,1,0,0:0:0:0:
109,192,72170,1,2,0:0:0:0:
402,192,72170,1,0,0:0:0:0:
36,192,72320,1,2,0:0:0:0:
448,192,72320,1,0,0:0:0:0:
402,192,72395,1,2,0:0:0:0:
320,192,72470,1,2,0:0:0:0:
182,192,72470,1,4,0:0:0:0:
256,192,72470,1,0,0:0:0:0:
64,192,72620,1,0,0:0:0:0:
475,192,72620,1,0,0:0:0:0:
109,192,72770,1,2,0:0:0:0:
329,192,72770,1,0,0:0:0:0:
192,192,72920,1,2,0:0:0:0:
402,192,72920,1,0,0:0:0:0:
64,192,73070,1,2,0:0:0:0:
448,192,73070,1,4,0:0:0:0:
256,192,73070,128,0,73670:0:0:0:0:
402,192,73145,1,0,0:0:0:0:
329,192,73220,1,0,0:0:0:0:
182,192,73295,1,0,0:0:0:0:
109,192,73370,1,2,0:0:0:0:
36,192,73445,1,0,0:0:0:0:
329,192,73520,1,0,0:0:0:0:
402,192,73595,1,0,0:0:0:0:
448,192,73670,128,2,73820:0:0:0:0:
182,192,73670,128,0,73820:0:0:0:0:
320,192,73895,128,2,74045:0:0:0:0:
36,192,73895,128,0,74045:0:0:0:0:
192,192,74120,128,2,74270:0:0:0:0:
475,192,74120,128,0,74270:0:0:0:0:
64,192,74270,1,2,0:0:0:0:
256,192,74270,128,0,74870:0:0:0:0:
402,192,74570,128,2,74720:0:0:0:0:
109,192,74570,128,0,74720:0:0:0:0:
182,192,74720,128,2,74870:0:0:0:0:
329,192,74720,128,0,74870:0:0:0:0:
448,192,74870,128,2,75470:0:0:0:0:
36,192,74870,1,0,0:0:0:0:
109,192,75170,1,0,0:0:0:0:
402,192,75170,1,0,0:0:0:0:
256,192,75170,128,0,75470:0:0:0:0:
182,192,75470,1,4,0:0:0:0:
320,192,75470,1,2,0:0:0:0:
182,192,75620,1,2,0:0:0:0:
320,192,75620,1,4,0:0:0:0:
36,192,76370,1,2,0:0:0:0:
448,192,76370,1,4,0:0:0:0:
36,192,76520,1,2,0:0:0:0:
448,192,76520,1,4,0:0:0:0:
109,192,77870,1,2,0:0:0:0:
402,192,77870,1,4,0:0:0:0:
109,192,78020,1,2,0:0:0:0:
402,192,78020,1,4,0:0:0:0:
192,192,78770,1,2,0:0:0:0:
320,192,78770,1,4,0:0:0:0:
192,192,78920,1,2,0:0:0:0:
320,192,78920,1,4,0:0:0:0:
256,192,79445,128,0,80270:0:0:0:0:
36,192,80270,1,2,0:0:0:0:
448,192,80270,1,4,0:0:0:0:
36,192,80420,1,2,0:0:0:0:
448,192,80420,1,4,0:0:0:0:
109,192,80870,1,2,0:0:0:0:
402,192,80870,1,4,0:0:0:0:
402,192,81020,1,2,0:0:0:0:
109,192,81020,1,4,0:0:0:0:
192,192,81470,1,2,0:0:0:0:
329,192,81470,1,4,0:0:0:0:
402,192,81545,1,0,0:0:0:0:
475,192,81620,1,0,0:0:0:0:
182,192,81695,1,4,0:0:0:0:
36,192,81695,1,2,0:0:0:0:
256,192,81770,1,0,0:0:0:0:
329,192,81845,1,0,0:0:0:0:
109,192,81920,1,4,0:0:0:0:
402,192,81920,1,2,0:0:0:0:
182,192,81995,1,0,0:0:0:0:
256,192,82070,1,0,0:0:0:0:
64,192,82145,1,4,0:0:0:0:
329,192,82145,1,2,0:0:0:0:
109,192,82220,1,0,0:0:0:0:
182,192,82295,1,0,0:0:0:0:
448,192,82370,1,4,0:0:0:0:
256,192,82370,1,2,0:0:0:0:
329,192,82370,128,0,82520:0:0:0:0:
192,192,82520,128,0,82670:0:0:0:0:
448,192,82670,1,4,0:0:0:0:
64,192,82670,128,2,83870:0:0:0:0:
402,192,82670,1,0,0:0:0:0:
448,192,83870,128,0,84770:0:0:0:0:
256,192,83870,1,0,0:0:0:0:
109,192,84470,128,0,84770:0:0:0:0:
402,192,84770,128,0,85070:0:0:0:0:
36,192,84770,128,0,85070:0:0:0:0:
109,192,85070,1,2,0:0:0:0:
329,192,85070,1,4,0:0:0:0:
256,192,85220,1,2,0:0:0:0:
475,192,85220,1,0,0:0:0:0:
182,192,85370,1,2,0:0:0:0:
402,192,85370,1,0,0:0:0:0:
329,192,85520,1,2,0:0:0:0:
109,192,85520,128,0,85670:0:0:0:0:
402,192,85820,128,2,85970:0:0:0:0:
36,192,85820,1,0,0:0:0:0:
182,192,85820,1,0,0:0:0:0:
256,192,85970,1,2,0:0:0:0:
329,192,85970,1,0,0:0:0:0:
64,192,86120,1,2,0:0:0:0:
475,192,86120,128,0,86570:0:0:0:0:
182,192,86420,1,2,0:0:0:0:
329,192,86420,1,0,0:0:0:0:
109,192,86570,1,2,0:0:0:0:
402,192,86570,1,0,0:0:0:0:
329,192,86870,1,2,0:0:0:0:
36,192,86870,128,0,87020:0:0:0:0:
182,192,87020,1,2,0:0:0:0:
256,192,87020,128,0,87320:0:0:0:0:
475,192,87020,1,0,0:0:0:0:
329,192,87170,1,0,0:0:0:0:
402,192,87245,1,0,0:0:0:0:
448,192,87320,1,4,0:0:0:0:
109,192,87320,1,2,0:0:0:0:
36,192,87320,128,0,87620:0:0:0:0:
109,192,87620,1,2,0:0:0:0:
402,192,87620,1,0,0:0:0:0:
182,192,87770,1,2,0:0:0:0:
320,192,87770,1,0,0:0:0:0:
109,192,87920,1,0,0:0:0:0:
402,192,87920,1,0,0:0:0:0:
36,192,88070,1,4,0:0:0:0:
256,192,88070,1,2,0:0:0:0:
475,192,88070,1,0,0:0:0:0:
402,192,88220,1,2,0:0:0:0:
109,192,88220,128,0,88370:0:0:0:0:
329,192,88370,1,2,0:0:0:0:
182,192,88370,128,0,88520:0:0:0:0:
64,192,88520,1,2,0:0:0:0:
475,192,88520,1,4,0:0:0:0:
402,192,88520,128,0,88820:0:0:0:0:
256,192,88820,1,2,0:0:0:0:
329,192,88970,1,2,0:0:0:0:
109,192,88970,128,0,89270:0:0:0:0:
402,192,89120,1,0,0:0:0:0:
256,192,89270,128,2,89570:0:0:0:0:
192,192,89270,1,0,0:0:0:0:
402,192,89570,128,2,89870:0:0:0:0:
109,192,89570,1,0,0:0:0:0:
329,192,89870,1,2,0:0:0:0:
192,192,89870,1,4,0:0:0:0:
36,192,90020,1,2,0:0:0:0:
192,192,90095,1,0,0:0:0:0:
448,192,90170,1,0,0:0:0:0:
320,192,90170,1,0,0:0:0:0:
64,192,90320,1,4,0:0:0:0:
109,192,90320,1,2,0:0:0:0:
182,192,90320,1,0,0:0:0:0:
448,192,90470,1,0,0:0:0:0:
329,192,90545,1,0,0:0:0:0:
182,192,90620,1,2,0:0:0:0:
36,192,90695,1,0,0:0:0:0:
475,192,90770,1,2,0:0:0:0:
329,192,90845,1,0,0:0:0:0:
182,192,90920,1,2,0:0:0:0:
64,192,90920,1,4,0:0:0:0:
109,192,90920,1,0,0:0:0:0:
448,192,91220,1,0,0:0:0:0:
402,192,91295,1,0,0:0:0:0:
192,192,91370,1,2,0:0:0:0:
329,192,91370,1,0,0:0:0:0:
448,192,91520,1,2,0:0:0:0:
36,192,91520,1,4,0:0:0:0:
256,192,91520,1,0,0:0:0:0:
64,192,91820,1,4,0:0:0:0:
320,192,91820,1,2,0:0:0:0:
182,192,91820,1,0,0:0:0:0:
192,192,92120,1,2,0:0:0:0:
329,192,92120,1,4,0:0:0:0:
475,192,92120,128,0,93170:0:0:0:0:
109,192,92420,1,0,0:0:0:0:
256,192,92420,1,0,0:0:0:0:
36,192,92570,1,2,0:0:0:0:
402,192,92570,1,0,0:0:0:0:
182,192,92720,1,0,0:0:0:0:
109,192,92870,1,2,0:0:0:0:
329,192,92870,1,0,0:0:0:0:
402,192,93170,1,2,0:0:0:0:
192,192,93170,1,0,0:0:0:0:
256,192,93320,1,0,0:0:0:0:
64,192,93470,1,4,0:0:0:0:
329,192,93470,1,2,0:0:0:0:
448,192,93620,128,2,93770:0:0:0:0:
64,192,93770,1,0,0:0:0:0:
192,192,93845,1,0,0:0:0:0:
320,192,93920,1,0,0:0:0:0:
448,192,93995,1,0,0:0:0:0:
256,192,94070,1,4,0:0:0:0:
182,192,94220,128,2,94370:0:0:0:0:
402,192,94370,1,2,0:0:0:0:
329,192,94520,1,0,0:0:0:0:
64,192,94670,1,4,0:0:0:0:
256,192,94670,1,2,0:0:0:0:
475,192,94670,1,0,0:0:0:0:
329,192,94970,1,2,0:0:0:0:
109,192,94970,1,0,0:0:0:0:
182,192,95120,1,2,0:0:0:0:
402,192,95120,128,0,95270:0:0:0:0:
109,192,95420,128,2,95570:0:0:0:0:
475,192,95420,1,0,0:0:0:0:
329,192,95420,1,0,0:0:0:0:
256,192,95570,1,2,0:0:0:0:
182,192,95570,1,0,0:0:0:0:
475,192,95720,1,2,0:0:0:0:
36,192,95720,128,0,96170:0:0:0:0:
329,192,95720,1,0,0:0:0:0:
402,192,96020,1,2,0:0:0:0:
182,192,96020,1,0,0:0:0:0:
475,192,96170,1,2,0:0:0:0:
109,192,96170,1,0,0:0:0:0:
329,192,96470,1,0,0:0:0:0:
36,192,96470,128,0,96620:0:0:0:0:
475,192,96620,1,2,0:0:0:0:
182,192,96620,128,0,96920:0:0:0:0:
329,192,96770,1,0,0:0:0:0:
402,192,96845,1,0,0:0:0:0:
256,192,96920,1,2,0:0:0:0:
36,192,96920,1,4,0:0:0:0:
475,192,96920,128,0,97220:0:0:0:0:
256,192,97220,1,2,0:0:0:0:
109,192,97220,1,0,0:0:0:0:
329,192,97370,1,2,0:0:0:0:
182,192,97370,1,0,0:0:0:0:
402,192,97520,1,0,0:0:0:0:
256,192,97520,1,0,0:0:0:0:
329,192,97670,1,2,0:0:0:0:
109,192,97670,1,4,0:0:0:0:
475,192,97670,1,0,0:0:0:0:
402,192,97820,1,2,0:0:0:0:
36,192,97820,128,0,97970:0:0:0:0:
329,192,97970,1,2,0:0:0:0:
109,192,97970,128,0,98120:0:0:0:0:
475,192,98120,1,4,0:0:0:0:
256,192,98120,1,2,0:0:0:0:
182,192,98120,128,0,98420:0:0:0:0:
329,192,98420,1,2,0:0:0:0:
36,192,98570,1,2,0:0:0:0:
402,192,98570,128,0,98870:0:0:0:0:
182,192,98720,1,0,0:0:0:0:
256,192,98870,128,2,99170:0:0:0:0:
329,192,98870,1,0,0:0:0:0:
109,192,99170,128,2,99470:0:0:0:0:
402,192,99170,1,0,0:0:0:0:
182,192,99470,1,0,0:0:0:0:
329,192,99470,1,0,0:0:0:0:
475,192,99620,1,0,0:0:0:0:
402,192,99695,1,0,0:0:0:0:
64,192,99770,1,4,0:0:0:0:
329,192,99770,1,2,0:0:0:0:
109,192,99845,1,0,0:0:0:0:
182,192,99920,1,0,0:0:0:0:
256,192,99995,1,0,0:0:0:0:
475,192,100070,1,2,0:0:0:0:
329,192,100070,1,0,0:0:0:0:
256,192,100145,1,0,0:0:0:0:
192,192,100220,1,2,0:0:0:0:
109,192,100295,1,0,0:0:0:0:
36,192,100370,1,2,0:0:0:0:
402,192,100370,1,0,0:0:0:0:
329,192,100445,1,0,0:0:0:0:
182,192,100520,1,4,0:0:0:0:
256,192,100520,128,2,100820:0:0:0:0:
36,192,100820,1,0,0:0:0:0:
475,192,100820,1,0,0:0:0:0:
402,192,100895,1,0,0:0:0:0:
329,192,100970,1,2,0:0:0:0:
182,192,100970,1,4,0:0:0:0:
182,192,101120,1,2,0:0:0:0:
329,192,101120,1,4,0:0:0:0:
109,192,101270,1,4,0:0:0:0:
402,192,101270,1,2,0:0:0:0:
36,192,101470,1,2,0:0:0:0:
448,192,101470,1,0,0:0:0:0:
329,192,101670,1,4,0:0:0:0:
192,192,101670,1,2,0:0:0:0:
64,192,102170,1,2,0:0:0:0:
256,192,102170,1,4,0:0:0:0:
448,192,102170,1,0,0:0:0:0:
109,192,102470,1,4,0:0:0:0:
402,192,102470,1,2,0:0:0:0:
182,192,102770,1,2,0:0:0:0:
320,192,102770,1,0,0:0:0:0:
36,192,102920,1,2,0:0:0:0:
448,192,102920,1,4,0:0:0:0:
320,192,103070,1,0,0:0:0:0:
182,192,103070,1,0,0:0:0:0:
256,192,103370,1,4,0:0:0:0:
475,192,103370,128,2,103670:0:0:0:0:
192,192,103670,1,2,0:0:0:0:
402,192,103670,128,4,103895:0:0:0:0:
109,192,103895,1,0,0:0:0:0:
329,192,103895,128,0,104120:0:0:0:0:
36,192,104120,1,2,0:0:0:0:
256,192,104120,1,4,0:0:0:0:
182,192,104270,1,2,0:0:0:0:
448,192,104270,128,4,105320:0:0:0:0:
402,192,104270,1,0,0:0:0:0:
256,192,105320,1,0,0:0:0:0:
182,192,105395,1,0,0:0:0:0:
64,192,105470,128,4,106070:0:0:0:0:
109,192,105470,1,2,0:0:0:0:
402,192,105470,1,0,0:0:0:0:
256,192,106070,1,2,0:0:0:0:
182,192,106070,1,4,0:0:0:0:
475,192,106070,1,0,0:0:0:0:
402,192,106220,1,2,0:0:0:0:
192,192,106220,1,4,0:0:0:0:
109,192,106220,1,0,0:0:0:0:
36,192,106370,1,4,0:0:0:0:
256,192,106370,1,2,0:0:0:0:
475,192,106370,1,0,0:0:0:0:
109,192,106670,1,2,0:0:0:0:
320,192,106670,1,0,0:0:0:0:
182,192,106820,1,0,0:0:0:0:
402,192,106820,1,0,0:0:0:0:
256,192,106970,1,2,0:0:0:0:
64,192,107120,1,4,0:0:0:0:
475,192,107120,1,2,0:0:0:0:
329,192,107120,1,0,0:0:0:0:
109,192,107270,1,0,0:0:0:0:
182,192,107420,1,2,0:0:0:0:
36,192,107570,1,2,0:0:0:0:
256,192,107570,1,4,0:0:0:0:
475,192,107570,1,0,0:0:0:0:
329,192,107720,1,0,0:0:0:0:
402,192,107870,1,2,0:0:0:0:
448,192,108020,1,4,0:0:0:0:
36,192,108020,1,2,0:0:0:0:
256,192,108020,1,0,0:0:0:0:
182,192,108170,1,2,0:0:0:0:
256,192,108320,1,2,0:0:0:0:
64,192,108470,1,4,0:0:0:0:
448,192,108470,1,2,0:0:0:0:
329,192,108470,1,0,0:0:0:0:
182,192,108620,1,2,0:0:0:0:
64,192,108770,1,2,0:0:0:0:
448,192,108770,1,0,0:0:0:0:
329,192,108770,1,0,0:0:0:0:
109,192,108920,1,0,0:0:0:0:
402,192,108920,1,0,0:0:0:0:
192,192,109070,1,2,0:0:0:0:
320,192,109070,1,0,0:0:0:0:
64,192,109370,128,4,111470:0:0:0:0:
448,192,109370,128,2,111470:0:0:0:0:
256,192,109370,1,0,0:0:0:0:
256,192,110870,128,0,111470:0:0:0:0:
192,192,111470,1,2,0:0:0:0:
320,192,111470,1,4,0:0:0:0:
