osu file format v14

[General]
AudioFilename: audio.mp3
AudioLeadIn: 0
PreviewTime: 84995
Countdown: 1
SampleSet: None
StackLeniency: 0.7
Mode: 1
LetterboxInBreaks: 0
WidescreenStoryboard: 0

[Editor]
DistanceSpacing: 1.3
BeatDivisor: 4
GridSize: 32
TimelineZoom: 2.999999

[Metadata]
Title:Hesperides
TitleUnicode:Hesperides
Artist:xi
ArtistUnicode:xi
Creator:Eiuh
Version:appless
Source:CROSSxBEATS
Tags:
BeatmapID:1208106
BeatmapSetID:569921

[Difficulty]
HPDrainRate:6
CircleSize:5
OverallDifficulty:6.5
ApproachRate:10
SliderMultiplier:1.4
SliderTickRate:1

[Events]
//Background and Video events
0,0,"BG Hesperides.jpg",0,0
//Break Periods
//Storyboard Layer 0 (Background)
//Storyboard Layer 1 (Fail)
//Storyboard Layer 2 (Pass)
//Storyboard Layer 3 (Foreground)
//Storyboard Sound Samples

[TimingPoints]
1070,300,4,1,0,100,1,0
1070,-90.9090909090909,4,1,0,100,0,0
5945,-83.3333333333333,4,1,0,100,0,0
10970,-100,4,1,0,100,0,0
12770,-90.9090909090909,4,1,0,100,0,0
14270,-83.3333333333333,4,1,0,100,0,1
22820,-83.3333333333333,4,1,0,100,0,0
23870,-83.3333333333333,4,1,0,100,0,1
28745,-83.3333333333333,4,1,0,100,0,0
33470,-90.9090909090909,4,1,0,100,0,0
36320,-100,4,1,0,100,0,0
45545,-90.9090909090909,4,1,0,100,0,0
64820,-83.3333333333333,4,1,0,100,0,0
75470,-90.9090909090909,4,1,0,100,0,0
82820,-100,4,1,0,100,0,0
84470,-83.3333333333333,4,1,0,100,0,0
85070,-83.3333333333333,4,1,0,100,0,1
104270,-100,4,1,0,100,0,0
106370,-83.3333333333333,4,1,0,100,0,0

[HitObjects]
256,192,170,5,0,0:0:0:0:
256,192,470,1,8,0:0:0:0:
256,192,770,1,0,0:0:0:0:
256,192,1070,1,8,0:0:0:0:
256,192,1145,1,0,0:0:0:0:
256,192,1220,1,8,0:0:0:0:
256,192,1295,1,0,0:0:0:0:
256,192,1370,1,8,0:0:0:0:
256,192,1445,1,8,0:0:0:0:
256,192,1520,1,0,0:0:0:0:
256,192,1670,1,0,0:0:0:0:
256,192,1745,1,8,0:0:0:0:
256,192,1820,1,0,0:0:0:0:
256,192,1895,1,0,0:0:0:0:
256,192,1970,1,8,0:0:0:0:
256,192,2120,1,8,0:0:0:0:
256,192,2195,1,8,0:0:0:0:
256,192,2270,1,0,0:0:0:0:
256,192,2420,1,8,0:0:0:0:
256,192,2570,1,0,0:0:0:0:
256,192,2645,1,0,0:0:0:0:
256,192,2720,1,0,0:0:0:0:
256,192,2795,1,0,0:0:0:0:
256,192,2870,1,8,0:0:0:0:
256,192,3020,1,8,0:0:0:0:
256,192,3070,1,8,0:0:0:0:
256,192,3120,1,8,0:0:0:0:
256,192,3170,1,0,0:0:0:0:
256,192,3320,1,0,0:0:0:0:
256,192,3470,1,8,0:0:0:0:
256,192,3545,1,8,0:0:0:0:
256,192,3620,1,8,0:0:0:0:
256,192,3695,1,0,0:0:0:0:
256,192,3770,1,0,0:0:0:0:
256,192,3920,1,8,0:0:0:0:
256,192,3995,1,8,0:0:0:0:
256,192,4070,1,0,0:0:0:0:
256,192,4145,1,0,0:0:0:0:
256,192,4220,1,0,0:0:0:0:
256,192,4295,1,8,0:0:0:0:
256,192,4370,1,0,0:0:0:0:
256,192,4520,1,8,0:0:0:0:
256,192,4570,1,8,0:0:0:0:
256,192,4620,1,8,0:0:0:0:
256,192,4670,1,0,0:0:0:0:
256,192,4745,1,0,0:0:0:0:
256,192,4820,1,8,0:0:0:0:
256,192,4895,1,8,0:0:0:0:
256,192,4970,1,0,0:0:0:0:
256,192,5045,1,0,0:0:0:0:
256,192,5120,1,0,0:0:0:0:
256,192,5170,1,0,0:0:0:0:
256,192,5220,1,8,0:0:0:0:
256,192,5420,1,0,0:0:0:0:
256,192,5495,1,0,0:0:0:0:
256,192,5570,1,0,0:0:0:0:
256,192,5645,1,8,0:0:0:0:
256,192,5720,1,0,0:0:0:0:
256,192,5795,1,0,0:0:0:0:
256,192,5870,1,8,0:0:0:0:
256,192,6020,1,0,0:0:0:0:
256,192,6095,1,8,0:0:0:0:
256,192,6170,1,0,0:0:0:0:
256,192,6245,1,0,0:0:0:0:
256,192,6320,1,8,0:0:0:0:
256,192,6395,1,8,0:0:0:0:
256,192,6470,1,0,0:0:0:0:
256,192,6545,1,0,0:0:0:0:
256,192,6620,1,0,0:0:0:0:
256,192,6695,1,0,0:0:0:0:
256,192,6770,1,8,0:0:0:0:
256,192,6920,1,8,0:0:0:0:
256,192,6995,1,8,0:0:0:0:
256,192,7070,1,0,0:0:0:0:
256,192,7220,1,8,0:0:0:0:
256,192,7295,1,0,0:0:0:0:
256,192,7370,1,0,0:0:0:0:
256,192,7445,1,0,0:0:0:0:
256,192,7520,1,8,0:0:0:0:
256,192,7595,1,0,0:0:0:0:
256,192,7670,1,8,0:0:0:0:
256,192,7745,1,0,0:0:0:0:
256,192,7820,1,0,0:0:0:0:
256,192,7870,1,0,0:0:0:0:
256,192,7920,1,0,0:0:0:0:
256,192,7970,1,8,0:0:0:0:
256,192,8120,1,0,0:0:0:0:
256,192,8270,1,12,0:0:0:0:
256,192,8420,1,0,0:0:0:0:
256,192,8570,1,0,0:0:0:0:
256,192,8720,1,4,0:0:0:0:
256,192,8870,1,8,0:0:0:0:
256,192,8945,1,8,0:0:0:0:
256,192,9020,1,0,0:0:0:0:
256,192,9170,1,12,0:0:0:0:
256,192,9320,1,0,0:0:0:0:
256,192,9395,1,0,0:0:0:0:
256,192,9470,1,0,0:0:0:0:
256,192,9545,1,0,0:0:0:0:
256,192,9620,1,8,0:0:0:0:
256,192,9770,1,0,0:0:0:0:
256,192,9845,1,0,0:0:0:0:
256,192,9920,1,0,0:0:0:0:
256,192,9995,1,0,0:0:0:0:
256,192,10070,1,8,0:0:0:0:
256,192,10145,1,0,0:0:0:0:
256,192,10220,1,0,0:0:0:0:
256,192,10295,1,0,0:0:0:0:
256,192,10370,1,8,0:0:0:0:
256,192,10445,1,8,0:0:0:0:
256,192,10520,1,0,0:0:0:0:
256,192,10595,1,0,0:0:0:0:
256,192,10670,1,8,0:0:0:0:
256,192,10970,1,0,0:0:0:0:
256,192,11270,1,0,0:0:0:0:
256,192,11345,1,8,0:0:0:0:
256,192,11420,1,8,0:0:0:0:
256,192,11570,1,0,0:0:0:0:
256,192,11870,1,8,0:0:0:0:
256,192,11945,1,8,0:0:0:0:
256,192,12020,1,8,0:0:0:0:
256,192,12095,1,0,0:0:0:0:
256,192,12170,1,8,0:0:0:0:
256,192,12245,1,8,0:0:0:0:
256,192,12320,1,0,0:0:0:0:
256,192,12395,1,8,0:0:0:0:
256,192,12470,1,0,0:0:0:0:
256,192,12770,1,12,0:0:0:0:
256,192,13070,2,0,L|352:192,7,77.0000023498536
256,192,14270,1,4,0:0:0:0:
256,192,14420,1,0,0:0:0:0:
256,192,14495,1,0,0:0:0:0:
256,192,14570,1,0,0:0:0:0:
256,192,14645,1,0,0:0:0:0:
256,192,14720,1,8,0:0:0:0:
256,192,14770,1,8,0:0:0:0:
256,192,14820,1,0,0:0:0:0:
256,192,15020,1,12,0:0:0:0:
256,192,15170,1,0,0:0:0:0:
256,192,15320,1,4,0:0:0:0:
256,192,15620,1,0,0:0:0:0:
256,192,15770,1,8,0:0:0:0:
256,192,15920,1,0,0:0:0:0:
256,192,15995,1,0,0:0:0:0:
256,192,16070,1,8,0:0:0:0:
256,192,16145,1,0,0:0:0:0:
256,192,16220,1,8,0:0:0:0:
256,192,16295,1,8,0:0:0:0:
256,192,16370,1,0,0:0:0:0:
256,192,16445,1,0,0:0:0:0:
256,192,16520,1,8,0:0:0:0:
256,192,16670,1,0,0:0:0:0:
256,192,16820,1,8,0:0:0:0:
256,192,16895,1,8,0:0:0:0:
256,192,16970,1,8,0:0:0:0:
256,192,17045,1,0,0:0:0:0:
256,192,17120,1,0,0:0:0:0:
256,192,17195,1,0,0:0:0:0:
256,192,17270,1,8,0:0:0:0:
256,192,17420,1,0,0:0:0:0:
256,192,17570,1,8,0:0:0:0:
256,192,17720,1,4,0:0:0:0:
256,192,18020,1,8,0:0:0:0:
256,192,18170,1,0,0:0:0:0:
256,192,18320,1,0,0:0:0:0:
256,192,18395,1,8,0:0:0:0:
256,192,18470,1,0,0:0:0:0:
256,192,18620,1,8,0:0:0:0:
256,192,18770,1,0,0:0:0:0:
256,192,18845,1,0,0:0:0:0:
256,192,18920,1,0,0:0:0:0:
256,192,18995,1,0,0:0:0:0:
256,192,19070,1,8,0:0:0:0:
256,192,19220,1,0,0:0:0:0:
256,192,19295,1,0,0:0:0:0:
256,192,19370,1,8,0:0:0:0:
256,192,19445,1,0,0:0:0:0:
256,192,19520,1,8,0:0:0:0:
256,192,19670,1,0,0:0:0:0:
256,192,19745,1,8,0:0:0:0:
256,192,19820,1,0,0:0:0:0:
256,192,19895,1,0,0:0:0:0:
256,192,19970,1,8,0:0:0:0:
256,192,20045,1,8,0:0:0:0:
256,192,20120,1,0,0:0:0:0:
256,192,20495,1,8,0:0:0:0:
256,192,20570,1,8,0:0:0:0:
256,192,20645,1,8,0:0:0:0:
256,192,20720,1,0,0:0:0:0:
256,192,20870,1,0,0:0:0:0:
256,192,20945,1,0,0:0:0:0:
256,192,21020,1,8,0:0:0:0:
256,192,21170,1,0,0:0:0:0:
256,192,21245,1,8,0:0:0:0:
256,192,21320,1,8,0:0:0:0:
256,192,21470,1,0,0:0:0:0:
256,192,21620,1,0,0:0:0:0:
256,192,21770,1,8,0:0:0:0:
256,192,21920,1,0,0:0:0:0:
256,192,21995,1,0,0:0:0:0:
256,192,22070,1,0,0:0:0:0:
256,192,22145,1,0,0:0:0:0:
256,192,22220,1,8,0:0:0:0:
256,192,22370,1,0,0:0:0:0:
256,192,22445,1,8,0:0:0:0:
256,192,22520,1,8,0:0:0:0:
256,192,22670,1,0,0:0:0:0:
256,192,22820,1,8,0:0:0:0:
256,192,22870,1,8,0:0:0:0:
256,192,22920,1,8,0:0:0:0:
256,192,22970,1,0,0:0:0:0:
256,192,23045,1,0,0:0:0:0:
256,192,23120,1,8,0:0:0:0:
256,192,23195,1,8,0:0:0:0:
256,192,23270,1,0,0:0:0:0:
256,192,23420,1,8,0:0:0:0:
256,192,23470,1,8,0:0:0:0:
256,192,23520,1,0,0:0:0:0:
256,192,23720,1,8,0:0:0:0:
256,192,23870,1,4,0:0:0:0:
256,192,24020,1,0,0:0:0:0:
256,192,24095,1,0,0:0:0:0:
256,192,24170,1,0,0:0:0:0:
256,192,24245,1,0,0:0:0:0:
256,192,24320,1,8,0:0:0:0:
256,192,24370,1,8,0:0:0:0:
256,192,24420,1,0,0:0:0:0:
256,192,24620,1,12,0:0:0:0:
256,192,24770,1,0,0:0:0:0:
256,192,24920,1,4,0:0:0:0:
256,192,25220,1,0,0:0:0:0:
256,192,25370,1,8,0:0:0:0:
256,192,25520,1,0,0:0:0:0:
256,192,25595,1,0,0:0:0:0:
256,192,25670,1,8,0:0:0:0:
256,192,25745,1,0,0:0:0:0:
256,192,25820,1,8,0:0:0:0:
256,192,25895,1,8,0:0:0:0:
256,192,25970,1,0,0:0:0:0:
256,192,26045,1,0,0:0:0:0:
256,192,26120,1,8,0:0:0:0:
256,192,26270,1,0,0:0:0:0:
256,192,26420,1,8,0:0:0:0:
256,192,26495,1,8,0:0:0:0:
256,192,26570,1,8,0:0:0:0:
256,192,26645,1,0,0:0:0:0:
256,192,26720,1,0,0:0:0:0:
256,192,26795,1,0,0:0:0:0:
256,192,26870,1,8,0:0:0:0:
256,192,27020,1,0,0:0:0:0:
256,192,27170,1,8,0:0:0:0:
256,192,27320,1,4,0:0:0:0:
256,192,27620,1,8,0:0:0:0:
256,192,27770,1,0,0:0:0:0:
256,192,27920,1,0,0:0:0:0:
256,192,27995,1,8,0:0:0:0:
256,192,28070,1,0,0:0:0:0:
256,192,28220,1,8,0:0:0:0:
256,192,28370,1,0,0:0:0:0:
256,192,28520,1,0,0:0:0:0:
256,192,28670,1,8,0:0:0:0:
256,192,28895,1,0,0:0:0:0:
256,192,28970,1,8,0:0:0:0:
256,192,29045,1,0,0:0:0:0:
256,192,29120,1,0,0:0:0:0:
256,192,29195,1,8,0:0:0:0:
256,192,29270,1,8,0:0:0:0:
256,192,29345,1,0,0:0:0:0:
256,192,29420,1,8,0:0:0:0:
256,192,29495,1,8,0:0:0:0:
256,192,29570,1,0,0:0:0:0:
256,192,29645,1,0,0:0:0:0:
256,192,29720,1,8,0:0:0:0:
256,192,30020,1,0,0:0:0:0:
256,192,30070,1,0,0:0:0:0:
256,192,30120,1,0,0:0:0:0:
256,192,30170,1,8,0:0:0:0:
256,192,30320,1,0,0:0:0:0:
256,192,30470,1,12,0:0:0:0:
256,192,30670,1,4,0:0:0:0:
256,192,30870,1,4,0:0:0:0:
256,192,31370,1,12,0:0:0:0:
256,192,31520,1,0,0:0:0:0:
256,192,31595,1,0,0:0:0:0:
256,192,31670,1,8,0:0:0:0:
256,192,31745,1,0,0:0:0:0:
256,192,31820,1,0,0:0:0:0:
256,192,31895,1,0,0:0:0:0:
256,192,31970,1,8,0:0:0:0:
256,192,32045,1,0,0:0:0:0:
256,192,32120,1,0,0:0:0:0:
256,192,32270,1,8,0:0:0:0:
256,192,32345,1,8,0:0:0:0:
256,192,32420,1,0,0:0:0:0:
256,192,32495,1,0,0:0:0:0:
256,192,32570,1,8,0:0:0:0:
256,192,32645,1,0,0:0:0:0:
256,192,32720,1,0,0:0:0:0:
256,192,32795,1,0,0:0:0:0:
256,192,32870,1,8,0:0:0:0:
256,192,32945,1,0,0:0:0:0:
256,192,33020,1,0,0:0:0:0:
256,192,33095,1,8,0:0:0:0:
256,192,33170,1,8,0:0:0:0:
256,192,33245,1,0,0:0:0:0:
256,192,33320,1,8,0:0:0:0:
256,192,33470,1,4,0:0:0:0:
256,192,34070,1,0,0:0:0:0:
256,192,34520,1,8,0:0:0:0:
256,192,34595,1,8,0:0:0:0:
256,192,34670,1,0,0:0:0:0:
256,192,35120,1,0,0:0:0:0:
256,192,35270,1,12,0:0:0:0:
256,192,35420,1,12,0:0:0:0:
256,192,35870,1,4,0:0:0:0:
256,192,36320,1,0,0:0:0:0:
256,192,36545,1,8,0:0:0:0:
256,192,36620,1,8,0:0:0:0:
256,192,36845,1,8,0:0:0:0:
256,192,36920,1,0,0:0:0:0:
256,192,37220,1,0,0:0:0:0:
256,192,37370,1,8,0:0:0:0:
256,192,37595,1,8,0:0:0:0:
256,192,37670,1,0,0:0:0:0:
256,192,37820,1,0,0:0:0:0:
256,192,37895,1,8,0:0:0:0:
256,192,37970,1,0,0:0:0:0:
256,192,38120,1,0,0:0:0:0:
256,192,38420,1,8,0:0:0:0:
256,192,38645,1,0,0:0:0:0:
256,192,38720,1,8,0:0:0:0:
256,192,39020,1,0,0:0:0:0:
256,192,39170,1,0,0:0:0:0:
256,192,39395,1,0,0:0:0:0:
256,192,39545,1,0,0:0:0:0:
256,192,39620,1,8,0:0:0:0:
256,192,39770,1,8,0:0:0:0:
256,192,39920,1,0,0:0:0:0:
256,192,40070,1,8,0:0:0:0:
256,192,40220,1,8,0:0:0:0:
256,192,40295,1,8,0:0:0:0:
256,192,40370,1,0,0:0:0:0:
256,192,40520,1,0,0:0:0:0:
256,192,40595,1,0,0:0:0:0:
256,192,40670,1,8,0:0:0:0:
256,192,40820,1,0,0:0:0:0:
256,192,40970,1,0,0:0:0:0:
256,192,41120,1,0,0:0:0:0:
256,192,41270,1,8,0:0:0:0:
256,192,41420,1,0,0:0:0:0:
256,192,41570,1,0,0:0:0:0:
256,192,41720,1,0,0:0:0:0:
256,192,41870,1,12,0:0:0:0:
256,192,42020,1,0,0:0:0:0:
256,192,42170,1,0,0:0:0:0:
256,192,42320,1,0,0:0:0:0:
256,192,42470,1,8,0:0:0:0:
256,192,42620,1,0,0:0:0:0:
256,192,42770,1,0,0:0:0:0:
256,192,42920,1,8,0:0:0:0:
256,192,43070,1,12,0:0:0:0:
256,192,43220,1,0,0:0:0:0:
256,192,43370,1,0,0:0:0:0:
256,192,43520,1,8,0:0:0:0:
256,192,43670,1,12,0:0:0:0:
256,192,43820,1,0,0:0:0:0:
256,192,43970,1,0,0:0:0:0:
256,192,44120,1,0,0:0:0:0:
256,192,44195,1,0,0:0:0:0:
256,192,44270,1,8,0:0:0:0:
256,192,44420,1,0,0:0:0:0:
256,192,44570,1,8,0:0:0:0:
256,192,44720,1,0,0:0:0:0:
256,192,44870,1,8,0:0:0:0:
256,192,45020,1,0,0:0:0:0:
256,192,45070,1,0,0:0:0:0:
256,192,45120,1,0,0:0:0:0:
256,192,45170,1,8,0:0:0:0:
256,192,45245,1,8,0:0:0:0:
256,192,45320,1,8,0:0:0:0:
256,192,45395,1,0,0:0:0:0:
256,192,45470,1,8,0:0:0:0:
256,192,45620,1,0,0:0:0:0:
256,192,45695,1,0,0:0:0:0:
256,192,45770,1,0,0:0:0:0:
256,192,45920,1,8,0:0:0:0:
256,192,46070,1,0,0:0:0:0:
256,192,46145,1,0,0:0:0:0:
256,192,46220,1,8,0:0:0:0:
256,192,46370,1,0,0:0:0:0:
256,192,46445,1,8,0:0:0:0:
256,192,46520,1,8,0:0:0:0:
256,192,46595,1,8,0:0:0:0:
256,192,46670,1,0,0:0:0:0:
256,192,46820,1,8,0:0:0:0:
256,192,46895,1,0,0:0:0:0:
256,192,46970,1,8,0:0:0:0:
256,192,47045,1,8,0:0:0:0:
256,192,47120,1,0,0:0:0:0:
256,192,47195,1,0,0:0:0:0:
256,192,47270,1,8,0:0:0:0:
256,192,47420,1,0,0:0:0:0:
256,192,47495,1,8,0:0:0:0:
256,192,47570,1,0,0:0:0:0:
256,192,47645,1,0,0:0:0:0:
256,192,47720,1,8,0:0:0:0:
256,192,47870,1,0,0:0:0:0:
256,192,48020,1,8,0:0:0:0:
256,192,48095,1,0,0:0:0:0:
256,192,48170,1,8,0:0:0:0:
256,192,48320,1,8,0:0:0:0:
256,192,48470,1,0,0:0:0:0:
256,192,48620,1,8,0:0:0:0:
256,192,48695,1,8,0:0:0:0:
256,192,48770,1,0,0:0:0:0:
256,192,48920,1,0,0:0:0:0:
256,192,49070,1,0,0:0:0:0:
256,192,49220,1,8,0:0:0:0:
256,192,49295,1,0,0:0:0:0:
256,192,49370,1,8,0:0:0:0:
256,192,49445,1,0,0:0:0:0:
256,192,49520,1,0,0:0:0:0:
256,192,49595,1,0,0:0:0:0:
256,192,49670,1,8,0:0:0:0:
256,192,49820,1,0,0:0:0:0:
256,192,49895,1,8,0:0:0:0:
256,192,49970,1,0,0:0:0:0:
256,192,50045,1,0,0:0:0:0:
256,192,50120,1,0,0:0:0:0:
256,192,50270,1,8,0:0:0:0:
256,192,50420,1,0,0:0:0:0:
256,192,50495,1,8,0:0:0:0:
256,192,50570,1,0,0:0:0:0:
256,192,50645,1,0,0:0:0:0:
256,192,50720,1,8,0:0:0:0:
256,192,50795,1,0,0:0:0:0:
256,192,50870,1,8,0:0:0:0:
256,192,51020,1,8,0:0:0:0:
256,192,51095,1,0,0:0:0:0:
256,192,51170,1,8,0:0:0:0:
256,192,51245,1,0,0:0:0:0:
256,192,51320,1,8,0:0:0:0:
256,192,51395,1,8,0:0:0:0:
256,192,51470,1,0,0:0:0:0:
256,192,51620,1,0,0:0:0:0:
256,192,51695,1,8,0:0:0:0:
256,192,51770,1,0,0:0:0:0:
256,192,51845,1,0,0:0:0:0:
256,192,51920,1,8,0:0:0:0:
256,192,51995,1,8,0:0:0:0:
256,192,52070,1,0,0:0:0:0:
256,192,52145,1,0,0:0:0:0:
256,192,52220,1,8,0:0:0:0:
256,192,52295,1,0,0:0:0:0:
256,192,52370,1,8,0:0:0:0:
256,192,52445,1,8,0:0:0:0:
256,192,52520,1,0,0:0:0:0:
256,192,52670,1,4,0:0:0:0:
256,192,52820,1,4,0:0:0:0:
256,192,53120,1,4,0:0:0:0:
256,192,53270,1,4,0:0:0:0:
256,192,53570,1,4,0:0:0:0:
256,192,53720,1,12,0:0:0:0:
256,192,54020,1,4,0:0:0:0:
256,192,54170,1,12,0:0:0:0:
256,192,54470,1,12,0:0:0:0:
256,192,54620,1,0,0:0:0:0:
256,192,54670,1,8,0:0:0:0:
256,192,54720,1,8,0:0:0:0:
256,192,54770,1,0,0:0:0:0:
256,192,54920,1,8,0:0:0:0:
256,192,55070,1,0,0:0:0:0:
256,192,56270,1,8,0:0:0:0:
256,192,56870,1,0,0:0:0:0:
256,192,57170,1,0,0:0:0:0:
256,192,57470,1,8,0:0:0:0:
256,192,57770,1,8,0:0:0:0:
256,192,57920,1,8,0:0:0:0:
256,192,58070,1,0,0:0:0:0:
256,192,58370,1,0,0:0:0:0:
256,192,58520,1,8,0:0:0:0:
256,192,58595,1,0,0:0:0:0:
256,192,58670,1,0,0:0:0:0:
256,192,58970,1,0,0:0:0:0:
256,192,59270,1,8,0:0:0:0:
256,192,59570,1,0,0:0:0:0:
256,192,59870,1,8,0:0:0:0:
256,192,59945,1,0,0:0:0:0:
256,192,60020,1,8,0:0:0:0:
256,192,60095,1,8,0:0:0:0:
256,192,60170,1,0,0:0:0:0:
256,192,60320,1,0,0:0:0:0:
256,192,60470,1,8,0:0:0:0:
256,192,60545,1,8,0:0:0:0:
256,192,60620,1,8,0:0:0:0:
256,192,60695,1,8,0:0:0:0:
256,192,60770,1,0,0:0:0:0:
256,192,60845,1,0,0:0:0:0:
256,192,60920,1,8,0:0:0:0:
256,192,61070,1,0,0:0:0:0:
256,192,61145,1,8,0:0:0:0:
256,192,61220,1,0,0:0:0:0:
256,192,61295,1,0,0:0:0:0:
256,192,61370,1,8,0:0:0:0:
256,192,61445,1,0,0:0:0:0:
256,192,61520,1,0,0:0:0:0:
256,192,61595,1,0,0:0:0:0:
256,192,61670,1,8,0:0:0:0:
256,192,61820,1,0,0:0:0:0:
256,192,61895,1,0,0:0:0:0:
256,192,61970,1,8,0:0:0:0:
256,192,62120,1,0,0:0:0:0:
256,192,62270,1,8,0:0:0:0:
256,192,62345,1,0,0:0:0:0:
256,192,62420,1,0,0:0:0:0:
256,192,62495,1,0,0:0:0:0:
256,192,62570,1,0,0:0:0:0:
256,192,62645,1,0,0:0:0:0:
256,192,62720,1,0,0:0:0:0:
256,192,62795,1,0,0:0:0:0:
256,192,62870,1,8,0:0:0:0:
256,192,62945,1,0,0:0:0:0:
256,192,63020,1,0,0:0:0:0:
256,192,63095,1,0,0:0:0:0:
256,192,63170,1,0,0:0:0:0:
256,192,63245,1,0,0:0:0:0:
256,192,63320,1,0,0:0:0:0:
256,192,63395,1,0,0:0:0:0:
256,192,63470,1,8,0:0:0:0:
256,192,63545,1,0,0:0:0:0:
256,192,63620,1,0,0:0:0:0:
256,192,63695,1,0,0:0:0:0:
256,192,63770,1,8,0:0:0:0:
256,192,63845,1,0,0:0:0:0:
256,192,63920,1,0,0:0:0:0:
256,192,64070,1,8,0:0:0:0:
256,192,64145,1,0,0:0:0:0:
256,192,64295,1,0,0:0:0:0:
256,192,64370,1,8,0:0:0:0:
256,192,64520,1,0,0:0:0:0:
256,192,64595,1,0,0:0:0:0:
256,192,64670,1,8,0:0:0:0:
256,192,64820,1,0,0:0:0:0:
256,192,64895,1,0,0:0:0:0:
256,192,64970,1,8,0:0:0:0:
256,192,65045,1,8,0:0:0:0:
256,192,65120,1,0,0:0:0:0:
256,192,65195,1,0,0:0:0:0:
256,192,65270,1,8,0:0:0:0:
256,192,65345,1,0,0:0:0:0:
256,192,65420,1,0,0:0:0:0:
256,192,65495,1,0,0:0:0:0:
256,192,65570,1,8,0:0:0:0:
256,192,65645,1,0,0:0:0:0:
256,192,65720,1,8,0:0:0:0:
256,192,65795,1,8,0:0:0:0:
256,192,65870,1,8,0:0:0:0:
256,192,65945,1,0,0:0:0:0:
256,192,66020,1,0,0:0:0:0:
256,192,66095,1,0,0:0:0:0:
256,192,66170,1,8,0:0:0:0:
256,192,66245,1,8,0:0:0:0:
256,192,66320,1,0,0:0:0:0:
256,192,66395,1,0,0:0:0:0:
256,192,66470,1,8,0:0:0:0:
256,192,66545,1,0,0:0:0:0:
256,192,66620,1,8,0:0:0:0:
256,192,66695,1,8,0:0:0:0:
256,192,66770,1,0,0:0:0:0:
256,192,66845,1,8,0:0:0:0:
256,192,66920,1,0,0:0:0:0:
256,192,66995,1,0,0:0:0:0:
256,192,67070,1,8,0:0:0:0:
256,192,67145,1,0,0:0:0:0:
256,192,67220,1,0,0:0:0:0:
256,192,67295,1,8,0:0:0:0:
256,192,67370,1,0,0:0:0:0:
256,192,67445,1,0,0:0:0:0:
256,192,67520,1,8,0:0:0:0:
256,192,67595,1,0,0:0:0:0:
256,192,67670,1,8,0:0:0:0:
256,192,67745,1,8,0:0:0:0:
256,192,67820,1,0,0:0:0:0:
256,192,67895,1,8,0:0:0:0:
256,192,67970,1,8,0:0:0:0:
256,192,68045,1,0,0:0:0:0:
256,192,68120,1,8,0:0:0:0:
256,192,68195,1,8,0:0:0:0:
256,192,68270,1,8,0:0:0:0:
256,192,68345,1,0,0:0:0:0:
256,192,68420,1,8,0:0:0:0:
256,192,68495,1,0,0:0:0:0:
256,192,68570,1,8,0:0:0:0:
256,192,68645,1,8,0:0:0:0:
256,192,68720,1,0,0:0:0:0:
256,192,68795,1,8,0:0:0:0:
256,192,68870,1,0,0:0:0:0:
256,192,69020,1,8,0:0:0:0:
256,192,69070,1,8,0:0:0:0:
256,192,69120,1,8,0:0:0:0:
256,192,69170,1,0,0:0:0:0:
256,192,69320,1,0,0:0:0:0:
256,192,69470,1,12,0:0:0:0:
256,192,69620,1,0,0:0:0:0:
256,192,69695,1,0,0:0:0:0:
256,192,69770,1,8,0:0:0:0:
256,192,69920,1,8,0:0:0:0:
256,192,70070,1,0,0:0:0:0:
256,192,70220,1,8,0:0:0:0:
256,192,70295,1,8,0:0:0:0:
256,192,70370,1,0,0:0:0:0:
256,192,70520,1,0,0:0:0:0:
256,192,70670,1,8,0:0:0:0:
256,192,70820,1,0,0:0:0:0:
256,192,70895,1,0,0:0:0:0:
256,192,70970,1,8,0:0:0:0:
256,192,71045,1,0,0:0:0:0:
256,192,71120,1,0,0:0:0:0:
256,192,71195,1,8,0:0:0:0:
256,192,71270,1,0,0:0:0:0:
256,192,71420,1,8,0:0:0:0:
256,192,71495,1,0,0:0:0:0:
256,192,71570,1,8,0:0:0:0:
256,192,71720,1,0,0:0:0:0:
256,192,71870,1,8,0:0:0:0:
256,192,71945,1,0,0:0:0:0:
256,192,72020,1,0,0:0:0:0:
256,192,72095,1,0,0:0:0:0:
256,192,72170,1,0,0:0:0:0:
256,192,72245,1,0,0:0:0:0:
256,192,72320,1,8,0:0:0:0:
256,192,72395,1,0,0:0:0:0:
256,192,72470,1,8,0:0:0:0:
256,192,72545,1,0,0:0:0:0:
256,192,72620,1,0,0:0:0:0:
256,192,72695,1,0,0:0:0:0:
256,192,72770,1,0,0:0:0:0:
256,192,72845,1,0,0:0:0:0:
256,192,72920,1,8,0:0:0:0:
256,192,72995,1,8,0:0:0:0:
256,192,73070,1,8,0:0:0:0:
256,192,73145,1,0,0:0:0:0:
256,192,73220,1,0,0:0:0:0:
256,192,73295,1,0,0:0:0:0:
256,192,73370,1,0,0:0:0:0:
256,192,73445,1,8,0:0:0:0:
256,192,73520,1,0,0:0:0:0:
256,192,73670,1,8,0:0:0:0:
256,192,73720,1,8,0:0:0:0:
256,192,73770,1,8,0:0:0:0:
256,192,73870,1,8,0:0:0:0:
256,192,73920,1,8,0:0:0:0:
256,192,73970,1,8,0:0:0:0:
256,192,74070,1,8,0:0:0:0:
256,192,74120,1,8,0:0:0:0:
256,192,74170,1,0,0:0:0:0:
256,192,74270,1,8,0:0:0:0:
256,192,74345,1,8,0:0:0:0:
256,192,74420,1,0,0:0:0:0:
256,192,74495,1,0,0:0:0:0:
256,192,74570,1,8,0:0:0:0:
256,192,74645,1,0,0:0:0:0:
256,192,74720,1,8,0:0:0:0:
256,192,74795,1,8,0:0:0:0:
256,192,74870,1,0,0:0:0:0:
256,192,74945,1,0,0:0:0:0:
256,192,75020,1,8,0:0:0:0:
256,192,75070,1,0,0:0:0:0:
256,192,75120,1,8,0:0:0:0:
256,192,75170,1,0,0:0:0:0:
256,192,75470,1,4,0:0:0:0:
256,192,75620,1,4,0:0:0:0:
256,192,75770,1,8,0:0:0:0:
256,192,75845,1,0,0:0:0:0:
256,192,75920,1,8,0:0:0:0:
256,192,75995,1,8,0:0:0:0:
256,192,76070,1,0,0:0:0:0:
256,192,76145,1,0,0:0:0:0:
256,192,76220,1,0,0:0:0:0:
256,192,76370,1,4,0:0:0:0:
256,192,76520,1,4,0:0:0:0:
256,192,76670,1,0,0:0:0:0:
256,192,76745,1,8,0:0:0:0:
256,192,76820,1,0,0:0:0:0:
256,192,76895,1,0,0:0:0:0:
256,192,76970,1,8,0:0:0:0:
256,192,77045,1,0,0:0:0:0:
256,192,77120,1,8,0:0:0:0:
256,192,77195,1,8,0:0:0:0:
256,192,77270,1,8,0:0:0:0:
256,192,77345,1,8,0:0:0:0:
256,192,77420,1,0,0:0:0:0:
256,192,77495,1,0,0:0:0:0:
256,192,77570,1,8,0:0:0:0:
256,192,77645,1,0,0:0:0:0:
256,192,77720,1,8,0:0:0:0:
256,192,77870,1,4,0:0:0:0:
256,192,78020,1,4,0:0:0:0:
256,192,78170,1,0,0:0:0:0:
256,192,78245,1,8,0:0:0:0:
256,192,78320,1,8,0:0:0:0:
256,192,78395,1,0,0:0:0:0:
256,192,78470,1,8,0:0:0:0:
256,192,78545,1,8,0:0:0:0:
256,192,78620,1,0,0:0:0:0:
256,192,78770,1,4,0:0:0:0:
256,192,78920,1,4,0:0:0:0:
256,192,79070,1,0,0:0:0:0:
256,192,79145,1,8,0:0:0:0:
256,192,79220,1,0,0:0:0:0:
256,192,79295,1,0,0:0:0:0:
256,192,79370,1,8,0:0:0:0:
256,192,79445,1,0,0:0:0:0:
256,192,79520,6,0,L|352:192,4,70
256,192,80270,1,4,0:0:0:0:
256,192,80420,1,4,0:0:0:0:
256,192,80570,1,8,0:0:0:0:
256,192,80645,1,0,0:0:0:0:
256,192,80720,1,0,0:0:0:0:
256,192,80870,1,4,0:0:0:0:
256,192,81020,1,4,0:0:0:0:
256,192,81170,1,8,0:0:0:0:
256,192,81245,1,0,0:0:0:0:
256,192,81320,1,8,0:0:0:0:
256,192,81470,1,4,0:0:0:0:
256,192,81695,1,4,0:0:0:0:
256,192,81920,1,12,0:0:0:0:
256,192,82145,1,4,0:0:0:0:
256,192,82370,1,8,0:0:0:0:
256,192,82445,1,8,0:0:0:0:
256,192,82520,1,0,0:0:0:0:
256,192,82595,1,8,0:0:0:0:
256,192,82670,1,0,0:0:0:0:
256,192,82820,1,8,0:0:0:0:
256,192,82895,1,0,0:0:0:0:
256,192,82970,1,8,0:0:0:0:
256,192,83045,1,8,0:0:0:0:
256,192,83120,1,8,0:0:0:0:
256,192,83195,1,0,0:0:0:0:
256,192,83270,1,8,0:0:0:0:
256,192,83345,1,8,0:0:0:0:
256,192,83420,1,8,0:0:0:0:
256,192,83495,1,8,0:0:0:0:
256,192,83570,1,0,0:0:0:0:
256,192,83645,1,0,0:0:0:0:
256,192,83720,1,8,0:0:0:0:
256,192,83870,1,0,0:0:0:0:
256,192,83945,1,8,0:0:0:0:
256,192,84020,1,8,0:0:0:0:
256,192,84095,1,0,0:0:0:0:
256,192,84170,1,8,0:0:0:0:
256,192,84245,1,0,0:0:0:0:
256,192,84320,1,0,0:0:0:0:
256,192,84470,1,8,0:0:0:0:
256,192,84520,1,0,0:0:0:0:
256,192,84570,1,0,0:0:0:0:
256,192,84620,1,0,0:0:0:0:
256,192,84670,1,0,0:0:0:0:
256,192,84720,1,0,0:0:0:0:
256,192,84770,1,8,0:0:0:0:
256,192,84920,1,0,0:0:0:0:
256,192,85070,1,12,0:0:0:0:
256,192,85220,1,0,0:0:0:0:
256,192,85295,1,0,0:0:0:0:
256,192,85370,1,0,0:0:0:0:
256,192,85445,1,0,0:0:0:0:
256,192,85520,1,8,0:0:0:0:
256,192,85570,1,8,0:0:0:0:
256,192,85620,1,0,0:0:0:0:
256,192,85820,1,12,0:0:0:0:
256,192,85970,1,0,0:0:0:0:
256,192,86120,1,4,0:0:0:0:
256,192,86420,1,0,0:0:0:0:
256,192,86570,1,8,0:0:0:0:
256,192,86720,1,0,0:0:0:0:
256,192,86795,1,0,0:0:0:0:
256,192,86870,1,8,0:0:0:0:
256,192,86945,1,0,0:0:0:0:
256,192,87020,1,8,0:0:0:0:
256,192,87095,1,8,0:0:0:0:
256,192,87170,1,0,0:0:0:0:
256,192,87245,1,0,0:0:0:0:
256,192,87320,1,8,0:0:0:0:
256,192,87470,1,0,0:0:0:0:
256,192,87620,1,8,0:0:0:0:
256,192,87695,1,8,0:0:0:0:
256,192,87770,1,8,0:0:0:0:
256,192,87845,1,0,0:0:0:0:
256,192,87920,1,0,0:0:0:0:
256,192,87995,1,0,0:0:0:0:
256,192,88070,1,8,0:0:0:0:
256,192,88220,1,0,0:0:0:0:
256,192,88370,1,8,0:0:0:0:
256,192,88520,1,4,0:0:0:0:
256,192,88820,1,8,0:0:0:0:
256,192,88970,1,0,0:0:0:0:
256,192,89120,1,0,0:0:0:0:
256,192,89195,1,8,0:0:0:0:
256,192,89270,1,0,0:0:0:0:
256,192,89420,1,8,0:0:0:0:
256,192,89570,1,0,0:0:0:0:
256,192,89645,1,0,0:0:0:0:
256,192,89720,1,0,0:0:0:0:
256,192,89795,1,0,0:0:0:0:
256,192,89870,1,8,0:0:0:0:
256,192,90020,1,0,0:0:0:0:
256,192,90095,1,0,0:0:0:0:
256,192,90170,1,8,0:0:0:0:
256,192,90245,1,0,0:0:0:0:
256,192,90320,1,8,0:0:0:0:
256,192,90470,1,0,0:0:0:0:
256,192,90545,1,8,0:0:0:0:
256,192,90620,1,0,0:0:0:0:
256,192,90695,1,0,0:0:0:0:
256,192,90770,1,8,0:0:0:0:
256,192,90845,1,8,0:0:0:0:
256,192,90920,1,0,0:0:0:0:
256,192,91295,1,8,0:0:0:0:
256,192,91370,1,8,0:0:0:0:
256,192,91445,1,8,0:0:0:0:
256,192,91520,1,0,0:0:0:0:
256,192,91670,1,0,0:0:0:0:
256,192,91745,1,0,0:0:0:0:
256,192,91820,1,8,0:0:0:0:
256,192,91970,1,0,0:0:0:0:
256,192,92045,1,8,0:0:0:0:
256,192,92120,1,8,0:0:0:0:
256,192,92270,1,0,0:0:0:0:
256,192,92420,1,0,0:0:0:0:
256,192,92570,1,8,0:0:0:0:
256,192,92720,1,0,0:0:0:0:
256,192,92795,1,0,0:0:0:0:
256,192,92870,1,0,0:0:0:0:
256,192,92945,1,0,0:0:0:0:
256,192,93020,1,8,0:0:0:0:
256,192,93170,1,0,0:0:0:0:
256,192,93245,1,8,0:0:0:0:
256,192,93320,1,8,0:0:0:0:
256,192,93470,1,0,0:0:0:0:
256,192,93620,1,8,0:0:0:0:
256,192,93670,1,8,0:0:0:0:
256,192,93720,1,8,0:0:0:0:
256,192,93770,1,0,0:0:0:0:
256,192,93845,1,0,0:0:0:0:
256,192,93920,1,8,0:0:0:0:
256,192,93995,1,8,0:0:0:0:
256,192,94070,1,0,0:0:0:0:
256,192,94220,1,8,0:0:0:0:
256,192,94270,1,8,0:0:0:0:
256,192,94320,1,0,0:0:0:0:
256,192,94520,1,0,0:0:0:0:
256,192,94670,1,12,0:0:0:0:
256,192,94820,1,0,0:0:0:0:
256,192,94895,1,0,0:0:0:0:
256,192,94970,1,0,0:0:0:0:
256,192,95045,1,0,0:0:0:0:
256,192,95120,1,8,0:0:0:0:
256,192,95170,1,8,0:0:0:0:
256,192,95220,1,0,0:0:0:0:
256,192,95420,1,12,0:0:0:0:
256,192,95570,1,0,0:0:0:0:
256,192,95720,1,4,0:0:0:0:
256,192,96020,1,0,0:0:0:0:
256,192,96170,1,8,0:0:0:0:
256,192,96320,1,0,0:0:0:0:
256,192,96395,1,0,0:0:0:0:
256,192,96470,1,8,0:0:0:0:
256,192,96545,1,0,0:0:0:0:
256,192,96620,1,8,0:0:0:0:
256,192,96695,1,8,0:0:0:0:
256,192,96770,1,0,0:0:0:0:
256,192,96845,1,0,0:0:0:0:
256,192,96920,1,8,0:0:0:0:
256,192,97070,1,0,0:0:0:0:
256,192,97220,1,8,0:0:0:0:
256,192,97295,1,8,0:0:0:0:
256,192,97370,1,8,0:0:0:0:
256,192,97445,1,0,0:0:0:0:
256,192,97520,1,0,0:0:0:0:
256,192,97595,1,0,0:0:0:0:
256,192,97670,1,8,0:0:0:0:
256,192,97820,1,0,0:0:0:0:
256,192,97970,1,8,0:0:0:0:
256,192,98120,1,4,0:0:0:0:
256,192,98420,1,8,0:0:0:0:
256,192,98570,1,0,0:0:0:0:
256,192,98720,1,0,0:0:0:0:
256,192,98795,1,8,0:0:0:0:
256,192,98870,1,0,0:0:0:0:
256,192,99020,1,8,0:0:0:0:
256,192,99170,1,0,0:0:0:0:
256,192,99320,1,0,0:0:0:0:
256,192,99470,1,8,0:0:0:0:
256,192,99695,1,0,0:0:0:0:
256,192,99770,1,8,0:0:0:0:
256,192,99845,1,0,0:0:0:0:
256,192,99920,1,0,0:0:0:0:
256,192,99995,1,8,0:0:0:0:
256,192,100070,1,8,0:0:0:0:
256,192,100145,1,0,0:0:0:0:
256,192,100220,1,8,0:0:0:0:
256,192,100295,1,8,0:0:0:0:
256,192,100370,1,0,0:0:0:0:
256,192,100445,1,0,0:0:0:0:
256,192,100520,1,8,0:0:0:0:
256,192,100820,1,0,0:0:0:0:
256,192,100870,1,0,0:0:0:0:
256,192,100920,1,0,0:0:0:0:
256,192,100970,1,8,0:0:0:0:
256,192,101120,1,0,0:0:0:0:
256,192,101270,1,12,0:0:0:0:
256,192,101470,1,4,0:0:0:0:
256,192,101670,1,4,0:0:0:0:
256,192,102170,1,12,0:0:0:0:
256,192,102320,1,0,0:0:0:0:
256,192,102395,1,0,0:0:0:0:
256,192,102470,1,8,0:0:0:0:
256,192,102545,1,0,0:0:0:0:
256,192,102620,1,0,0:0:0:0:
256,192,102695,1,0,0:0:0:0:
256,192,102770,1,8,0:0:0:0:
256,192,102845,1,0,0:0:0:0:
256,192,102920,1,0,0:0:0:0:
256,192,103070,1,8,0:0:0:0:
256,192,103145,1,8,0:0:0:0:
256,192,103220,1,0,0:0:0:0:
256,192,103295,1,0,0:0:0:0:
256,192,103370,1,8,0:0:0:0:
256,192,103445,1,0,0:0:0:0:
256,192,103520,1,0,0:0:0:0:
256,192,103595,1,0,0:0:0:0:
256,192,103670,1,8,0:0:0:0:
256,192,103745,1,0,0:0:0:0:
256,192,103820,1,0,0:0:0:0:
256,192,103895,1,8,0:0:0:0:
256,192,103970,1,8,0:0:0:0:
256,192,104045,1,0,0:0:0:0:
256,192,104120,1,8,0:0:0:0:
256,192,104270,1,4,0:0:0:0:
256,192,104870,1,0,0:0:0:0:
256,192,105320,1,8,0:0:0:0:
256,192,105395,1,8,0:0:0:0:
256,192,105470,1,0,0:0:0:0:
256,192,105920,1,0,0:0:0:0:
256,192,106070,1,4,0:0:0:0:
256,192,106220,1,12,0:0:0:0:
256,192,106370,1,0,0:0:0:0:
256,192,106445,1,0,0:0:0:0:
256,192,106520,1,0,0:0:0:0:
256,192,106595,1,0,0:0:0:0:
256,192,106670,1,8,0:0:0:0:
256,192,106720,1,8,0:0:0:0:
256,192,106770,1,0,0:0:0:0:
256,192,106820,1,8,0:0:0:0:
256,192,106970,1,0,0:0:0:0:
256,192,107120,1,8,0:0:0:0:
256,192,107170,1,8,0:0:0:0:
256,192,107220,1,8,0:0:0:0:
256,192,107270,1,0,0:0:0:0:
256,192,107420,1,8,0:0:0:0:
256,192,107570,1,0,0:0:0:0:
256,192,107620,1,8,0:0:0:0:
256,192,107670,1,0,0:0:0:0:
256,192,107720,1,8,0:0:0:0:
256,192,107870,1,0,0:0:0:0:
256,192,108020,1,8,0:0:0:0:
256,192,108070,1,0,0:0:0:0:
256,192,108120,1,8,0:0:0:0:
256,192,108170,1,0,0:0:0:0:
256,192,108320,1,0,0:0:0:0:
256,192,108470,1,8,0:0:0:0:
256,192,108520,1,8,0:0:0:0:
256,192,108570,1,0,0:0:0:0:
256,192,108620,1,0,0:0:0:0:
256,192,108670,1,0,0:0:0:0:
256,192,108720,1,0,0:0:0:0:
256,192,108770,1,8,0:0:0:0:
256,192,108920,1,0,0:0:0:0:
256,192,109070,1,0,0:0:0:0:
256,192,109370,1,12,0:0:0:0:
256,192,109445,12,0,110720,0:0:0:0:
256,192,110870,5,8,0:0:0:0:
256,192,110920,1,0,0:0:0:0:
256,192,110970,1,8,0:0:0:0:
256,192,111020,1,8,0:0:0:0:
256,192,111070,1,0,0:0:0:0:
256,192,111120,1,0,0:0:0:0:
256,192,111170,1,0,0:0:0:0:
256,192,111470,1,4,0:0:0:0:
