osu file format v14

[General]
AudioFilename: audio.mp3
AudioLeadIn: 0
PreviewTime: 182581
Countdown: 1
SampleSet: Normal
StackLeniency: 0.3
Mode: 0
LetterboxInBreaks: 0
WidescreenStoryboard: 0

[Editor]
Bookmarks: 121655,321844
DistanceSpacing: 1
BeatDivisor: 4
GridSize: 16
TimelineZoom: 3.599999

[Metadata]
Title:Happy End of the World
TitleUnicode:Happy End of the World
Artist:xi
ArtistUnicode:xi
Creator:Gokateigo
Version:Stargazing
Source:
Tags:dolphin 100 sec records Agartha piano streams
BeatmapID:1882201
BeatmapSetID:901407

[Difficulty]
HPDrainRate:5.5
CircleSize:4.2
OverallDifficulty:9.2
ApproachRate:9.4
SliderMultiplier:1.9
SliderTickRate:1

[Events]
//Background and Video events
0,0,"764180.jpg",0,0
//Break Periods
2,203780,213147
2,325044,331876
//Storyboard Layer 0 (Background)
//Storyboard Layer 1 (Fail)
//Storyboard Layer 2 (Pass)
//Storyboard Layer 3 (Foreground)
//Storyboard Sound Samples

[TimingPoints]
708,631.578947368421,4,2,21,20,1,0
1023,-100,4,2,25,25,0,0
1339,-100,4,2,29,30,0,0
1655,-100,4,2,29,5,0,0
1971,-200,4,2,30,30,0,0
2918,-200,4,2,0,5,0,0
3234,-200,4,2,31,30,0,0
3865,-200,4,2,32,30,0,0
4813,-100,4,2,33,30,0,0
5129,-100,4,2,32,30,0,0
5444,-100,4,2,34,30,0,0
5760,-100,4,2,19,15,0,0
6076,-100,4,2,23,18,0,0
6392,-100,4,2,26,21,0,0
6708,-100,4,2,27,25,0,0
7023,-100,4,2,28,30,0,0
7339,-100,4,2,66,30,0,0
7497,-100,4,2,32,30,0,0
8286,-100,4,2,20,30,0,0
8602,-100,4,2,24,30,0,0
8918,-100,4,2,27,30,0,0
9234,-100,4,2,29,30,0,0
9550,-100,4,2,31,30,0,0
9865,-100,4,2,30,30,0,0
10181,-100,4,2,29,30,0,0
10497,-100,4,2,27,30,0,0
10813,-100,4,2,21,30,0,0
11129,-100,4,2,25,30,0,0
11444,-100,4,2,29,30,0,0
11760,-100,4,2,29,5,0,0
12076,-200,4,2,30,30,0,0
13023,-200,4,2,0,5,0,0
13339,-100,4,2,31,30,0,0
13971,-100,4,2,34,30,0,0
14918,-100,4,2,37,30,0,0
15234,-100,4,2,36,30,0,0
15550,-100,4,2,34,30,0,0
15865,-100,4,2,19,30,0,0
16181,-100,4,2,23,30,0,0
16497,-100,4,2,26,30,0,0
16813,-100,4,2,27,30,0,0
17129,-100,4,2,28,30,0,0
17444,-100,4,2,66,30,0,0
17602,-100,4,2,32,30,0,0
18392,-100,4,2,20,30,0,0
18708,-100,4,2,24,30,0,0
19023,-100,4,2,27,30,0,0
19339,-100,4,2,29,30,0,0
19655,-100,4,2,31,30,0,0
19971,-100,4,2,34,30,0,0
20286,-100,4,2,30,30,0,0
20602,-100,4,2,29,30,0,0
20918,-100,4,2,1,35,0,0
34181,-83.3333333333333,4,2,1,35,0,0
36076,-200,4,2,1,35,0,0
36550,-200,4,2,1,5,0,0
36708,-200,4,2,1,35,0,0
37655,-100,4,2,1,40,0,0
40813,-100,4,2,1,30,0,0
40971,-100,4,2,1,20,0,0
41129,-100,4,2,1,40,0,0
48708,-83.3333333333333,4,2,1,40,0,0
61339,-100,4,2,1,40,0,0
66392,-83.3333333333333,4,2,1,40,0,0
68286,-83.3333333333333,4,2,1,40,0,0
75655,-133.333333333333,4,2,1,40,0,0
76497,-133.333333333333,4,2,1,40,0,0
77760,-100,4,2,1,40,0,0
81234,-100,4,2,1,30,0,0
81550,-83.3333333333333,4,2,1,40,0,0
101760,-76.9230769230769,4,2,1,40,0,0
121339,-76.9230769230769,4,2,1,25,0,0
121655,-76.9230769230769,4,2,1,40,0,0
121694,-76.9230769230769,4,2,1,30,0,0
121813,-76.9230769230769,4,2,1,40,0,0
121852,-76.9230769230769,4,2,1,30,0,0
121971,-76.9230769230769,4,2,1,60,0,0
122286,-76.9230769230769,4,2,1,40,0,0
129550,-66.6666666666667,4,2,1,40,0,0
130497,-76.9230769230769,4,2,1,40,0,0
142181,-133.333333333333,4,2,28,40,0,0
142813,-133.333333333333,4,2,29,20,0,0
143444,-133.333333333333,4,2,30,30,0,0
144707,-133.333333333333,4,2,31,40,0,0
145339,-133.333333333333,4,2,32,40,0,0
146286,-133.333333333333,4,2,33,40,0,0
146602,-133.333333333333,4,2,32,40,0,0
146918,-133.333333333333,4,2,34,40,0,0
147234,-133.333333333333,4,2,19,30,0,0
147550,-133.333333333333,4,2,23,30,0,0
147865,-133.333333333333,4,2,26,30,0,0
148181,-133.333333333333,4,2,27,30,0,0
148497,-133.333333333333,4,2,28,30,0,0
148813,-133.333333333333,4,2,66,30,0,0
148971,-133.333333333333,4,2,32,30,0,0
149760,-133.333333333333,4,2,20,40,0,0
150076,-133.333333333333,4,2,5,20,0,0
150392,-133.333333333333,4,2,5,5,0,0
150707,-133.333333333333,4,2,27,40,0,0
151023,-133.333333333333,4,2,34,60,0,0
151655,-133.333333333333,4,2,33,50,0,0
152286,-133.333333333333,4,2,32,40,0,0
152918,-133.333333333333,4,2,29,20,0,0
153550,-133.333333333333,4,2,30,30,0,0
153865,-133.333333333333,4,2,25,40,0,0
154181,-133.333333333333,4,2,28,40,0,0
154497,-133.333333333333,4,2,32,40,0,0
154813,-133.333333333333,4,2,31,40,0,0
155129,705.882352941176,4,2,1,40,1,8
155481,666.666666666667,4,2,34,40,1,8
156481,-100,4,2,37,40,0,8
156814,-100,4,2,36,40,0,8
157147,-100,4,2,34,40,0,8
157481,-133.333333333333,4,2,27,40,0,8
157814,-133.333333333333,4,2,27,5,0,8
158145,697.674418604651,4,2,23,15,1,0
158493,-100,4,2,34,40,0,0
158842,-133.333333333333,4,2,27,15,0,0
159191,-133.333333333333,4,2,33,35,0,0
159365,-133.333333333333,4,2,32,30,0,0
160238,-133.333333333333,4,2,27,40,0,0
160586,-133.333333333333,4,2,20,20,0,0
160935,705.882352941176,4,2,24,30,1,0
160935,-151.515151515152,4,2,24,30,0,0
161287,-151.515151515152,4,2,25,34,0,0
161640,722.89156626506,4,2,24,28,1,8
161640,-181.818181818182,4,2,24,28,0,8
162001,-181.818181818182,4,2,23,28,0,8
162362,800,4,2,22,22,1,8
162362,-266,4,2,22,22,0,8
162762,-266,4,2,20,22,0,8
163162,631.578947368421,4,2,4,40,1,0
163162,-133.333333333333,4,2,4,40,0,0
165688,-117.647058823529,4,2,4,40,0,0
166004,-117.647058823529,4,2,4,30,0,0
166319,-117.647058823529,4,2,4,40,0,0
166635,-117.647058823529,4,2,4,30,0,0
168214,-105.263157894737,4,2,4,40,0,0
170740,-95.2380952380952,4,2,4,40,0,0
172951,-133.333333333333,4,2,1,40,0,0
173266,315.789473684211,4,2,1,50,1,0
180845,-100,4,2,1,30,0,0
181476,-100,4,2,1,40,0,0
181555,-100,4,2,1,30,0,0
181634,-100,4,2,1,40,0,0
181713,-100,4,2,1,30,0,0
181792,-100,4,2,1,40,0,0
181871,-100,4,2,1,30,0,0
181950,-100,4,2,1,40,0,0
182029,-100,4,2,1,30,0,0
182108,-83.3333333333333,4,2,1,40,0,0
183371,-90.9090909090909,4,1,1,50,0,1
192292,-90.9090909090909,4,1,1,5,0,1
192371,-90.9090909090909,4,1,1,50,0,1
195529,-90.9090909090909,4,1,1,5,0,1
195608,-90.9090909090909,4,1,1,50,0,1
195766,-90.9090909090909,4,1,1,5,0,1
195844,-90.9090909090909,4,1,1,50,0,1
203581,-100,4,1,1,50,0,0
213687,-166.666666666667,4,2,1,40,0,0
216844,-200,4,2,1,50,0,0
218108,-153.846153846154,4,2,1,50,0,0
218318,-153.846153846154,4,2,1,40,0,0
218423,-153.846153846154,4,2,1,50,0,0
218634,-153.846153846154,4,2,1,40,0,0
218739,-153.846153846154,4,2,1,50,0,0
220634,-200,4,2,1,50,0,0
221187,-200,4,2,1,5,0,0
221266,-100,4,2,1,50,0,0
227897,-125,4,2,1,50,0,0
228213,-100,4,2,1,50,0,0
242739,-100,4,2,1,50,0,0
243371,-125,4,2,1,50,0,0
243845,-100,4,2,1,60,0,0
249055,-133.333333333333,4,2,1,40,0,0
249687,-100,4,2,1,40,0,0
254108,-111.111111111111,4,2,1,40,0,0
254581,-100,4,2,1,40,0,0
257897,-100,4,2,1,50,0,0
258318,-111.111111111111,4,2,1,60,0,0
258766,-125,4,2,1,50,0,0
259160,-200,4,2,1,40,0,0
259318,-200,4,2,1,20,0,0
260423,-133.333333333333,4,2,1,60,0,0
261371,-133.333333333333,4,2,1,40,0,0
261688,-100,4,2,1,60,0,0
264213,-90.9090909090909,4,1,1,50,0,1
276371,-90.9090909090909,4,1,1,5,0,1
276450,-90.9090909090909,4,1,1,50,0,1
276608,-90.9090909090909,4,1,1,5,0,1
276687,-90.9090909090909,4,1,1,50,0,1
284384,-90.9090909090909,4,1,1,50,0,0
284423,-83.3333333333333,4,1,2,50,0,1
288213,-71.4285714285714,4,1,2,50,0,1
288844,-83.3333333333333,4,1,1,50,0,1
289476,-83.3333333333333,4,1,2,50,0,1
290581,-83.3333333333333,4,1,1,50,0,1
290739,-83.3333333333333,4,1,2,50,0,1
290897,-83.3333333333333,4,1,1,50,0,1
291055,-83.3333333333333,4,1,2,50,0,1
291213,-83.3333333333333,4,1,1,50,0,1
291371,-83.3333333333333,4,1,2,50,0,1
291529,-83.3333333333333,4,1,1,50,0,1
291687,-83.3333333333333,4,1,2,50,0,1
291844,-83.3333333333333,4,1,1,50,0,1
292002,-83.3333333333333,4,1,2,50,0,1
292476,-83.3333333333333,4,1,1,50,0,1
292634,-83.3333333333333,4,1,2,50,0,1
292792,-83.3333333333333,4,1,1,50,0,1
292950,-83.3333333333333,4,1,2,50,0,1
293108,-83.3333333333333,4,1,1,50,0,1
293266,-83.3333333333333,4,1,2,50,0,1
293897,-83.3333333333333,4,1,1,50,0,1
294529,-83.3333333333333,4,1,2,50,0,1
295634,-83.3333333333333,4,1,1,50,0,1
295792,-83.3333333333333,4,1,2,50,0,1
296660,-83.3333333333333,4,1,1,50,0,1
296897,-83.3333333333333,4,1,2,50,0,1
297844,-83.3333333333333,4,1,1,50,0,1
298002,-83.3333333333333,4,1,2,50,0,1
298081,-83.3333333333333,4,1,1,50,0,1
299581,-83.3333333333333,4,1,2,50,0,1
300687,-83.3333333333333,4,1,1,50,0,1
300844,-83.3333333333333,4,1,2,50,0,1
301634,-83.3333333333333,4,1,1,50,0,1
301792,-83.3333333333333,4,1,2,50,0,1
301950,-83.3333333333333,4,1,1,50,0,1
302108,-83.3333333333333,4,1,1,50,0,1
304594,-83.3333333333333,4,1,2,50,0,0
304634,-83.3333333333333,4,1,1,50,0,1
314739,-83.3333333333333,4,1,3,50,0,1
316476,-83.3333333333333,4,1,1,50,0,1
316634,-83.3333333333333,4,1,2,50,0,1
316792,-83.3333333333333,4,1,3,50,0,1
317266,-83.3333333333333,4,1,2,50,0,1
317581,-83.3333333333333,4,1,3,50,0,1
318213,-83.3333333333333,4,1,1,50,0,1
322318,-83.3333333333333,4,1,1,60,0,1
323581,-83.3333333333333,4,1,1,70,0,1
324213,-83.3333333333333,4,1,1,80,0,1
324805,-83.3333333333333,4,1,1,80,0,0
324844,-200,4,2,1,60,0,1
324923,-200,4,2,1,60,0,0
328634,628.272251308901,4,2,4,60,1,8
329890,631.578947368421,4,2,4,50,1,0
332416,628.272251308901,4,2,4,30,1,0
332416,-166.666666666667,4,2,4,30,0,0
333672,-133.333333333333,4,2,4,30,0,0
335557,-100,4,2,4,20,0,0
337442,648.648648648649,4,2,4,30,1,0
338739,628.272251308901,4,2,4,20,1,8
339367,-100,4,2,4,25,0,0
339995,631.578947368421,4,2,4,25,1,0
339995,-133.333333333333,4,2,4,25,0,0
342521,-125,4,2,4,30,0,0
343152,-125,4,2,4,20,0,0
347573,638.297872340426,4,2,4,20,1,0
348211,-125,4,2,4,25,0,0
349487,-125,4,2,4,25,0,0
352679,652.173913043478,4,2,4,30,1,0
353657,-100,4,2,4,25,0,0
353983,666.666666666667,4,2,4,20,1,8
354316,591.133004926108,4,2,4,20,1,8
354614,705.882352941176,4,2,4,20,1,8
354966,710.059171597633,4,2,4,20,1,8
355321,685.714285714286,4,2,4,20,1,0
356006,666.666666666667,4,2,4,20,1,8
356669,-100,4,2,4,15,0,0
356672,631.578947368421,4,2,4,15,1,8
356987,666.666666666667,4,2,4,15,1,0
358320,750,4,2,4,15,1,8
358554,-100,4,2,4,5,0,8
358695,666.666666666667,4,2,4,30,1,0
358695,-133.333333333333,4,2,4,30,0,0
359361,800,4,2,4,15,1,8
359761,705.882352941176,4,2,4,30,1,0
359761,-133.333333333333,4,2,4,30,0,0
360113,-133.333333333333,4,2,4,25,0,0
361525,631.578947368421,4,2,4,15,1,8
361840,666.666666666667,4,2,4,15,1,8
363506,727.272727272727,4,2,4,30,1,0
363869,745.341614906832,4,2,4,20,1,8
364241,764.331210191083,4,2,4,20,1,8
364244,-100,4,2,4,25,0,0
364623,784.313725490196,4,2,4,20,1,8
365015,805.369127516779,4,2,4,20,1,8
365417,827.586206896552,4,2,4,20,1,8
366244,631.578947368421,4,2,4,20,1,8
366244,-111.111111111111,4,2,4,20,0,0
366559,571.428571428571,4,2,4,10,1,0
366844,566.037735849057,4,2,4,25,1,8
367976,851.063829787234,4,2,4,20,1,0
368401,-100,4,2,4,15,0,0
368827,827.586206896552,4,2,4,15,1,8
369240,1052.63157894737,4,2,4,15,1,8
369766,1000,4,2,4,10,1,8
370266,857.142857142857,4,2,4,15,1,0
370694,937.5,4,2,4,15,1,8
371162,909.090909090909,4,2,4,15,1,8
371616,1043.47826086957,4,2,4,15,1,8
372137,882.352941176471,4,2,4,10,1,8
372578,845.070422535211,4,2,4,10,1,8
373000,1200,4,2,4,10,1,0
373600,1304.34782608696,4,2,4,10,1,8
374252,1363.63636363636,4,2,4,10,1,8
374933,1481.48148148148,4,2,4,10,1,8
375673,1500,4,2,4,10,1,8
376423,1904.7619047619,4,2,4,10,1,8
377375,1276.59574468085,4,2,4,15,1,0

[Colours]
Combo1 : 255,128,192
Combo2 : 15,15,255
Combo3 : 143,32,255
Combo4 : 115,242,223

[HitObjects]
484,217,708,6,0,P|458:262|412:287,1,95,2|2,0:0|0:0,0:0:0:0:
305,223,1339,2,0,P|350:196|402:197,1,95,2|0,0:0|0:0,0:0:0:0:
360,356,1971,2,0,B|326:362|292:344|292:344|254:324|209:331,1,142.5,2|0,0:0|0:0,0:0:0:0:
96,384,3234,5,2,0:0:0:0:
96,384,3865,1,2,0:0:0:0:
56,296,4813,5,2,0:0:0:0:
96,208,5128,1,2,0:0:0:0:
56,120,5444,1,2,0:0:0:0:
176,152,5760,6,0,P|190:215|179:253,1,95,2|0,0:0|0:0,0:0:0:0:
153,363,6392,2,0,P|200:319|238:309,1,95,2|0,0:0|0:0,0:0:0:0:
348,278,7023,1,2,0:0:0:0:
371,67,7339,6,0,L|364:130,1,47.5,2|2,0:0|0:0,0:0:0:0:
343,313,8286,5,2,0:0:0:0:
429,353,8602,1,2,0:0:0:0:
506,298,8918,1,2,0:0:0:0:
496,203,9234,1,2,0:0:0:0:
325,126,9550,5,2,0:0:0:0:
396,225,9865,1,2,0:0:0:0:
447,115,10181,1,2,0:0:0:0:
376,16,10497,1,2,0:0:0:0:
325,126,10813,6,0,P|292:163|241:176,1,95,2|0,0:0|0:0,0:0:0:0:
159,41,11444,2,0,P|207:51|244:88,1,95,2|0,0:0|0:0,0:0:0:0:
169,228,12076,2,0,B|110:227|78:181|78:181|102:182|120:171,1,142.5,2|0,0:0|0:0,0:0:0:0:
256,32,13339,5,2,0:0:0:0:
256,0,13971,1,2,0:0:0:0:
304,96,14918,5,2,0:0:0:0:
256,192,15234,1,2,0:0:0:0:
304,288,15550,1,2,0:0:0:0:
352,192,15865,6,0,P|415:196|451:225,1,95,2|0,0:0|0:0,0:0:0:0:
505,283,16497,2,0,P|442:287|406:316,1,95,2|0,0:0|0:0,0:0:0:0:
359,379,17129,1,2,0:0:0:0:
256,192,17444,6,0,L|280:237,1,47.5,2|2,0:0|0:0,0:0:0:0:
43,349,18393,5,2,0:0:0:0:
0,255,18708,1,2,0:0:0:0:
58,174,19024,1,2,0:0:0:0:
157,183,19340,1,2,0:0:0:0:
142,355,19655,5,2,0:0:0:0:
58,174,19971,1,2,0:0:0:0:
256,192,20286,1,2,0:0:0:0:
75,277,20602,1,2,0:0:0:0:
264,345,20918,6,0,P|327:346|368:367,1,95,6|0,0:0|0:0,0:0:0:0:
490,260,21550,2,0,P|427:261|386:282,1,95,2|0,0:0|0:0,0:0:0:0:
254,166,22181,2,0,L|362:194,1,95,2|0,0:0|0:0,0:0:0:0:
186,233,22813,1,2,0:0:0:0:
228,75,23129,1,0,0:0:0:0:
28,191,23444,6,0,P|29:254|50:295,1,95,2|0,0:0|0:0,0:0:0:0:
199,324,24076,2,0,P|198:261|177:220,1,95,2|0,0:0|0:0,0:0:0:0:
132,167,24550,1,0,0:0:0:0:
185,102,24707,1,0,1:0:0:0:
152,260,25023,1,2,0:0:0:0:
27,69,25339,5,2,0:0:0:0:
226,111,25497,1,0,1:0:0:0:
111,178,25655,1,2,0:0:0:0:
150,16,25813,1,4,3:0:0:0:
253,146,25971,6,0,P|295:194|354:212,1,95,6|0,0:0|0:0,0:0:0:0:
451,57,26602,2,0,P|388:69|343:111,1,95,2|2,0:0|0:0,0:0:0:0:
471,273,27234,2,0,L|446:180,1,95,0|2,0:0|0:0,0:0:0:0:
364,253,27707,1,2,0:0:0:0:
261,218,27865,1,0,0:0:0:0:
512,384,28181,5,8,3:0:0:0:
283,325,28497,6,0,P|255:319|221:322,1,47.5,2|0,0:0|0:0,0:0:0:0:
200,378,28813,2,0,L|171:269,1,95,2|2,0:0|0:0,0:0:0:0:
150,194,29286,1,0,1:0:0:0:
83,310,29444,1,2,0:0:0:0:
203,266,29602,1,4,3:0:0:0:
98,123,29760,6,0,P|72:77|70:50,1,47.5,2|0,0:0|0:0,0:0:0:0:
194,44,30076,2,0,P|212:-5|231:-24,1,47.5,0|0,0:0|1:0,0:0:0:0:
316,66,30392,5,2,0:0:0:0:
306,82,30497,1,0,1:0:0:0:
297,98,30602,1,0,1:0:0:0:
288,114,30707,2,0,P|257:157|233:170,1,47.5,2|0,0:0|0:0,0:0:0:0:
199,226,31023,6,0,P|259:208|300:218,1,95,4|0,0:0|0:0,0:0:0:0:
381,352,31655,2,0,P|427:356|471:339,1,95,2|0,0:0|0:0,0:0:0:0:
497,259,32129,1,0,0:0:0:0:
441,197,32286,2,0,L|465:104,1,95,2|0,0:0|0:0,0:0:0:0:
349,172,32918,5,4,3:0:0:0:
476,66,33076,1,0,0:0:0:0:
313,53,33234,2,0,P|272:58|238:79,1,47.5,2|0,0:0|0:0,0:0:0:0:
233,174,33550,2,0,L|178:81,1,95,2|0,0:0|0:0,0:0:0:0:
85,335,34181,6,0,L|199:303,1,113.999996520996,6|0,0:0|0:0,0:0:0:0:
284,284,34655,1,0,0:0:0:0:
338,357,34813,1,0,1:0:0:0:
366,146,35129,5,2,0:0:0:0:
480,336,35444,6,0,L|512:384,2,37.9999988403321,2|0|0,0:0|1:0|1:0,0:0:0:0:
416,240,35760,2,0,L|384:288,2,37.9999988403321,4|8|0,3:0|3:0|3:0,0:0:0:0:
480,143,36076,6,0,P|480:96|497:61,1,71.25,6|0,0:0|0:0,0:0:0:0:
508,3,36708,2,0,P|438:42|372:47,1,142.5,2|12,0:0|3:0,0:0:0:0:
256,32,37971,5,0,1:0:0:0:
303,143,38129,1,0,3:0:0:0:
183,128,38286,1,4,1:3:0:0:
311,109,38444,1,0,3:0:0:0:
110,224,38602,5,4,0:0:0:0:
256,0,38760,1,4,0:0:0:0:
242,299,39076,5,4,0:0:0:0:
256,32,39234,1,6,0:0:0:0:
378,303,39550,5,4,0:0:0:0:
256,64,39708,1,4,0:0:0:0:
482,242,40023,5,4,0:2:0:0:
256,96,40181,1,6,0:2:0:0:
379,336,40339,1,0,0:3:0:0:
256,384,40497,5,0,1:0:0:0:
234,370,40602,1,0,1:0:0:0:
209,363,40708,1,0,1:0:0:0:
183,364,40813,2,0,P|152:367|129:358,1,47.5,4|0,3:0|0:0,0:0:0:0:
28,360,41129,6,0,P|68:321|83:256,1,95,4|0,0:0|0:0,0:0:0:0:
36,91,41760,2,0,L|7:199,1,95,2|0,0:0|0:0,0:0:0:0:
92,158,42234,1,2,0:3:0:0:
154,217,42392,2,0,P|180:237|209:244,1,47.5,0|0,0:0|0:0,0:0:0:0:
282,105,42708,2,0,P|251:117|231:139,1,47.5,2|0,3:0|0:0,0:0:0:0:
315,224,43023,1,0,0:0:0:0:
413,147,43181,1,0,1:0:0:0:
312,207,43339,1,8,3:0:0:0:
415,163,43497,1,4,3:0:0:0:
265,25,43655,6,0,P|211:42|163:97,1,95,2|0,0:0|0:0,0:0:0:0:
135,155,44129,1,2,3:0:0:0:
82,70,44286,2,0,P|105:32|127:15,1,47.5,0|0,0:0|0:0,0:0:0:0:
274,150,44602,2,0,L|253:107,1,47.5,2|0,3:0|0:0,0:0:0:0:
227,218,44918,5,2,0:0:0:0:
356,156,45076,1,0,0:0:0:0:
242,228,45234,1,4,3:0:0:0:
340,145,45392,1,0,0:0:0:0:
325,325,45550,5,2,0:0:0:0:
349,354,45655,1,0,0:0:0:0:
384,366,45760,1,0,0:0:0:0:
421,364,45865,2,0,L|465:341,2,31.6666666666667,0|0|0,0:0|0:0|0:0,0:0:0:0:
483,259,46181,6,0,P|481:192|446:143,1,95,6|0,0:0|0:0,0:0:0:0:
408,93,46655,1,0,3:0:0:0:
346,168,46813,2,0,P|314:108|320:49,1,95,2|4,0:3|3:0,0:0:0:0:
244,147,47286,1,0,0:0:0:0:
160,102,47444,2,0,P|194:65|205:60,1,47.5,0|0,0:0|0:0,0:0:0:0:
160,196,47760,2,0,P|110:185|101:178,1,47.5,2|0,3:0|0:0,0:0:0:0:
0,106,48076,5,2,0:3:0:0:
102,0,48234,1,0,1:0:0:0:
94,168,48392,1,4,3:0:0:0:
38,44,48550,1,8,3:0:0:0:
29,267,48708,6,0,B|29:298|54:322|54:322|82:305|145:318,1,113.999996520996,2|0,0:0|0:0,0:0:0:0:
186,364,49181,1,0,0:0:0:0:
273,319,49339,2,0,P|311:288|324:259,1,56.9999982604981,0|0,0:0|1:0,0:0:0:0:
196,194,49655,2,0,L|246:246,1,56.9999982604981,4|8,3:0|3:0,0:0:0:0:
356,358,49971,5,0,3:0:0:0:
362,352,50050,1,0,0:0:0:0:
368,346,50129,1,0,0:0:0:0:
374,340,50208,1,0,0:0:0:0:
380,335,50286,5,4,3:0:0:0:
415,348,50392,1,2,3:0:0:0:
452,349,50497,1,0,3:0:0:0:
487,334,50602,1,2,0:0:0:0:
337,186,50760,1,2,0:0:0:0:
344,379,50918,1,2,0:0:0:0:
490,242,51076,1,2,0:0:0:0:
257,286,51234,6,0,P|216:228|216:167,1,113.999996520996,4|0,0:0|0:0,0:0:0:0:
240,94,51708,1,4,3:0:0:0:
386,157,51865,2,0,L|289:212,1,56.9999982604981,2|0,3:0|0:0,0:0:0:0:
322,48,52181,1,0,1:0:0:0:
403,2,52338,1,0,0:0:0:0:
496,140,52497,6,0,P|483:210|440:253,1,113.999996520996,2|2,0:0|3:0,0:0:0:0:
240,94,53129,1,4,3:0:0:0:
386,157,53286,1,0,1:0:0:0:
239,215,53444,1,2,0:3:0:0:
243,55,53602,1,0,0:0:0:0:
121,245,53760,6,0,P|159:311|215:334,1,113.999996520996,2|4,0:0|3:0,0:0:0:0:
286,341,54234,1,0,1:0:0:0:
239,215,54392,1,0,0:0:0:0:
305,338,54550,1,0,0:0:0:0:
202,193,54708,2,0,P|172:161|138:150,1,56.9999982604981,2|0,3:0|0:0,0:0:0:0:
51,328,55023,6,0,P|97:295|120:244,1,113.999996520996,2|4,0:0|3:0,0:0:0:0:
90,19,55655,2,0,P|43:51|20:102,1,113.999996520996,8|4,3:0|3:0,0:0:0:0:
123,137,56129,1,0,1:0:0:0:
208,49,56286,6,0,B|273:27|269:65|350:40,1,113.999996520996,4|0,0:0|0:0,0:0:0:0:
503,251,56918,2,0,B|438:229|442:267|361:242,1,113.999996520996,2|2,0:0|0:0,0:0:0:0:
324,161,57392,2,0,P|380:139|387:139,1,56.9999982604981,2|0,0:0|0:0,0:0:0:0:
501,157,57708,1,0,1:0:0:0:
486,47,57865,2,0,P|458:53|434:68,1,56.9999982604981,2|0,0:0|0:0,0:0:0:0:
390,249,58181,5,4,3:0:0:0:
292,89,58339,1,2,3:0:0:0:
249,272,58497,1,4,0:3:0:0:
408,147,58655,1,2,3:0:0:0:
283,363,58813,6,0,P|207:358|183:345,1,56.9999982604981,4|0,0:0|0:0,0:0:0:0:
168,206,59129,1,4,3:0:0:0:
249,272,59286,1,0,1:0:0:0:
85,302,59444,6,0,P|51:233|50:206,1,56.9999982604981,2|0,3:0|0:0,0:0:0:0:
36,105,59760,1,4,3:0:0:0:
159,229,59917,1,0,1:0:0:0:
263,24,60076,6,0,P|286:61|291:75,1,37.9999988403321,4|0,0:0|0:0,0:0:0:0:
379,198,60286,2,0,P|399:159|409:148,1,37.9999988403321,4|0,0:0|0:0,0:0:0:0:
471,10,60497,2,0,P|427:11|412:8,1,37.9999988403321,4|0,0:0|0:0,0:0:0:0:
267,170,60708,5,4,0:0:0:0:
265,207,60813,1,0,0:0:0:0:
275,244,60918,1,0,0:0:0:0:
296,275,61023,1,4,3:0:0:0:
326,298,61129,1,0,0:0:0:0:
362,310,61234,1,0,0:0:0:0:
400,310,61339,6,0,P|448:291|483:243,1,95,6|0,0:0|0:0,0:0:0:0:
454,146,61971,2,0,P|406:165|371:213,1,95,2|0,0:0|0:0,0:0:0:0:
336,122,62444,1,0,1:0:0:0:
396,61,62602,1,0,0:0:0:0:
483,281,62918,5,2,3:0:0:0:
256,384,63234,5,0,3:0:0:0:
184,326,63392,1,0,1:0:0:0:
111,384,63550,1,0,0:0:0:0:
39,326,63708,1,0,1:0:0:0:
42,187,63865,6,0,P|109:203|143:230,1,95,2|4,0:0|3:0,0:0:0:0:
197,270,64339,1,0,1:0:0:0:
269,225,64497,1,2,0:0:0:0:
17,197,64813,5,2,3:0:0:0:
215,39,65129,5,2,0:0:0:0:
256,179,65286,1,2,3:0:0:0:
233,28,65444,1,4,0:3:0:0:
237,189,65601,1,0,1:0:0:0:
374,106,65760,5,2,0:0:0:0:
374,106,65839,1,0,0:0:0:0:
374,106,65918,2,0,L|428:139,1,47.5,0|4,0:0|3:0,0:0:0:0:
487,175,66234,1,0,0:0:0:0:
422,23,66392,6,0,P|359:12|302:44,1,113.999996520996,6|0,0:0|0:0,0:0:0:0:
273,113,66865,1,4,3:0:0:0:
328,185,67023,1,2,0:0:0:0:
218,41,67339,5,4,3:0:0:0:
183,124,67497,1,0,0:0:0:0:
328,185,67655,1,0,1:0:0:0:
273,113,67813,1,0,0:0:0:0:
292,269,67971,2,0,L|304:334,1,56.9999982604981,0|0,3:0|0:0,0:0:0:0:
384,377,68286,6,0,P|304:343|228:375,1,170.999994781494,2|0,0:0|0:0,0:0:0:0:
492,361,68918,2,0,P|452:283|376:238,1,170.999994781494,2|0,0:0|1:0,0:0:0:0:
275,221,69550,1,0,0:0:0:0:
355,335,69708,1,4,3:0:0:0:
256,228,69865,1,0,0:0:0:0:
373,327,70023,1,0,3:0:0:0:
230,372,70181,6,0,L|195:348,2,37.9999988403321,4|2|8,3:0|2:0|3:0,0:0:0:0:
118,338,70497,2,0,L|113:295,2,37.9999988403321,2|8|0,2:0|3:0|3:0,0:0:0:0:
72,230,70813,1,8,3:0:0:0:
100,220,70918,1,0,3:0:0:0:
130,220,71023,1,2,2:0:0:0:
158,232,71128,1,4,3:0:0:0:
181,252,71234,1,0,3:0:0:0:
209,263,71340,1,2,3:0:0:0:
239,264,71444,6,0,P|284:228|255:148,1,113.999996520996,4|0,0:0|0:0,0:0:0:0:
239,89,71918,1,2,0:0:0:0:
136,161,72076,2,0,P|78:177|11:149,1,113.999996520996,8|4,3:0|3:0,0:0:0:0:
81,81,72550,1,0,1:0:0:0:
177,63,72708,1,0,3:0:0:0:
70,67,72865,1,4,0:3:0:0:
239,89,73023,6,0,P|294:89|320:85,1,56.9999982604981,2|0,3:0|0:0,0:0:0:0:
396,22,73339,1,2,0:0:0:0:
403,143,73497,1,0,0:0:0:0:
378,19,73655,1,8,3:0:0:0:
420,145,73813,1,4,3:0:0:0:
239,89,73971,6,0,P|184:89|158:93,1,56.9999982604981,6|0,0:0|0:0,0:0:0:0:
83,157,74286,1,0,1:0:0:0:
213,212,74444,1,0,0:0:0:0:
86,68,74602,2,0,P|47:29|25:13,1,56.9999982604981,4|0,0:3|0:0,0:0:0:0:
69,176,74918,1,0,1:0:0:0:
175,59,75076,1,0,0:0:0:0:
178,287,75234,6,0,P|179:318|255:366,1,113.999996520996,2|2,0:0|3:0,0:0:0:0:
315,290,75655,6,0,P|295:280|240:309,1,71.2500027179719,2|0,0:0|0:0,0:0:0:0:
347,359,76076,5,2,0:0:0:0:
385,327,76181,1,0,0:0:0:0:
395,278,76286,1,0,0:0:0:0:
378,230,76392,1,0,0:0:0:0:
334,206,76497,6,0,B|273:183|215:216|215:216|149:257|100:201|156:131|215:166,1,285.000010871888,6|2,0:0|0:0,0:0:0:0:
287,353,78076,5,4,3:0:0:0:
432,176,78392,5,2,3:0:0:0:
416,272,78550,1,0,1:0:0:0:
512,272,78708,1,8,3:0:0:0:
416,160,78865,1,0,0:0:0:0:
448,368,79023,5,4,0:0:0:0:
408,124,79181,1,4,0:0:0:0:
400,88,79497,5,4,0:0:0:0:
313,320,79655,1,4,0:0:0:0:
168,1,79971,5,4,0:0:0:0:
356,204,80129,1,4,0:0:0:0:
366,173,80444,5,4,0:0:0:0:
101,91,80602,1,4,0:0:0:0:
207,206,80760,1,0,1:0:0:0:
254,57,80918,5,2,0:0:0:0:
258,41,81023,1,2,0:0:0:0:
262,25,81129,1,2,0:0:0:0:
268,10,81234,5,2,0:0:0:0:
306,31,81339,1,0,0:0:0:0:
349,37,81444,1,0,0:0:0:0:
386,8,81550,6,0,P|432:51|447:111,1,113.999996520996,6|4,0:0|3:0,0:0:0:0:
279,210,82181,2,0,P|293:148|337:105,1,113.999996520996,2|4,0:0|3:0,0:0:0:0:
399,207,82655,1,2,3:0:0:0:
282,328,82813,2,0,P|220:313|177:269,1,113.999996520996,2|4,0:0|3:0,0:0:0:0:
110,71,83444,5,0,0:0:0:0:
110,71,83760,1,4,3:0:0:0:
2,331,84076,6,0,P|63:316|106:272,1,113.999996520996,6|4,0:0|3:0,0:0:0:0:
37,13,84708,2,0,P|19:66|30:121,1,113.999996520996,4|4,0:0|3:0,0:0:0:0:
295,203,85339,2,0,P|260:166|212:154,1,56.9999982604981,2|0,0:0|0:0,0:0:0:0:
134,172,85655,2,0,P|168:208|216:220,1,56.9999982604981,4|0,3:0|0:0,0:0:0:0:
416,194,85971,5,4,3:0:0:0:
403,158,86076,1,0,3:0:0:0:
382,126,86181,1,0,3:0:0:0:
355,99,86286,1,2,3:0:0:0:
323,79,86392,1,8,3:0:0:0:
287,66,86497,1,8,3:0:0:0:
250,59,86602,6,0,P|186:59|128:114,1,113.999996520996,4|4,0:0|3:0,0:0:0:0:
245,255,87234,2,0,L|211:131,1,113.999996520996,0|4,1:0|3:0,0:0:0:0:
144,208,87708,1,2,3:0:0:0:
211,341,87865,2,0,P|275:341|333:286,1,113.999996520996,2|4,0:0|3:0,0:0:0:0:
352,112,88497,2,0,L|385:235,1,113.999996520996,2|4,3:0|3:0,0:0:0:0:
411,24,89129,6,0,P|332:8|283:32,1,113.999996520996,2|4,0:0|3:0,0:0:0:0:
151,83,89760,2,0,P|230:99|279:75,1,113.999996520996,2|4,3:0|3:0,0:0:0:0:
80,16,90392,2,0,L|63:77,1,56.9999982604981,4|4,3:0|3:0,0:0:0:0:
13,182,90708,2,0,L|29:243,1,56.9999982604981,4|8,3:0|3:0,0:0:0:0:
85,347,91023,5,0,1:0:0:0:
122,357,91128,1,0,0:0:0:0:
159,352,91233,1,0,1:0:0:0:
191,333,91338,1,4,3:0:0:0:
223,313,91444,1,0,0:0:0:0:
260,308,91549,1,0,0:0:0:0:
297,319,91655,6,0,P|352:333|415:304,1,113.999996520996,4|4,0:0|3:0,0:0:0:0:
396,146,92286,2,0,P|356:186|349:255,1,113.999996520996,0|4,1:0|3:0,0:0:0:0:
437,228,92760,1,2,3:0:0:0:
477,104,92918,1,2,0:0:0:0:
453,237,93076,1,0,0:0:0:0:
460,79,93234,2,0,P|450:32|441:12,1,56.9999982604981,4|0,3:0|0:0,0:0:0:0:
341,80,93550,2,0,P|294:70|274:61,1,56.9999982604981,2|0,1:2|0:0,0:0:0:0:
184,14,93865,1,4,3:0:0:0:
8,192,94181,6,0,B|64:216|64:168|128:192,1,113.999996520996,2|4,0:0|3:0,0:0:0:0:
220,242,94655,1,0,0:0:0:0:
98,278,94813,1,8,3:0:0:0:
129,155,94971,1,0,0:0:0:0:
201,228,95129,1,4,3:0:0:0:
113,251,95286,1,0,0:0:0:0:
250,328,95444,6,0,P|294:296|313:249,1,56.9999982604981,2|2,0:0|3:0,0:0:0:0:
380,217,95760,2,0,P|434:213|479:237,1,56.9999982604981,6|0,3:0|0:0,0:0:0:0:
416,330,96076,6,0,L|421:373,2,37.9999988403321,2|0|0,3:0|0:0|0:0,0:0:0:0:
286,368,96392,2,0,L|291:330,2,37.9999988403321,4|0|4,3:0|0:0|3:0,0:0:0:0:
148,362,96708,6,0,P|88:343|33:366,1,113.999996520996,4|4,0:0|3:0,0:0:0:0:
14,206,97339,2,0,L|129:237,1,113.999996520996,2|4,0:0|3:0,0:0:0:0:
234,267,97813,1,2,3:0:0:0:
156,125,97971,1,2,0:0:0:0:
211,224,98129,1,0,2:0:0:0:
270,127,98286,2,0,L|302:70,1,56.9999982604981,4|0,3:0|0:0,0:0:0:0:
325,233,98602,2,0,P|378:249|431:230,1,113.999996520996,2|4,3:0|3:0,0:0:0:0:
352,8,99234,6,0,P|298:-8|245:10,1,113.999996520996,2|4,0:0|3:0,0:0:0:0:
156,125,99865,1,2,1:2:0:0:
156,125,100181,1,4,3:0:0:0:
67,10,100497,5,10,3:0:0:0:
59,25,100576,1,0,0:0:0:0:
52,40,100655,1,0,0:0:0:0:
46,56,100734,1,0,0:0:0:0:
42,72,100813,1,4,3:0:0:0:
40,89,100892,1,0,0:0:0:0:
40,106,100971,1,0,0:0:0:0:
42,122,101050,1,0,0:0:0:0:
46,138,101129,5,10,3:0:0:0:
61,168,101234,1,0,0:0:0:0:
77,197,101339,1,0,0:0:0:0:
86,229,101444,1,4,3:0:0:0:
85,263,101550,1,0,0:0:0:0:
74,295,101655,1,0,0:0:0:0:
50,323,101760,6,0,P|123:327|183:368,1,123.499994346619,4|4,0:0|3:0,0:0:0:0:
319,190,102392,2,0,P|279:251|213:282,1,123.499994346619,0|4,1:0|3:0,0:0:0:0:
199,161,102865,1,0,0:0:0:0:
285,73,103023,2,0,P|358:76|418:118,1,123.499994346619,2|4,0:0|3:0,0:0:0:0:
350,309,103655,2,0,L|314:177,1,123.499994346619,0|4,1:0|3:0,0:0:0:0:
57,322,104286,6,0,P|24:247|32:185,1,123.499994346619,2|4,0:0|3:0,0:0:0:0:
96,0,104918,2,0,P|129:75|121:137,1,123.499994346619,2|4,0:0|3:0,0:0:0:0:
9,85,105550,1,2,0:0:0:0:
9,85,105865,1,8,3:0:0:0:
245,145,106181,6,0,P|272:154|299:158,1,41.1666647822063,4|0,0:0|0:0,0:0:0:0:
75,319,106392,2,0,P|53:338|36:359,1,41.1666647822063,6|4,0:0|3:0,0:0:0:0:
244,376,106602,6,0,P|238:347|228:322,1,41.1666647822063,6|0,0:0|0:0,0:0:0:0:
163,201,106813,2,0,P|105:150|52:143,1,123.499994346619,6|4,0:0|3:0,0:0:0:0:
249,124,107444,2,0,P|307:73|360:66,1,123.499994346619,2|4,3:0|3:0,0:0:0:0:
354,184,107918,1,0,1:0:0:0:
455,121,108076,1,2,0:0:0:0:
334,167,108234,1,2,3:0:0:0:
474,137,108392,1,4,3:0:0:0:
328,373,108708,5,8,3:0:0:0:
328,373,109023,1,4,3:0:0:0:
144,319,109339,6,0,P|92:358|18:355,1,123.499994346619,2|4,0:0|3:0,0:0:0:0:
53,243,109813,1,2,0:0:0:0:
164,202,109971,1,2,3:0:0:0:
144,319,110129,1,0,0:0:0:0:
95,186,110286,5,4,3:0:0:0:
204,277,110444,1,2,0:0:0:0:
67,164,110602,2,0,B|52:137|22:129|22:129|14:88|38:48,1,123.499994346619,2|8,0:0|3:0,0:0:0:0:
110,13,111076,1,0,0:0:0:0:
213,90,111234,5,4,3:0:0:0:
243,105,111339,1,8,3:0:0:0:
277,115,111444,1,0,1:0:0:0:
311,119,111549,1,2,0:0:0:0:
345,117,111655,1,0,0:0:0:0:
379,109,111760,1,0,0:0:0:0:
411,96,111865,6,0,P|454:99|515:171,1,123.499994346619,6|4,0:0|3:0,0:0:0:0:
425,186,112339,1,2,0:0:0:0:
321,108,112497,2,0,P|324:65|399:7,1,123.499994346619,2|4,2:0|3:0,0:0:0:0:
426,195,112971,5,2,0:0:0:0:
409,87,113129,1,0,1:0:0:0:
405,205,113286,5,2,0:0:0:0:
430,76,113444,1,4,3:0:0:0:
380,334,113760,6,0,P|343:338|308:329,1,61.7499971733095,2|0,3:0|0:0,0:0:0:0:
212,222,114076,2,0,P|180:241|160:271,1,61.7499971733095,4|0,3:0|0:0,0:0:0:0:
106,333,114392,2,0,P|137:281|128:220,1,123.499994346619,4|4,0:0|3:0,0:0:0:0:
54,146,114865,1,2,0:0:0:0:
128,71,115023,2,0,L|186:20,1,61.7499971733095,0|2,0:0|0:0,0:0:0:0:
260,165,115339,2,0,L|186:140,1,61.7499971733095,4|2,3:0|0:0,0:0:0:0:
275,3,115655,5,2,0:0:0:0:
294,174,115813,1,0,0:0:0:0:
180,43,115971,1,4,3:0:0:0:
356,98,116129,5,2,0:0:0:0:
232,250,116286,1,2,0:2:0:0:
201,272,116392,1,0,0:0:0:0:
166,285,116497,1,0,0:0:0:0:
129,290,116602,1,4,3:0:0:0:
91,286,116708,1,4,3:0:0:0:
58,268,116813,1,4,3:0:0:0:
39,235,116918,6,0,P|75:282|51:356,1,123.499994346619,6|4,0:0|3:0,0:0:0:0:
166,370,117550,2,0,P|188:315|264:299,1,123.499994346619,2|4,1:2|3:0,0:0:0:0:
335,361,118023,1,2,3:0:0:0:
512,308,118181,6,0,L|434:328,1,61.7499971733095,2|0,0:0|0:0,0:0:0:0:
312,371,118497,1,4,3:0:0:0:
440,176,118813,5,2,1:2:0:0:
440,23,118971,1,2,0:0:0:0:
350,146,119129,1,4,3:0:0:0:
494,99,119286,1,2,0:0:0:0:
306,36,119444,5,4,3:2:0:0:
294,32,119522,1,0,3:0:0:0:
283,31,119601,1,0,3:0:0:0:
271,30,119680,1,0,3:0:0:0:
260,32,119759,1,2,3:2:0:0:
249,34,119838,1,0,3:0:0:0:
238,38,119917,1,0,3:0:0:0:
228,44,119996,1,0,3:0:0:0:
217,52,120076,5,8,3:0:0:0:
197,79,120154,1,0,0:0:0:0:
188,112,120233,1,0,0:0:0:0:
192,145,120312,1,0,0:0:0:0:
207,176,120392,1,2,0:0:0:0:
222,206,120471,1,0,0:0:0:0:
225,239,120550,1,0,0:0:0:0:
216,272,120629,1,0,0:0:0:0:
197,300,120708,5,4,3:0:0:0:
162,270,120786,1,0,0:0:0:0:
146,227,120865,1,0,0:0:0:0:
154,182,120944,1,0,0:0:0:0:
184,147,121023,1,4,3:0:0:0:
227,132,121102,1,0,0:0:0:0:
272,141,121181,1,0,0:0:0:0:
307,171,121260,1,0,0:0:0:0:
321,214,121339,6,0,L|330:241,7,15.4374992933274,2|0|0|0|0|0|0|0,0:0|0:0|0:0|0:0|0:0|0:0|0:0|0:0,0:0:0:0:
273,276,121655,2,0,L|282:303,7,15.4374992933274,4|0|0|0|0|0|0|0,3:0|0:0|0:0|0:0|0:0|0:0|0:0|0:0,0:0:0:0:
225,338,121971,6,0,P|171:367|94:361,1,123.499994346619,6|4,0:0|3:0,0:0:0:0:
55,164,122602,2,0,P|107:196|140:265,1,123.499994346619,0|4,1:0|3:0,0:0:0:0:
22,284,123076,1,2,3:0:0:0:
88,85,123234,2,0,P|147:114|163:130,1,61.7499971733095,2|0,0:0|0:0,0:0:0:0:
223,233,123550,2,0,P|215:203|202:175,1,61.7499971733095,4|0,3:0|3:0,0:0:0:0:
188,345,123865,2,0,L|319:309,1,123.499994346619,0|2,1:0|3:0,0:0:0:0:
428,99,124497,6,0,P|371:125|335:188,1,123.499994346619,4|0,3:0|3:0,0:0:0:0:
335,310,124971,1,0,1:0:0:0:
452,215,125129,1,8,3:0:0:0:
308,175,125286,1,0,0:0:0:0:
410,284,125444,1,4,3:0:0:0:
494,146,125602,1,0,0:0:0:0:
274,174,125760,6,0,B|216:161|215:202|145:178,1,123.499994346619,2|0,0:0|1:0,0:0:0:0:
183,94,126234,1,2,0:0:0:0:
253,263,126392,1,4,3:0:0:0:
229,271,126470,1,0,0:0:0:0:
205,275,126549,1,0,0:0:0:0:
180,276,126628,1,0,0:0:0:0:
156,274,126707,1,2,3:0:0:0:
132,269,126786,1,0,0:0:0:0:
109,260,126865,1,0,0:0:0:0:
89,244,126944,1,0,0:0:0:0:
71,226,127023,6,0,P|63:163|94:108,1,123.499994346619,4|4,0:0|3:0,0:0:0:0:
256,0,127655,2,0,L|224:56,1,61.7499971733095,2|0,3:0|0:0,0:0:0:0:
153,180,127971,1,4,3:0:0:0:
79,88,128129,1,2,0:3:0:0:
263,69,128286,6,0,P|320:87|357:136,1,123.499994346619,2|4,0:0|3:0,0:0:0:0:
214,235,128918,2,0,L|274:169,1,61.7499971733095,2|0,3:0|0:0,0:0:0:0:
287,314,129234,2,0,L|305:372,1,61.7499971733095,4|0,3:0|0:0,0:0:0:0:
456,198,129550,6,0,P|471:113|440:53,1,142.500005435944,4|0,0:0|0:0,0:0:0:0:
288,117,130181,2,0,L|388:143,1,71.2500027179719,4|0,3:0|0:0,0:0:0:0:
184,58,130497,2,0,L|284:31,1,61.7499971733095,0|0,0:0|1:0,0:0:0:0:
228,233,130813,5,2,0:0:0:0:
82,92,130971,1,0,0:0:0:0:
278,36,131129,1,0,0:0:0:0:
137,183,131286,1,2,0:0:0:0:
335,136,131444,5,0,1:0:0:0:
184,58,131602,1,2,0:0:0:0:
228,233,131760,5,2,3:0:0:0:
359,101,131918,1,0,0:0:0:0:
307,327,132076,6,0,P|223:352|151:315,1,123.499994346619,6|4,0:0|1:3,0:0:0:0:
20,199,132707,2,0,P|104:174|176:211,1,123.499994346619,2|0,0:0|1:0,0:0:0:0:
228,233,133181,1,2,3:0:0:0:
99,293,133339,2,0,L|39:325,1,61.7499971733095,2|0,0:0|0:0,0:0:0:0:
216,377,133655,2,0,L|277:379,1,61.7499971733095,4|2,1:3|0:0,0:0:0:0:
228,233,133971,6,0,L|192:290,1,61.7499971733095,2|0,0:0|0:0,0:0:0:0:
371,371,134287,2,0,L|341:316,1,61.7499971733095,0|2,1:0|3:0,0:0:0:0:
238,80,134602,6,0,P|318:112|360:162,1,123.499994346619,6|4,0:0|1:3,0:0:0:0:
388,229,135076,1,0,0:0:0:0:
427,79,135234,2,0,L|446:13,1,61.7499971733095,2|0,0:2|0:0,0:0:0:0:
472,171,135550,1,0,1:0:0:0:
343,137,135707,1,2,3:0:0:0:
438,300,135865,6,0,L|470:360,1,61.7499971733095,2|0,0:0|0:0,0:0:0:0:
250,288,136181,2,0,L|310:256,1,61.7499971733095,4|0,1:3|0:0,0:0:0:0:
427,79,136497,6,0,L|446:13,1,61.7499971733095,2|2,0:0|0:0,0:0:0:0:
237,112,136813,2,0,L|303:131,1,61.7499971733095,2|2,0:0|0:0,0:0:0:0:
92,248,137129,5,4,3:2:0:0:
129,17,137286,1,0,0:0:0:0:
329,138,137444,5,4,1:3:0:0:
98,101,137601,1,0,0:0:0:0:
317,18,137760,5,2,3:0:0:0:
336,251,137918,1,0,0:0:0:0:
185,71,138076,5,4,1:3:0:0:
405,152,138234,1,2,0:0:0:0:
225,303,138392,5,2,3:0:0:0:
303,55,138550,1,0,0:0:0:0:
349,308,138707,5,4,1:3:0:0:
200,95,138865,1,0,0:0:0:0:
452,155,139023,5,2,3:0:0:0:
452,155,139102,1,0,0:0:0:0:
452,155,139181,1,0,0:0:0:0:
214,260,139339,1,4,1:3:0:0:
316,22,139497,1,0,0:0:0:0:
349,308,139655,5,2,0:0:0:0:
375,343,139760,1,2,0:0:0:0:
418,355,139865,1,2,0:0:0:0:
459,338,139970,1,4,0:3:0:0:
482,300,140076,1,0,0:0:0:0:
477,256,140181,1,0,0:0:0:0:
446,224,140286,5,8,0:3:0:0:
392,223,140391,1,0,0:0:0:0:
344,249,140497,1,2,0:3:0:0:
325,299,140602,1,0,0:0:0:0:
306,349,140707,1,8,0:3:0:0:
258,375,140813,1,0,0:0:0:0:
204,374,140918,6,0,P|169:360|135:343,1,41.1666647822063,2|2,0:0|0:0,0:0:0:0:
38,258,141129,2,0,P|53:244|70:232,1,41.1666647822063,2|4,0:0|0:3,0:0:0:0:
221,172,141339,2,0,P|224:192|226:212,1,41.1666647822063,2|0,3:0|0:0,0:0:0:0:
121,102,141550,5,8,0:3:0:0:
171,60,141629,1,0,0:0:0:0:
235,50,141707,1,0,0:0:0:0:
294,76,141786,1,0,0:0:0:0:
332,124,141865,1,2,0:0:0:0:
355,181,141944,2,0,P|384:177|411:163,1,30.8749985866547,0|0,0:0|0:0,0:0:0:0:
424,10,142181,5,6,0:0:0:0:
424,10,142813,1,2,0:0:0:0:
424,10,143444,1,2,0:0:0:0:
474,98,144707,5,2,0:0:0:0:
424,186,145339,1,2,0:0:0:0:
474,274,146286,5,2,0:0:0:0:
424,362,146602,1,2,0:0:0:0:
372,274,146918,1,2,0:0:0:0:
245,350,147234,6,0,P|199:359|159:346,1,71.2500027179719,2|0,0:0|0:0,0:0:0:0:
134,252,147865,2,0,P|179:243|219:255,1,71.2500027179719,2|0,0:0|0:0,0:0:0:0:
67,331,148497,1,2,0:0:0:0:
25,187,148813,2,0,L|43:247,1,35.625001358986,2|2,0:0|0:0,0:0:0:0:
67,331,149760,6,0,P|36:361|6:376,2,71.2500027179719,2|0|0,0:0|0:0|0:0,0:0:0:0:
35,221,150707,1,2,0:0:0:0:
175,353,151023,5,2,0:0:0:0:
170,247,151655,1,2,0:0:0:0:
92,120,152286,6,0,P|145:100|250:120,1,142.500005435944,2|2,0:0|0:0,0:0:0:0:
258,142,153550,1,2,0:0:0:0:
170,247,153865,5,2,0:0:0:0:
259,232,154181,1,2,0:0:0:0:
316,301,154497,1,2,0:0:0:0:
370,97,154813,5,2,0:0:0:0:
370,97,155481,1,2,0:0:0:0:
370,97,156481,5,2,0:0:0:0:
355,186,156814,1,2,0:0:0:0:
424,243,157147,1,2,0:0:0:0:
460,106,157481,6,0,P|445:43|435:32,1,71.2500027179719,2|0,0:0|0:0,0:0:0:0:
370,97,158145,1,2,0:0:0:0:
256,0,158493,5,2,0:0:0:0:
256,48,158842,1,2,0:0:0:0:
256,160,159191,2,0,L|256:104,1,35.625001358986,2|2,0:0|0:0,0:0:0:0:
256,240,160238,5,2,0:0:0:0:
168,216,160586,1,0,0:0:0:0:
288,328,160935,5,2,0:0:0:0:
352,263,161287,1,0,0:0:0:0:
329,175,161640,1,2,0:0:0:0:
168,216,162001,5,0,0:0:0:0:
191,304,162362,1,2,0:0:0:0:
260,323,162762,1,0,0:0:0:0:
103,279,163162,6,0,L|48:264,7,35.625001358986,4|0|2|0|0|0|2|0,0:0|0:0|0:3|0:0|0:0|0:0|0:3|0:0,0:0:0:0:
144,200,164425,2,0,L|199:185,7,35.625001358986,0|0|2|0|0|0|2|0,0:0|0:0|0:3|0:0|0:0|0:0|0:3|0:0,0:0:0:0:
212,78,165688,6,0,P|260:102|284:142,1,80.750001540184,2|2,0:0|0:3,0:0:0:0:
299,224,166162,1,0,0:0:0:0:
299,224,166319,2,0,P|325:194|362:179,1,80.750001540184,2|2,0:0|0:3,0:0:0:0:
441,132,166793,1,0,0:0:0:0:
441,132,166951,2,0,P|415:102|378:87,1,80.750001540184,2|2,0:0|0:3,0:0:0:0:
362,178,167425,1,0,0:0:0:0:
362,178,167583,2,0,L|392:232,1,40.375000770092,2|2,0:0|0:0,0:0:0:0:
429,288,167898,2,0,L|458:259,1,40.375000770092,2|2,0:3|0:0,0:0:0:0:
397,372,168214,6,0,P|353:332|351:327,7,45.1249987950325,6|0|2|0|2|0|2|0,0:0|0:0|0:3|0:0|0:0|0:0|0:3|0:0,0:0:0:0:
269,336,169477,2,0,P|296:283|300:279,7,45.1249987950325,0|2|2|0|2|0|2|0,0:0|0:0|0:3|0:0|0:0|0:0|0:3|0:0,0:0:0:0:
166,363,170740,6,0,P|115:353|54:374,1,99.7499969558717,2|2,0:0|0:3,0:0:0:0:
20,298,171214,1,0,0:0:0:0:
20,298,171372,2,0,P|51:280|77:277,1,49.8749984779358,2|0,0:0|0:0,0:0:0:0:
143,185,171688,2,0,P|111:167|86:164,1,49.8749984779358,2|0,0:3|0:0,0:0:0:0:
20,72,172004,6,0,P|52:54|77:51,1,49.8749984779358,0|2,0:0|0:0,0:0:0:0:
197,114,172319,2,0,P|221:140|232:163,1,49.8749984779358,2|0,0:3|0:0,0:0:0:0:
202,295,172635,2,0,P|182:325|163:341,1,49.8749984779358,0|0,0:0|0:0,0:0:0:0:
302,374,172951,6,0,P|341:361|348:354,1,35.625001358986,2|0,0:3|0:0,0:0:0:0:
414,218,173266,5,4,0:0:0:0:
465,369,173423,1,0,0:0:0:0:
345,265,173581,1,4,3:0:0:0:
496,213,173739,1,0,0:0:0:0:
367,349,173897,5,2,0:0:0:0:
324,180,174055,1,0,0:0:0:0:
236,331,174213,2,0,P|186:348|136:339,1,95,4|0,3:0|0:0,0:0:0:0:
13,231,174529,5,2,0:0:0:0:
13,231,174608,1,0,0:0:0:0:
13,231,174687,1,0,0:0:0:0:
178,228,174844,1,4,3:0:0:0:
64,347,175002,1,0,0:0:0:0:
63,118,175160,5,8,3:0:0:0:
63,118,175239,1,0,0:0:0:0:
63,118,175318,1,2,0:0:0:0:
193,228,175476,1,4,3:0:0:0:
224,61,175634,1,0,0:0:0:0:
306,305,175792,6,0,P|324:261|324:214,1,95,6|0,0:0|0:0,0:0:0:0:
165,147,176108,1,4,3:0:0:0:
165,147,176187,1,0,0:0:0:0:
165,147,176266,1,0,0:0:0:0:
186,318,176423,1,4,3:0:0:0:
254,160,176581,1,0,0:0:0:0:
336,336,176739,2,0,L|364:227,1,95,8|0,3:0|0:0,0:0:0:0:
445,27,177055,6,0,P|376:7|328:23,1,95,6|0,0:0|0:0,0:0:0:0:
287,153,177371,2,0,L|410:119,1,95,4|0,3:0|0:0,0:0:0:0:
192,79,177687,2,0,L|100:54,1,95,4|2,3:0|2:0,0:0:0:0:
33,252,178002,5,0,3:0:0:0:
40,279,178080,1,0,0:0:0:0:
47,307,178159,1,0,0:0:0:0:
55,334,178238,1,0,0:0:0:0:
62,362,178318,5,4,0:0:0:0:
185,109,178476,1,2,0:0:0:0:
342,342,178634,5,0,1:0:0:0:
90,219,178792,1,2,0:0:0:0:
370,200,178950,1,4,3:0:0:0:
370,200,179029,1,0,0:0:0:0:
370,200,179108,1,0,0:0:0:0:
77,353,179266,5,2,3:0:0:0:
185,109,179423,1,0,0:0:0:0:
256,384,179582,5,4,3:0:0:0:
72,153,179739,1,2,0:0:0:0:
365,110,179897,5,0,1:0:0:0:
130,290,180055,1,2,0:0:0:0:
245,18,180213,1,4,3:0:0:0:
245,18,180292,1,0,0:0:0:0:
245,18,180371,1,0,0:0:0:0:
357,292,180529,5,2,3:0:0:0:
72,153,180687,2,0,L|117:140,1,47.5,0|0,0:0|0:0,0:0:0:0:
413,85,180844,5,4,3:0:0:0:
447,120,180922,1,0,1:0:0:0:
450,171,181001,1,0,1:0:0:0:
419,211,181080,1,0,1:0:0:0:
369,221,181159,1,0,1:0:0:0:
317,230,181239,1,0,1:0:0:0:
287,271,181318,1,0,1:0:0:0:
289,323,181397,1,0,1:0:0:0:
325,360,181477,1,0,0:0:0:0:
373,360,181554,1,0,1:0:0:0:
418,336,181634,1,8,3:0:0:0:
434,287,181713,1,0,0:0:0:0:
415,238,181792,1,4,3:0:0:0:
369,221,181871,1,0,0:0:0:0:
323,194,181950,1,4,3:0:0:0:
309,145,182029,1,0,1:0:0:0:
328,98,182108,6,0,P|366:73|394:74,1,56.9999982604981,4|0,3:0|0:0,0:0:0:0:
357,292,182266,1,8,1:1:0:0:
8,376,182739,5,2,0:0:0:0:
32,352,183055,1,2,0:0:0:0:
56,328,183371,2,0,B|80:294|80:254|80:254|141:304|219:258,1,209.000006378174,4|8,0:0|0:0,0:0:0:0:
230,65,183844,1,0,0:0:0:0:
194,76,183922,1,0,0:0:0:0:
168,100,184001,1,0,0:0:0:0:
152,133,184080,1,0,0:0:0:0:
150,169,184159,1,0,0:0:0:0:
89,29,184318,1,8,0:0:0:0:
18,163,184476,5,0,0:0:0:0:
38,216,184555,1,0,0:0:0:0:
81,254,184634,2,0,P|145:280|217:254,1,104.500003189087,0|0,0:0|0:0,0:0:0:0:
304,168,184950,1,8,0:0:0:0:
331,153,185029,1,0,0:0:0:0:
362,148,185108,2,0,P|416:164|422:168,1,52.2500015945435,0|0,0:0|0:0,0:0:0:0:
380,278,185266,2,0,P|367:222|367:215,1,52.2500015945435,0|0,0:0|0:0,0:0:0:0:
429,63,185423,1,0,0:0:0:0:
455,78,185502,1,0,0:0:0:0:
473,103,185581,2,0,P|486:158|480:207,1,104.500003189087,8|0,0:0|0:0,0:0:0:0:
295,348,185897,5,4,2:0:0:0:
247,367,185975,1,0,0:0:0:0:
199,352,186054,1,0,0:0:0:0:
173,307,186133,1,0,0:0:0:0:
125,288,186213,1,8,0:0:0:0:
77,303,186292,1,0,0:0:0:0:
51,348,186371,1,4,2:0:0:0:
101,357,186449,1,0,0:0:0:0:
147,335,186528,1,0,0:0:0:0:
169,289,186607,1,0,0:0:0:0:
159,238,186686,1,0,0:0:0:0:
121,205,186765,1,0,0:0:0:0:
83,172,186844,1,8,0:0:0:0:
73,115,186923,1,0,0:0:0:0:
109,64,187002,1,4,2:0:0:0:
176,56,187081,1,0,0:0:0:0:
226,108,187160,6,0,P|268:151|331:162,1,104.500003189087,0|0,0:0|0:0,0:0:0:0:
384,129,187397,1,0,0:0:0:0:
440,70,187476,2,0,P|423:127|518:232,1,209.000006378174,8|2,0:0|2:0,0:0:0:0:
334,207,187950,1,2,2:0:0:0:
504,376,188108,1,8,2:1:0:0:
298,348,188266,2,0,L|350:319,1,52.2500015945435,2|0,2:0|0:0,0:0:0:0:
505,230,188423,6,0,P|448:194|421:132,1,104.500003189087,6|0,2:0|0:0,0:0:0:0:
383,5,188739,1,8,0:0:0:0:
309,148,188897,5,0,0:0:0:0:
289,178,188975,1,0,0:0:0:0:
262,203,189054,1,0,0:0:0:0:
227,216,189134,1,0,0:0:0:0:
190,214,189213,1,0,0:0:0:0:
39,32,189371,5,8,0:0:0:0:
81,33,189449,1,0,0:0:0:0:
125,47,189528,1,0,0:0:0:0:
158,76,189608,1,0,0:0:0:0:
179,115,189687,2,0,P|199:175|183:226,1,104.500003189087,2|0,2:0|0:0,0:0:0:0:
24,342,190003,5,8,0:0:0:0:
67,362,190081,1,0,0:0:0:0:
114,360,190160,1,0,0:0:0:0:
160,340,190239,1,0,0:0:0:0:
204,323,190318,2,0,P|274:327|338:375,1,104.500003189087,2|0,2:0|0:0,0:0:0:0:
486,295,190634,2,0,L|362:261,1,104.500003189087,8|0,0:0|0:0,0:0:0:0:
329,250,190871,1,0,0:0:0:0:
274,232,190950,5,6,2:0:0:0:
486,89,191108,1,0,0:0:0:0:
434,367,191266,1,8,0:0:0:0:
322,115,191423,5,0,0:0:0:0:
270,106,191502,1,0,0:0:0:0:
219,120,191581,1,2,0:2:0:0:
178,152,191660,1,0,0:0:0:0:
153,198,191740,1,0,0:0:0:0:
151,254,191818,1,0,0:0:0:0:
175,311,191897,1,8,0:0:0:0:
234,354,191976,1,0,0:0:0:0:
305,337,192055,6,0,P|246:316|130:354,1,156.750004783631,2|0,0:2|0:0,0:0:0:0:
96,384,192371,1,2,2:0:0:0:
64,151,192529,2,0,P|107:158|164:222,1,104.500003189087,8|0,0:0|0:0,0:0:0:0:
33,307,192844,2,0,L|67:252,1,52.2500015945435,2|0,2:0|0:0,0:0:0:0:
158,88,193002,1,2,2:0:0:0:
260,258,193160,1,8,0:0:0:0:
303,287,193239,1,0,0:0:0:0:
355,289,193318,1,2,2:0:0:0:
405,276,193397,1,0,0:0:0:0:
441,239,193476,2,0,P|364:252|297:372,1,209.000006378174,6|8,2:0|0:0,0:0:0:0:
435,375,193950,1,0,0:0:0:0:
379,118,194108,5,2,2:0:0:0:
329,132,194186,1,2,2:0:0:0:
282,155,194265,1,2,2:0:0:0:
242,189,194344,1,2,2:0:0:0:
210,230,194423,1,8,0:0:0:0:
187,277,194502,1,0,0:0:0:0:
175,327,194581,2,0,P|174:358|177:388,1,52.2500015945435,2|0,2:0|0:0,0:0:0:0:
296,356,194739,5,0,0:0:0:0:
253,208,194897,1,0,0:0:0:0:
130,348,195055,2,0,L|6:381,1,104.500003189087,8|0,0:0|0:0,0:0:0:0:
128,73,195371,6,0,P|196:107|214:134,1,104.500003189087,2|0,2:0|0:0,0:0:0:0:
154,217,195608,2,0,P|149:140|163:110,1,104.500003189087,2|0,2:0|0:0,0:0:0:0:
98,18,195844,2,0,P|197:43|265:122,1,209.000006378174,6|0,2:0|0:0,0:0:0:0:
186,329,196318,2,0,L|85:301,1,104.500003189087,8|0,0:0|0:0,0:0:0:0:
271,257,196634,5,0,0:0:0:0:
284,279,196712,1,0,0:0:0:0:
293,303,196791,1,0,0:0:0:0:
296,329,196870,1,0,0:0:0:0:
293,355,196949,5,8,0:0:0:0:
317,328,197029,1,0,0:0:0:0:
348,308,197108,2,0,P|417:292|467:312,1,104.500003189087,6|0,2:0|0:0,0:0:0:0:
307,173,197423,1,2,2:0:0:0:
186,329,197581,5,8,0:0:0:0:
137,360,197660,1,2,2:0:0:0:
81,345,197739,1,2,2:0:0:0:
50,295,197818,1,2,2:0:0:0:
63,239,197897,5,0,0:0:0:0:
96,214,197976,1,0,0:0:0:0:
137,211,198055,1,0,0:0:0:0:
174,230,198134,1,0,0:0:0:0:
198,264,198213,5,8,0:0:0:0:
228,221,198292,1,2,2:0:0:0:
274,197,198371,1,2,2:0:0:0:
325,201,198450,1,2,2:0:0:0:
366,232,198529,6,0,P|441:247|415:133,1,209.000006378174,6|8,2:0|0:0,0:0:0:0:
330,52,199002,1,0,0:0:0:0:
303,35,199081,1,0,0:0:0:0:
272,26,199160,2,0,P|237:21|196:36,1,52.2500015945435,0|0,2:0|0:0,0:0:0:0:
215,145,199318,2,0,P|236:117|244:74,1,52.2500015945435,0|0,2:0|0:0,0:0:0:0:
120,142,199476,1,8,2:1:0:0:
131,192,199554,1,0,0:0:0:0:
167,229,199634,2,0,P|223:250|227:250,1,52.2500015945435,2|0,2:0|0:0,0:0:0:0:
327,272,199792,6,0,P|254:287|219:334,1,104.500003189087,0|0,0:0|0:0,0:0:0:0:
92,345,200108,2,0,P|51:312|34:263,1,104.500003189087,8|0,0:0|0:0,0:0:0:0:
46,55,200423,1,2,2:0:0:0:
167,229,200581,1,2,2:0:0:0:
258,38,200739,2,0,P|185:53|150:100,1,104.500003189087,8|2,0:0|2:0,0:0:0:0:
410,194,201055,6,0,P|395:121|348:86,1,104.500003189087,6|0,2:0|0:0,0:0:0:0:
304,317,201371,1,0,0:0:0:0:
473,117,201529,1,2,2:0:0:0:
473,117,201608,1,0,0:0:0:0:
473,117,201687,2,0,P|402:93|348:116,1,104.500003189087,0|0,1:0|1:0,0:0:0:0:
147,313,202002,5,0,1:0:0:0:
143,316,202080,1,0,2:0:0:0:
138,320,202160,1,0,1:0:0:0:
134,323,202239,1,0,2:0:0:0:
129,325,202318,5,2,2:0:0:0:
60,332,202396,1,2,2:0:0:0:
19,277,202475,1,2,2:0:0:0:
44,213,202554,1,2,2:0:0:0:
112,202,202633,5,2,2:0:0:0:
165,178,202713,1,2,2:0:0:0:
185,124,202792,1,2,2:0:0:0:
167,69,202871,1,2,2:0:0:0:
118,37,202950,5,2,1:2:0:0:
119,103,203028,1,2,1:2:0:0:
161,155,203107,1,2,1:2:0:0:
226,171,203186,1,2,1:2:0:0:
287,144,203265,1,2,1:2:0:0:
347,116,203344,1,2,1:2:0:0:
412,132,203423,1,2,1:2:0:0:
454,184,203502,1,2,1:2:0:0:
456,251,203580,1,6,1:2:0:0:
491,366,213687,6,0,P|428:361|381:317,1,113.999996520996,4|0,0:0|0:0,0:0:0:0:
328,171,214318,1,2,0:0:0:0:
466,274,214634,1,0,0:0:0:0:
307,342,214950,6,0,P|245:326|207:274,1,113.999996520996,2|0,0:0|0:0,0:0:0:0:
163,125,215581,1,0,1:0:0:0:
257,188,215739,1,2,3:0:0:0:
143,203,215897,2,0,P|103:179|88:150,1,56.9999982604981,2|0,0:0|0:0,0:0:0:0:
192,14,216213,6,0,L|158:137,1,113.999996520996,2|0,0:0|0:0,0:0:0:0:
61,328,216844,2,0,L|31:217,2,95,6|0|0,0:0|0:0|0:0,0:0:0:0:
143,203,217792,1,2,0:0:0:0:
214,358,218108,6,0,P|255:379|259:380,2,41.1666647822063,2|8|8,3:2|3:0|3:0,0:0:0:0:
273,295,218423,2,0,P|291:286|308:275,2,41.1666647822063,2|0|0,3:2|0:0|1:0,0:0:0:0:
249,212,218739,2,0,B|197:196|176:138|176:138|226:108|256:137|256:137|324:111,1,246.999988693238,4|2,0:0|0:0,0:0:0:0:
304,118,220318,5,0,0:0:0:0:
304,118,220634,2,0,B|363:129|379:201|379:201|398:181|383:152,1,166.25,12|0,3:0|0:0,0:0:0:0:
284,211,221266,5,6,0:0:0:0:
482,217,221423,1,4,0:0:0:0:
376,19,221740,5,6,0:0:0:0:
469,193,221897,1,6,0:0:0:0:
116,107,222213,5,6,0:0:0:0:
284,211,222370,1,6,0:0:0:0:
98,339,222687,5,6,0:0:0:0:
266,235,222844,1,6,0:0:0:0:
39,177,223160,6,0,B|8:142|14:98,2,63.3333333333333,2|0|0,2:0|1:2|1:0,0:0:0:0:
116,107,223476,2,0,B|130:62|171:45,2,63.3333333333333,2|0|0,2:0|3:0|3:3,0:0:0:0:
208,228,223792,6,0,P|222:178|206:120,1,95,4|2,3:0|0:0,0:0:0:0:
447,144,224266,2,0,P|403:127|371:93,1,95,4|2,3:0|0:0,0:0:0:0:
360,314,224739,2,0,L|324:212,1,95,4|2,3:0|0:0,0:0:0:0:
378,369,225213,5,4,3:0:0:0:
293,115,225371,1,8,3:0:0:0:
124,344,225687,5,0,3:0:0:0:
99,339,225765,1,0,3:0:0:0:
79,327,225844,1,0,3:0:0:0:
65,308,225923,1,0,3:0:0:0:
56,283,226002,2,0,P|65:341|39:372,1,95,2|0,1:3|2:0,0:0:0:0:
52,189,226318,6,0,P|119:211|144:243,1,95,4|2,3:0|0:0,0:0:0:0:
460,189,226792,2,0,P|393:211|368:243,1,95,4|2,3:0|0:0,0:0:0:0:
256,0,227266,2,0,L|256:95,1,95,4|2,3:0|0:0,0:0:0:0:
256,192,227581,5,0,0:0:0:0:
160,80,227739,1,0,0:0:0:0:
256,289,227897,6,0,L|256:352,3,38,0|0|2|0,3:0|0:0|0:0|0:0,0:0:0:0:
342,359,228213,6,0,P|400:371|437:353,1,95,2|0,0:0|0:0,0:0:0:0:
382,201,228529,2,0,P|370:259|388:296,1,95,2|0,0:0|0:0,0:0:0:0:
426,133,228844,2,0,P|367:121|330:139,1,95,6|0,0:0|0:0,0:0:0:0:
201,294,229160,5,0,0:0:0:0:
194,300,229239,1,0,0:0:0:0:
187,306,229318,1,0,0:0:0:0:
180,312,229397,1,0,0:0:0:0:
173,319,229476,5,2,0:0:0:0:
141,308,229555,1,2,0:0:0:0:
107,305,229634,1,0,0:0:0:0:
77,319,229713,1,2,0:0:0:0:
59,347,229792,5,2,0:0:0:0:
30,309,229871,1,0,0:0:0:0:
27,261,229950,1,2,0:0:0:0:
44,216,230029,1,2,0:0:0:0:
82,187,230108,5,2,0:0:0:0:
123,209,230187,1,0,0:0:0:0:
142,252,230266,1,2,0:0:0:0:
135,298,230344,1,2,0:0:0:0:
110,338,230423,5,2,0:0:0:0:
91,288,230502,1,0,0:0:0:0:
113,240,230581,1,2,0:0:0:0:
163,228,230660,1,2,0:0:0:0:
206,257,230739,2,0,P|228:270|259:278,1,47.5,2|0,0:0|0:0,0:0:0:0:
351,158,230897,5,2,0:0:0:0:
365,155,230976,1,0,0:0:0:0:
367,140,231055,1,2,0:0:0:0:
352,133,231134,1,0,0:0:0:0:
339,143,231213,2,0,P|291:160|261:198,1,95,2|0,0:0|0:0,0:0:0:0:
233,360,231529,1,2,0:0:0:0:
439,208,231687,5,2,0:2:0:0:
462,162,231765,1,2,0:0:0:0:
463,110,231844,1,2,0:0:0:0:
439,64,231923,1,2,0:0:0:0:
410,20,232002,5,2,0:2:0:0:
371,55,232080,1,2,0:0:0:0:
321,68,232159,1,2,0:0:0:0:
271,58,232238,1,2,0:0:0:0:
231,22,232318,5,2,0:0:0:0:
202,18,232396,1,2,0:0:0:0:
175,25,232475,1,2,0:0:0:0:
152,42,232554,1,0,0:0:0:0:
127,89,232634,5,2,0:0:0:0:
104,106,232713,1,2,0:0:0:0:
77,113,232792,1,2,0:0:0:0:
48,110,232870,1,0,0:0:0:0:
1,85,232950,5,2,0:0:0:0:
35,54,233028,1,2,0:0:0:0:
81,46,233107,1,2,0:0:0:0:
125,64,233186,1,0,0:0:0:0:
151,103,233265,1,2,0:0:0:0:
153,149,233344,1,0,0:0:0:0:
155,195,233424,5,0,0:0:0:0:
185,237,233503,1,0,0:0:0:0:
239,252,233582,1,2,0:0:0:0:
295,226,233661,1,2,0:0:0:0:
315,163,233739,6,0,P|263:228|290:338,1,190,6|0,0:0|0:0,0:0:0:0:
494,375,234213,1,2,0:0:0:0:
369,260,234371,1,0,0:0:0:0:
454,390,234529,1,0,0:0:0:0:
408,244,234687,1,0,0:0:0:0:
263,350,234844,5,2,0:0:0:0:
210,369,234922,1,2,0:0:0:0:
154,359,235001,1,2,0:0:0:0:
112,322,235080,1,2,0:0:0:0:
93,269,235160,6,0,P|46:232|1:243,1,95,6|0,2:0|0:0,0:0:0:0:
206,252,235476,5,2,0:0:0:0:
232,196,235554,1,2,0:0:0:0:
235,135,235633,1,2,0:0:0:0:
213,78,235712,1,2,0:0:0:0:
174,28,235792,5,0,0:0:0:0:
159,73,235870,1,0,0:0:0:0:
172,118,235949,1,0,0:0:0:0:
207,148,236028,1,0,0:0:0:0:
254,154,236107,1,2,0:0:0:0:
297,159,236187,1,0,0:0:0:0:
327,180,236266,1,0,0:0:0:0:
343,207,236344,1,0,0:0:0:0:
346,236,236423,6,0,P|324:182|334:118,1,95,6|0,0:0|0:0,0:0:0:0:
470,41,236739,1,0,0:0:0:0:
433,167,236897,1,2,0:0:0:0:
436,209,236976,1,2,0:0:0:0:
452,248,237055,2,0,P|459:267|492:299,1,47.5,2|0,0:0|0:0,0:0:0:0:
415,381,237213,2,0,P|407:361|375:330,1,47.5,0|0,0:0|0:0,0:0:0:0:
254,377,237371,5,0,0:0:0:0:
211,381,237450,1,0,0:0:0:0:
170,372,237529,2,0,P|149:368|112:341,1,47.5,2|0,0:0|0:0,0:0:0:0:
36,244,237687,5,0,0:0:0:0:
20,204,237765,1,0,0:0:0:0:
25,162,237844,1,0,0:0:0:0:
51,129,237923,1,0,0:0:0:0:
90,112,238002,1,2,0:0:0:0:
131,117,238081,1,2,0:0:0:0:
165,142,238160,1,2,0:0:0:0:
182,181,238239,1,0,0:0:0:0:
182,224,238318,6,0,P|169:165|193:116,1,95,2|0,0:0|0:0,0:0:0:0:
256,0,238634,1,2,0:0:0:0:
311,178,238792,2,0,B|326:233|374:264|374:264|396:208|451:199,1,190,6|0,0:0|0:0,0:0:0:0:
508,340,239266,1,2,0:0:0:0:
388,307,239423,1,0,0:0:0:0:
498,182,239581,1,2,0:0:0:0:
352,115,239739,6,0,P|321:101|297:61,1,47.5,0|2,0:0|0:0,0:0:0:0:
210,133,239897,2,0,P|200:100|216:56,1,47.5,2|2,0:0|0:0,0:0:0:0:
104,35,240055,2,0,P|123:6|166:-9,1,47.5,0|2,0:0|0:0,0:0:0:0:
26,138,240213,6,0,P|40:168|33:214,1,47.5,0|2,0:0|0:0,0:0:0:0:
146,215,240371,2,0,P|132:246|91:270,1,47.5,0|2,0:0|0:0,0:0:0:0:
164,358,240529,2,0,P|130:368|88:351,1,47.5,0|2,0:0|0:0,0:0:0:0:
267,278,240687,6,0,P|300:267|342:284,1,47.5,2|2,0:0|0:0,0:0:0:0:
411,213,240844,2,0,P|403:246|367:275,1,47.5,0|0,0:0|0:0,0:0:0:0:
395,370,241002,2,0,P|369:346|362:301,1,47.5,2|0,0:0|0:0,0:0:0:0:
359,148,241160,1,2,0:0:0:0:
463,306,241318,1,2,0:0:0:0:
238,178,241476,5,2,0:0:0:0:
234,144,241554,1,0,0:0:0:0:
240,112,241633,1,0,0:0:0:0:
254,82,241712,1,0,0:0:0:0:
275,56,241791,1,0,0:0:0:0:
302,37,241870,1,0,0:0:0:0:
333,25,241949,1,0,0:0:0:0:
366,22,242028,1,0,0:0:0:0:
398,27,242108,5,2,0:0:0:0:
377,64,242186,1,0,0:0:0:0:
344,91,242265,1,0,0:0:0:0:
304,105,242344,1,0,0:0:0:0:
262,105,242423,1,0,0:0:0:0:
222,89,242502,1,0,0:0:0:0:
182,73,242582,1,0,0:0:0:0:
139,72,242661,1,0,0:0:0:0:
99,86,242739,6,0,P|63:115|46:145,1,63.3333333333333,4|0,0:0|0:0,0:0:0:0:
174,254,242950,2,0,P|166:208|149:178,1,63.3333333333333,4|0,0:0|0:0,0:0:0:0:
169,362,243213,5,0,0:0:0:0:
220,351,243292,1,0,0:0:0:0:
261,318,243371,1,4,0:0:0:0:
298,310,243449,1,0,0:0:0:0:
335,313,243528,1,0,0:0:0:0:
370,327,243607,1,0,0:0:0:0:
398,355,243687,2,0,P|437:372|448:372,1,38,0|0,0:0|0:0,0:0:0:0:
490,264,243844,2,0,P|464:281|451:299,1,38,2|2,0:0|0:0,0:0:0:0:
386,384,244002,5,6,0:0:0:0:
458,139,244160,1,4,3:0:0:0:
458,139,244318,1,0,0:0:0:0:
313,158,244476,5,4,0:0:0:0:
453,305,244634,1,4,3:0:0:0:
453,305,244792,1,0,0:0:0:0:
265,294,244950,5,6,0:0:0:0:
433,117,245108,1,4,3:0:0:0:
433,117,245266,1,0,0:0:0:0:
265,90,245423,5,2,0:0:0:0:
433,267,245581,1,6,3:0:0:0:
433,267,245739,1,0,0:0:0:0:
265,294,245897,5,0,3:0:0:0:
265,294,245976,1,0,3:0:0:0:
265,294,246055,1,0,3:0:0:0:
265,294,246134,1,0,3:0:0:0:
265,294,246213,1,0,1:3:0:0:
409,271,246371,1,0,2:0:0:0:
265,90,246529,5,4,0:3:0:0:
265,329,246687,1,6,0:0:0:0:
122,93,247002,5,4,0:3:0:0:
241,299,247160,1,6,0:0:0:0:
0,384,247476,5,4,0:3:0:0:
119,178,247634,1,6,0:0:0:0:
128,304,247792,1,0,0:0:0:0:
96,192,247950,1,0,0:0:0:0:
155,281,248108,1,0,3:0:0:0:
76,222,248266,1,0,3:0:0:0:
320,96,248423,5,2,0:0:0:0:
256,384,248634,5,2,0:0:0:0:
0,176,248844,5,2,0:0:0:0:
326,229,249055,6,0,P|372:259|398:295,1,71.2500027179719,6|0,0:0|0:0,0:0:0:0:
496,384,249371,1,0,0:0:0:0:
454,228,249529,1,0,0:0:0:0:
454,228,249608,1,0,0:0:0:0:
454,228,249687,5,2,2:0:0:0:
429,187,249765,1,0,0:0:0:0:
423,141,249844,1,0,0:0:0:0:
436,96,249923,1,0,0:0:0:0:
467,60,250002,1,2,2:0:0:0:
471,107,250080,1,0,0:0:0:0:
447,146,250159,1,2,2:0:0:0:
403,164,250238,1,2,2:0:0:0:
358,154,250317,5,2,2:0:0:0:
312,143,250397,1,0,0:0:0:0:
265,166,250476,1,2,2:0:0:0:
244,219,250555,1,2,2:0:0:0:
264,276,250633,5,2,2:0:0:0:
210,245,250713,1,0,0:0:0:0:
152,257,250792,1,0,0:0:0:0:
118,307,250871,1,0,0:0:0:0:
127,366,250950,2,0,P|190:369|255:347,1,95,2|2,0:0|0:0,0:0:0:0:
271,334,251187,1,0,0:0:0:0:
323,311,251266,1,2,0:0:0:0:
378,317,251344,1,0,0:0:0:0:
424,349,251423,2,0,P|372:340|382:221,1,190,2|2,0:0|0:0,0:0:0:0:
473,109,251897,5,2,2:0:0:0:
493,58,251975,1,2,2:0:0:0:
461,13,252054,1,0,0:0:0:0:
407,14,252133,1,0,0:0:0:0:
377,60,252213,5,2,2:0:0:0:
347,106,252293,1,2,2:0:0:0:
293,107,252372,1,0,0:0:0:0:
261,62,252451,1,0,0:0:0:0:
282,12,252529,5,2,2:0:0:0:
299,56,252608,1,0,0:0:0:0:
301,103,252687,1,0,0:0:0:0:
274,142,252766,1,0,0:0:0:0:
230,159,252844,1,2,0:0:0:0:
190,174,252923,1,0,0:0:0:0:
166,209,253002,1,0,0:0:0:0:
167,251,253081,1,0,0:0:0:0:
183,291,253160,1,2,0:0:0:0:
196,296,253239,1,2,0:0:0:0:
210,293,253318,1,2,0:0:0:0:
221,284,253397,1,0,0:0:0:0:
227,270,253476,6,0,P|241:231|226:175,1,95,2|0,0:0|0:0,0:0:0:0:
186,95,253687,2,0,P|143:133|137:199,1,126.666666666667,0|4,0:0|0:3,0:0:0:0:
63,259,253950,2,0,P|41:205|41:176,1,63.3333333333333,0|0,0:0|0:0,0:0:0:0:
42,100,254108,6,0,P|73:39|107:16,1,85.4999973907472,4|0,0:0|0:0,0:0:0:0:
214,90,254423,1,0,0:0:0:0:
134,186,254581,1,2,0:0:0:0:
134,158,254660,1,2,0:0:0:0:
143,131,254739,1,2,0:0:0:0:
161,109,254818,1,0,0:0:0:0:
186,95,254896,1,0,0:0:0:0:
291,94,255055,1,2,0:0:0:0:
344,184,255213,1,0,0:0:0:0:
344,184,255292,1,0,0:0:0:0:
344,184,255371,5,2,2:0:0:0:
366,231,255450,1,2,2:0:0:0:
374,282,255529,1,0,0:0:0:0:
360,332,255608,1,0,0:0:0:0:
321,367,255687,5,2,2:0:0:0:
287,332,255766,1,2,2:0:0:0:
241,320,255844,1,0,0:0:0:0:
196,336,255923,1,0,0:0:0:0:
170,375,256002,5,2,0:0:0:0:
132,372,256080,1,2,0:0:0:0:
99,354,256159,1,2,0:0:0:0:
78,323,256238,1,0,0:0:0:0:
72,286,256317,1,0,2:0:0:0:
83,250,256396,1,0,2:0:0:0:
108,222,256475,1,2,0:0:0:0:
144,209,256554,1,2,0:0:0:0:
181,212,256634,6,0,P|238:230|267:264,1,95,6|0,0:0|0:0,0:0:0:0:
176,322,256950,1,0,0:0:0:0:
176,322,257029,1,0,0:0:0:0:
176,322,257108,1,0,0:0:0:0:
266,145,257266,1,4,3:0:0:0:
78,207,257423,1,2,0:0:0:0:
78,207,257502,1,2,0:0:0:0:
78,207,257581,5,0,0:0:0:0:
44,167,257660,1,0,0:0:0:0:
33,115,257739,1,0,0:0:0:0:
49,65,257818,1,0,0:0:0:0:
92,35,257897,6,0,P|149:19|164:18,4,47.5,6|0|0|0|0,0:0|0:0|0:0|0:0|0:0,0:0:0:0:
151,119,258318,6,0,P|189:136|219:138,4,42.7499986953736,2|0|0|0|0,0:0|0:0|0:0|0:0|0:0,0:0:0:0:
253,60,258766,6,0,P|291:54|340:61,2,76,4|0|0,3:0|3:0|2:0,0:0:0:0:
296,179,259160,6,0,B|384:196|437:149|451:74|451:74|492:146|441:170|481:240,1,380,6|2,0:0|0:0,0:0:0:0:
407,341,260739,6,0,L|382:290,2,47.5000018119813,2|2|0,0:0|0:0|0:0,0:0:0:0:
321,354,261055,2,0,P|251:338|182:359,1,142.500005435944,4|0,0:3|0:0,0:0:0:0:
12,213,261687,5,6,0:0:0:0:
253,257,261845,1,4,0:0:0:0:
42,77,262160,5,6,0:0:0:0:
228,235,262318,1,4,3:0:0:0:
468,278,262634,5,4,3:0:0:0:
294,73,262792,1,4,0:0:0:0:
319,311,263107,5,4,3:0:0:0:
270,45,263265,1,6,0:0:0:0:
270,45,263423,1,4,3:0:0:0:
42,77,263581,6,0,P|108:73|171:126,1,142.5,6|0,0:0|0:0,0:0:0:0:
138,192,263897,2,0,P|177:138|258:124,1,142.5,6|0,0:0|0:0,0:0:0:0:
278,251,264213,2,0,P|254:151|303:61,1,209.000006378174,4|8,1:0|0:0,0:0:0:0:
508,50,264687,1,0,0:0:0:0:
493,91,264765,1,0,0:0:0:0:
467,126,264844,1,2,0:2:0:0:
432,153,264923,1,0,0:0:0:0:
392,169,265002,1,0,0:0:0:0:
282,36,265160,1,8,0:0:0:0:
405,219,265318,5,0,0:0:0:0:
402,280,265396,1,0,0:0:0:0:
363,328,265476,2,0,P|307:352|242:343,1,104.500003189087,0|0,0:0|0:0,0:0:0:0:
114,252,265792,1,8,0:0:0:0:
291,227,265950,1,0,0:0:0:0:
291,227,266029,1,0,0:0:0:0:
291,227,266108,2,0,L|304:295,1,52.2500015945435,2|0,0:2|0:0,0:0:0:0:
187,186,266266,2,0,L|196:134,1,52.2500015945435,0|0,0:0|0:0,0:0:0:0:
215,15,266423,1,8,0:0:0:0:
52,76,266581,1,0,0:0:0:0:
52,76,266660,1,0,0:0:0:0:
52,76,266739,5,4,2:0:0:0:
26,120,266817,1,0,0:0:0:0:
33,171,266896,1,0,0:0:0:0:
69,208,266975,1,0,0:0:0:0:
104,244,267055,1,8,0:0:0:0:
111,295,267134,1,0,0:0:0:0:
86,340,267213,1,4,2:0:0:0:
49,304,267291,1,0,0:0:0:0:
43,253,267370,1,0,0:0:0:0:
71,210,267449,1,0,0:0:0:0:
120,195,267528,1,0,0:0:0:0:
167,214,267607,1,0,0:0:0:0:
191,260,267686,5,8,0:0:0:0:
219,311,267766,1,0,0:0:0:0:
279,324,267844,2,0,P|340:318|407:185,1,209.000006378174,4|0,1:2|0:0,0:0:0:0:
372,136,268239,1,0,0:0:0:0:
299,215,268318,2,0,L|379:297,1,104.500003189087,8|0,0:0|0:0,0:0:0:0:
411,332,268555,1,0,0:0:0:0:
452,372,268634,5,2,1:2:0:0:
448,162,268792,1,2,2:0:0:0:
239,272,268950,5,8,2:1:0:0:
490,267,269108,1,2,2:0:0:0:
244,148,269266,6,0,P|181:159|137:206,1,104.500003189087,4|0,1:2|0:0,0:0:0:0:
91,373,269581,2,0,L|57:249,1,104.500003189087,8|0,0:0|0:0,0:0:0:0:
53,242,269818,1,0,0:0:0:0:
44,211,269897,1,2,0:2:0:0:
154,324,270055,1,0,1:0:0:0:
150,183,270213,5,8,0:0:0:0:
148,143,270291,1,0,0:0:0:0:
133,106,270370,1,0,2:0:0:0:
105,77,270449,1,2,2:0:0:0:
69,60,270529,2,0,P|125:90|204:62,1,104.500003189087,2|0,2:0|0:0,0:0:0:0:
319,14,270844,5,8,0:0:0:0:
374,8,270923,1,0,0:0:0:0:
420,39,271002,1,2,2:0:0:0:
436,92,271081,1,2,2:0:0:0:
415,143,271161,2,0,P|416:85|461:47,1,104.500003189087,2|0,2:0|0:0,0:0:0:0:
480,246,271476,2,0,L|356:212,1,104.500003189087,8|0,0:0|0:0,0:0:0:0:
204,177,271792,5,4,2:0:0:0:
335,300,271950,1,0,0:0:0:0:
330,121,272108,1,8,0:0:0:0:
178,215,272266,5,0,0:0:0:0:
143,250,272344,1,0,0:0:0:0:
130,297,272423,1,2,0:2:0:0:
86,264,272502,1,0,0:0:0:0:
73,205,272581,1,0,0:0:0:0:
107,150,272660,1,0,0:0:0:0:
171,123,272739,1,8,0:0:0:0:
206,64,272818,1,0,0:0:0:0:
157,14,272897,2,0,B|151:84|216:112|216:112|272:84|342:125,1,209.000006378174,2|0,0:2|0:0,0:0:0:0:
335,268,273371,6,0,L|233:166,1,104.500003189087,8|0,0:0|0:0,0:0:0:0:
435,240,273687,1,2,2:0:0:0:
309,368,273844,1,2,2:0:0:0:
299,105,274002,5,8,2:1:0:0:
448,253,274160,1,2,2:0:0:0:
378,25,274318,6,0,P|297:-5|243:8,1,104.500003189087,6|0,0:2|0:0,0:0:0:0:
148,85,274634,1,8,0:0:0:0:
126,120,274712,1,0,0:0:0:0:
89,136,274791,1,0,0:0:0:0:
48,128,274870,1,0,0:0:0:0:
20,98,274950,1,2,0:2:0:0:
61,108,275028,1,0,0:0:0:0:
94,133,275107,1,0,0:0:0:0:
114,169,275186,1,0,0:0:0:0:
118,210,275265,1,8,0:0:0:0:
106,250,275344,1,0,0:0:0:0:
78,281,275423,6,0,P|110:216|171:197,1,104.500003189087,2|0,2:0|0:0,0:0:0:0:
312,176,275739,1,0,0:0:0:0:
256,384,275897,1,8,0:0:0:0:
172,289,276055,1,0,0:0:0:0:
347,260,276213,6,0,P|416:289|432:338,1,104.500003189087,2|0,0:2|0:0,0:0:0:0:
445,364,276450,2,0,P|435:288|470:250,1,104.500003189087,2|0,0:2|0:0,0:0:0:0:
486,227,276687,2,0,B|455:283|399:270|399:270|373:222|409:174,1,209.000006378174,6|0,0:2|0:0,0:0:0:0:
511,31,277160,1,8,0:0:0:0:
384,0,277318,1,0,0:0:0:0:
384,0,277397,1,0,0:0:0:0:
384,0,277476,5,2,0:2:0:0:
349,13,277555,1,0,0:0:0:0:
318,33,277634,1,0,0:0:0:0:
300,65,277713,1,0,0:0:0:0:
299,101,277792,5,8,0:0:0:0:
257,78,277871,1,2,2:0:0:0:
199,78,277950,2,0,P|131:98|107:139,1,104.500003189087,2|0,2:0|0:0,0:0:0:0:
77,298,278266,1,2,0:2:0:0:
246,249,278423,5,8,0:0:0:0:
303,226,278501,1,0,0:0:0:0:
365,232,278580,1,0,0:0:0:0:
417,267,278659,1,0,0:0:0:0:
464,309,278739,5,2,0:2:0:0:
438,353,278817,1,2,0:2:0:0:
389,367,278896,1,2,0:2:0:0:
343,344,278975,1,0,0:0:0:0:
326,296,279055,5,8,0:0:0:0:
285,335,279133,1,0,0:0:0:0:
229,343,279212,1,2,0:2:0:0:
179,318,279291,1,2,0:2:0:0:
152,268,279371,6,0,P|183:312|176:379,1,104.500003189087,6|0,2:0|0:0,0:0:0:0:
64,222,279687,1,8,0:0:0:0:
239,203,279844,2,0,L|161:182,1,52.2500015945435,0|0,0:0|0:0,0:0:0:0:
32,147,280002,1,0,0:0:0:0:
188,105,280160,1,0,0:0:0:0:
36,256,280318,5,8,0:0:0:0:
123,34,280476,2,0,P|179:10|231:19,1,104.500003189087,2|0,2:0|0:0,0:0:0:0:
326,69,280792,1,0,0:0:0:0:
336,184,280950,2,0,P|280:208|228:199,1,104.500003189087,8|0,0:0|0:0,0:0:0:0:
203,178,281187,1,0,0:0:0:0:
174,147,281266,5,2,2:0:0:0:
362,52,281423,1,2,2:0:0:0:
322,262,281581,5,8,2:1:0:0:
248,29,281738,1,2,2:0:0:0:
429,194,281898,5,2,0:2:0:0:
444,232,281976,1,0,0:0:0:0:
447,274,282055,1,2,0:2:0:0:
435,314,282134,1,2,0:2:0:0:
412,348,282213,1,2,0:2:0:0:
378,373,282292,1,0,0:0:0:0:
339,385,282371,1,2,0:2:0:0:
297,384,282450,1,2,0:2:0:0:
258,370,282529,5,2,0:2:0:0:
221,334,282607,1,0,0:0:0:0:
200,286,282686,1,2,0:2:0:0:
200,234,282765,1,0,0:0:0:0:
220,186,282844,1,2,0:2:0:0:
224,128,282923,1,2,0:2:0:0:
210,74,283002,1,2,0:2:0:0:
174,28,283081,1,2,0:2:0:0:
125,0,283160,5,2,2:0:0:0:
107,64,283238,1,2,2:0:0:0:
132,126,283317,1,2,2:0:0:0:
189,160,283396,1,2,2:0:0:0:
255,152,283475,1,0,0:0:0:0:
310,120,283555,1,0,0:0:0:0:
367,122,283634,1,0,0:0:0:0:
410,151,283713,1,0,0:0:0:0:
433,191,283792,5,2,2:0:0:0:
385,211,283870,1,2,2:0:0:0:
334,202,283949,1,2,2:0:0:0:
296,167,284028,1,0,0:0:0:0:
283,118,284107,1,0,0:0:0:0:
272,71,284187,1,0,0:0:0:0:
242,41,284266,1,0,0:0:0:0:
209,24,284344,1,0,0:0:0:0:
135,53,284423,6,0,B|159:108|243:127|286:64|286:64|310:68|346:97,1,227.999993041992,4|2,1:0|0:3,0:0:0:0:
471,210,284897,1,0,0:0:0:0:
471,210,284976,1,0,0:0:0:0:
471,210,285055,1,2,0:3:0:0:
286,261,285213,1,0,0:0:0:0:
293,217,285291,1,0,0:0:0:0:
316,181,285370,1,2,0:3:0:0:
352,156,285449,1,0,0:0:0:0:
394,147,285529,6,0,P|350:178|258:168,1,113.999996520996,0|2,0:0|0:3,0:0:0:0:
111,110,285844,1,0,0:0:0:0:
312,74,286002,1,2,0:3:0:0:
161,196,286160,1,0,0:0:0:0:
134,218,286239,1,0,0:0:0:0:
106,238,286318,2,0,P|72:254|34:259,1,56.9999982604981,2|0,0:3|0:0,0:0:0:0:
0,145,286476,2,0,P|30:166|54:196,1,56.9999982604981,0|0,0:0|0:0,0:0:0:0:
82,346,286634,2,0,P|109:339|134:326,1,56.9999982604981,2|0,0:3|0:0,0:0:0:0:
235,222,286792,5,0,0:0:0:0:
235,222,286871,1,0,0:0:0:0:
235,222,286951,1,6,0:2:0:0:
280,189,287029,1,0,0:0:0:0:
336,191,287108,1,0,0:0:0:0:
379,227,287187,1,0,0:0:0:0:
392,281,287266,1,2,0:3:0:0:
369,332,287345,1,0,0:0:0:0:
320,359,287423,5,4,0:2:0:0:
301,305,287502,1,0,0:0:0:0:
310,250,287581,1,2,0:3:0:0:
343,205,287660,1,0,0:0:0:0:
395,181,287739,1,0,0:0:0:0:
446,157,287818,1,0,0:0:0:0:
480,112,287897,1,2,0:3:0:0:
484,49,287976,1,0,0:0:0:0:
430,6,288055,6,0,B|389:5|361:54|361:54|337:96|288:95|288:95|245:64|213:62,1,227.999993041992,4|0,0:2|0:0,0:0:0:0:
169,36,288450,1,0,0:0:0:0:
132,110,288529,2,0,P|207:111|249:53,1,132.999995941162,2|0,0:3|0:0,0:0:0:0:
183,255,288844,5,2,2:0:0:0:
167,10,289002,1,2,2:2:0:0:
57,161,289160,5,0,2:1:0:0:
240,38,289318,1,2,2:0:0:0:
260,312,289476,6,0,P|185:351|88:263,1,227.999993041992,6|2,1:2|0:3,0:0:0:0:
290,189,289950,1,0,0:0:0:0:
316,199,290028,1,0,0:0:0:0:
339,215,290108,2,0,P|378:269|385:331,1,113.999996520996,2|0,0:3|0:0,0:0:0:0:
467,178,290423,5,2,0:3:0:0:
434,129,290502,1,0,0:0:0:0:
387,99,290581,2,0,P|310:92|265:114,1,113.999996520996,2|2,2:0|2:3,0:0:0:0:
126,253,290897,1,2,2:0:0:0:
80,273,290975,1,0,0:0:0:0:
32,257,291054,1,2,0:3:0:0:
8,214,291133,1,0,0:0:0:0:
21,165,291212,1,2,2:0:0:0:
63,138,291291,1,0,2:0:0:0:
112,147,291371,6,0,P|33:120|23:64,1,113.999996520996,2|2,2:0|2:0,0:0:0:0:
256,0,291687,2,0,L|222:123,1,113.999996520996,2|2,0:3|2:0,0:0:0:0:
172,339,292002,5,6,2:0:0:0:
119,169,292160,1,0,0:0:0:0:
306,225,292318,5,2,0:3:0:0:
337,247,292396,1,0,0:0:0:0:
347,284,292475,1,2,2:0:0:0:
332,322,292554,1,2,2:0:0:0:
299,342,292633,1,2,0:3:0:0:
302,290,292713,1,0,0:0:0:0:
331,241,292792,1,2,2:0:0:0:
389,218,292871,1,2,2:0:0:0:
455,234,292950,1,2,2:3:0:0:
494,296,293029,1,0,0:0:0:0:
478,374,293108,6,0,P|446:297|456:256,1,113.999996520996,2|2,2:0|0:3,0:0:0:0:
460,22,293423,2,0,P|489:69|488:126,1,113.999996520996,0|2,0:0|0:3,0:0:0:0:
381,99,293739,1,0,0:0:0:0:
381,99,293818,1,0,0:0:0:0:
381,99,293897,5,2,2:0:0:0:
431,308,294055,1,2,2:0:0:0:
512,106,294213,5,2,2:0:0:0:
270,179,294371,1,2,2:0:0:0:
480,0,294529,6,0,L|355:38,1,113.999996520996,4|0,1:2|0:0,0:0:0:0:
147,192,294844,1,2,0:3:0:0:
164,245,294922,1,0,0:0:0:0:
203,286,295001,1,0,0:0:0:0:
257,304,295080,1,0,0:0:0:0:
313,297,295160,1,2,0:3:0:0:
273,256,295239,1,0,0:0:0:0:
215,256,295318,1,0,0:0:0:0:
173,295,295397,1,0,0:0:0:0:
143,343,295476,1,2,0:3:0:0:
89,363,295555,1,0,0:0:0:0:
40,333,295634,6,0,P|147:362|183:389,1,113.999996520996,2|2,0:2|0:3,0:0:0:0:
26,210,295950,1,0,0:0:0:0:
243,205,296108,2,0,P|136:176|100:149,1,113.999996520996,2|0,0:3|0:0,0:0:0:0:
361,5,296423,6,0,P|379:64|355:119,1,113.999996520996,2|0,1:2|0:0,0:0:0:0:
288,110,296660,2,0,P|330:64|389:57,1,113.999996520996,2|0,1:2|0:0,0:0:0:0:
415,120,296897,2,0,B|353:126|323:68|323:68|258:36|182:80,1,227.999993041992,6|0,1:2|0:0,0:0:0:0:
344,232,297371,5,2,0:3:0:0:
377,239,297450,1,0,0:0:0:0:
411,239,297529,1,0,0:0:0:0:
445,232,297608,1,0,0:0:0:0:
477,220,297687,2,0,P|440:208|414:211,1,56.9999982604981,2|0,0:2|2:0,0:0:0:0:
351,352,297844,2,0,P|388:364|414:361,1,56.9999982604981,2|0,0:2|2:0,0:0:0:0:
225,220,298002,1,2,2:3:0:0:
171,235,298081,1,0,2:0:0:0:
143,283,298160,2,0,B|105:316|109:366|109:366|15:358|24:232,1,227.999993041992,6|2,2:0|2:0,0:0:0:0:
38,21,298634,5,2,2:0:0:0:
89,43,298712,1,2,2:0:0:0:
116,91,298791,1,2,2:0:0:0:
108,147,298870,1,0,2:0:0:0:
66,186,298950,5,2,2:0:0:0:
95,144,299028,1,2,2:0:0:0:
141,123,299107,1,2,2:0:0:0:
192,128,299186,1,0,2:0:0:0:
233,158,299266,5,2,2:0:0:0:
265,181,299345,1,2,2:0:0:0:
303,189,299424,1,2,2:0:0:0:
342,181,299503,1,0,2:0:0:0:
375,159,299581,2,0,P|330:172|335:271,1,113.999996520996,6|0,2:0|0:0,0:0:0:0:
356,373,299897,1,2,0:3:0:0:
484,169,300055,5,0,0:0:0:0:
482,134,300133,1,0,0:0:0:0:
469,103,300212,1,2,0:3:0:0:
448,76,300291,1,0,0:0:0:0:
419,58,300370,1,0,0:0:0:0:
387,49,300449,1,0,0:0:0:0:
352,48,300528,1,2,0:3:0:0:
310,79,300608,1,0,0:0:0:0:
252,58,300687,6,0,P|318:87|339:127,1,113.999996520996,2|2,0:2|0:3,0:0:0:0:
224,270,301002,1,0,0:0:0:0:
224,270,301081,1,0,0:0:0:0:
224,270,301160,2,0,P|216:198|240:160,1,113.999996520996,2|0,0:3|0:0,0:0:0:0:
354,347,301476,5,2,2:0:0:0:
141,301,301634,2,0,P|124:239|124:217,1,56.9999982604981,2|0,2:0|2:0,0:0:0:0:
345,187,301792,2,0,P|299:232|280:243,1,56.9999982604981,2|0,2:3|2:0,0:0:0:0:
144,67,301950,2,0,P|206:83|225:94,1,56.9999982604981,2|0,2:0|2:0,0:0:0:0:
83,368,302108,5,2,0:2:0:0:
60,335,302186,1,0,0:0:0:0:
45,298,302265,1,2,0:2:0:0:
39,258,302344,1,2,0:2:0:0:
42,219,302423,1,2,0:2:0:0:
44,179,302503,1,0,0:0:0:0:
38,139,302582,1,2,0:2:0:0:
23,102,302661,1,2,0:2:0:0:
0,69,302739,5,2,0:2:0:0:
51,89,302817,1,0,0:0:0:0:
108,84,302896,1,2,0:2:0:0:
155,53,302975,1,0,0:0:0:0:
183,5,303054,5,2,0:2:0:0:
223,53,303134,1,2,0:2:0:0:
286,57,303213,1,2,0:2:0:0:
343,33,303292,1,0,0:0:0:0:
398,3,303371,5,2,2:0:0:0:
334,20,303449,1,2,2:0:0:0:
300,78,303528,1,2,2:0:0:0:
314,143,303607,1,2,2:0:0:0:
369,180,303686,1,2,2:0:0:0:
423,217,303766,1,0,0:0:0:0:
437,282,303845,1,0,0:0:0:0:
403,339,303924,1,0,0:0:0:0:
338,357,304002,5,2,2:0:0:0:
287,319,304081,1,2,2:0:0:0:
225,304,304160,1,2,2:0:0:0:
165,324,304239,1,2,2:0:0:0:
120,367,304318,5,2,2:0:0:0:
87,355,304397,1,0,0:0:0:0:
63,330,304476,1,0,0:0:0:0:
53,297,304555,1,0,0:0:0:0:
69,211,304634,6,0,P|100:260|-7:358,1,227.999993041992,6|8,2:0|0:0,0:0:0:0:
51,104,305108,1,4,3:0:0:0:
107,106,305187,1,0,0:0:0:0:
151,140,305266,2,0,P|184:188|192:204,1,56.9999982604981,2|0,0:2|0:0,0:0:0:0:
155,376,305423,2,0,P|187:328|195:312,1,56.9999982604981,0|0,0:0|0:0,0:0:0:0:
358,255,305581,1,8,0:0:0:0:
232,257,305739,5,2,0:2:0:0:
232,257,305818,1,0,0:1:0:0:
232,257,305897,2,0,P|263:181|240:120,1,113.999996520996,2|0,2:0|0:0,0:0:0:0:
178,25,306213,1,8,0:0:0:0:
138,17,306291,1,0,0:0:0:0:
99,23,306370,1,4,3:0:0:0:
64,42,306449,1,2,0:2:0:0:
37,71,306529,2,0,P|19:98|18:131,1,56.9999982604981,2|0,0:2|0:0,0:0:0:0:
89,211,306687,2,0,P|107:183|108:151,1,56.9999982604981,0|0,0:0|0:0,0:0:0:0:
37,351,306844,1,8,0:0:0:0:
232,257,307002,5,0,0:0:0:0:
260,208,307080,1,0,0:0:0:0:
258,152,307160,2,0,P|242:104|230:83,1,56.9999982604981,6|2,0:2|0:2,0:0:0:0:
109,160,307318,2,0,P|158:170|183:170,1,56.9999982604981,2|0,0:2|0:0,0:0:0:0:
345,137,307476,2,0,P|408:95|434:68,1,113.999996520996,8|0,0:0|0:0,0:0:0:0:
486,279,307792,5,2,0:2:0:0:
463,318,307870,1,2,0:2:0:0:
427,345,307949,1,2,0:2:0:0:
383,356,308028,1,0,0:0:0:0:
339,349,308107,5,8,0:0:0:0:
291,318,308186,1,0,0:0:0:0:
235,307,308265,1,0,0:0:0:0:
179,316,308344,1,0,0:0:0:0:
130,344,308423,5,2,0:2:0:0:
191,355,308501,1,2,0:2:0:0:
249,332,308580,1,2,0:2:0:0:
286,283,308659,1,2,0:2:0:0:
293,222,308738,1,8,0:0:0:0:
267,166,308817,1,0,0:0:0:0:
215,132,308896,1,0,0:0:0:0:
153,129,308975,1,0,0:0:0:0:
99,159,309054,5,2,0:2:0:0:
139,187,309134,1,2,0:2:0:0:
188,190,309213,1,2,0:2:0:0:
232,167,309292,1,2,0:2:0:0:
258,125,309371,1,8,0:0:0:0:
258,76,309450,1,0,0:0:0:0:
232,33,309529,1,0,0:0:0:0:
188,11,309608,1,0,0:0:0:0:
107,29,309687,6,0,B|149:75|204:84|204:84|253:38|330:48,1,227.999993041992,6|8,2:0|0:0,0:0:0:0:
485,136,310160,1,4,3:0:0:0:
485,136,310239,1,0,0:0:0:0:
485,136,310318,2,0,P|442:122|408:99,1,56.9999982604981,0|0,0:0|0:0,0:0:0:0:
332,6,310476,2,0,P|359:13|385:25,1,56.9999982604981,0|0,0:0|0:0,0:0:0:0:
375,200,310634,2,0,P|325:186|290:136,1,113.999996520996,8|0,0:0|0:0,0:0:0:0:
480,273,310950,5,6,2:0:0:0:
451,300,311028,1,0,0:0:0:0:
415,318,311107,1,0,0:0:0:0:
376,325,311186,1,0,0:0:0:0:
337,320,311265,5,8,0:0:0:0:
293,314,311345,1,2,0:2:0:0:
250,322,311424,1,2,0:2:0:0:
211,341,311503,1,0,0:0:0:0:
179,371,311581,5,4,3:0:0:0:
125,328,311660,1,0,0:0:0:0:
103,263,311739,1,0,0:0:0:0:
126,198,311818,1,0,0:0:0:0:
183,161,311897,5,8,0:1:0:0:
181,218,311976,1,2,0:2:0:0:
155,268,312055,1,2,0:2:0:0:
98,276,312134,1,0,0:0:0:0:
41,251,312213,5,6,2:0:0:0:
79,216,312291,1,0,0:0:0:0:
126,198,312370,1,0,0:0:0:0:
177,198,312449,1,0,0:0:0:0:
225,216,312528,1,8,0:0:0:0:
262,251,312607,1,0,0:0:0:0:
299,285,312687,1,0,0:0:0:0:
347,303,312766,1,0,0:0:0:0:
398,303,312845,5,0,0:0:0:0:
455,281,312923,1,0,0:0:0:0:
491,231,313002,1,0,0:0:0:0:
491,169,313081,1,0,0:0:0:0:
456,118,313160,1,2,0:2:0:0:
391,96,313239,1,2,0:2:0:0:
327,121,313318,1,2,0:2:0:0:
289,178,313397,1,2,0:2:0:0:
296,246,313476,6,0,P|338:288|345:291,1,56.9999982604981,0|0,1:2|1:2,0:0:0:0:
253,115,313634,1,2,1:2:0:0:
206,54,313713,1,2,1:2:0:0:
135,29,313792,1,2,1:2:0:0:
64,56,313871,1,2,1:2:0:0:
23,119,313950,2,0,P|14:178|18:190,1,56.9999982604981,2|2,1:2|1:2,0:0:0:0:
183,242,314108,6,0,P|154:187|104:164,1,113.999996520996,6|0,2:0|0:0,0:0:0:0:
101,285,314344,6,0,P|163:287|208:255,1,113.999996520996,6|0,2:0|0:0,0:0:0:0:
144,218,314581,6,0,P|127:244|129:271,1,56.9999982604981,6|0,2:0|0:0,0:0:0:0:
253,377,314739,6,0,P|310:329|326:278,1,113.999996520996,4|0,1:2|0:0,0:0:0:0:
354,112,315055,1,2,0:3:0:0:
223,239,315213,1,4,3:0:0:0:
223,239,315292,1,0,0:0:0:0:
223,239,315371,2,0,L|272:196,1,56.9999982604981,2|0,0:3|0:0,0:0:0:0:
416,234,315529,2,0,L|367:191,1,56.9999982604981,0|0,0:0|0:0,0:0:0:0:
259,76,315687,1,2,0:3:0:0:
327,274,315844,1,0,0:0:0:0:
443,77,316002,6,0,P|395:25|342:18,1,113.999996520996,2|2,0:3|0:2,0:0:0:0:
160,24,316318,1,2,0:3:0:0:
263,188,316476,1,4,3:0:0:0:
263,188,316555,1,2,0:2:0:0:
263,188,316634,2,0,L|262:116,1,56.9999982604981,2|0,0:2|0:0,0:0:0:0:
354,16,316792,2,0,L|355:88,1,56.9999982604981,0|0,0:0|0:0,0:0:0:0:
356,201,316950,1,2,0:3:0:0:
261,3,317108,1,0,0:0:0:0:
65,222,317266,6,0,P|37:169|120:175,1,170.999994781494,6|0,2:0|0:0,0:0:0:0:
139,205,317581,1,2,0:3:0:0:
148,249,317660,1,0,0:0:0:0:
144,294,317739,1,0,0:0:0:0:
125,335,317818,1,0,0:0:0:0:
86,359,317897,5,2,0:3:0:0:
112,309,317975,1,0,0:0:0:0:
160,280,318054,1,0,0:0:0:0:
216,280,318133,1,0,0:0:0:0:
264,310,318214,5,2,2:0:0:0:
316,342,318293,1,0,2:0:0:0:
378,343,318372,1,2,2:0:0:0:
431,311,318451,1,2,2:0:0:0:
460,256,318529,5,0,1:0:0:0:
458,190,318608,1,0,1:0:0:0:
423,134,318687,1,2,1:2:0:0:
365,103,318766,1,2,1:2:0:0:
300,109,318844,1,2,1:2:0:0:
246,146,318923,1,2,1:2:0:0:
218,205,319002,1,2,1:2:0:0:
226,270,319081,1,2,1:2:0:0:
261,324,319160,5,2,1:2:0:0:
290,278,319240,1,0,0:0:0:0:
297,222,319319,1,0,0:0:0:0:
273,172,319398,1,0,0:0:0:0:
227,141,319477,1,2,2:0:0:0:
172,136,319555,1,2,2:0:0:0:
123,162,319634,1,2,2:0:0:0:
93,210,319713,1,2,2:0:0:0:
91,266,319792,5,6,2:0:0:0:
365,103,319950,1,0,0:0:0:0:
27,47,320108,5,4,3:0:0:0:
328,226,320266,1,0,0:0:0:0:
8,343,320423,5,0,0:0:0:0:
185,77,320581,1,0,0:0:0:0:
339,382,320739,5,4,3:0:0:0:
57,187,320897,1,2,0:2:0:0:
367,41,321055,5,6,2:0:0:0:
361,97,321134,1,0,0:0:0:0:
357,153,321213,1,0,0:0:0:0:
144,343,321371,5,4,3:0:0:0:
150,287,321450,1,0,0:2:0:0:
154,231,321529,1,0,0:0:0:0:
391,24,321687,5,2,2:0:0:0:
385,80,321766,1,2,2:0:0:0:
381,136,321845,1,0,2:0:0:0:
120,360,322002,5,4,3:3:0:0:
124,304,322081,1,2,0:2:0:0:
130,248,322160,2,0,L|136:183,1,56.9999982604981,2|0,0:2|0:0,0:0:0:0:
506,225,322318,5,4,2:0:0:0:
464,262,322396,1,0,0:0:0:0:
410,281,322475,1,0,0:0:0:0:
353,276,322554,1,0,0:0:0:0:
304,249,322633,1,4,3:3:0:0:
268,205,322712,1,0,0:0:0:0:
254,150,322791,1,0,0:0:0:0:
239,95,322871,1,0,0:0:0:0:
203,51,322950,1,6,0:2:0:0:
181,103,323028,1,2,0:2:0:0:
188,159,323107,1,2,0:2:0:0:
221,205,323186,1,0,0:0:0:0:
271,229,323265,1,4,3:0:0:0:
328,225,323344,1,0,0:0:0:0:
375,195,323423,1,2,0:2:0:0:
402,146,323502,1,2,0:2:0:0:
409,89,323581,6,0,P|403:54|394:31,1,56.9999982604981,6|0,2:0|0:0,0:0:0:0:
116,33,323739,2,0,P|107:60|103:89,1,56.9999982604981,2|0,2:0|0:0,0:0:0:0:
389,250,323897,6,0,P|383:215|374:192,1,56.9999982604981,6|0,2:0|0:0,0:0:0:0:
96,194,324055,2,0,P|87:221|83:250,1,56.9999982604981,0|0,2:0|0:0,0:0:0:0:
225,375,324213,5,6,2:0:0:0:
274,326,324292,1,2,2:0:0:0:
282,250,324371,1,2,2:0:0:0:
236,193,324450,1,2,2:0:0:0:
187,141,324529,1,6,2:0:0:0:
190,65,324608,1,2,2:0:0:0:
247,14,324687,1,2,2:0:0:0:
312,38,324766,1,2,2:0:0:0:
258,88,324844,1,6,2:0:0:0:
256,32,332416,6,0,P|208:64|144:48,1,113.999996520996,0|0,0:0|0:0,0:0:0:0:
54,0,333358,1,2,0:0:0:0:
99,155,333672,6,0,P|159:180|230:175,1,124.687504756451,2|0,0:0|0:0,0:0:0:0:
448,132,334929,2,0,P|382:104|303:110,2,142.500005435944,2|0|0,0:0|0:0|0:0,0:0:0:0:
354,255,336499,5,2,0:0:0:0:
401,194,336813,1,2,0:0:0:0:
414,302,337128,1,2,0:0:0:0:
496,112,337442,5,2,0:0:0:0:
512,96,338090,1,2,0:0:0:0:
354,255,339053,5,2,0:0:0:0:
354,255,339367,2,0,P|329:323|293:355,1,95,2|2,0:0|0:0,0:0:0:0:
158,253,339995,6,0,P|215:243|251:255,2,71.2500027179719,0|0|0,0:0|0:0|0:0,0:0:0:0:
61,339,340942,1,2,0:0:0:0:
39,359,341258,1,0,0:0:0:0:
25,202,341573,2,0,L|30:252,1,35.625001358986,2|2,0:0|0:0,0:0:0:0:
141,158,342521,6,0,P|116:114|74:90,1,76,2|0,0:0|0:0,0:0:0:0:
14,133,343152,2,0,P|39:89|81:65,1,76,0|0,0:0|0:0,0:0:0:0:
173,37,343784,6,0,P|213:62|226:104,1,76,2|0,0:0|0:0,0:0:0:0:
261,171,344416,2,0,P|279:138|312:120,1,76,0|0,0:0|0:0,0:0:0:0:
477,179,345047,6,0,P|428:212|327:187,2,152,2|2|2,0:0|0:0|0:0,0:0:0:0:
477,179,347573,1,2,0:0:0:0:
477,179,348211,6,0,B|473:238|441:258|441:258|366:232|309:297,1,228,2|2,0:0|0:0,0:0:0:0:
287,367,349487,2,0,P|343:367|377:334,1,76,2|2,0:0|0:0,0:0:0:0:
209,300,350126,6,0,P|153:300|119:333,1,76,2|0,0:0|0:0,0:0:0:0:
84,373,350764,1,0,0:3:0:0:
56,296,351083,1,0,0:0:0:0:
108,233,351402,1,0,0:3:0:0:
17,135,351721,2,0,L|52:173,1,38,2|2,0:0|0:0,0:0:0:0:
42,40,352679,6,0,P|86:66|110:111,1,95,2|0,0:0|0:0,0:0:0:0:
67,188,353331,1,0,0:0:0:0:
142,260,353657,1,2,0:0:0:0:
219,179,353983,6,0,P|265:144|314:146,1,95,2|0,0:0|0:0,0:0:0:0:
389,239,354614,2,0,L|261:223,1,95,2|0,0:0|0:0,0:0:0:0:
244,327,355321,2,0,P|321:375|422:336,1,190,2|0,0:0|0:0,0:0:0:0:
410,347,356672,1,0,0:0:0:0:
389,239,356987,6,0,P|383:168|399:134,1,95,0|0,0:0|0:0,0:0:0:0:
440,82,357653,1,0,0:0:0:0:
491,16,357987,2,0,P|414:6|357:88,1,166.25,2|0,0:0|0:0,0:0:0:0:
352,160,358695,6,0,P|310:204|210:201,1,142.500005435944,2|0,0:0|0:0,0:0:0:0:
246,130,359761,2,0,P|211:129|180:145,2,71.2500027179719,2|2|2,0:0|0:0|0:0,0:0:0:0:
231,211,360819,6,0,P|196:227|155:225,1,71.2500027179719,0|0,0:0|0:0,0:0:0:0:
83,190,361525,1,0,0:0:0:0:
161,113,361840,1,2,0:0:0:0:
179,145,362173,1,0,0:0:0:0:
261,248,362506,2,0,L|216:192,1,47.5,2|2,0:0|0:0,0:0:0:0:
275,346,363506,6,0,P|333:320|356:277,1,95,2|0,0:0|0:0,0:0:0:0:
343,200,364241,2,0,P|389:208|424:239,1,95,0|0,0:0|0:0,0:0:0:0:
500,105,365015,2,0,P|454:113|419:145,1,95,2|0,0:0|0:0,0:0:0:0:
410,169,365830,1,0,0:0:0:0:
416,183,366244,1,0,0:0:0:0:
365,83,366559,6,0,L|337:30,1,47.5,0|0,0:0|0:0,0:0:0:0:
290,20,366773,2,0,L|307:55,1,23.75,2|2,0:0|0:0,0:0:0:0:
226,76,367976,6,0,P|157:72|128:48,1,95,2|0,0:0|0:0,0:0:0:0:
50,125,368827,2,0,P|119:129|148:153,1,95,2|0,0:0|0:0,0:0:0:0:
138,142,369766,1,2,0:0:0:0:
70,290,370266,6,0,P|63:226|86:193,1,95,2|0,0:0|0:0,0:0:0:0:
148,254,371162,2,0,P|159:299|141:343,1,95,0|0,0:0|0:0,0:0:0:0:
140,343,372137,1,2,0:0:0:0:
228,270,372578,1,2,0:0:0:0:
271,357,373000,6,0,P|315:312|322:268,1,95,0|0,0:0|0:0,0:0:0:0:
321,198,374252,2,0,P|337:258|372:286,1,95,2|0,0:0|0:0,0:0:0:0:
345,349,375673,1,2,0:0:0:0:
345,349,376423,2,0,P|380:318|426:309,1,95,2|2,0:0|0:0,0:0:0:0:
454,326,377454,2,0,L|484:337,1,23.75,0|0,0:0|0:0,0:0:0:0:
