osu file format v14

[General]
AudioFilename: audio.mp3
AudioLeadIn: 0
PreviewTime: 182660
Countdown: 1
SampleSet: Soft
StackLeniency: 0.7
Mode: 2
LetterboxInBreaks: 0
WidescreenStoryboard: 0

[Editor]
DistanceSpacing: 1
BeatDivisor: 4
GridSize: 8
TimelineZoom: 1.9

[Metadata]
Title:Happy End of the World
TitleUnicode:Happy End of the World
Artist:xi
ArtistUnicode:xi
Creator:Ascendance
Version:Finale
Source:
Tags:agartha diverse system
BeatmapID:1187956
BeatmapSetID:561933

[Difficulty]
HPDrainRate:6
CircleSize:4.2
OverallDifficulty:9.3
ApproachRate:9.3
SliderMultiplier:1.92
SliderTickRate:2

[Events]
//Background and Video events
0,0,"780RdcP.jpg",0,0
//Break Periods
//Storyboard Layer 0 (Background)
//Storyboard Layer 1 (Fail)
//Storyboard Layer 2 (Pass)
//Storyboard Layer 3 (Foreground)
//Storyboard Sound Samples

[TimingPoints]
708,631.578947368421,4,2,21,20,1,0
708,-83.3333333333333,4,2,21,20,0,0
1023,-83.3333333333333,4,2,25,25,0,0
1339,-83.3333333333333,4,2,29,30,0,0
1655,-83.3333333333333,4,2,29,5,0,0
1971,-83.3333333333333,4,2,30,30,0,0
2918,-83.3333333333333,4,2,0,5,0,0
3234,-83.3333333333333,4,2,31,30,0,0
3865,-83.3333333333333,4,2,32,30,0,0
4813,-83.3333333333333,4,2,33,30,0,0
5129,-83.3333333333333,4,2,32,30,0,0
5444,-83.3333333333333,4,2,34,30,0,0
5760,-83.3333333333333,4,2,19,15,0,0
6076,-83.3333333333333,4,2,23,18,0,0
6392,-83.3333333333333,4,2,26,21,0,0
6708,-83.3333333333333,4,2,27,25,0,0
7023,-83.3333333333333,4,2,28,30,0,0
7339,-83.3333333333333,4,2,66,30,0,0
7497,-83.3333333333333,4,2,32,30,0,0
8286,-83.3333333333333,4,2,20,30,0,0
8602,-83.3333333333333,4,2,24,30,0,0
8918,-83.3333333333333,4,2,27,30,0,0
9234,-83.3333333333333,4,2,29,30,0,0
9550,-83.3333333333333,4,2,31,30,0,0
9865,-83.3333333333333,4,2,30,30,0,0
10181,-83.3333333333333,4,2,29,30,0,0
10497,-83.3333333333333,4,2,27,30,0,0
10813,-83.3333333333333,4,2,21,30,0,0
11129,-83.3333333333333,4,2,25,30,0,0
11444,-83.3333333333333,4,2,29,30,0,0
11760,-83.3333333333333,4,2,29,5,0,0
12076,-83.3333333333333,4,2,30,30,0,0
13023,-83.3333333333333,4,2,0,5,0,0
13339,-83.3333333333333,4,2,31,30,0,0
13971,-83.3333333333333,4,2,34,30,0,0
14918,-83.3333333333333,4,2,37,30,0,0
15234,-83.3333333333333,4,2,36,30,0,0
15550,-83.3333333333333,4,2,34,30,0,0
15865,-83.3333333333333,4,2,19,30,0,0
16181,-83.3333333333333,4,2,23,30,0,0
16497,-83.3333333333333,4,2,26,30,0,0
16813,-83.3333333333333,4,2,27,30,0,0
17129,-83.3333333333333,4,2,28,30,0,0
17444,-83.3333333333333,4,2,66,30,0,0
17602,-83.3333333333333,4,2,32,30,0,0
18392,-83.3333333333333,4,2,20,30,0,0
18708,-83.3333333333333,4,2,24,30,0,0
19023,-83.3333333333333,4,2,27,30,0,0
19339,-83.3333333333333,4,2,29,30,0,0
19655,-83.3333333333333,4,2,31,30,0,0
19971,-83.3333333333333,4,2,34,30,0,0
20286,-83.3333333333333,4,2,30,30,0,0
20602,-83.3333333333333,4,2,29,30,0,0
20918,-83.3333333333333,4,2,1,35,0,0
34181,-66.6666666666667,4,2,1,35,0,0
35444,-66.6666666666667,4,2,1,35,0,0
36550,-66.6666666666667,4,2,1,5,0,0
36708,-66.6666666666667,4,2,1,35,0,0
37655,-66.6666666666667,4,2,1,40,0,0
40813,-66.6666666666667,4,2,1,30,0,0
40971,-66.6666666666667,4,2,1,20,0,0
41129,-66.6666666666667,4,2,1,40,0,0
81234,-66.6666666666667,4,2,1,30,0,0
81550,-66.6666666666667,4,2,1,40,0,0
121339,-66.6666666666667,4,2,1,25,0,0
121655,-66.6666666666667,4,2,1,40,0,0
121694,-66.6666666666667,4,2,1,30,0,0
121813,-66.6666666666667,4,2,1,40,0,0
121852,-66.6666666666667,4,2,1,30,0,0
121971,-66.6666666666667,4,2,1,60,0,0
122286,-66.6666666666667,4,2,1,40,0,0
142181,-83.3333333333333,4,2,28,40,0,0
142813,-83.3333333333333,4,2,29,20,0,0
143444,-83.3333333333333,4,2,30,30,0,0
144707,-83.3333333333333,4,2,31,40,0,0
145339,-83.3333333333333,4,2,32,40,0,0
146286,-83.3333333333333,4,2,33,40,0,0
146602,-83.3333333333333,4,2,32,40,0,0
146918,-83.3333333333333,4,2,34,40,0,0
147234,-83.3333333333333,4,2,19,30,0,0
147550,-83.3333333333333,4,2,23,30,0,0
147865,-83.3333333333333,4,2,26,30,0,0
148181,-83.3333333333333,4,2,27,30,0,0
148497,-83.3333333333333,4,2,28,30,0,0
148813,-83.3333333333333,4,2,66,30,0,0
148971,-83.3333333333333,4,2,32,30,0,0
149760,-83.3333333333333,4,2,20,40,0,0
150076,-83.3333333333333,4,2,5,20,0,0
150392,-83.3333333333333,4,2,5,5,0,0
150707,-83.3333333333333,4,2,27,40,0,0
151023,-83.3333333333333,4,2,34,60,0,0
151655,-83.3333333333333,4,2,33,50,0,0
152286,-83.3333333333333,4,2,32,40,0,0
152918,-83.3333333333333,4,2,29,20,0,0
153550,-83.3333333333333,4,2,30,30,0,0
153865,-83.3333333333333,4,2,25,40,0,0
154181,-83.3333333333333,4,2,28,40,0,0
154497,-83.3333333333333,4,2,32,40,0,0
154813,-83.3333333333333,4,2,31,40,0,0
155129,705.882352941176,4,2,1,40,1,8
155481,666.666666666667,4,2,34,40,1,8
156481,-100,4,2,37,40,0,8
156814,-100,4,2,36,40,0,8
157147,-100,4,2,34,40,0,8
157481,-100,4,2,27,40,0,8
157814,-100,4,2,27,5,0,8
158145,697.674418604651,4,2,23,15,1,0
158493,-100,4,2,34,40,0,0
158842,-100,4,2,27,15,0,0
159191,-100,4,2,33,35,0,0
159365,-100,4,2,32,30,0,0
160238,-100,4,2,27,40,0,0
160586,-100,4,2,20,20,0,0
160935,-100,4,2,24,30,0,0
161287,-100,4,2,25,34,0,0
161640,-100,4,2,24,28,0,0
162001,-100,4,2,23,28,0,0
162362,800,4,2,22,22,1,8
162762,-100,4,2,20,22,0,8
163162,631.578947368421,4,2,4,40,1,0
166004,-100,4,2,4,30,0,0
166319,-100,4,2,4,40,0,0
166635,-100,4,2,4,30,0,0
168214,-100,4,2,4,40,0,0
172951,-100,4,2,1,40,0,0
173266,315.789473684211,4,2,1,50,1,0
180845,-100,4,2,1,30,0,0
181476,-100,4,2,1,40,0,0
181555,-100,4,2,1,30,0,0
181634,-100,4,2,1,40,0,0
181713,-100,4,2,1,30,0,0
181792,-100,4,2,1,40,0,0
181871,-100,4,2,1,30,0,0
181950,-100,4,2,1,40,0,0
182029,-100,4,2,1,30,0,0
182108,-100,4,2,1,40,0,0
183371,-90.9090909090909,4,1,1,50,0,1
192292,-90.9090909090909,4,1,1,5,0,1
192371,-90.9090909090909,4,1,1,50,0,1
192844,-125,4,1,1,50,0,1
193476,-90.9090909090909,4,1,1,50,0,1
195529,-90.9090909090909,4,1,1,5,0,1
195608,-90.9090909090909,4,1,1,50,0,1
195766,-90.9090909090909,4,1,1,5,0,1
195844,-90.9090909090909,4,1,1,50,0,1
203581,-133.333333333333,4,1,1,50,0,0
213687,-133.333333333333,4,2,1,40,0,0
216844,-133.333333333333,4,2,1,50,0,0
218318,-133.333333333333,4,2,1,40,0,0
218423,-133.333333333333,4,2,1,50,0,0
218634,-133.333333333333,4,2,1,40,0,0
218739,-133.333333333333,4,2,1,50,0,0
221187,-133.333333333333,4,2,1,5,0,0
221266,-133.333333333333,4,2,1,50,0,0
228844,-100,4,2,1,50,0,0
243845,-100,4,2,1,60,0,0
249055,-100,4,2,1,40,0,0
257897,-100,4,2,1,50,0,0
258318,-100,4,2,1,60,0,0
258766,-100,4,2,1,50,0,0
259160,-100,4,2,1,40,0,0
259318,-100,4,2,1,20,0,0
260423,-100,4,2,1,60,0,0
261371,-100,4,2,1,40,0,0
261688,-100,4,2,1,60,0,0
264213,-100,4,1,1,50,0,1
276371,-100,4,1,1,5,0,1
276450,-100,4,1,1,50,0,1
276608,-100,4,1,1,5,0,1
276687,-100,4,1,1,50,0,1
284384,-90.9090909090909,4,1,1,50,0,0
284423,-100,4,1,2,50,0,1
288844,-100,4,1,1,50,0,1
289476,-100,4,1,2,50,0,1
290581,-100,4,1,1,50,0,1
290739,-100,4,1,2,50,0,1
290897,-100,4,1,1,50,0,1
291055,-100,4,1,2,50,0,1
291213,-100,4,1,1,50,0,1
291371,-100,4,1,2,50,0,1
291529,-100,4,1,1,50,0,1
291687,-100,4,1,2,50,0,1
291844,-100,4,1,1,50,0,1
292002,-100,4,1,2,50,0,1
292476,-100,4,1,1,50,0,1
292634,-100,4,1,2,50,0,1
292792,-100,4,1,1,50,0,1
292950,-100,4,1,2,50,0,1
293108,-100,4,1,1,50,0,1
293266,-100,4,1,2,50,0,1
293897,-100,4,1,1,50,0,1
294529,-100,4,1,2,50,0,1
295634,-100,4,1,1,50,0,1
295792,-100,4,1,2,50,0,1
296660,-100,4,1,1,50,0,1
296897,-100,4,1,2,50,0,1
297844,-100,4,1,1,50,0,1
298002,-100,4,1,2,50,0,1
298081,-100,4,1,1,50,0,1
299581,-100,4,1,2,50,0,1
300687,-100,4,1,1,50,0,1
300844,-100,4,1,2,50,0,1
301634,-100,4,1,1,50,0,1
301792,-100,4,1,2,50,0,1
301950,-100,4,1,1,50,0,1
304594,-100,4,1,2,50,0,0
304634,-100,4,1,1,50,0,1
314739,-100,4,1,3,50,0,1
316476,-100,4,1,1,50,0,1
316634,-100,4,1,2,50,0,1
316792,-100,4,1,3,50,0,1
317266,-100,4,1,2,50,0,1
317581,-100,4,1,3,50,0,1
318213,-100,4,1,1,50,0,1
322318,-100,4,1,1,60,0,1
323581,-100,4,1,1,70,0,1
324213,-100,4,1,1,80,0,1
324805,-100,4,1,1,80,0,0
324844,-200,4,2,1,60,0,1
324923,-200,4,2,1,60,0,0
328634,628.272251308901,4,2,4,60,1,8
329890,631.578947368421,4,2,4,50,1,0
332416,628.272251308901,4,2,4,30,1,0
335557,-100,4,2,4,20,0,0
337442,648.648648648649,4,2,4,30,1,0
338739,628.272251308901,4,2,4,20,1,8
339367,-100,4,2,4,25,0,8
339995,631.578947368421,4,2,4,25,1,0
342521,-100,4,2,4,30,0,0
343152,-100,4,2,4,20,0,0
347573,638.297872340426,4,2,4,20,1,0
348211,-100,4,2,4,25,0,0
352679,652.173913043478,4,2,4,30,1,0
353657,-100,4,2,4,25,0,0
353983,666.666666666667,4,2,4,20,1,8
354316,591.133004926108,4,2,4,20,1,8
354614,705.882352941176,4,2,4,20,1,8
354966,710.059171597633,4,2,4,20,1,8
355321,685.714285714286,4,2,4,20,1,0
356006,666.666666666667,4,2,4,20,1,8
356669,-100,4,2,4,15,0,8
356672,631.578947368421,4,2,4,15,1,8
356987,666.666666666667,4,2,4,15,1,0
358320,750,4,2,4,15,1,8
358554,-100,4,2,4,5,0,8
358695,666.666666666667,4,2,4,30,1,0
359361,800,4,2,4,15,1,8
359761,705.882352941176,4,2,4,30,1,0
360113,-100,4,2,4,25,0,0
361525,631.578947368421,4,2,4,15,1,8
361840,666.666666666667,4,2,4,15,1,8
363506,727.272727272727,4,2,4,30,1,0
363869,745.341614906832,4,2,4,20,1,8
364241,764.331210191083,4,2,4,20,1,8
364244,-100,4,2,4,25,0,8
364623,784.313725490196,4,2,4,20,1,8
365015,805.369127516779,4,2,4,20,1,8
365417,827.586206896552,4,2,4,20,1,8
366244,631.578947368421,4,2,4,20,1,8
366559,571.428571428571,4,2,4,10,1,0
366844,566.037735849057,4,2,4,25,1,8
367976,851.063829787234,4,2,4,20,1,0
368401,-100,4,2,4,15,0,0
368827,827.586206896552,4,2,4,15,1,8
369240,1052.63157894737,4,2,4,15,1,8
369766,1000,4,2,4,10,1,8
370266,857.142857142857,4,2,4,15,1,0
370694,937.5,4,2,4,15,1,8
371162,909.090909090909,4,2,4,15,1,8
371616,1043.47826086957,4,2,4,15,1,8
372137,882.352941176471,4,2,4,10,1,8
372578,845.070422535211,4,2,4,10,1,8
373000,1200,4,2,4,10,1,0
373600,1304.34782608696,4,2,4,10,1,8
374252,1363.63636363636,4,2,4,10,1,8
374933,1481.48148148148,4,2,4,10,1,8
375673,1500,4,2,4,10,1,8
376423,1904.7619047619,4,2,4,10,1,8
377375,1276.59574468085,4,2,4,15,1,0

[HitObjects]
80,328,708,6,0,L|64:192,1,115.199996484375,2|2,0:0|0:0,0:0:0:0:
224,208,1339,2,0,P|296:144|208:72,1,230.39999296875,2|2,0:0|0:0,0:0:0:0:
400,56,3234,6,0,L|168:64,1,230.39999296875,2|2,0:0|0:0,0:0:0:0:
432,184,4813,2,0,L|288:184,2,115.199996484375,2|2|2,0:0|0:0|0:0,0:0:0:0:
272,240,5760,6,0,L|128:248,1,115.199996484375,2|0,0:0|0:0,0:0:0:0:
32,168,6392,2,0,L|184:160,2,115.199996484375,2|0|2,0:0|0:0|0:0,0:0:0:0:
184,88,7339,2,0,L|264:96,1,57.5999982421876,2|2,0:0|0:0,0:0:0:0:
456,144,8286,6,0,L|448:304,1,115.199996484375,2|2,0:0|0:0,0:0:0:0:
288,216,8918,2,0,L|280:344,1,115.199996484375,2|2,0:0|0:0,0:0:0:0:
88,208,9550,1,2,0:0:0:0:
200,192,9865,1,2,0:0:0:0:
304,176,10181,1,2,0:0:0:0:
408,160,10497,1,2,0:0:0:0:
184,48,10813,6,0,L|208:192,1,115.199996484375,2|0,0:0|0:0,0:0:0:0:
344,200,11444,2,0,L|328:328,1,115.199996484375,2|0,0:0|0:0,0:0:0:0:
160,352,12076,2,0,P|96:296|176:192,1,230.39999296875,2|0,0:0|0:0,0:0:0:0:
416,104,13339,6,0,L|184:112,1,230.39999296875,2|2,0:0|0:0,0:0:0:0:
96,216,14918,1,2,0:0:0:0:
240,232,15233,1,2,0:0:0:0:
376,256,15549,1,2,0:0:0:0:
136,344,15865,6,0,L|112:216,1,115.199996484375,2|0,0:0|0:0,0:0:0:0:
288,168,16497,2,0,L|424:152,2,115.199996484375,2|0|2,0:0|0:0|0:0,0:0:0:0:
112,96,17444,2,0,L|208:104,1,57.5999982421876,2|2,0:0|0:0,0:0:0:0:
400,176,18392,6,0,L|384:312,1,115.199996484375,2|2,0:0|0:0,0:0:0:0:
200,352,19023,2,0,L|184:224,1,115.199996484375,2|2,0:0|0:0,0:0:0:0:
368,240,19655,1,2,0:0:0:0:
504,240,19970,1,2,0:0:0:0:
328,128,20286,1,2,0:0:0:0:
488,128,20602,1,2,0:0:0:0:
24,96,20918,6,0,L|32:224,1,115.199996484375,6|0,0:0|0:0,0:0:0:0:
208,160,21550,2,0,L|216:304,1,115.199996484375,2|0,0:0|0:0,0:0:0:0:
376,72,22181,2,0,L|240:96,1,115.199996484375,2|0,0:0|0:0,0:0:0:0:
56,216,22813,2,0,L|200:192,1,115.199996484375,2|0,0:0|0:0,0:0:0:0:
336,272,23444,6,0,L|464:280,1,115.199996484375,2|0,0:0|0:0,0:0:0:0:
256,200,24076,1,2,0:0:0:0:
120,104,24391,1,0,0:0:0:0:
256,8,24707,1,0,1:0:0:0:
392,104,25023,1,2,0:0:0:0:
224,104,25339,1,2,0:0:0:0:
120,104,25497,1,0,1:0:0:0:
224,104,25655,1,2,0:0:0:0:
328,104,25813,1,4,3:0:0:0:
96,208,25971,6,0,L|8:128,1,115.199996484375,6|0,0:0|0:0,0:0:0:0:
184,280,26602,2,0,L|336:280,1,115.199996484375,2|2,0:0|0:0,0:0:0:0:
416,280,27234,1,0,0:0:0:0:
256,184,27550,1,2,0:0:0:0:
352,184,27707,1,2,0:0:0:0:
448,184,27865,1,0,0:0:0:0:
256,184,28181,1,8,3:0:0:0:
456,88,28497,6,0,L|320:88,1,115.199996484375,2|2,0:0|0:0,0:0:0:0:
176,48,29129,2,0,L|192:120,1,57.5999982421876,2|0,0:0|1:0,0:0:0:0:
304,136,29444,2,0,L|288:200,1,57.5999982421876,2|4,0:0|3:0,0:0:0:0:
144,208,29760,2,0,L|168:344,1,115.199996484375,2|0,0:0|0:0,0:0:0:0:
248,344,30234,1,0,1:0:0:0:
382,297,30392,1,2,0:0:0:0:
402,264,30497,1,0,1:0:0:0:
404,227,30602,1,0,1:0:0:0:
387,193,30707,1,2,0:0:0:0:
304,160,30865,1,0,0:0:0:0:
48,72,31023,6,0,P|32:128|48:184,1,115.199996484375,4|0,0:0|0:0,0:0:0:0:
224,176,31655,2,0,P|240:240|216:288,1,115.199996484375,2|0,0:0|0:0,0:0:0:0:
24,336,32286,2,0,L|152:344,1,115.199996484375,2|0,0:0|0:0,0:0:0:0:
288,288,32918,1,4,3:0:0:0:
168,272,33076,1,0,0:0:0:0:
288,288,33234,1,2,0:0:0:0:
168,272,33392,1,0,0:0:0:0:
352,240,33550,6,0,L|376:88,1,115.199996484375,2|0,0:0|0:0,0:0:0:0:
312,96,34023,1,0,0:0:0:0:
80,48,34181,2,0,P|8:112|80:264,1,288.000010986329,6|0,0:0|1:0,0:0:0:0:
320,240,35129,1,2,0:0:0:0:
192,144,35444,2,0,L|136:144,2,48.0000018310548,2|0|0,0:0|1:0|1:0,0:0:0:0:
320,88,35760,2,0,L|376:88,2,48.0000018310548,4|8|0,3:0|3:0|3:0,0:0:0:0:
112,40,36076,6,0,P|64:96|144:208,1,216.000008239746,6|0,0:0|0:0,0:0:0:0:
384,32,36708,2,0,P|456:80|352:344,1,432.000016479493,2|12,0:0|3:0,0:0:0:0:
192,240,37971,2,0,L|288:240,1,72.0000027465821,0|0,1:0|3:0,0:0:0:0:
128,176,38286,2,0,L|48:176,1,72.0000027465821,4|0,1:3|3:0,0:0:0:0:
440,160,38602,6,0,L|464:80,1,72.0000027465821,4|4,0:0|0:0,0:0:0:0:
152,328,39076,2,0,L|136:248,1,72.0000027465821,4|6,0:0|0:0,0:0:0:0:
448,248,39550,2,0,L|360:256,1,72.0000027465821,4|4,0:0|0:0,0:0:0:0:
136,120,40023,2,0,L|224:128,1,72.0000027465821,4|6,0:2|0:2,0:0:0:0:
424,80,40497,2,0,L|480:88,2,48.0000018310548,0|0|0,1:0|1:0|1:0,0:0:0:0:
296,16,40813,2,0,L|399:10,1,72.0000027465821,4|0,3:0|0:0,0:0:0:0:
104,112,41129,6,0,L|96:248,1,72.0000027465821,4|2,0:0|3:0,0:0:0:0:
192,248,41444,1,0,0:0:0:0:
296,288,41602,1,4,0:3:0:0:
48,336,41760,6,0,L|40:184,1,144.000005493164,2|0,0:0|0:0,0:0:0:0:
128,136,42234,1,2,0:3:0:0:
280,208,42550,2,0,L|368:224,2,72.0000027465821,0|2|0,0:0|3:0|0:0,0:0:0:0:
184,160,43023,2,0,L|168:8,1,144.000005493164,0|8,0:0|3:0,0:0:0:0:
384,136,43655,6,0,P|448:200|424:288,1,144.000005493164,2|0,0:0|0:0,0:0:0:0:
360,296,44129,1,2,3:0:0:0:
232,240,44286,2,0,L|216:144,1,72.0000027465821,0|0,0:0|0:0,0:0:0:0:
312,136,44602,2,0,L|344:64,1,72.0000027465821,2|0,3:0|0:0,0:0:0:0:
112,64,44918,6,0,P|48:96|32:184,1,144.000005493164,2|4,0:0|3:0,0:0:0:0:
112,208,45392,1,0,0:0:0:0:
224,168,45550,1,2,0:0:0:0:
264,136,45628,1,0,0:0:0:0:
224,104,45707,1,0,0:0:0:0:
96,32,45865,2,0,L|192:32,1,72.0000027465821,0|0,0:0|0:0,0:0:0:0:
392,80,46181,6,0,P|416:160|376:232,1,144.000005493164,6|0,0:0|0:0,0:0:0:0:
280,256,46655,1,0,3:0:0:0:
400,328,46813,2,0,L|304:328,2,72.0000027465821,2|0|4,0:3|0:0|3:0,0:0:0:0:
280,256,47286,2,0,L|104:256,1,144.000005493164,0|0,0:0|0:0,0:0:0:0:
48,184,47760,2,0,L|40:88,1,72.0000027465821,2|0,3:0|0:0,0:0:0:0:
368,64,48076,2,0,L|200:80,1,144.000005493164,2|4,0:3|3:0,0:0:0:0:
168,184,48550,1,8,3:0:0:0:
456,360,48708,6,0,L|472:176,1,144.000005493164,2|0,0:0|0:0,0:0:0:0:
376,168,49181,1,0,0:0:0:0:
272,112,49339,2,0,L|176:128,1,72.0000027465821,0|0,0:0|1:0,0:0:0:0:
328,40,49655,2,0,L|424:24,1,72.0000027465821,4|8,3:0|3:0,0:0:0:0:
88,40,49971,5,0,3:0:0:0:
42,52,50076,1,0,3:0:0:0:
8,85,50181,1,0,3:0:0:0:
0,131,50286,1,4,3:0:0:0:
6,177,50392,1,2,3:0:0:0:
39,211,50497,1,0,3:0:0:0:
240,256,50602,2,0,L|352:248,1,72.0000027465821,2|2,0:0|0:0,0:0:0:0:
176,144,50918,2,0,L|96:128,1,72.0000027465821,2|2,0:0|0:0,0:0:0:0:
400,40,51234,6,0,P|464:120|424:184,1,144.000005493164,4|0,0:0|0:0,0:0:0:0:
352,208,51708,1,4,3:0:0:0:
200,112,51865,2,0,L|304:112,2,72.0000027465821,2|0|0,3:0|0:0|1:0,0:0:0:0:
80,112,52339,1,0,0:0:0:0:
304,328,52497,6,0,P|336:256|280:184,1,144.000005493164,2|2,0:0|3:0,0:0:0:0:
176,184,52971,1,0,0:0:0:0:
288,80,53129,2,0,L|200:80,1,72.0000027465821,4|0,3:0|1:0,0:0:0:0:
56,24,53444,2,0,L|144:24,1,72.0000027465821,2|0,0:3|0:0,0:0:0:0:
368,16,53760,6,0,P|408:104|360:152,1,144.000005493164,2|4,0:0|3:0,0:0:0:0:
264,208,54234,2,0,L|176:256,2,72.0000027465821,0|0|0,1:0|0:0|0:0,0:0:0:0:
368,256,54708,2,0,L|448:272,1,72.0000027465821,2|0,3:0|0:0,0:0:0:0:
160,336,55023,6,0,L|0:368,1,144.000005493164,2|4,0:0|3:0,0:0:0:0:
120,272,55497,1,0,0:0:0:0:
352,336,55655,2,0,L|512:368,1,144.000005493164,8|4,3:0|3:0,0:0:0:0:
392,272,56129,1,0,1:0:0:0:
168,208,56286,6,0,L|160:128,1,72.0000027465821,4|0,0:0|0:0,0:0:0:0:
264,112,56602,2,0,L|280:32,1,72.0000027465821,0|0,0:0|0:0,0:0:0:0:
168,16,56918,2,0,L|8:24,1,144.000005493164,2|2,0:0|0:0,0:0:0:0:
240,96,57392,2,0,L|400:120,1,144.000005493164,2|0,0:0|1:0,0:0:0:0:
448,176,57865,1,2,0:0:0:0:
504,240,58022,1,0,0:0:0:0:
480,320,58180,1,4,3:0:0:0:
400,352,58338,1,2,3:0:0:0:
312,272,58497,2,0,L|424:272,1,72.0000027465821,4|2,0:3|3:0,0:0:0:0:
152,176,58813,6,0,L|64:176,1,72.0000027465821,4|0,0:0|0:0,0:0:0:0:
248,120,59129,2,0,L|280:48,1,72.0000027465821,4|0,3:0|1:0,0:0:0:0:
144,48,59444,2,0,L|-16:48,1,144.000005493164,2|4,3:0|3:0,0:0:0:0:
96,48,59918,1,0,1:0:0:0:
352,136,60076,6,0,L|408:128,1,48.0000018310548,4|0,0:0|0:0,0:0:0:0:
184,216,60286,2,0,L|136:208,1,48.0000018310548,4|0,0:0|0:0,0:0:0:0:
360,280,60497,2,0,L|424:272,1,48.0000018310548,4|0,0:0|0:0,0:0:0:0:
200,320,60708,2,0,L|48:344,1,144.000005493164,4|4,0:0|3:0,0:0:0:0:
176,264,61181,1,0,0:0:0:0:
440,40,61339,6,0,P|488:112|424:216,1,216.000008239746,6|0,0:0|0:0,0:0:0:0:
192,112,61971,2,0,P|128:184|208:288,1,216.000008239746,2|0,0:0|1:0,0:0:0:0:
280,320,62602,2,0,L|368:320,1,72.0000027465821,0|4,0:0|3:0,0:0:0:0:
496,216,62918,2,0,L|416:216,1,72.0000027465821,2|0,3:0|0:0,0:0:0:0:
256,128,63234,2,0,L|408:128,1,144.000005493164,0|0,3:0|0:0,0:0:0:0:
488,128,63708,1,0,1:0:0:0:
168,64,63865,6,0,P|128:128|208:200,1,144.000005493164,2|4,0:0|3:0,0:0:0:0:
264,224,64339,1,0,1:0:0:0:
152,304,64497,2,0,L|264:304,1,72.0000027465821,2|0,0:0|0:0,0:0:0:0:
96,224,64813,2,0,L|176:224,1,72.0000027465821,2|0,3:0|0:0,0:0:0:0:
424,128,65129,6,0,L|232:128,1,144.000005493164,2|4,0:0|0:3,0:0:0:0:
200,80,65602,1,0,1:0:0:0:
472,216,65760,2,0,L|280:216,1,144.000005493164,2|4,0:0|3:0,0:0:0:0:
248,168,66233,1,0,0:0:0:0:
16,256,66392,6,0,L|192:256,1,144.000005493164,6|0,0:0|0:0,0:0:0:0:
280,208,66865,1,4,3:0:0:0:
144,168,67023,2,0,L|128:80,1,72.0000027465821,2|0,0:0|0:0,0:0:0:0:
232,32,67339,1,4,3:0:0:0:
464,256,67497,2,0,L|264:240,1,144.000005493164,0|0,0:0|0:0,0:0:0:0:
184,192,67971,2,0,L|80:200,1,72.0000027465821,0|0,3:0|0:0,0:0:0:0:
384,240,68286,6,0,P|448:160|352:72,1,216.000008239746,2|0,0:0|0:0,0:0:0:0:
136,160,68918,2,0,P|64:256|168:304,1,216.000008239746,2|0,0:0|1:0,0:0:0:0:
248,272,69550,2,0,L|328:288,1,72.0000027465821,0|4,0:0|3:0,0:0:0:0:
464,232,69865,2,0,L|392:216,1,72.0000027465821,0|0,0:0|3:0,0:0:0:0:
248,136,70181,6,0,L|200:144,2,48.0000018310548,4|2|8,3:0|2:0|3:0,0:0:0:0:
352,80,70497,2,0,L|408:88,2,48.0000018310548,2|8|0,2:0|3:0|3:0,0:0:0:0:
240,24,70813,1,8,3:0:0:0:
199,49,70918,1,0,3:0:0:0:
176,90,71023,1,2,2:0:0:0:
176,138,71128,1,4,3:0:0:0:
199,180,71234,1,0,3:0:0:0:
239,205,71339,1,2,3:0:0:0:
440,336,71444,6,0,L|456:224,1,72.0000027465821,4|0,0:0|0:0,0:0:0:0:
328,208,71760,2,0,L|312:128,1,72.0000027465821,0|2,0:0|0:0,0:0:0:0:
448,56,72076,2,0,L|288:64,1,144.000005493164,8|4,3:0|3:0,0:0:0:0:
216,144,72550,1,0,1:0:0:0:
96,48,72708,6,0,L|184:56,1,72.0000027465821,0|4,3:0|0:3,0:0:0:0:
32,136,73023,2,0,L|40:216,1,72.0000027465821,2|0,3:0|0:0,0:0:0:0:
320,344,73339,2,0,L|328:232,1,72.0000027465821,2|0,0:0|0:0,0:0:0:0:
224,200,73655,1,8,3:0:0:0:
120,144,73813,1,4,3:0:0:0:
400,232,73971,6,0,P|456:168|376:64,1,216.000008239746,6|0,0:0|0:0,0:0:0:0:
120,40,74602,2,0,L|32:32,1,72.0000027465821,4|0,0:3|0:0,0:0:0:0:
176,120,74918,2,0,L|256:128,1,72.0000027465821,0|0,1:0|0:0,0:0:0:0:
32,160,75234,6,0,L|64:336,1,144.000005493164,2|2,0:0|3:0,0:0:0:0:
368,344,75655,2,0,L|400:192,1,144.000005493164,2|0,0:0|0:0,0:0:0:0:
208,88,76076,2,0,L|112:72,1,96.0000036621095,2|0,0:0|0:0,0:0:0:0:
72,24,76392,1,0,0:0:0:0:
336,16,76497,6,0,B|400:48|416:64|416:96|408:120|384:136|360:144|320:144|296:128|264:136|240:152|224:176|224:200|224:240|248:264|264:288|296:304|384:296,1,504.000019226075,6|0,0:0|0:0,0:0:0:0:
56,344,77760,2,0,L|40:176,1,144.000005493164,2|4,0:0|3:0,0:0:0:0:
320,208,78392,2,0,L|336:120,1,72.0000027465821,2|0,3:0|1:0,0:0:0:0:
208,104,78708,2,0,L|192:24,1,72.0000027465821,8|0,3:0|0:0,0:0:0:0:
480,64,79023,6,0,L|400:88,1,72.0000027465821,4|4,0:0|0:0,0:0:0:0:
216,280,79497,2,0,L|312:264,1,72.0000027465821,4|4,0:0|0:0,0:0:0:0:
80,208,79971,2,0,L|56:104,1,72.0000027465821,4|4,0:0|0:0,0:0:0:0:
296,96,80444,2,0,L|320:24,1,72.0000027465821,4|4,0:0|0:0,0:0:0:0:
72,264,80918,2,0,L|240:272,1,144.000005493164,2|2,0:0|0:0,0:0:0:0:
280,232,81392,1,0,0:0:0:0:
32,192,81550,6,0,P|16:104|48:48,1,144.000005493164,6|4,0:0|3:0,0:0:0:0:
208,192,82181,2,0,P|232:280|200:344,1,144.000005493164,2|4,0:0|3:0,0:0:0:0:
112,360,82655,1,2,3:0:0:0:
336,192,82813,2,0,L|488:200,1,144.000005493164,2|4,0:0|3:0,0:0:0:0:
256,104,83444,2,0,L|104:112,1,144.000005493164,0|4,0:0|3:0,0:0:0:0:
32,168,83918,1,0,0:0:0:0:
456,248,84076,6,0,L|480:96,1,144.000005493164,6|4,0:0|3:0,0:0:0:0:
40,64,84708,2,0,L|64:216,1,144.000005493164,4|4,0:0|3:0,0:0:0:0:
320,272,85339,2,0,L|168:296,1,144.000005493164,2|4,0:0|3:0,0:0:0:0:
416,200,85971,1,4,3:0:0:0:
446,163,86076,1,0,3:0:0:0:
456,116,86181,1,0,3:0:0:0:
443,71,86286,1,2,3:0:0:0:
411,36,86392,1,8,3:0:0:0:
368,24,86497,1,8,3:0:0:0:
152,88,86602,6,0,L|8:96,1,144.000005493164,4|4,0:0|3:0,0:0:0:0:
216,152,87234,2,0,P|248:232|208:296,1,144.000005493164,0|4,1:0|3:0,0:0:0:0:
104,320,87708,1,2,3:0:0:0:
328,80,87865,2,0,L|480:88,1,144.000005493164,2|4,0:0|3:0,0:0:0:0:
248,24,88497,2,0,L|96:32,1,144.000005493164,2|4,3:0|3:0,0:0:0:0:
24,80,88971,1,0,0:0:0:0:
288,264,89129,6,0,P|320:200|280:144,1,144.000005493164,2|4,0:0|3:0,0:0:0:0:
160,104,89602,1,0,1:0:0:0:
280,64,89760,2,0,L|440:64,1,144.000005493164,2|4,3:0|3:0,0:0:0:0:
216,152,90392,2,0,L|360:152,1,144.000005493164,4|4,3:0|3:0,0:0:0:0:
104,304,91023,1,0,1:0:0:0:
66,274,91128,1,0,0:0:0:0:
48,230,91233,1,0,1:0:0:0:
55,183,91338,1,4,3:0:0:0:
160,120,91497,1,0,1:0:0:0:
400,216,91655,6,0,L|240:208,1,144.000005493164,4|4,0:0|3:0,0:0:0:0:
64,80,92286,2,0,L|224:88,1,144.000005493164,0|4,1:0|3:0,0:0:0:0:
304,32,92760,1,2,3:0:0:0:
80,320,92918,2,0,L|56:152,1,144.000005493164,2|4,0:0|3:0,0:0:0:0:
320,64,93550,2,0,L|288:208,1,144.000005493164,2|4,1:2|3:0,0:0:0:0:
192,232,94023,1,0,0:0:0:0:
464,320,94181,6,0,L|312:328,1,144.000005493164,2|4,0:0|3:0,0:0:0:0:
112,232,94813,2,0,L|256:248,1,144.000005493164,8|4,3:0|3:0,0:0:0:0:
64,160,95444,2,0,P|48:64|80:16,1,144.000005493164,2|6,0:0|3:0,0:0:0:0:
216,16,96076,1,2,3:0:0:0:
263,18,96181,1,0,0:0:0:0:
311,20,96286,1,0,0:0:0:0:
359,22,96391,1,4,3:0:0:0:
432,24,96550,1,0,0:0:0:0:
192,280,96708,6,0,P|168:208|216:144,1,144.000005493164,4|4,0:0|3:0,0:0:0:0:
416,88,97339,2,0,L|264:88,1,144.000005493164,2|4,0:0|3:0,0:0:0:0:
160,88,97813,1,2,3:0:0:0:
400,328,97971,2,0,L|416:176,1,144.000005493164,2|4,0:0|3:0,0:0:0:0:
152,168,98602,2,0,L|128:8,1,144.000005493164,2|4,3:0|3:0,0:0:0:0:
232,8,99076,1,0,0:0:0:0:
496,184,99234,6,0,L|336:200,1,144.000005493164,2|4,0:0|3:0,0:0:0:0:
152,128,99865,2,0,L|312:112,1,144.000005493164,2|4,1:2|3:0,0:0:0:0:
72,72,100497,2,0,L|16:64,2,48.0000018310548,10|0|0,3:0|0:0|0:0,0:0:0:0:
200,144,100813,2,0,L|248:152,2,48.0000018310548,4|0|0,3:0|0:0|0:0,0:0:0:0:
64,160,101129,1,10,3:0:0:0:
41,201,101234,1,0,0:0:0:0:
40,249,101339,1,0,0:0:0:0:
60,292,101444,1,4,3:0:0:0:
98,321,101550,1,0,0:0:0:0:
145,329,101655,1,0,0:0:0:0:
352,272,101760,6,0,P|344:200|256:168,1,144.000005493164,4|4,0:0|3:0,0:0:0:0:
112,96,102392,2,0,L|264:88,1,144.000005493164,0|4,1:0|3:0,0:0:0:0:
328,32,102865,1,0,0:0:0:0:
64,288,103023,2,0,L|48:136,1,144.000005493164,2|4,0:0|3:0,0:0:0:0:
272,304,103655,2,0,L|96:320,1,144.000005493164,0|4,1:0|3:0,0:0:0:0:
64,272,104129,1,0,0:0:0:0:
384,208,104286,6,0,P|424:144|352:96,1,144.000005493164,2|4,0:0|3:0,0:0:0:0:
200,32,104918,2,0,P|160:96|200:144,1,144.000005493164,2|4,0:0|3:0,0:0:0:0:
288,184,105392,1,0,0:0:0:0:
32,288,105550,2,0,L|200:296,1,144.000005493164,2|8,0:0|3:0,0:0:0:0:
448,208,106181,2,0,L|312:216,2,96.0000036621095,4|6|6,0:0|0:0|0:0,0:0:0:0:
160,160,106813,6,0,L|0:168,1,144.000005493164,6|4,0:0|3:0,0:0:0:0:
240,80,107444,2,0,P|288:144|264:216,1,144.000005493164,2|4,3:0|3:0,0:0:0:0:
192,248,107918,1,0,1:0:0:0:
448,320,108076,2,0,L|288:328,1,144.000005493164,2|4,0:0|3:0,0:0:0:0:
472,232,108708,2,0,L|328:240,1,144.000005493164,8|4,3:0|3:0,0:0:0:0:
160,184,109339,6,0,L|336:168,1,144.000005493164,2|4,0:0|3:0,0:0:0:0:
80,120,109971,2,0,P|64:208|96:264,1,144.000005493164,2|4,3:0|3:0,0:0:0:0:
176,288,110444,1,2,0:0:0:0:
456,184,110602,2,0,L|232:192,2,192.000007324219,2|2|0,0:0|0:0|1:0,0:0:0:0:
88,88,111865,6,0,L|120:240,1,144.000005493164,6|4,0:0|3:0,0:0:0:0:
288,272,112497,1,2,2:0:0:0:
128,320,112813,1,4,3:0:0:0:
288,272,113129,2,0,L|440:288,1,144.000005493164,0|4,1:0|3:0,0:0:0:0:
232,200,113760,2,0,L|88:216,1,144.000005493164,2|4,3:0|3:0,0:0:0:0:
24,272,114234,1,0,0:0:0:0:
304,256,114392,6,0,P|312:176|264:120,1,144.000005493164,4|4,0:0|3:0,0:0:0:0:
192,96,114865,1,2,0:0:0:0:
104,96,115023,1,0,0:0:0:0:
240,64,115181,2,0,L|400:64,1,144.000005493164,2|2,0:0|0:0,0:0:0:0:
120,128,115655,2,0,L|160:288,1,144.000005493164,2|4,0:0|3:0,0:0:0:0:
232,320,116129,1,2,0:0:0:0:
304,352,116286,1,2,0:2:0:0:
152,280,116444,2,0,L|8:296,1,144.000005493164,2|0,0:0|0:0,0:0:0:0:
288,208,116918,6,0,L|304:56,1,144.000005493164,6|4,0:0|3:0,0:0:0:0:
136,184,117550,2,0,L|176:336,1,144.000005493164,2|4,1:2|3:0,0:0:0:0:
264,344,118023,1,2,3:0:0:0:
496,136,118181,2,0,L|336:160,1,144.000005493164,2|4,0:0|3:0,0:0:0:0:
168,272,118813,2,0,L|312:256,1,144.000005493164,2|4,1:2|3:0,0:0:0:0:
384,200,119286,1,2,0:0:0:0:
128,48,119444,5,4,3:2:0:0:
96,65,119522,1,0,3:0:0:0:
73,92,119601,1,0,3:0:0:0:
60,125,119680,1,0,3:0:0:0:
59,161,119759,1,2,3:2:0:0:
71,195,119838,1,0,3:0:0:0:
94,223,119917,1,0,3:0:0:0:
125,241,119996,1,0,3:0:0:0:
368,336,120076,1,8,3:0:0:0:
402,325,120154,1,0,0:0:0:0:
430,303,120233,1,0,0:0:0:0:
447,271,120312,1,0,0:0:0:0:
453,236,120391,1,2,0:0:0:0:
445,201,120470,1,0,0:0:0:0:
424,172,120549,1,0,0:0:0:0:
395,152,120628,1,0,0:0:0:0:
200,120,120708,6,0,L|128:128,1,72.0000027465821,4|0,3:0|0:0,0:0:0:0:
280,208,121023,2,0,L|352:216,1,72.0000027465821,4|0,3:0|0:0,0:0:0:0:
80,256,121339,2,0,L|24:272,2,48.0000018310548,2|0|0,0:0|0:0|0:0,0:0:0:0:
416,120,121655,2,0,L|488:128,1,72.0000027465821,4|0,3:0|0:0,0:0:0:0:
48,56,121971,6,0,L|72:160,1,72.0000027465821,6|0,0:0|0:0,0:0:0:0:
224,160,122286,2,0,L|200:240,1,72.0000027465821,4|0,3:0|0:0,0:0:0:0:
344,272,122602,2,0,L|368:352,1,72.0000027465821,0|0,1:0|0:0,0:0:0:0:
200,288,122918,2,0,L|240:184,1,72.0000027465821,4|2,3:0|3:0,0:0:0:0:
400,176,123234,6,0,L|448:104,1,72.0000027465821,2|0,0:0|0:0,0:0:0:0:
296,56,123550,2,0,L|224:24,1,72.0000027465821,4|0,3:0|3:0,0:0:0:0:
80,152,123865,2,0,L|168:128,1,72.0000027465821,0|0,1:0|0:0,0:0:0:0:
312,184,124181,2,0,L|320:272,1,72.0000027465821,2|0,3:0|0:0,0:0:0:0:
192,296,124497,6,0,L|96:312,1,72.0000027465821,4|0,3:0|0:0,0:0:0:0:
288,336,124813,2,0,L|384:360,1,72.0000027465821,0|0,3:0|1:0,0:0:0:0:
480,288,125129,2,0,L|496:200,1,72.0000027465821,8|0,3:0|0:0,0:0:0:0:
376,152,125444,2,0,L|304:128,1,72.0000027465821,4|0,3:0|0:0,0:0:0:0:
176,216,125760,6,0,L|264:208,1,72.0000027465821,2|8,0:0|3:0,0:0:0:0:
104,128,126076,2,0,L|80:40,1,72.0000027465821,0|2,1:0|0:0,0:0:0:0:
216,120,126392,1,4,3:0:0:0:
258,140,126497,1,0,0:0:0:0:
288,178,126602,1,0,0:0:0:0:
298,224,126707,1,2,3:0:0:0:
287,270,126813,1,0,0:0:0:0:
256,307,126918,1,0,0:0:0:0:
72,352,127023,6,0,L|56:256,1,72.0000027465821,4|0,0:0|0:0,0:0:0:0:
200,216,127339,2,0,L|224:144,1,72.0000027465821,4|0,3:0|0:0,0:0:0:0:
368,144,127655,2,0,L|352:56,1,72.0000027465821,2|0,3:0|0:0,0:0:0:0:
480,200,127971,2,0,L|440:264,1,72.0000027465821,4|2,3:0|0:3,0:0:0:0:
264,240,128286,6,0,L|192:208,1,72.0000027465821,2|0,0:0|0:0,0:0:0:0:
64,136,128602,2,0,L|144:112,1,72.0000027465821,4|0,3:0|0:0,0:0:0:0:
280,64,128918,2,0,L|368:80,1,72.0000027465821,2|0,3:0|0:0,0:0:0:0:
216,168,129234,2,0,L|224:248,1,72.0000027465821,4|0,3:0|0:0,0:0:0:0:
480,272,129550,6,0,L|472:352,1,72.0000027465821,4|0,0:0|0:0,0:0:0:0:
312,240,129865,2,0,L|320:128,1,72.0000027465821,0|0,0:0|0:0,0:0:0:0:
448,104,130181,1,4,3:0:0:0:
296,80,130339,1,0,0:0:0:0:
448,96,130497,1,0,0:0:0:0:
296,80,130655,1,0,1:0:0:0:
40,160,130813,5,2,0:0:0:0:
168,176,130971,1,0,0:0:0:0:
296,200,131129,1,0,0:0:0:0:
168,176,131286,1,2,0:0:0:0:
472,160,131444,5,0,1:0:0:0:
344,176,131602,1,2,0:0:0:0:
216,200,131760,1,2,3:0:0:0:
344,176,131917,1,0,0:0:0:0:
56,320,132076,6,0,L|48:208,1,72.0000027465821,6|0,0:0|0:0,0:0:0:0:
216,200,132392,2,0,L|224:120,1,72.0000027465821,4|0,1:3|0:0,0:0:0:0:
64,48,132707,2,0,L|88:128,1,72.0000027465821,2|0,0:0|0:0,0:0:0:0:
232,184,133023,2,0,L|248:264,1,72.0000027465821,0|2,1:0|3:0,0:0:0:0:
408,320,133339,6,0,L|336:344,1,72.0000027465821,2|0,0:0|0:0,0:0:0:0:
184,296,133655,2,0,L|96:320,1,72.0000027465821,4|2,1:3|0:0,0:0:0:0:
272,224,133971,2,0,L|368:240,1,72.0000027465821,2|0,0:0|0:0,0:0:0:0:
200,112,134286,2,0,L|296:136,1,72.0000027465821,0|2,1:0|3:0,0:0:0:0:
32,216,134602,6,0,L|16:112,1,72.0000027465821,6|0,0:0|0:0,0:0:0:0:
168,320,134918,2,0,L|192:248,1,72.0000027465821,4|0,1:3|0:0,0:0:0:0:
336,224,135234,2,0,L|312:128,1,72.0000027465821,2|0,0:2|0:0,0:0:0:0:
200,120,135550,1,0,1:0:0:0:
80,128,135707,1,2,3:0:0:0:
352,56,135865,6,0,L|456:72,1,72.0000027465821,2|0,0:0|0:0,0:0:0:0:
280,120,136181,1,4,1:3:0:0:
224,208,136339,1,0,0:0:0:0:
344,336,136497,1,2,0:0:0:0:
382,308,136602,1,0,0:0:0:0:
401,264,136707,1,0,0:0:0:0:
395,217,136812,1,2,0:0:0:0:
296,152,136971,1,2,0:0:0:0:
40,88,137129,6,0,L|128:104,1,72.0000027465821,4|0,3:2|0:0,0:0:0:0:
248,184,137444,2,0,L|328:200,1,72.0000027465821,4|0,1:3|0:0,0:0:0:0:
136,256,137760,2,0,L|216:272,1,72.0000027465821,2|0,3:0|0:0,0:0:0:0:
352,368,138076,2,0,L|256:352,1,72.0000027465821,4|2,1:3|0:0,0:0:0:0:
448,296,138392,6,0,L|464:216,1,72.0000027465821,2|0,3:0|0:0,0:0:0:0:
352,152,138707,2,0,L|264:120,1,72.0000027465821,4|0,1:3|0:0,0:0:0:0:
152,224,139023,2,0,L|248:200,1,72.0000027465821,2|0,3:0|0:0,0:0:0:0:
80,152,139339,2,0,L|56:64,1,72.0000027465821,4|0,1:3|0:0,0:0:0:0:
360,104,139655,6,0,L|448:96,2,48.0000018310548,2|2|2,0:0|0:0|0:0,0:0:0:0:
152,208,139971,2,0,L|96:216,2,48.0000018310548,4|0|0,0:3|0:0|0:0,0:0:0:0:
360,296,140286,2,0,L|368:232,1,48.0000018310548,8|0,0:3|0:0,0:0:0:0:
304,200,140497,1,2,0:3:0:0:
112,136,140602,2,0,L|104:64,1,48.0000018310548,0|8,0:0|0:3,0:0:0:0:
168,40,140812,1,0,0:0:0:0:
400,112,140918,6,0,L|464:120,2,48.0000018310548,2|2|2,0:0|0:0|0:0,0:0:0:0:
128,280,141234,2,0,L|72:288,2,48.0000018310548,4|2|0,0:3|3:0|0:0,0:0:0:0:
360,336,141550,5,8,0:3:0:0:
381,306,141628,1,0,0:0:0:0:
393,273,141707,1,0,0:0:0:0:
396,237,141786,1,0,0:0:0:0:
389,202,141865,1,2,0:0:0:0:
373,170,141944,1,0,0:0:0:0:
348,144,142023,1,0,0:0:0:0:
318,125,142102,1,0,0:0:0:0:
72,64,142181,5,6,0:0:0:0:
336,64,142813,2,0,P|384:136|296:232,1,230.39999296875,2|2,0:0|0:0,0:0:0:0:
72,288,144707,2,0,L|312:296,1,230.39999296875,2|2,0:0|0:0,0:0:0:0:
448,160,146286,2,0,L|304:168,2,115.199996484375,2|2|2,0:0|0:0|0:0,0:0:0:0:
264,120,147234,6,0,L|128:112,1,115.199996484375,2|0,0:0|0:0,0:0:0:0:
312,216,147865,2,0,L|448:208,2,115.199996484375,2|0|2,0:0|0:0|0:0,0:0:0:0:
176,296,148813,2,0,L|248:288,1,57.5999982421876,2|2,0:0|0:0,0:0:0:0:
64,232,149760,6,0,P|24:152|120:40,1,230.39999296875,2|0,0:0|0:0,0:0:0:0:
216,24,150707,1,2,0:0:0:0:
336,128,151023,2,0,L|88:144,1,230.39999296875,2|2,0:0|0:0,0:0:0:0:
448,208,152286,5,2,0:0:0:0:
304,80,152918,2,0,P|248:152|320:264,1,230.39999296875,2|2,0:0|0:0,0:0:0:0:
176,288,153865,2,0,L|40:296,2,115.199996484375,2|2|2,0:0|0:0|0:0,0:0:0:0:
376,272,154813,5,2,0:0:0:0:
88,160,155481,1,2,0:0:0:0:
360,88,156481,2,0,L|224:104,2,96,2|2|2,0:0|0:0|0:0,0:0:0:0:
192,176,157481,2,0,L|80:160,1,96,2|0,0:0|0:0,0:0:0:0:
192,176,158145,1,2,0:0:0:0:
368,104,158493,6,0,P|432:160|360:256,1,192,2|2,0:0|0:0,0:0:0:0:
312,256,159365,1,2,0:0:0:0:
128,144,160238,2,0,L|336:160,1,192,2|2,0:0|0:0,0:0:0:0:
456,176,161284,1,0,0:0:0:0:
312,304,161633,2,0,L|296:184,1,96,0|0,0:0|0:0,0:0:0:0:
136,200,162362,2,0,L|120:80,1,96,2|0,0:0|0:0,0:0:0:0:
376,80,163162,6,0,L|384:160,3,48,4|0|2|0,0:0|0:0|0:3|0:0,0:0:0:0:
264,184,163793,2,0,L|256:256,3,48,0|0|2|0,0:0|0:0|0:3|0:0,0:0:0:0:
152,136,164425,2,0,L|136:64,3,48,0|0|2|0,0:0|0:0|0:3|0:0,0:0:0:0:
56,200,165056,2,0,L|40:272,3,48,0|0|2|0,0:0|0:0|0:3|0:0,0:0:0:0:
160,16,165688,5,2,0:0:0:0:
206,25,165845,1,0,0:0:0:0:
244,54,166003,1,2,0:3:0:0:
265,97,166161,1,0,0:0:0:0:
265,144,166319,1,2,0:0:0:0:
245,187,166477,1,0,0:0:0:0:
207,217,166635,1,2,0:3:0:0:
161,227,166793,1,0,0:0:0:0:
408,328,166951,5,2,0:0:0:0:
452,313,167108,1,0,0:0:0:0:
482,276,167266,1,2,0:3:0:0:
487,229,167424,1,0,0:0:0:0:
207,217,167583,5,2,0:0:0:0:
162,202,167740,1,2,0:0:0:0:
132,165,167898,1,2,0:3:0:0:
127,118,168056,1,2,0:0:0:0:
368,64,168214,6,0,L|448:72,3,48,6|0|2|0,0:0|0:0|0:3|0:0,0:0:0:0:
264,128,168846,2,0,L|208:136,3,48,2|0|2|0,0:0|0:0|0:3|0:0,0:0:0:0:
48,83,169477,2,0,L|96:88,3,48,0|2|2|0,0:0|0:0|0:3|0:0,0:0:0:0:
232,184,170109,2,0,L|160:192,3,48,2|0|2|0,0:0|0:0|0:3|0:0,0:0:0:0:
368,72,170740,5,2,0:0:0:0:
403,102,170897,1,0,0:0:0:0:
411,149,171055,1,2,0:3:0:0:
389,190,171213,1,0,0:0:0:0:
328,224,171372,2,0,L|344:296,3,48,2|0|2|0,0:0|0:0|0:3|0:0,0:0:0:0:
80,184,172004,6,0,L|96:96,3,48,0|2|2|0,0:0|0:0|0:3|0:0,0:0:0:0:
336,88,172635,2,0,L|328:24,3,48,0|0|2|0,0:0|0:0|0:3|0:0,0:0:0:0:
32,64,173266,6,0,L|40:184,1,96,4|0,0:0|0:0,0:0:0:0:
176,176,173581,2,0,L|160:296,1,96,4|0,3:0|0:0,0:0:0:0:
304,360,173897,2,0,L|288:264,1,96,2|0,0:0|0:0,0:0:0:0:
416,216,174213,2,0,L|432:112,1,96,4|0,3:0|0:0,0:0:0:0:
272,40,174529,6,0,L|280:152,1,96,2|0,0:0|0:0,0:0:0:0:
144,264,174844,2,0,L|168:144,1,96,4|0,3:0|0:0,0:0:0:0:
24,152,175160,2,0,L|8:32,1,96,8|2,3:0|0:0,0:0:0:0:
160,176,175476,2,0,L|144:272,1,96,4|0,3:0|0:0,0:0:0:0:
416,264,175792,5,6,0:0:0:0:
480,197,175949,1,0,0:0:0:0:
465,106,176107,1,4,3:0:0:0:
383,63,176265,1,0,0:0:0:0:
248,72,176423,2,0,L|136:80,1,96,4|0,3:0|0:0,0:0:0:0:
288,176,176739,2,0,L|400:168,1,96,8|0,3:0|0:0,0:0:0:0:
40,336,177055,6,0,L|32:240,1,96,6|0,0:0|0:0,0:0:0:0:
184,208,177371,2,0,L|200:104,1,96,4|0,3:0|0:0,0:0:0:0:
56,56,177687,2,0,L|176:40,1,96,4|2,3:0|2:0,0:0:0:0:
256,80,178002,1,0,3:0:0:0:
287,134,178107,1,0,3:0:0:0:
271,194,178212,1,0,3:0:0:0:
88,280,178318,6,0,L|-8:288,2,96,4|2|0,0:0|0:0|1:0,0:0:0:0:
304,248,178792,2,0,L|408:256,2,96,2|4|0,0:0|3:0|0:0,0:0:0:0:
64,176,179266,2,0,L|192:168,1,96,2|0,3:0|0:0,0:0:0:0:
464,120,179581,6,0,L|352:112,2,96,4|2|0,3:0|0:0|1:0,0:0:0:0:
128,48,180055,2,0,L|232:56,2,96,2|4|0,0:0|3:0|0:0,0:0:0:0:
384,208,180529,2,0,L|488:216,1,96,2|0,3:0|0:0,0:0:0:0:
176,320,180844,5,4,3:0:0:0:
174,272,180922,1,0,1:0:0:0:
196,230,181001,1,0,1:0:0:0:
236,204,181080,1,0,1:0:0:0:
64,160,181160,2,0,L|16:160,1,48,0|0,1:0|1:0,0:0:0:0:
288,96,181318,2,0,L|376:88,1,48,0|0,1:0|1:0,0:0:0:0:
168,40,181476,5,4,3:0:0:0:
145,81,181554,1,0,1:0:0:0:
149,128,181633,1,8,3:0:0:0:
179,165,181712,1,0,0:0:0:0:
400,216,181792,2,0,L|384:280,1,48,4|0,3:0|0:0,0:0:0:0:
208,272,181950,2,0,L|200:328,1,48,4|0,3:0|1:0,0:0:0:0:
448,352,182108,5,4,3:0:0:0:
80,280,182266,1,8,1:1:0:0:
336,128,182739,6,0,L|136:152,1,192,2|2,0:0|0:0,0:0:0:0:
56,160,183213,1,0,0:0:0:0:
336,328,183371,6,0,P|360:264|256:192,1,211.200006445313,4|8,0:0|0:0,0:0:0:0:
160,216,183844,1,0,0:0:0:0:
288,176,184002,1,0,0:0:0:0:
317,134,184080,1,0,0:0:0:0:
310,83,184159,1,0,0:0:0:0:
270,50,184238,1,0,0:0:0:0:
104,32,184318,2,0,L|40:32,1,52.8000016113282,8|0,0:0|0:0,0:0:0:0:
256,120,184476,6,0,L|472:120,1,211.200006445313,0|0,0:0|0:0,0:0:0:0:
336,184,184950,2,0,L|224:184,1,105.600003222656,8|0,0:0|0:0,0:0:0:0:
192,216,185187,1,0,0:0:0:0:
400,232,185266,2,0,L|456:232,2,52.8000016113282,0|0|0,0:0|0:0|0:0,0:0:0:0:
264,128,185581,2,0,L|376:128,1,105.600003222656,8|0,0:0|0:0,0:0:0:0:
320,128,185818,1,0,0:0:0:0:
120,48,185897,6,0,P|88:96|144:176,1,158.400004833985,4|0,2:0|0:0,0:0:0:0:
312,232,186213,2,0,L|368:232,1,52.8000016113282,8|0,0:0|0:0,0:0:0:0:
176,336,186371,2,0,P|160:280|256:224,1,158.400004833985,4|0,2:0|0:0,0:0:0:0:
80,176,186687,2,0,L|64:120,1,52.8000016113282,0|0,0:0|0:0,0:0:0:0:
128,72,186844,2,0,L|176:48,1,52.8000016113282,8|0,0:0|0:0,0:0:0:0:
424,168,187002,6,0,L|200:152,1,211.200006445313,4|0,2:0|0:0,0:0:0:0:
456,96,187476,2,0,P|504:160|472:232,1,158.400004833985,8|0,0:0|0:0,0:0:0:0:
272,296,187792,2,0,L|152:296,1,105.600003222656,2|2,2:0|2:0,0:0:0:0:
328,232,188108,2,0,L|352:96,1,105.600003222656,8|2,2:1|2:0,0:0:0:0:
72,32,188423,6,0,P|8:88|72:176,1,211.200006445313,6|8,2:0|0:0,0:0:0:0:
192,176,188897,1,0,0:0:0:0:
80,168,189055,2,0,L|88:232,1,52.8000016113282,0|0,0:0|0:0,0:0:0:0:
293,289,189213,1,0,0:0:0:0:
344,281,189291,1,0,0:0:0:0:
380,244,189370,1,8,0:0:0:0:
386,192,189449,1,0,0:0:0:0:
192,176,189529,6,0,P|152:128|240:32,1,211.200006445313,0|0,0:0|0:0,0:0:0:0:
384,40,190002,2,0,L|368:176,1,105.600003222656,8|0,0:0|0:0,0:0:0:0:
328,168,190239,1,0,0:0:0:0:
72,288,190318,2,0,L|224:304,1,105.600003222656,2|0,2:0|0:0,0:0:0:0:
320,240,190634,2,0,L|192:232,1,105.600003222656,8|0,0:0|0:0,0:0:0:0:
160,192,190871,1,0,0:0:0:0:
432,184,190950,6,0,P|480:120|400:32,1,211.200006445313,6|8,2:0|0:0,0:0:0:0:
256,32,191423,2,0,L|264:88,1,52.8000016113282,0|0,0:0|0:0,0:0:0:0:
336,120,191581,2,0,L|320:184,1,52.8000016113282,2|0,0:2|0:0,0:0:0:0:
128,192,191739,2,0,L|144:264,1,52.8000016113282,0|0,0:0|0:0,0:0:0:0:
416,344,191897,2,0,L|488:336,1,52.8000016113282,8|0,0:0|0:0,0:0:0:0:
256,288,192055,6,0,P|224:232|320:136,1,211.200006445313,2|2,0:2|2:0,0:0:0:0:
64,56,192529,2,0,L|216:48,1,105.600003222656,8|0,0:0|0:0,0:0:0:0:
424,120,192844,6,0,L|360:112,1,38.4,2|0,2:0|0:0,0:0:0:0:
200,200,193002,2,0,L|264:192,1,38.4,2|0,2:0|0:0,0:0:0:0:
416,168,193160,2,0,L|360:160,1,38.4,8|0,0:0|0:0,0:0:0:0:
200,240,193318,2,0,L|264:232,1,38.4,2|0,2:0|0:0,0:0:0:0:
480,216,193476,6,0,P|496:152|384:96,1,211.200006445313,6|8,2:0|0:0,0:0:0:0:
288,144,193950,1,0,0:0:0:0:
416,168,194108,2,0,L|400:240,1,52.8000016113282,2|2,2:0|2:0,0:0:0:0:
232,240,194266,2,0,L|216:304,1,52.8000016113282,2|2,2:0|2:0,0:0:0:0:
416,168,194423,2,0,L|496:168,1,52.8000016113282,8|0,0:0|0:0,0:0:0:0:
208,32,194581,6,0,P|160:88|240:184,1,211.200006445313,2|0,2:0|0:0,0:0:0:0:
384,256,195055,2,0,L|256:256,1,105.600003222656,8|0,0:0|0:0,0:0:0:0:
48,184,195371,2,0,L|224:184,2,158.400004833985,2|2|6,2:0|2:0|2:0,0:0:0:0:
312,104,196002,6,0,P|352:176|288:288,1,211.200006445313,0|8,0:0|0:0,0:0:0:0:
168,296,196476,1,0,0:0:0:0:
304,296,196634,2,0,L|376:296,1,52.8000016113282,0|0,0:0|0:0,0:0:0:0:
144,160,196792,2,0,L|216:160,1,52.8000016113282,0|0,0:0|0:0,0:0:0:0:
376,160,196950,2,0,L|440:160,1,52.8000016113282,8|0,0:0|0:0,0:0:0:0:
208,24,197108,6,0,P|152:80|224:176,1,211.200006445313,6|2,2:0|2:0,0:0:0:0:
264,176,197502,1,0,0:0:0:0:
116,288,197581,2,0,L|64:288,1,52.8000016113282,8|2,0:0|2:0,0:0:0:0:
384,208,197739,2,0,L|304:208,1,52.8000016113282,2|2,2:0|2:0,0:0:0:0:
136,176,197897,1,0,0:0:0:0:
99,139,197975,1,0,0:0:0:0:
99,88,198054,1,0,0:0:0:0:
136,52,198133,1,0,0:0:0:0:
352,40,198213,2,0,L|416:40,1,52.8000016113282,8|2,0:0|2:0,0:0:0:0:
216,120,198371,2,0,L|144:120,1,52.8000016113282,2|2,2:0|2:0,0:0:0:0:
368,176,198529,6,0,P|432:248|368:336,1,211.200006445313,6|8,2:0|0:0,0:0:0:0:
256,344,199002,1,0,0:0:0:0:
128,288,199160,1,0,2:0:0:0:
125,236,199238,1,0,0:0:0:0:
158,196,199317,1,0,2:0:0:0:
209,189,199396,1,0,0:0:0:0:
424,128,199476,2,0,L|368:128,1,52.8000016113282,8|0,2:1|0:0,0:0:0:0:
190,31,199634,6,0,P|142:95|214:191,1,211.200006445313,2|0,2:0|0:0,0:0:0:0:
384,256,200108,2,0,L|248:256,1,105.600003222656,8|0,0:0|0:0,0:0:0:0:
224,256,200344,1,0,0:0:0:0:
400,168,200423,2,0,L|464:168,1,52.8000016113282,2|0,2:0|0:0,0:0:0:0:
240,88,200581,2,0,L|184:88,1,52.8000016113282,2|0,2:0|0:0,0:0:0:0:
464,56,200739,2,0,L|392:56,1,52.8000016113282,8|0,0:0|0:0,0:0:0:0:
144,176,200897,2,0,L|240:176,1,52.8000016113282,2|0,2:0|0:0,0:0:0:0:
416,176,201055,6,0,P|488:232|408:320,1,211.200006445313,6|0,2:0|0:0,0:0:0:0:
304,328,201529,1,2,2:0:0:0:
160,272,201687,2,0,L|184:216,1,52.8000016113282,0|0,1:0|2:0,0:0:0:0:
248,200,201844,2,0,L|240:128,1,52.8000016113282,0|0,1:0|2:0,0:0:0:0:
64,112,202002,2,0,L|112:56,1,52.8000016113282,0|0,1:0|2:0,0:0:0:0:
296,72,202160,2,0,L|352:88,1,52.8000016113282,0|0,1:0|2:0,0:0:0:0:
184,128,202318,5,2,2:0:0:0:
140,155,202396,1,2,2:0:0:0:
127,205,202475,1,2,2:0:0:0:
153,249,202554,1,2,2:0:0:0:
376,320,202634,2,0,L|304:320,1,52.8000016113282,2|2,2:0|2:0,0:0:0:0:
88,248,202792,2,0,L|32:248,1,52.8000016113282,2|2,2:0|2:0,0:0:0:0:
200,192,202950,5,2,1:2:0:0:
242,162,203028,1,2,1:2:0:0:
252,111,203107,1,2,1:2:0:0:
225,68,203186,1,2,1:2:0:0:
40,32,203266,2,0,L|48:96,1,52.8000016113282,2|2,1:2|1:2,0:0:0:0:
248,128,203423,2,0,L|280:200,1,52.8000016113282,2|2,1:2|1:2,0:0:0:0:
472,288,203581,5,6,1:2:0:0:
160,192,204213,2,0,L|448:192,1,288.000010986329,0|0,0:0|0:0,0:0:0:0:
184,96,206108,2,0,P|104:160|192:296,1,288.000010986329,0|0,0:0|0:0,0:0:0:0:
376,184,207687,2,0,L|216:184,2,144.000005493164,0|0|0,0:0|0:0|0:0,0:0:0:0:
216,128,208634,6,0,L|64:128,1,144.000005493164,0|0,0:0|0:0,0:0:0:0:
272,64,209266,2,0,P|296:128|256:200,1,144.000005493164,0|0,0:0|0:0,0:0:0:0:
160,240,209897,1,0,0:0:0:0:
280,272,210213,2,0,L|368:272,2,72.0000027465821,0|0|0,0:0|0:0|0:0,0:0:0:0:
144,272,210844,1,0,0:0:0:0:
288,280,211160,6,0,P|360:264|256:24,1,432.000016479493,0|0,0:0|0:0,0:0:0:0:
120,176,212423,2,0,L|344:176,1,216.000008239746,0|0,0:0|0:0,0:0:0:0:
464,104,213055,2,0,L|376:104,1,72.0000027465821,0|0,0:0|0:0,0:0:0:0:
264,32,213371,2,0,L|352:32,1,72.0000027465821,0|0,0:0|0:0,0:0:0:0:
80,80,213687,6,0,P|48:128|72:224,1,144.000005493164,4|0,0:0|0:0,0:0:0:0:
224,320,214318,2,0,P|256:256|216:184,1,144.000005493164,2|0,0:0|0:0,0:0:0:0:
88,152,214950,1,2,0:0:0:0:
240,88,215266,2,0,L|392:88,2,144.000005493164,0|0|2,0:0|1:0|0:0,0:0:0:0:
400,176,216213,6,0,L|256:176,1,144.000005493164,2|0,0:0|0:0,0:0:0:0:
64,288,216844,2,0,P|16:224|88:112,1,216.000008239746,6|0,0:0|0:0,0:0:0:0:
160,104,217476,1,0,0:0:0:0:
432,104,217792,1,2,0:0:0:0:
200,32,218108,2,0,L|352:32,1,144.000005493164,2|2,3:2|3:2,0:0:0:0:
432,32,218581,1,0,0:0:0:0:
112,24,218739,6,0,P|64:64|104:232,1,252.000009613037,4|0,0:0|0:0,0:0:0:0:
336,344,219371,2,0,B|376:320|392:280|368:224|328:216|312:192|264:248|240:224|224:184|224:160|248:128|272:112|296:104|336:104|368:104,1,396.000015106202,2|0,0:0|0:0,0:0:0:0:
400,112,220318,1,0,0:0:0:0:
192,32,220634,2,0,L|344:32,1,144.000005493164,12|0,3:0|0:0,0:0:0:0:
424,32,221108,1,0,0:0:0:0:
168,128,221266,6,0,L|64:128,1,72.0000027465821,6|4,0:0|0:0,0:0:0:0:
256,200,221739,2,0,L|344:200,1,72.0000027465821,6|6,0:0|0:0,0:0:0:0:
136,312,222213,2,0,L|128:232,1,72.0000027465821,6|6,0:0|0:0,0:0:0:0:
344,168,222687,2,0,L|352:80,1,72.0000027465821,6|6,0:0|0:0,0:0:0:0:
96,64,223160,2,0,L|184:80,1,72.0000027465821,2|0,2:0|0:0,0:0:0:0:
264,176,223476,2,0,L|176:160,1,72.0000027465821,2|0,2:0|0:0,0:0:0:0:
456,128,223792,6,0,L|472:40,1,72.0000027465821,4|2,3:0|0:0,0:0:0:0:
48,320,224266,2,0,L|32:232,1,72.0000027465821,4|2,3:0|0:0,0:0:0:0:
456,136,224739,2,0,L|480:40,1,72.0000027465821,4|2,3:0|0:0,0:0:0:0:
184,88,225371,5,8,3:0:0:0:
320,160,225687,1,0,3:0:0:0:
316,195,225765,1,0,3:0:0:0:
312,231,225844,1,0,3:0:0:0:
192,256,226002,2,0,L|184:344,1,72.0000027465821,2|0,1:3|2:0,0:0:0:0:
488,232,226318,6,0,L|472:136,1,72.0000027465821,4|2,3:0|0:0,0:0:0:0:
40,144,226792,2,0,L|80:56,1,72.0000027465821,4|2,3:0|0:0,0:0:0:0:
488,232,227266,2,0,L|472:136,1,72.0000027465821,4|2,3:0|0:0,0:0:0:0:
368,104,227581,5,0,0:0:0:0:
256,184,227739,2,0,L|184:184,2,72.0000027465821,0|0|2,0:0|3:0|0:0,0:0:0:0:
112,128,228213,2,0,P|40:104|24:48,1,108.000004119873,2|0,0:0|0:0,0:0:0:0:
352,88,228529,2,0,P|392:144|376:200,1,108.000004119873,2|0,0:0|0:0,0:0:0:0:
96,328,228844,6,0,P|56:288|112:176,1,192,6|0,0:0|0:0,0:0:0:0:
152,176,229239,1,0,0:0:0:0:
192,144,229318,1,0,0:0:0:0:
208,96,229397,1,0,0:0:0:0:
32,80,229476,2,0,L|24:32,1,48,2|2,0:0|0:0,0:0:0:0:
328,144,229634,2,0,L|320:200,1,48,0|2,0:0|0:0,0:0:0:0:
96,352,229792,1,2,0:0:0:0:
66,315,229870,1,0,0:0:0:0:
70,268,229949,1,2,0:0:0:0:
104,236,230028,1,2,0:0:0:0:
328,240,230108,6,0,L|392:248,1,48,2|0,0:0|0:0,0:0:0:0:
208,144,230266,2,0,L|144:136,1,48,2|2,0:0|0:0,0:0:0:0:
440,40,230423,2,0,L|416:88,1,48,2|0,0:0|0:0,0:0:0:0:
160,64,230581,2,0,L|144:120,1,48,2|2,0:0|0:0,0:0:0:0:
352,160,230739,2,0,L|448:176,1,96,2|2,0:0|0:0,0:0:0:0:
496,216,230976,1,0,0:0:0:0:
200,232,231055,2,0,L|144:224,1,48,2|0,0:0|0:0,0:0:0:0:
352,160,231213,6,0,L|160:136,1,192,2|2,0:0|0:0,0:0:0:0:
112,152,231608,1,0,0:0:0:0:
320,128,231687,2,0,L|336:72,1,48,2|2,0:2|0:0,0:0:0:0:
184,32,231844,2,0,L|104:24,1,48,2|2,0:0|0:0,0:0:0:0:
392,80,232002,1,2,0:2:0:0:
407,124,232080,1,2,0:0:0:0:
398,171,232159,1,2,0:0:0:0:
366,206,232238,1,2,0:0:0:0:
136,232,232318,2,0,L|80:240,1,48,2|2,0:0|0:0,0:0:0:0:
304,320,232476,2,0,L|376:336,1,48,2|0,0:0|0:0,0:0:0:0:
208,231,232634,5,2,0:0:0:0:
252,215,232712,1,2,0:0:0:0:
285,180,232791,1,2,0:0:0:0:
296,134,232870,1,0,0:0:0:0:
136,48,232950,2,0,L|200:40,1,48,2|2,0:0|0:0,0:0:0:0:
400,104,233108,2,0,L|456:96,1,48,2|0,0:0|0:0,0:0:0:0:
216,144,233266,5,2,0:0:0:0:
206,97,233344,1,0,0:0:0:0:
224,53,233423,1,0,0:0:0:0:
263,27,233502,1,0,0:0:0:0:
424,32,233581,2,0,L|472:32,1,48,2|2,0:0|0:0,0:0:0:0:
248,320,233739,6,0,P|208:272|288:176,1,192,6|0,0:0|0:0,0:0:0:0:
384,176,234213,2,0,L|488:176,1,96,2|0,0:0|0:0,0:0:0:0:
312,112,234529,2,0,L|232:112,2,48,0|0|0,0:0|0:0|0:0,0:0:0:0:
456,64,234844,2,0,L|352:64,1,96,2|2,0:0|0:0,0:0:0:0:
312,40,235081,1,2,0:0:0:0:
48,144,235160,6,0,L|160:144,1,96,6|0,2:0|0:0,0:0:0:0:
280,144,235476,1,2,0:0:0:0:
308,181,235554,1,2,0:0:0:0:
308,228,235633,1,2,0:0:0:0:
280,266,235712,1,2,0:0:0:0:
128,320,235792,2,0,L|72:320,1,48,0|0,0:0|0:0,0:0:0:0:
408,224,235950,2,0,L|344:224,1,48,0|0,0:0|0:0,0:0:0:0:
168,176,236108,2,0,L|104:176,1,48,2|0,0:0|0:0,0:0:0:0:
360,120,236266,2,0,L|384:64,1,48,0|0,0:0|0:0,0:0:0:0:
192,8,236423,6,0,P|128:48|200:128,1,192,6|0,0:0|0:0,0:0:0:0:
320,152,236897,2,0,L|296:224,1,48,2|2,0:0|0:0,0:0:0:0:
120,224,237055,2,0,L|144:328,1,96,2|0,0:0|0:0,0:0:0:0:
192,344,237292,1,0,0:0:0:0:
392,272,237371,2,0,L|448:280,1,48,0|0,0:0|0:0,0:0:0:0:
256,208,237529,6,0,P|240:144|336:64,1,192,2|0,0:0|0:0,0:0:0:0:
368,64,237923,1,0,0:0:0:0:
168,56,238002,2,0,L|104:48,1,48,2|2,0:0|0:0,0:0:0:0:
320,144,238160,2,0,L|384:152,1,48,2|0,0:0|0:0,0:0:0:0:
160,160,238318,2,0,P|112:208|168:288,1,144,2|0,0:0|0:0,0:0:0:0:
368,352,238634,2,0,L|424:352,1,48,2|2,0:0|0:0,0:0:0:0:
200,240,238792,6,0,L|392:240,1,192,6|0,0:0|0:0,0:0:0:0:
280,240,239266,1,2,0:0:0:0:
128,240,239423,2,0,L|80:240,2,48,0|0|2,0:0|0:0|0:0,0:0:0:0:
296,136,239739,6,0,L|248:136,1,48,0|2,0:0|0:0,0:0:0:0:
96,48,239897,2,0,L|152:48,1,48,2|2,0:0|0:0,0:0:0:0:
384,40,240055,2,0,L|336:40,1,48,0|2,0:0|0:0,0:0:0:0:
48,152,240213,6,0,L|56:224,1,48,0|2,0:0|0:0,0:0:0:0:
408,248,240371,2,0,L|416:320,1,48,0|2,0:0|0:0,0:0:0:0:
224,224,240529,2,0,L|216:160,1,48,0|2,0:0|0:0,0:0:0:0:
464,112,240687,2,0,L|480:56,1,48,2|2,0:0|0:0,0:0:0:0:
208,48,240844,6,0,L|224:96,1,48,0|0,0:0|0:0,0:0:0:0:
304,120,241002,2,0,L|280:176,1,48,2|0,0:0|0:0,0:0:0:0:
208,200,241160,2,0,L|232:264,1,48,2|0,0:0|0:0,0:0:0:0:
304,288,241318,2,0,L|280:344,1,48,2|2,0:0|0:0,0:0:0:0:
96,352,241476,5,2,0:0:0:0:
56,327,241554,1,0,0:0:0:0:
50,281,241633,1,0,0:0:0:0:
83,248,241712,1,0,0:0:0:0:
120,224,241792,1,0,0:0:0:0:
159,199,241870,1,0,0:0:0:0:
165,153,241949,1,0,0:0:0:0:
132,120,242028,1,0,0:0:0:0:
320,88,242108,6,0,L|448:80,1,96,2|0,0:0|0:0,0:0:0:0:
464,104,242344,1,0,0:0:0:0:
240,48,242423,2,0,L|152:56,1,48,0|0,0:0|0:0,0:0:0:0:
360,24,242581,2,0,L|432:16,1,48,0|0,0:0|0:0,0:0:0:0:
48,80,242739,6,0,L|232:104,2,144,4|0|0,0:0|0:0|0:0,0:0:0:0:
392,24,243371,2,0,P|440:80|368:176,1,192,4|0,0:0|0:0,0:0:0:0:
320,184,243766,2,0,L|328:256,1,48,0|2,0:0|0:0,0:0:0:0:
392,272,243923,1,2,0:0:0:0:
48,208,244002,6,0,L|24:112,1,96,6|4,0:0|3:0,0:0:0:0:
472,208,244476,2,0,L|448:312,1,96,4|4,0:0|3:0,0:0:0:0:
24,320,244950,2,0,L|144:312,1,96,6|4,0:0|3:0,0:0:0:0:
496,160,245423,2,0,L|392:152,1,96,2|6,0:0|3:0,0:0:0:0:
176,120,245897,5,0,3:0:0:0:
288,160,246055,2,0,L|280:224,1,48,0|0,3:0|3:0,0:0:0:0:
112,208,246213,1,0,1:3:0:0:
73,233,246291,1,0,2:0:0:0:
66,279,246370,1,0,2:0:0:0:
95,316,246449,1,0,2:0:0:0:
392,336,246529,6,0,L|488:320,1,96,4|6,0:3|0:0,0:0:0:0:
16,144,247002,2,0,L|128:128,1,96,4|6,0:3|0:0,0:0:0:0:
496,216,247476,2,0,L|400:200,1,96,4|6,0:3|0:0,0:0:0:0:
264,176,247792,5,0,0:0:0:0:
384,112,247950,2,0,L|256:96,2,96,0|0|0,0:0|3:0|3:0,0:0:0:0:
144,144,248423,2,0,L|-8:128,2,128,2|2|2,0:0|0:0|0:0,0:0:0:0:
440,320,249055,6,0,P|480:256|408:160,1,192,6|0,0:0|0:0,0:0:0:0:
352,168,249450,2,0,L|360:224,1,48,0|0,0:0|0:0,0:0:0:0:
408,248,249608,1,0,0:0:0:0:
168,272,249687,2,0,L|104:280,1,48,2|0,2:0|0:0,0:0:0:0:
304,152,249844,2,0,L|376:144,1,48,0|0,0:0|0:0,0:0:0:0:
144,40,250002,5,2,2:0:0:0:
116,78,250080,1,0,0:0:0:0:
113,126,250159,1,2,2:0:0:0:
135,168,250238,1,2,2:0:0:0:
288,240,250318,6,0,L|408:256,1,96,2|2,2:0|2:0,0:0:0:0:
432,296,250555,1,2,2:0:0:0:
192,312,250634,2,0,L|184:256,1,48,2|0,2:0|0:0,0:0:0:0:
232,224,250792,2,0,L|240:176,1,48,0|0,0:0|0:0,0:0:0:0:
56,144,250950,6,0,P|40:80|80:40,1,96,2|2,0:0|0:0,0:0:0:0:
128,32,251187,2,0,L|184:32,2,48,0|2|0,0:0|0:0|0:0,0:0:0:0:
344,88,251423,6,0,P|384:152|344:232,1,144,2|0,0:0|0:0,0:0:0:0:
312,248,251739,2,0,L|264:256,1,48,2|0,0:0|0:0,0:0:0:0:
456,320,251897,2,0,L|464:272,1,48,2|2,2:0|2:0,0:0:0:0:
192,160,252055,2,0,L|176:104,1,48,0|0,0:0|0:0,0:0:0:0:
424,184,252213,2,0,L|408:128,1,48,2|2,2:0|2:0,0:0:0:0:
104,88,252371,2,0,L|48:64,1,48,0|0,0:0|0:0,0:0:0:0:
272,24,252529,1,2,2:0:0:0:
312,48,252607,1,0,0:0:0:0:
334,90,252686,1,0,0:0:0:0:
330,138,252765,1,0,0:0:0:0:
160,192,252844,6,0,L|168:240,1,48,2|0,0:0|0:0,0:0:0:0:
240,264,253002,2,0,L|248:336,1,48,0|0,0:0|0:0,0:0:0:0:
24,184,253160,2,0,L|32:240,1,48,2|2,0:0|0:0,0:0:0:0:
104,256,253318,2,0,L|112:320,1,48,2|0,0:0|0:0,0:0:0:0:
32,352,253476,2,0,L|176:336,2,144,2|2|0,0:0|0:0|0:0,0:0:0:0:
360,264,254108,6,0,P|416:200|344:120,1,192,4|0,0:0|0:0,0:0:0:0:
272,120,254581,1,2,0:0:0:0:
144,128,254739,1,2,0:0:0:0:
151,175,254817,1,0,0:0:0:0:
158,222,254896,1,0,0:0:0:0:
165,270,254975,1,0,0:0:0:0:
312,208,255055,2,0,L|336:320,1,96,2|0,0:0|0:0,0:0:0:0:
288,344,255292,1,0,0:0:0:0:
40,224,255371,6,0,L|88:184,1,48,2|2,2:0|2:0,0:0:0:0:
280,200,255529,2,0,L|328:176,1,48,0|0,0:0|0:0,0:0:0:0:
152,40,255687,1,2,2:0:0:0:
114,68,255765,1,2,2:0:0:0:
103,114,255844,1,0,0:0:0:0:
122,157,255923,1,0,0:0:0:0:
368,256,256002,6,0,L|472:264,1,96,2|2,0:0|0:0,0:0:0:0:
496,304,256239,1,0,0:0:0:0:
208,280,256318,2,0,L|176:216,1,48,0|0,2:0|2:0,0:0:0:0:
352,144,256476,2,0,L|432:144,1,48,2|2,0:0|0:0,0:0:0:0:
176,32,256634,6,0,P|128:80|192:176,1,192,6|0,0:0|0:0,0:0:0:0:
272,184,257029,2,0,L|336:184,2,48,0|0|0,0:0|0:0|0:0,0:0:0:0:
72,304,257266,2,0,L|160:304,1,48,4|2,3:0|0:0,0:0:0:0:
200,280,257423,2,0,L|288:280,1,48,2|2,0:0|0:0,0:0:0:0:
64,200,257581,1,0,0:0:0:0:
31,165,257659,1,0,0:0:0:0:
16,120,257738,1,0,0:0:0:0:
22,73,257817,1,0,0:0:0:0:
264,56,257897,6,0,L|312:96,4,48,6|0|0|0|0,0:0|0:0|0:0|0:0|0:0,0:0:0:0:
64,152,258318,2,0,L|40:240,4,64,2|0|0|0|0,0:0|0:0|0:0|0:0|0:0,0:0:0:0:
312,256,258844,2,0,L|400:264,2,64,0|0|0,0:0|0:0|0:0,0:0:0:0:
104,336,259160,6,0,B|16:328|24:208|24:208|88:272|224:320|280:272|288:128|184:48|40:128,1,672,6|0,0:0|0:0,0:0:0:0:
368,32,260423,2,0,P|408:104|344:176,1,144,2|0,0:0|0:0,0:0:0:0:
288,200,260739,6,0,L|224:200,2,64,2|2|0,0:0|0:0|0:0,0:0:0:0:
392,256,261055,2,0,L|472:256,2,64,4|0|0,0:3|0:0|0:0,0:0:0:0:
136,256,261371,2,0,L|64:256,2,64,0|0|0,0:0|0:0|0:0,0:0:0:0:
464,152,261687,6,0,L|480:48,1,96,6|4,0:0|0:0,0:0:0:0:
40,280,262160,2,0,L|24:152,1,96,6|4,0:0|3:0,0:0:0:0:
464,152,262634,6,0,L|480:48,1,96,4|4,3:0|0:0,0:0:0:0:
40,280,263108,2,0,L|32:160,1,96,4|6,3:0|0:0,0:0:0:0:
464,232,263581,2,0,L|232:248,1,192,6|6,0:0|0:0,0:0:0:0:
128,256,264055,1,0,0:0:0:0:
408,48,264213,6,0,P|448:112|384:176,1,144,4|0,1:0|0:0,0:0:0:0:
184,176,264529,2,0,L|136:176,1,48,8|0,0:0|0:0,0:0:0:0:
304,112,264687,2,0,L|360:112,1,48,0|0,0:0|0:0,0:0:0:0:
128,120,264844,1,2,0:2:0:0:
97,79,264922,1,0,0:0:0:0:
109,29,265001,1,0,0:0:0:0:
154,6,265080,1,0,0:0:0:0:
448,112,265160,2,0,L|376:112,1,48,8|0,0:0|0:0,0:0:0:0:
128,240,265318,6,0,L|336:240,1,192,0|0,0:0|0:0,0:0:0:0:
240,240,265792,1,8,0:0:0:0:
400,224,265950,2,0,L|456:224,1,48,0|0,0:0|0:0,0:0:0:0:
224,144,266108,1,2,0:2:0:0:
195,107,266186,1,0,0:0:0:0:
197,60,266265,1,0,0:0:0:0:
231,27,266344,1,0,0:0:0:0:
424,72,266423,2,0,L|408:128,1,48,8|0,0:0|0:0,0:0:0:0:
192,184,266581,2,0,L|168:248,1,48,0|0,0:0|0:0,0:0:0:0:
432,344,266739,6,0,P|480:288|448:232,1,144,4|0,2:0|0:0,0:0:0:0:
192,184,267055,2,0,L|120:184,1,48,8|0,0:0|0:0,0:0:0:0:
336,120,267213,2,0,L|160:120,1,144,4|0,2:0|0:0,0:0:0:0:
408,72,267529,2,0,L|464:72,2,48,0|0|8,0:0|0:0|0:0,0:0:0:0:
336,72,267766,1,0,0:0:0:0:
32,192,267844,6,0,L|248:192,1,192,4|0,1:2|0:0,0:0:0:0:
272,192,268239,1,0,0:0:0:0:
96,288,268318,2,0,L|224:288,1,96,8|0,0:0|0:0,0:0:0:0:
240,256,268555,1,0,0:0:0:0:
40,184,268634,6,0,L|32:120,1,48,2|0,1:2|0:0,0:0:0:0:
272,120,268792,2,0,L|264:48,1,48,2|0,2:0|0:0,0:0:0:0:
40,184,268950,2,0,L|32:120,1,48,8|0,2:1|0:0,0:0:0:0:
344,176,269108,2,0,L|424:192,1,48,2|0,2:0|0:0,0:0:0:0:
208,328,269266,6,0,P|168:272|200:192,1,144,4|0,1:2|0:0,0:0:0:0:
344,176,269581,2,0,L|352:80,1,96,8|0,0:0|0:0,0:0:0:0:
312,56,269818,1,0,0:0:0:0:
152,56,269897,1,2,0:2:0:0:
110,78,269975,1,0,1:0:0:0:
95,123,270054,1,0,1:0:0:0:
113,166,270133,1,0,1:0:0:0:
352,248,270213,2,0,L|408:248,1,48,8|0,0:0|0:0,0:0:0:0:
224,312,270371,6,0,P|192:272|264:168,1,192,0|0,2:0|0:0,0:0:0:0:
373,141,270844,1,8,0:0:0:0:
406,107,270922,1,0,0:0:0:0:
411,60,271001,1,2,2:0:0:0:
386,20,271080,1,2,2:0:0:0:
192,0,271160,2,0,L|40:0,1,144,2|0,2:0|0:0,0:0:0:0:
272,64,271476,2,0,L|280:200,1,96,8|0,0:0|0:0,0:0:0:0:
224,192,271713,1,0,0:0:0:0:
40,312,271792,6,0,L|152:320,1,96,4|0,2:0|0:0,0:0:0:0:
304,280,272108,2,0,L|400:288,1,96,8|0,0:0|0:0,0:0:0:0:
440,328,272344,1,0,0:0:0:0:
192,224,272423,2,0,L|184:144,1,48,2|0,0:2|0:0,0:0:0:0:
256,128,272581,2,0,L|248:48,1,48,0|0,0:0|0:0,0:0:0:0:
168,40,272739,2,0,L|160:-32,1,48,8|0,0:0|0:0,0:0:0:0:
352,64,272897,6,0,P|384:128|304:208,1,192,2|0,0:2|0:0,0:0:0:0:
184,208,273371,2,0,L|208:304,1,96,8|0,0:0|0:0,0:0:0:0:
464,312,273687,1,2,2:0:0:0:
312,320,273844,1,2,2:0:0:0:
464,312,274002,2,0,L|384:320,1,48,8|0,2:1|0:0,0:0:0:0:
160,344,274160,1,2,2:0:0:0:
400,256,274318,6,0,P|432:200|368:96,1,192,6|8,0:2|0:0,0:0:0:0:
248,80,274792,1,0,0:0:0:0:
144,152,274950,2,0,L|152:208,1,48,2|0,0:2|0:0,0:0:0:0:
320,216,275108,2,0,L|328:288,1,48,0|0,0:0|0:0,0:0:0:0:
152,288,275266,2,0,L|160:352,1,48,8|0,0:0|0:0,0:0:0:0:
416,232,275423,6,0,P|392:152|264:128,1,192,2|0,2:0|0:0,0:0:0:0:
144,64,275897,2,0,L|272:56,1,96,8|0,0:0|0:0,0:0:0:0:
288,88,276134,1,0,0:0:0:0:
40,240,276213,2,0,L|216:216,2,144,2|2|6,0:2|0:2|0:2,0:0:0:0:
328,280,276844,6,0,P|368:240|296:128,1,192,0|8,0:0|0:0,0:0:0:0:
192,120,277318,1,0,0:0:0:0:
328,72,277476,2,0,L|336:24,3,48,2|0|0|0,0:2|0:0|0:0|0:0,0:0:0:0:
160,120,277792,2,0,L|168:184,1,48,8|2,0:0|2:0,0:0:0:0:
360,296,277950,6,0,P|408:248|336:152,1,192,2|2,2:0|0:2,0:0:0:0:
208,136,278423,1,8,0:0:0:0:
172,106,278501,1,0,0:0:0:0:
174,59,278580,1,0,0:0:0:0:
211,32,278659,1,0,0:0:0:0:
48,232,278739,1,2,0:2:0:0:
12,202,278817,1,2,0:2:0:0:
14,155,278896,1,2,0:2:0:0:
51,128,278975,1,0,0:0:0:0:
200,120,279055,2,0,L|256:120,1,48,8|0,0:0|0:0,0:0:0:0:
80,48,279213,2,0,L|32:48,1,48,2|2,0:2|0:2,0:0:0:0:
240,48,279371,6,0,P|296:120|232:192,1,192,6|8,2:0|0:0,0:0:0:0:
120,192,279844,1,0,0:0:0:0:
240,288,280002,2,0,L|168:288,1,48,0|0,0:0|0:0,0:0:0:0:
240,288,280160,2,0,L|304:288,1,48,0|0,0:0|0:0,0:0:0:0:
64,120,280318,2,0,L|40:64,1,48,8|2,0:0|2:0,0:0:0:0:
240,136,280476,6,0,P|312:160|424:128,1,192,2|0,2:0|0:0,0:0:0:0:
184,64,280950,2,0,P|152:120|208:208,1,144,8|0,0:0|0:0,0:0:0:0:
416,224,281266,2,0,L|392:344,1,96,2|2,2:0|2:0,0:0:0:0:
128,208,281581,2,0,L|104:336,1,96,8|2,2:1|2:0,0:0:0:0:
160,336,281818,1,0,0:0:0:0:
376,320,281897,5,2,0:2:0:0:
405,283,281975,1,0,0:0:0:0:
402,236,282054,1,2,0:2:0:0:
368,204,282133,1,2,0:2:0:0:
320,200,282213,2,0,L|312:144,1,48,2|0,0:2|0:0,0:0:0:0:
368,128,282371,2,0,L|360:72,1,48,2|2,0:2|0:2,0:0:0:0:
304,56,282529,6,0,L|216:56,1,48,2|0,0:2|0:0,0:0:0:0:
208,80,282687,2,0,L|120:80,1,48,2|0,0:2|0:0,0:0:0:0:
208,88,282844,1,2,0:2:0:0:
247,113,282922,1,2,0:2:0:0:
271,155,283001,1,2,0:2:0:0:
273,202,283080,1,2,0:2:0:0:
112,336,283160,5,2,2:0:0:0:
115,288,283238,1,2,2:0:0:0:
145,252,283317,1,2,2:0:0:0:
191,239,283396,1,2,2:0:0:0:
416,216,283476,5,0,0:0:0:0:
412,168,283554,1,0,0:0:0:0:
382,132,283633,1,0,0:0:0:0:
336,119,283712,1,0,0:0:0:0:
152,72,283792,2,0,L|216:72,1,48,2|2,2:0|2:0,0:0:0:0:
400,24,283950,2,0,L|328:24,1,48,2|0,2:0|0:0,0:0:0:0:
88,128,284108,1,0,0:0:0:0:
50,156,284186,1,0,0:0:0:0:
35,201,284265,1,0,0:0:0:0:
48,246,284344,1,0,0:0:0:0:
312,304,284423,6,0,P|360:224|304:152,1,192,4|2,1:0|0:3,0:0:0:0:
248,144,284818,1,0,0:0:0:0:
296,112,284897,2,0,L|304:48,1,48,0|0,0:0|0:0,0:0:0:0:
120,88,285055,1,2,0:3:0:0:
91,125,285133,1,0,0:0:0:0:
92,172,285212,1,0,0:0:0:0:
124,207,285291,1,0,0:0:0:0:
320,272,285371,2,0,L|384:272,1,48,2|0,0:3|0:0,0:0:0:0:
208,336,285529,6,0,P|184:272|280:192,1,192,0|0,0:0|0:0,0:0:0:0:
376,184,286002,1,2,0:3:0:0:
256,120,286160,2,0,L|320:120,1,48,0|0,0:0|0:0,0:0:0:0:
464,32,286318,1,2,0:3:0:0:
493,69,286396,1,0,0:0:0:0:
493,116,286475,1,0,0:0:0:0:
465,154,286554,1,0,0:0:0:0:
296,240,286634,2,0,L|200:240,1,96,2|0,0:3|0:0,0:0:0:0:
152,208,286871,1,0,0:0:0:0:
368,304,286950,6,0,P|408:256|360:160,1,144,6|0,0:2|0:0,0:0:0:0:
344,160,287266,1,2,0:3:0:0:
296,152,287344,1,0,0:0:0:0:
104,168,287423,2,0,P|64:112|120:40,1,144,4|0,0:2|0:0,0:0:0:0:
144,16,287739,2,0,L|208:24,1,48,0|0,0:0|0:0,0:0:0:0:
352,112,287897,2,0,L|272:96,1,48,2|0,0:3|0:0,0:0:0:0:
96,320,288055,6,0,P|48:272|104:176,1,192,4|0,0:2|0:0,0:0:0:0:
152,176,288450,1,0,0:0:0:0:
344,96,288529,2,0,L|176:96,1,144,2|0,0:3|0:0,0:0:0:0:
464,160,288844,6,0,L|448:216,1,48,2|0,2:0|2:0,0:0:0:0:
312,224,289002,2,0,L|296:296,1,48,2|0,2:2|2:0,0:0:0:0:
464,344,289160,2,0,L|480:280,1,48,0|0,2:1|2:0,0:0:0:0:
256,168,289318,2,0,L|232:112,1,48,2|0,2:0|2:0,0:0:0:0:
424,32,289476,6,0,P|472:88|416:176,1,192,6|2,1:2|0:3,0:0:0:0:
280,176,289950,2,0,L|288:232,1,48,0|0,0:0|0:0,0:0:0:0:
352,240,290108,2,0,L|360:296,1,48,2|0,0:3|0:0,0:0:0:0:
128,192,290266,2,0,L|120:128,1,48,0|0,0:0|0:0,0:0:0:0:
56,120,290423,2,0,L|48:64,1,48,2|0,0:3|0:0,0:0:0:0:
224,40,290581,6,0,P|288:72|416:40,1,192,2|2,2:0|2:0,0:0:0:0:
120,48,291055,1,2,0:3:0:0:
83,78,291133,1,0,0:0:0:0:
71,123,291212,1,2,2:0:0:0:
89,167,291291,1,0,2:0:0:0:
304,264,291371,2,0,L|448:272,1,144,2|0,2:0|0:0,0:0:0:0:
232,192,291687,2,0,L|120:184,1,96,2|2,0:3|2:0,0:0:0:0:
88,152,291923,1,0,2:0:0:0:
320,176,292002,6,0,P|392:136|336:40,1,192,6|2,2:0|0:3,0:0:0:0:
248,24,292476,2,0,L|152:24,2,96,2|2|2,2:0|0:3|2:0,0:0:0:0:
296,24,292871,1,2,2:0:0:0:
104,96,292950,2,0,L|48:96,1,48,2|0,2:3|0:0,0:0:0:0:
272,88,293108,6,0,P|312:128|240:232,1,192,2|0,2:0|0:0,0:0:0:0:
88,304,293581,2,0,L|200:304,1,96,2|0,0:3|0:0,0:0:0:0:
456,216,293897,6,0,L|384:216,1,48,2|0,2:0|0:0,0:0:0:0:
232,144,294055,2,0,L|296:144,1,48,2|0,2:0|0:0,0:0:0:0:
456,120,294213,2,0,L|472:72,3,48,2|0|2|0,2:0|0:0|2:0|0:0,0:0:0:0:
192,64,294529,6,0,P|144:120|200:224,1,192,4|2,1:2|0:3,0:0:0:0:
288,240,295002,1,0,0:0:0:0:
192,336,295160,2,0,L|184:280,1,48,2|0,0:3|0:0,0:0:0:0:
240,240,295318,2,0,L|232:176,1,48,0|0,0:0|0:0,0:0:0:0:
56,168,295476,2,0,L|32:96,1,48,2|0,0:3|0:0,0:0:0:0:
264,24,295634,6,0,P|336:72|352:176,1,192,2|0,0:2|0:0,0:0:0:0:
224,208,296108,2,0,L|240:312,1,96,2|0,0:3|0:0,0:0:0:0:
288,328,296344,1,0,0:0:0:0:
496,192,296423,2,0,L|312:200,2,144,2|2|6,1:2|1:2|1:2,0:0:0:0:
184,168,297055,6,0,P|136:96|216:16,1,192,0|2,0:0|0:3,0:0:0:0:
288,16,297529,1,0,0:0:0:0:
392,80,297687,2,0,L|368:144,1,48,2|0,0:2|2:0,0:0:0:0:
304,152,297844,2,0,L|312:208,1,48,2|0,0:2|2:0,0:0:0:0:
480,256,298002,2,0,L|464:320,1,48,2|0,2:3|2:0,0:0:0:0:
288,280,298160,6,0,L|80:288,1,192,6|2,2:0|2:0,0:0:0:0:
240,216,298634,2,0,L|272:160,1,48,2|2,2:0|2:0,0:0:0:0:
208,128,298792,2,0,L|240:80,1,48,2|0,2:0|2:0,0:0:0:0:
416,16,298950,1,2,2:0:0:0:
444,53,299028,1,2,2:0:0:0:
443,100,299107,1,2,2:0:0:0:
412,135,299186,1,0,2:0:0:0:
160,200,299266,1,2,2:0:0:0:
116,219,299344,1,2,2:0:0:0:
92,259,299423,1,2,2:0:0:0:
94,306,299502,1,0,2:0:0:0:
240,256,299581,6,0,P|264:208|176:112,1,192,6|2,2:0|0:3,0:0:0:0:
56,56,300055,2,0,L|248:56,1,192,0|0,0:0|0:0,0:0:0:0:
296,56,300450,1,0,0:0:0:0:
144,144,300529,2,0,L|152:208,1,48,2|0,0:3|0:0,0:0:0:0:
360,312,300687,6,0,P|400:256|328:160,1,192,2|0,0:2|0:0,0:0:0:0:
192,152,301160,1,2,0:3:0:0:
312,72,301318,2,0,L|240:72,1,48,0|0,0:0|0:0,0:0:0:0:
24,104,301476,6,0,L|48:176,1,48,2|0,2:0|2:0,0:0:0:0:
176,160,301634,2,0,L|200:224,1,48,2|0,2:0|2:0,0:0:0:0:
32,328,301792,2,0,L|56:280,1,48,2|0,2:3|2:0,0:0:0:0:
296,176,301950,2,0,L|336:120,1,48,2|0,2:0|2:0,0:0:0:0:
136,56,302108,6,0,P|96:112|184:184,1,192,2|2,0:2|0:2,0:0:0:0:
272,192,302581,1,2,0:2:0:0:
152,264,302739,2,0,L|248:264,1,96,2|2,0:2|0:2,0:0:0:0:
288,232,302976,1,0,0:0:0:0:
88,160,303055,2,0,L|80:96,1,48,2|2,0:2|0:2,0:0:0:0:
296,56,303213,2,0,L|368:32,1,48,2|0,0:2|0:0,0:0:0:0:
64,32,303371,6,0,L|80:80,1,48,2|2,2:0|2:0,0:0:0:0:
264,120,303529,2,0,L|280:176,1,48,2|2,2:0|2:0,0:0:0:0:
104,192,303687,1,2,2:0:0:0:
63,216,303765,1,0,0:0:0:0:
41,258,303844,1,0,0:0:0:0:
44,306,303923,1,0,0:0:0:0:
256,344,304002,6,0,L|312:352,1,48,2|2,2:0|2:0,0:0:0:0:
144,272,304160,2,0,L|72:256,1,48,2|2,2:0|2:0,0:0:0:0:
424,232,304318,1,2,2:0:0:0:
461,203,304396,1,0,0:0:0:0:
476,158,304475,1,0,0:0:0:0:
463,113,304554,1,0,0:0:0:0:
144,48,304634,6,0,L|160:152,1,96,6|0,2:0|0:0,0:0:0:0:
280,192,304950,1,8,0:0:0:0:
56,328,305108,2,0,P|8:272|96:184,1,192,4|0,3:0|0:0,0:0:0:0:
208,120,305581,2,0,L|96:120,1,96,8|2,0:0|0:2,0:0:0:0:
464,56,305897,6,0,L|352:56,2,96,2|0|8,2:0|0:0|0:0,0:0:0:0:
224,320,306371,2,0,P|176:272|256:176,1,192,4|0,3:0|0:0,0:0:0:0:
368,160,306844,2,0,L|464:160,1,96,8|0,0:0|0:0,0:0:0:0:
416,160,307081,1,0,0:0:0:0:
184,160,307160,6,0,P|128:104|200:16,1,192,6|8,0:2|0:0,0:0:0:0:
296,16,307634,1,0,0:0:0:0:
184,16,307792,2,0,L|120:16,1,48,2|2,0:2|0:2,0:0:0:0:
304,96,307950,2,0,L|376:96,1,48,2|0,0:2|0:0,0:0:0:0:
184,16,308108,2,0,L|112:16,2,48,8|0|0,0:0|0:0|0:0,0:0:0:0:
408,16,308344,5,0,0:0:0:0:
272,144,308581,2,0,L|280:200,1,48,2|2,0:2|0:2,0:0:0:0:
417,240,308739,1,8,0:0:0:0:
451,271,308817,1,0,0:0:0:0:
452,317,308896,1,0,0:0:0:0:
418,349,308975,1,0,0:0:0:0:
184,280,309055,6,0,L|176:224,1,48,2|2,0:2|0:2,0:0:0:0:
320,176,309213,2,0,L|328:112,1,48,2|2,0:2|0:2,0:0:0:0:
128,96,309371,2,0,L|112:40,1,48,8|0,0:0|0:0,0:0:0:0:
400,112,309529,2,0,L|416:48,1,48,0|0,0:0|0:0,0:0:0:0:
104,248,309687,6,0,P|48:176|112:112,1,192,6|8,2:0|0:0,0:0:0:0:
376,64,310160,2,0,L|184:64,1,192,4|0,3:0|0:0,0:0:0:0:
56,152,310634,2,0,L|160:152,1,96,8|0,0:0|0:0,0:0:0:0:
424,136,310950,6,0,L|432:240,1,96,6|0,2:0|0:0,0:0:0:0:
400,264,311187,1,0,0:0:0:0:
216,320,311266,2,0,L|128:320,1,48,8|2,0:0|0:2,0:0:0:0:
368,224,311423,2,0,L|296:224,1,48,2|0,0:2|0:0,0:0:0:0:
128,224,311581,2,0,L|48:224,1,48,4|0,3:0|0:0,0:0:0:0:
224,176,311739,1,0,0:0:0:0:
263,151,311817,1,0,0:0:0:0:
274,106,311896,1,8,0:1:0:0:
249,66,311975,1,2,0:2:0:0:
56,24,312055,2,0,L|128:24,1,48,2|0,0:2|0:0,0:0:0:0:
328,48,312213,6,0,L|448:48,1,96,6|0,2:0|0:0,0:0:0:0:
272,48,312529,1,8,0:0:0:0:
160,48,312687,2,0,L|112:48,1,48,0|0,0:0|0:0,0:0:0:0:
264,128,312844,5,0,0:0:0:0:
298,160,312922,1,0,0:0:0:0:
303,206,313001,1,0,0:0:0:0:
276,245,313080,1,0,0:0:0:0:
224,128,313160,1,2,0:2:0:0:
189,160,313238,1,2,0:2:0:0:
400,264,313318,2,0,L|448:264,1,48,2|2,0:2|0:2,0:0:0:0:
136,256,313476,5,0,1:2:0:0:
24,192,313634,2,0,L|32:120,1,48,2|2,1:2|1:2,0:0:0:0:
216,56,313792,2,0,L|272:56,1,48,2|2,1:2|1:2,0:0:0:0:
216,56,313950,2,0,L|160:56,1,48,2|2,1:2|1:2,0:0:0:0:
456,184,314108,2,0,L|304:184,2,144,6|6|6,2:0|2:0|2:0,0:0:0:0:
144,272,314739,6,0,L|40:272,2,96,4|0|2,1:2|0:0|0:3,0:0:0:0:
280,272,315213,2,0,P|336:232|256:144,1,192,4|0,3:0|0:0,0:0:0:0:
144,56,315687,2,0,L|240:56,1,96,2|0,0:3|0:0,0:0:0:0:
472,56,316002,6,0,L|352:56,2,96,2|2|2,0:3|0:2|0:3,0:0:0:0:
320,112,316476,2,0,L|120:112,1,192,4|0,3:0|0:0,0:0:0:0:
16,168,316950,2,0,L|32:272,1,96,2|0,0:3|0:0,0:0:0:0:
296,304,317266,6,0,P|344:256|264:160,1,192,6|2,2:0|0:3,0:0:0:0:
176,80,317739,2,0,L|304:80,1,96,0|2,0:0|0:3,0:0:0:0:
328,120,317976,1,0,0:0:0:0:
328,168,318055,1,0,0:0:0:0:
272,200,318134,1,0,0:0:0:0:
56,312,318213,1,2,2:0:0:0:
20,282,318291,1,0,2:0:0:0:
21,235,318370,1,2,2:0:0:0:
200,184,318450,5,2,2:0:0:0:
72,128,318687,2,0,L|64:64,1,48,2|2,1:2|1:2,0:0:0:0:
248,120,318844,1,2,1:2:0:0:
275,158,318922,1,2,1:2:0:0:
276,205,319001,1,2,1:2:0:0:
250,244,319080,1,2,1:2:0:0:
80,352,319160,2,0,L|72:296,3,48,2|0|0|0,1:2|0:0|0:0|0:0,0:0:0:0:
352,264,319476,2,0,L|368:192,3,48,2|2|2|2,2:0|2:0|2:0|2:0,0:0:0:0:
160,208,319792,6,0,P|104:160|184:72,1,192,6|4,2:0|3:0,0:0:0:0:
296,72,320266,1,0,0:0:0:0:
152,72,320423,1,0,0:0:0:0:
296,72,320581,2,0,L|400:72,2,96,0|4|2,0:0|3:0|0:2,0:0:0:0:
56,160,321055,6,0,L|184:160,1,96,6|0,2:0|0:0,0:0:0:0:
296,240,321371,2,0,L|192:240,1,96,4|0,3:0|0:0,0:0:0:0:
352,168,321687,2,0,L|488:168,1,96,2|0,2:0|2:0,0:0:0:0:
304,104,322002,2,0,L|192:104,1,96,4|2,3:3|0:2,0:0:0:0:
160,128,322239,1,0,0:0:0:0:
390,352,322318,5,4,2:0:0:0:
434,336,322396,1,0,0:0:0:0:
468,302,322475,1,0,0:0:0:0:
485,257,322554,1,0,0:0:0:0:
481,210,322633,1,4,3:3:0:0:
458,169,322712,1,0,0:0:0:0:
419,141,322791,1,0,0:0:0:0:
372,132,322870,1,0,0:0:0:0:
168,128,322950,6,0,L|184:200,1,48,6|2,0:2|0:2,0:0:0:0:
336,208,323108,2,0,L|352:264,1,48,2|0,0:2|0:0,0:0:0:0:
120,304,323266,1,4,3:0:0:0:
84,273,323344,1,0,0:0:0:0:
76,226,323423,1,2,0:2:0:0:
98,185,323502,1,2,0:2:0:0:
360,72,323581,6,0,L|424:64,1,48,6|0,2:0|0:0,0:0:0:0:
120,64,323739,2,0,L|64:56,1,48,2|0,2:0|0:0,0:0:0:0:
384,160,323897,2,0,L|456:160,1,48,6|0,2:0|0:0,0:0:0:0:
72,152,324055,2,0,L|24:144,1,48,0|0,2:0|0:0,0:0:0:0:
280,336,324213,6,0,L|304:280,1,48,6|2,2:0|2:0,0:0:0:0:
216,248,324371,2,0,L|208:184,1,48,2|2,2:0|2:0,0:0:0:0:
304,184,324529,1,6,2:0:0:0:
345,162,324607,1,2,2:0:0:0:
362,118,324686,1,2,2:0:0:0:
346,74,324765,1,2,2:0:0:0:
48,32,324844,5,6,2:0:0:0:
360,152,325476,6,0,L|152:152,1,192,0|0,0:0|0:0,0:0:0:0:
392,80,327371,2,0,P|440:160|392:248,1,192,0|0,0:0|0:0,0:0:0:0:
64,272,328948,2,0,L|192:280,2,96,0|0|0,0:0|0:0|0:0,0:0:0:0:
280,232,329890,5,0,0:0:0:0:
369,205,330205,1,0,0:0:0:0:
412,122,330521,1,0,0:0:0:0:
382,34,330837,1,0,0:0:0:0:
297,0,331153,1,0,0:0:0:0:
176,24,331468,2,0,L|184:104,1,48,0|0,0:0|0:0,0:0:0:0:
16,256,332416,6,0,L|440:288,1,384,0|2,0:0|0:0,0:0:0:0:
152,312,334300,1,2,0:0:0:0:
400,264,334929,6,0,P|448:208|384:96,1,192,2|0,0:0|0:0,0:0:0:0:
216,80,336185,1,0,0:0:0:0:
112,160,336499,2,0,L|16:160,2,96,2|2|2,0:0|0:0|0:0,0:0:0:0:
344,112,337442,6,0,L|128:112,1,192,2|2,0:0|0:0,0:0:0:0:
304,200,339053,2,0,L|400:200,2,96,2|2|2,0:0|0:0|0:0,0:0:0:0:
88,280,339995,5,0,0:0:0:0:
200,280,340310,1,0,0:0:0:0:
320,280,340626,1,0,0:0:0:0:
128,280,340942,1,2,0:0:0:0:
288,176,341573,2,0,L|200:176,1,48,2|2,0:0|0:0,0:0:0:0:
376,128,342521,6,0,L|496:128,1,96,2|0,0:0|0:0,0:0:0:0:
256,80,343152,2,0,L|144:80,1,96,0|0,0:0|0:0,0:0:0:0:
352,160,343784,2,0,L|232:160,3,96,2|0|0|0,0:0|0:0|0:0|0:0,0:0:0:0:
464,160,345047,5,2,0:0:0:0:
224,88,345679,2,0,L|424:88,1,192,2|2,0:0|0:0,0:0:0:0:
128,312,347573,6,0,P|88:248|152:152,1,192,2|2,0:0|0:0,0:0:0:0:
296,120,349168,2,0,L|416:120,2,96,2|2|2,0:0|0:0|0:0,0:0:0:0:
136,48,350126,2,0,L|336:48,1,192,2|0,0:0|0:3,0:0:0:0:
480,152,351083,2,0,L|368:152,1,96,0|0,0:0|0:3,0:0:0:0:
232,248,351721,2,0,L|312:248,1,48,2|2,0:0|0:0,0:0:0:0:
112,192,352679,6,0,P|64:144|184:8,1,288,2|2,0:0|0:0,0:0:0:0:
392,104,353983,1,2,0:0:0:0:
224,160,354316,1,0,0:0:0:0:
384,192,354611,1,0,0:0:0:0:
232,248,354966,1,0,0:0:0:0:
464,280,355321,5,2,0:0:0:0:
256,200,356006,2,0,L|448:200,1,192,0|0,0:0|0:0,0:0:0:0:
232,112,356987,6,0,L|112:112,2,96,0|0|0,0:0|0:0|0:0,0:0:0:0:
368,112,357987,1,2,0:0:0:0:
72,104,358695,5,2,0:0:0:0:
264,104,359761,2,0,L|160:104,2,96,2|2|2,0:0|0:0|0:0,0:0:0:0:
56,104,360819,5,0,0:0:0:0:
416,128,361840,1,2,0:0:0:0:
192,240,362506,2,0,L|272:240,1,48,2|2,0:0|0:0,0:0:0:0:
48,144,363506,5,2,0:0:0:0:
160,144,363869,1,0,0:0:0:0:
272,144,364241,1,0,0:0:0:0:
384,144,364623,1,0,0:0:0:0:
200,80,365015,1,2,0:0:0:0:
408,80,365417,1,0,0:0:0:0:
296,80,365830,1,0,0:0:0:0:
136,80,366244,1,0,0:0:0:0:
296,200,366559,6,0,L|240:200,1,48,0|0,0:0|0:0,0:0:0:0:
216,200,366773,1,2,0:0:0:0:
184,200,366844,1,2,0:0:0:0:
296,200,367976,5,2,0:0:0:0:
128,200,368401,1,0,0:0:0:0:
344,200,368827,1,2,0:0:0:0:
192,200,369240,1,0,0:0:0:0:
432,200,369766,1,2,0:0:0:0:
184,192,370266,5,2,0:0:0:0:
296,192,370694,1,0,0:0:0:0:
72,192,371162,1,0,0:0:0:0:
176,192,371616,1,0,0:0:0:0:
416,200,372137,1,2,0:0:0:0:
216,200,372578,1,2,0:0:0:0:
48,200,373000,5,0,0:0:0:0:
304,200,373600,1,0,0:0:0:0:
128,200,374252,1,2,0:0:0:0:
432,200,374933,1,0,0:0:0:0:
120,200,375673,1,2,0:0:0:0:
392,192,376423,1,2,0:0:0:0:
376,200,377375,6,0,L|352:200,1,16,2|0,0:0|0:0,0:0:0:0:
16,192,377587,1,2,0:0:0:0:
