osu file format v14

[General]
AudioFilename: Halcyon.mp3
AudioLeadIn: 0
PreviewTime: 193535
Countdown: 0
SampleSet: Soft
StackLeniency: 0.2
Mode: 0
LetterboxInBreaks: 0
WidescreenStoryboard: 1

[Editor]
Bookmarks: 1141,25934,46703,69923,90028,110132,130237,151598,171703,193064,214362,234466,254571,257084,277189,299807,303262
DistanceSpacing: 1.1
BeatDivisor: 4
GridSize: 16
TimelineZoom: 1.900006

[Metadata]
Title:Halcyon -Long Version-
TitleUnicode:Halcyon -Long Version-
Artist:xi
ArtistUnicode:xi
Creator:Natsu
Version:Deity
Source:BMS
Tags:Groundbreaking stream RENAISSANCE HARDCORE euny BOF2010 COMPILATION ALBUM SOUND VOLTEX III GRAVITY WARS YUSUKE ISHIWATA Diverse System Parousia Cytus
BeatmapID:1121435
BeatmapSetID:448919

[Difficulty]
HPDrainRate:6
CircleSize:4.2
OverallDifficulty:9
ApproachRate:9.5
SliderMultiplier:1.8
SliderTickRate:1

[Events]
//Background and Video events
0,0,"KakaoTalk_20161121_103020991.jpg",0,0
//Break Periods
//Storyboard Layer 0 (Background)
//Storyboard Layer 1 (Fail)
//Storyboard Layer 2 (Pass)
//Storyboard Layer 3 (Foreground)
//Storyboard Sound Samples

[TimingPoints]
1141,625,4,2,34,20,1,0
1453,-100,4,2,44,20,0,0
1609,-100,4,2,64,20,0,0
1766,638.297872340426,4,2,84,20,1,0
1925,-100,4,2,14,20,0,0
2085,-100,4,2,24,20,0,0
2244,-100,4,2,15,20,0,0
2404,628.930817610063,4,2,35,20,1,0
2718,-100,4,2,84,10,0,0
3032,-100,4,2,24,10,0,0
3347,-100,4,2,35,10,0,0
3976,-100,4,2,84,20,0,0
4290,-100,4,2,35,20,0,0
4605,-100,4,2,45,20,0,0
4919,628.930817610063,4,2,75,20,1,0
5233,-133.333333333333,4,2,45,20,0,0
5272,-133.333333333333,4,2,99,5,0,0
5547,-133.333333333333,4,2,35,10,0,0
5862,-133.333333333333,4,2,35,20,0,0
5901,-133.333333333333,4,2,99,5,0,0
6176,-133.333333333333,4,2,15,10,0,0
6491,-133.333333333333,4,2,14,20,0,0
6845,-133.333333333333,4,2,99,5,0,0
7015,-133.333333333333,4,2,24,20,0,0
7041,-133.333333333333,4,2,99,5,0,0
7225,-133.333333333333,4,2,15,20,0,0
7434,-133.333333333333,4,2,15,20,0,0
7474,-133.333333333333,4,2,99,5,0,0
7749,-133.333333333333,4,2,23,15,0,0
7788,-133.333333333333,4,2,99,5,0,0
8063,-133.333333333333,4,2,14,20,0,0
8378,-133.333333333333,4,2,24,20,0,0
8417,-133.333333333333,4,2,99,5,0,0
8692,-133.333333333333,4,2,74,15,0,0
9007,-133.333333333333,4,2,24,20,0,0
9046,-133.333333333333,4,2,99,5,0,0
9321,-133.333333333333,4,2,13,8,0,0
9635,-133.333333333333,4,2,15,20,0,0
9950,641.711229946524,4,2,64,20,1,0
9950,-166.666666666667,4,2,64,20,0,0
10270,-166.666666666667,4,2,15,20,0,0
10591,-166.666666666667,4,2,85,20,0,0
11233,665.188470066519,4,2,35,20,1,0
11274,-100,4,2,99,5,0,0
11565,-100,4,2,14,10,0,0
11898,689.655172413793,4,2,24,20,1,0
12242,710.059171597633,4,2,14,20,1,0
12419,-100,4,2,24,20,0,0
12597,628.930817610063,4,2,65,20,1,0
12911,-100,4,2,84,10,0,0
13225,-100,4,2,15,10,0,0
13540,-100,4,2,45,10,0,0
14169,-100,4,2,84,20,0,0
14483,-100,4,2,45,20,0,0
14798,-100,4,2,35,20,0,0
15112,-100,4,2,15,10,0,0
15427,-100,4,2,64,10,0,0
15741,-100,4,2,14,10,0,0
16056,-100,4,2,15,8,0,0
16685,-100,4,2,14,20,0,0
16999,-100,4,2,24,20,0,0
17313,-100,4,2,15,20,0,0
17628,666.666666666667,4,2,35,20,1,0
17961,-100,4,2,23,8,0,0
18294,-100,4,2,44,10,0,0
18628,-100,4,2,84,10,0,0
19294,-100,4,2,24,20,0,0
19628,-100,4,2,15,20,0,0
19961,-100,4,2,35,20,0,0
20294,725.075528700906,4,2,15,20,1,0
20294,-50,4,2,15,20,0,0
20339,-50,4,2,65,20,0,0
20384,-50,4,2,15,20,0,0
21744,731.707317073171,4,2,26,20,1,0
23207,681.818181818182,4,2,62,20,1,0
23207,-200,4,2,62,20,0,0
23249,-200,4,2,99,5,0,0
25934,666.666666666667,4,2,14,40,1,0
26100,-100,4,2,34,40,0,0
26267,-100,4,2,44,40,0,0
26434,-100,4,2,64,40,0,0
26600,627.615062761506,4,2,84,50,1,0
26600,-125,4,2,84,50,0,0
26639,-125,4,2,99,10,0,0
29110,638.297872340426,4,2,84,40,1,0
29429,-100,4,2,64,40,0,0
29588,-100,4,2,44,40,0,0
29748,-100,4,2,34,40,0,0
29788,-100,4,2,99,5,0,0
29961,-100,4,2,23,40,0,0
29987,-100,4,2,99,5,0,0
30173,-100,4,2,63,40,0,0
30386,620.47569803516,4,2,83,40,1,0
30696,-100,4,2,93,40,0,0
31006,-100,4,2,23,40,0,0
31316,-100,4,2,44,40,0,0
31626,631.578947368421,4,2,34,40,1,0
31665,-100,4,2,99,5,0,0
32099,-100,4,2,14,40,0,0
32139,-100,4,2,99,5,0,0
32573,615.384615384615,4,2,83,40,1,0
32611,-100,4,2,99,5,0,0
32880,615.384615384615,4,2,99,5,1,0
34110,631.578947368421,4,2,84,40,1,0
34149,-100,4,2,99,5,0,0
35373,-100,4,2,84,40,0,0
35688,-100,4,2,23,40,0,0
36004,-100,4,2,14,40,0,0
36162,-100,4,2,34,40,0,0
36320,-100,4,2,44,40,0,0
36478,-100,4,2,64,40,0,0
36636,652.173913043478,4,2,84,50,1,0
36676,-100,4,2,99,5,0,0
37940,607.594936708861,4,2,15,40,1,0
37977,-100,4,2,99,5,0,0
39155,634.920634920635,4,2,35,40,1,0
39472,-100,4,2,35,40,0,0
39512,-100,4,2,99,5,0,0
40107,-100,4,2,34,40,0,0
40266,-100,4,2,44,40,0,0
40424,-100,4,2,64,40,0,0
40583,-100,4,2,44,40,0,0
40742,-100,4,2,64,40,0,0
40901,-100,4,2,44,40,0,0
41059,-100,4,2,64,40,0,0
41377,-100,4,2,94,40,0,0
41694,-100,4,2,94,40,0,0
41734,-100,4,2,99,5,0,0
42170,-100,4,2,84,40,0,0
42210,-100,4,2,99,5,0,0
42647,612.244897959184,4,2,84,40,1,0
42685,-100,4,2,99,5,0,0
42953,612.244897959184,4,2,99,5,1,0
44177,631.578947368421,4,2,84,40,1,0
44216,-100,4,2,99,5,0,0
45440,-100,4,2,84,40,0,0
45755,-100,4,2,23,40,0,0
46071,-100,4,2,14,40,0,0
46229,-100,4,2,34,40,0,0
46387,-100,4,2,44,40,0,0
46545,-100,4,2,64,40,0,0
46703,628.272251308901,4,2,84,60,1,0
46742,-100,4,2,99,5,0,0
47331,-100,4,2,99,20,0,0
47370,-100,4,2,99,5,0,0
48587,-100,4,2,99,20,0,0
49216,-100,4,2,84,60,0,0
49530,-100,4,2,64,60,0,0
49687,-100,4,2,44,60,0,0
49844,-100,4,2,34,60,0,0
49883,-100,4,2,99,5,0,0
50079,-100,4,2,23,60,0,0
50119,-100,4,2,99,5,0,0
50315,-100,4,2,63,60,0,0
50472,-100,4,2,83,60,0,0
50511,-100,4,2,99,5,0,0
50786,-100,4,2,93,60,0,0
50826,-100,4,2,99,5,0,0
51100,-100,4,2,23,60,0,0
51140,-100,4,2,99,5,0,0
51415,-100,4,2,44,60,0,0
51454,-100,4,2,99,5,0,0
51729,-100,4,2,64,60,0,0
51768,-100,4,2,99,5,0,0
52200,-100,4,2,44,60,0,0
52239,-100,4,2,99,5,0,0
52671,-100,4,2,34,60,0,0
52828,-100,4,2,44,60,0,0
52985,-100,4,2,64,60,0,0
53024,-100,4,2,99,5,0,0
53613,-100,4,2,24,60,0,0
53653,-100,4,2,99,5,0,0
54085,-100,4,2,99,60,0,0
54242,-100,4,2,35,60,0,0
54281,-100,4,2,99,5,0,0
54713,-100,4,2,15,60,0,0
54752,-100,4,2,99,5,0,0
55263,-100,4,2,84,60,0,0
55302,-100,4,2,99,5,0,0
55498,-100,4,2,44,60,0,0
55538,-100,4,2,99,5,0,0
55812,-100,4,2,23,60,0,0
55852,-100,4,2,99,5,0,0
56127,-100,4,2,14,60,0,0
56284,-100,4,2,34,60,0,0
56441,-100,4,2,44,60,0,0
56598,-100,4,2,64,60,0,0
56755,-100,4,2,84,60,0,0
56794,-100,4,2,99,5,0,0
57854,-100,4,2,99,5,0,0
58011,-100,4,2,15,60,0,0
58051,-100,4,2,99,5,0,0
58483,-100,4,2,99,5,0,0
59111,-100,4,2,99,5,0,0
59268,-100,4,2,35,70,0,0
59307,-100,4,2,99,5,0,0
59739,-100,4,2,99,5,0,0
59896,-100,4,2,65,70,0,0
59935,-100,4,2,99,5,0,0
60367,-100,4,2,99,5,0,0
60524,-100,4,2,45,70,0,0
60564,-100,4,2,99,5,0,0
61153,-100,4,2,45,60,0,0
61310,-100,4,2,35,60,0,0
61467,-100,4,2,15,60,0,0
61624,-100,4,2,24,60,0,0
61781,641.711229946524,4,2,15,60,1,0
61821,-100,4,2,99,5,0,0
62262,-100,4,2,99,5,0,0
62422,655.737704918033,4,2,94,60,1,0
62462,-100,4,2,99,5,0,0
63077,705.882352941176,4,2,45,60,1,0
63121,-100,4,2,99,5,0,0
63782,733.675715333823,4,2,45,60,1,0
63827,-100,4,2,99,5,0,0
64057,-100,4,2,65,60,0,0
64102,-100,4,2,99,5,0,0
64332,-100,4,2,45,60,0,0
64515,789.473684210526,4,2,45,60,1,0
64564,-100,4,2,99,5,0,0
65304,863.309352517986,4,2,99,60,1,0
65357,-100,4,2,99,5,0,0
66167,1000,4,2,35,60,1,0
66229,-100,4,2,99,5,0,0
67167,1500,4,2,99,60,1,0
67260,-100,4,2,99,5,0,0
68667,314.13612565445,4,2,99,70,1,0
69295,-100,4,2,34,70,0,0
69452,-100,4,2,44,70,0,0
69530,-100,4,2,64,70,0,0
69609,-100,4,2,84,70,0,0
69687,-100,4,2,14,70,0,0
69766,-100,4,2,24,70,0,0
69844,-100,4,2,15,70,0,0
69923,-100,4,2,35,70,0,1
69943,-100,4,2,99,5,0,1
70237,-100,4,2,84,70,0,1
70394,-100,4,2,35,70,0,1
70708,-100,4,2,45,70,0,1
71023,-100,4,2,35,70,0,1
71337,-100,4,2,15,70,0,1
71651,-100,4,2,24,70,0,1
71965,-100,4,2,14,70,0,1
72122,-100,4,2,74,70,0,1
72201,-100,4,2,84,70,0,1
72279,-100,4,2,14,70,0,1
72357,-100,4,2,24,70,0,1
72436,-100,4,2,15,70,0,1
72750,-100,4,2,64,70,0,1
72907,-100,4,2,15,70,0,1
73221,-100,4,2,35,70,0,1
73536,-100,4,2,15,70,0,1
73850,-100,4,2,24,70,0,1
74164,-100,4,2,14,70,0,1
74478,-100,4,2,24,70,0,1
74792,-100,4,2,64,70,0,1
75420,-100,4,2,34,70,0,1
75499,-100,4,2,44,70,0,1
75577,-100,4,2,64,70,0,1
75735,-100,4,2,44,70,0,1
75892,-100,4,2,34,70,0,1
76049,-100,4,2,14,70,0,1
76363,-100,4,2,73,70,0,1
76677,-100,4,2,44,70,0,1
76991,-100,4,2,73,70,0,1
77148,-100,4,2,44,70,0,1
77305,-100,4,2,64,70,0,1
77462,-100,4,2,44,70,0,1
77934,-100,4,2,44,70,0,1
78248,-100,4,2,34,70,0,1
78405,-100,4,2,14,70,0,1
78562,-100,4,2,34,70,0,1
79347,-100,4,2,34,70,0,1
79504,-100,4,2,44,70,0,1
79583,-100,4,2,64,70,0,1
79661,-100,4,2,84,70,0,1
79739,-100,4,2,14,70,0,1
79818,-100,4,2,24,70,0,1
79897,-100,4,2,15,70,0,1
79975,-100,4,2,35,70,0,1
80290,-100,4,2,84,70,0,1
80447,-100,4,2,35,70,0,1
80761,-100,4,2,45,70,0,1
81075,-100,4,2,35,70,0,1
81389,-100,4,2,15,70,0,1
81703,-100,4,2,24,70,0,1
82017,-100,4,2,14,70,0,1
82174,-100,4,2,74,70,0,1
82253,-100,4,2,84,70,0,1
82331,-100,4,2,14,70,0,1
82410,-100,4,2,24,70,0,1
82488,-100,4,2,15,70,0,1
82803,-100,4,2,64,70,0,1
82960,-100,4,2,15,70,0,1
83274,-100,4,2,35,70,0,1
83588,-100,4,2,65,70,0,1
83902,-100,4,2,45,70,0,1
84216,-100,4,2,35,70,0,1
84531,-100,4,2,15,70,0,1
84845,-100,4,2,35,70,0,1
84923,-100,4,2,15,70,0,1
85002,-100,4,2,24,70,0,1
85316,-100,4,2,99,70,0,1
85787,-100,4,2,84,70,0,1
85944,-100,4,2,35,70,0,1
86101,-100,4,2,15,70,0,1
86258,-100,4,2,99,70,0,1
87043,-100,4,2,24,70,0,1
87201,-100,4,2,15,70,0,1
87358,-100,4,2,35,70,0,1
87515,-100,4,2,99,70,0,1
88771,-100,4,2,15,70,0,1
88850,-100,4,2,85,79,0,1
88928,-100,4,2,75,76,0,1
89007,-100,4,2,35,73,0,1
89085,-100,4,2,14,70,0,1
89164,-100,4,2,84,69,0,1
89242,-100,4,2,74,66,0,1
89321,-100,4,2,34,63,0,1
89399,-100,4,2,13,60,0,1
89478,-100,4,2,83,59,0,1
89557,-100,4,2,73,56,0,1
89635,-100,4,2,33,53,0,1
89713,-100,4,2,12,50,0,1
89792,-100,4,2,82,49,0,1
89871,-100,4,2,72,46,0,1
89949,-100,4,2,32,43,0,1
90028,-200,4,2,82,40,0,0
90342,-62.5,4,2,99,60,0,0
90656,-62.5,4,2,32,30,0,0
90813,-100,4,2,12,30,0,0
90970,-100,4,2,21,30,0,0
91127,-100,4,2,14,60,0,0
91441,-100,4,2,24,60,0,0
91756,-100,4,2,84,60,0,0
92227,-100,4,2,62,40,0,0
92541,-100,4,2,42,40,0,0
92855,-100,4,2,85,60,0,0
93169,-100,4,2,85,60,0,0
93326,-100,4,2,65,60,0,0
93483,-100,4,2,35,60,0,0
93640,-100,4,2,15,60,0,0
93954,-100,4,2,15,60,0,0
94112,-100,4,2,14,60,0,0
94269,-100,4,2,15,60,0,0
94426,-100,4,2,45,60,0,0
94504,-100,4,2,65,60,0,0
94583,-100,4,2,45,60,0,0
94661,-100,4,2,35,60,0,0
94740,-100,4,2,15,60,0,0
94818,-100,4,2,24,60,0,0
94897,-100,4,2,14,60,0,0
95054,-100,4,2,99,60,0,0
95368,-100,4,2,65,60,0,0
95682,-100,4,2,35,60,0,0
95839,-100,4,2,84,60,0,0
95996,-100,4,2,24,60,0,0
96153,-100,4,2,15,60,0,0
96310,-100,4,2,35,60,0,0
96389,-100,4,2,45,60,0,0
96468,-100,4,2,35,60,0,0
96546,-100,4,2,15,60,0,0
96625,-100,4,2,35,60,0,0
96703,-100,4,2,45,60,0,0
96782,-100,4,2,35,60,0,0
96860,-100,4,2,15,60,0,0
96939,-100,4,2,35,60,0,0
97017,-100,4,2,45,60,0,0
97096,-100,4,2,35,60,0,0
97173,-100,4,2,15,60,0,0
97253,-100,4,2,24,60,0,0
97331,-100,4,2,84,60,0,0
97410,-100,4,2,24,60,0,0
97488,-100,4,2,15,60,0,0
97567,-100,4,2,84,60,0,0
97724,-100,4,2,24,60,0,0
97881,-100,4,2,84,60,0,0
98117,-100,4,2,35,60,0,0
98195,-100,4,2,25,60,0,0
98352,-100,4,2,85,60,0,0
98509,-100,4,2,65,60,0,0
98588,-100,4,2,45,60,0,0
98666,-100,4,2,65,60,0,0
98745,-100,4,2,85,60,0,0
98824,-100,4,2,65,60,0,0
98981,-100,4,2,35,60,0,0
99059,-100,4,2,15,60,0,0
99138,-100,4,2,24,60,0,0
99295,-100,4,2,64,60,0,0
99452,-100,4,2,84,60,0,0
99530,-100,4,2,14,60,0,0
99609,-100,4,2,24,60,0,0
99687,-100,4,2,35,60,0,0
99766,-100,4,2,15,60,0,0
99845,-100,4,2,24,60,0,0
99923,-100,4,2,64,60,0,0
100001,-100,4,2,84,60,0,0
100080,-76.9230769230769,4,2,99,70,0,0
100394,-62.5,4,2,99,60,0,0
100708,-100,4,2,32,35,0,0
100865,-100,4,2,12,35,0,0
101023,-100,4,2,21,35,0,0
101180,-100,4,2,14,60,0,0
101494,-100,4,2,24,60,0,0
101808,-100,4,2,84,60,0,0
102279,-100,4,2,62,40,0,0
102593,-100,4,2,42,40,0,0
102907,-100,4,2,85,60,0,0
103221,-100,4,2,85,60,0,0
103379,-100,4,2,65,60,0,0
103536,-100,4,2,35,60,0,0
103693,-100,4,2,15,60,0,0
104007,-100,4,2,15,60,0,0
104164,-100,4,2,14,60,0,0
104321,-100,4,2,15,60,0,0
104478,-100,4,2,45,60,0,0
104557,-100,4,2,35,60,0,0
104635,-100,4,2,15,60,0,0
104713,-100,4,2,45,60,0,0
104792,-100,4,2,35,60,0,0
104871,-100,4,2,45,60,0,0
104949,-100,4,2,65,60,0,0
105028,-100,4,2,15,60,0,0
105106,-100,4,2,85,60,0,0
105420,-100,4,2,65,60,0,0
105735,-100,4,2,35,60,0,0
105892,-100,4,2,84,60,0,0
106049,-100,4,2,24,60,0,0
106206,-100,4,2,15,60,0,0
106363,-100,4,2,35,60,0,0
106441,-100,4,2,45,60,0,0
106520,-100,4,2,35,60,0,0
106598,-100,4,2,15,60,0,0
106677,-100,4,2,35,60,0,0
106756,-100,4,2,45,60,0,0
106834,-100,4,2,35,60,0,0
106913,-100,4,2,15,60,0,0
106991,-100,4,2,35,60,0,0
107070,-100,4,2,45,60,0,0
107148,-100,4,2,35,60,0,0
107227,-100,4,2,15,60,0,0
107305,-100,4,2,24,60,0,0
107383,-100,4,2,84,60,0,0
107462,-100,4,2,24,60,0,0
107541,-100,4,2,15,60,0,0
107619,-100,4,2,84,60,0,0
107776,-100,4,2,25,60,0,0
107934,-100,4,2,85,60,0,0
108248,-100,4,2,65,60,0,0
108405,-100,4,2,35,60,0,0
108562,-100,4,2,65,60,0,0
108640,-100,4,2,35,60,0,0
108719,-100,4,2,65,60,0,0
108797,-100,4,2,85,60,0,0
108876,-100,4,2,65,60,0,0
108954,-100,4,2,35,60,0,0
109033,-100,4,2,65,60,0,0
109112,-100,4,2,35,60,0,0
109190,-100,4,2,65,60,0,0
109269,-100,4,2,35,60,0,0
109347,-100,4,2,65,60,0,0
109426,-100,4,2,85,60,0,0
109504,-66.6666666666667,4,2,64,50,0,0
109543,-66.6666666666667,4,2,84,50,0,0
109583,-66.6666666666667,4,2,14,50,0,0
109661,-66.6666666666667,4,2,24,50,0,0
109701,-66.6666666666667,4,2,15,50,0,0
109740,-66.6666666666667,4,2,35,50,0,0
109818,-66.6666666666667,4,2,45,50,0,0
109858,-66.6666666666667,4,2,65,50,0,0
109897,-66.6666666666667,4,2,85,50,0,0
109975,-66.6666666666667,4,2,15,50,0,0
110015,-66.6666666666667,4,2,25,50,0,0
110054,-66.6666666666667,4,2,16,50,0,0
110132,-100,4,2,36,70,0,0
110447,-100,4,2,99,50,0,0
110918,-100,4,2,23,60,0,0
111075,-100,4,2,44,60,0,0
111232,-100,4,2,64,60,0,0
111389,-100,4,2,84,45,0,0
111468,-100,4,2,44,45,0,0
111546,-100,4,2,23,45,0,0
111625,-100,4,2,64,45,0,0
111703,-100,4,2,44,45,0,0
111782,-100,4,2,23,45,0,0
111860,-100,4,2,84,45,0,0
111938,-100,4,2,44,45,0,0
112017,-100,4,2,23,45,0,0
112096,-100,4,2,14,45,0,0
112175,-100,4,2,44,45,0,0
112253,-100,4,2,23,45,0,0
112331,-100,4,2,84,45,0,0
112410,-100,4,2,64,45,0,0
112488,-100,4,2,84,45,0,0
112567,-100,4,2,14,45,0,0
112646,-100,4,2,15,60,0,0
112960,-100,4,2,99,60,0,0
113745,-100,4,2,15,60,0,0
113902,-100,4,2,24,60,0,0
113981,-100,4,2,14,60,0,0
114059,-100,4,2,84,60,0,0
114138,-100,4,2,14,60,0,0
114216,-100,4,2,84,60,0,0
114294,-100,4,2,64,60,0,0
114373,-100,4,2,34,60,0,0
114452,-100,4,2,64,60,0,0
114530,-100,4,2,34,60,0,0
114609,-100,4,2,13,60,0,0
114687,-100,4,2,64,60,0,0
114766,-100,4,2,84,60,0,0
114844,-100,4,2,14,60,0,0
114923,-100,4,2,84,60,0,0
115002,-100,4,2,24,60,0,0
115080,-100,4,2,64,60,0,0
115159,-100,4,2,15,60,0,0
115473,-100,4,2,99,60,0,0
115944,-100,4,2,74,60,0,0
116101,-100,4,2,34,60,0,0
116258,-100,4,2,74,60,0,0
116415,-100,4,2,14,60,0,0
116494,-100,4,2,34,60,0,0
116572,-100,4,2,74,60,0,0
116651,-100,4,2,14,60,0,0
116729,-100,4,2,35,60,0,0
116807,-100,4,2,74,60,0,0
116886,-100,4,2,14,60,0,0
116965,-100,4,2,35,60,0,0
117043,-100,4,2,75,60,0,0
117122,-100,4,2,14,60,0,0
117201,-100,4,2,35,60,0,0
117279,-100,4,2,75,60,0,0
117358,-100,4,2,25,60,0,0
117436,-100,4,2,35,60,0,0
117515,-100,4,2,75,60,0,0
117593,-100,4,2,25,60,0,0
117672,-100,4,2,16,70,0,0
117986,-100,4,2,99,70,0,0
118614,-100,4,2,16,70,0,0
118693,-100,4,2,25,60,0,0
118771,-100,4,2,15,60,0,0
118928,-100,4,2,25,60,0,0
119242,-100,4,2,25,60,0,0
119320,-100,4,2,85,60,0,0
119399,-100,4,2,35,60,0,0
119478,-100,4,2,24,60,0,0
119557,-100,4,2,85,60,0,0
119635,-100,4,2,35,60,0,0
119714,-100,4,2,24,60,0,0
119792,-100,4,2,84,60,0,0
119871,-100,4,2,35,60,0,0
119949,-100,4,2,24,60,0,0
120028,-100,4,2,84,60,0,0
120106,-100,4,2,34,60,0,0
120185,-100,4,2,84,60,0,0
120499,-100,4,2,99,50,0,0
120970,-100,4,2,23,60,0,0
121127,-100,4,2,44,60,0,0
121284,-100,4,2,64,60,0,0
121441,-100,4,2,84,60,0,0
121519,-100,4,2,44,60,0,0
121598,-100,4,2,23,60,0,0
121677,-100,4,2,64,60,0,0
121756,-100,4,2,44,60,0,0
121834,-100,4,2,23,60,0,0
121913,-100,4,2,84,60,0,0
121990,-100,4,2,44,60,0,0
122070,-100,4,2,23,60,0,0
122148,-100,4,2,94,60,0,0
122226,-100,4,2,44,60,0,0
122305,-100,4,2,23,60,0,0
122384,-100,4,2,84,60,0,0
122462,-100,4,2,64,60,0,0
122541,-100,4,2,84,60,0,0
122619,-100,4,2,94,60,0,0
122698,-100,4,2,15,60,0,0
123012,-100,4,2,94,60,0,0
123091,-100,4,2,14,60,0,0
123169,-100,4,2,44,60,0,0
123248,-100,4,2,94,60,0,0
123326,-100,4,2,15,60,0,0
123404,-100,4,2,44,60,0,0
123483,-100,4,2,94,60,0,0
123561,-100,4,2,15,60,0,0
123640,-100,4,2,45,60,0,0
123719,-100,4,2,94,60,0,0
123797,-100,4,2,15,60,0,0
123876,-100,4,2,45,60,0,0
123954,-100,4,2,65,60,0,0
124269,-100,4,2,65,60,0,0
124347,-100,4,2,15,60,0,0
124426,-100,4,2,94,60,0,0
124504,-100,4,2,64,60,0,0
124583,-100,4,2,15,60,0,0
124661,-100,4,2,94,60,0,0
124739,-100,4,2,64,60,0,0
124818,-100,4,2,14,60,0,0
124897,-100,4,2,94,60,0,0
124975,-100,4,2,64,60,0,0
125053,-100,4,2,14,60,0,0
125132,-100,4,2,93,60,0,0
125211,-100,4,2,14,60,0,0
125525,-100,4,2,99,60,0,0
125839,-100,4,2,14,60,0,0
125918,-100,4,2,84,60,0,0
125996,-100,4,2,74,60,0,0
126074,-100,4,2,84,60,0,0
126153,-100,4,2,14,60,0,0
126232,-100,4,2,34,60,0,0
126311,-100,4,2,74,60,0,0
126389,-100,4,2,14,60,0,0
126468,-100,4,2,15,60,0,0
126782,-100,4,2,24,60,0,0
126939,-100,4,2,14,60,0,0
127096,-100,4,2,14,60,0,0
127174,-100,4,2,84,60,0,0
127253,-100,4,2,64,60,0,0
127331,-100,4,2,84,60,0,0
127410,-100,4,2,14,60,0,0
127488,-100,4,2,24,60,0,0
127567,-100,4,2,15,60,0,0
127645,-100,4,2,35,60,0,0
127724,-100,4,2,45,60,0,0
128038,-100,4,2,33,40,0,0
128117,-100,4,2,73,40,0,0
128195,-100,4,2,13,40,0,0
128273,-100,4,2,14,40,0,0
128352,-100,4,2,13,40,0,0
128431,-100,4,2,14,40,0,0
128509,-100,4,2,44,40,0,0
128587,-100,4,2,64,40,0,0
128666,-100,4,2,85,70,0,0
128981,-100,4,2,75,70,0,0
129295,-83.3333333333333,4,2,15,60,0,0
129373,-83.3333333333333,4,2,45,60,0,0
129452,-83.3333333333333,4,2,24,60,0,0
129530,-83.3333333333333,4,2,74,60,0,0
129609,-83.3333333333333,4,2,23,37,0,0
129687,-83.3333333333333,4,2,73,37,0,0
129766,-83.3333333333333,4,2,13,37,0,0
129845,-83.3333333333333,4,2,82,37,0,0
129923,-83.3333333333333,4,2,99,37,0,0
130237,-111.111111111111,4,2,83,60,0,0
130394,-111.111111111111,4,2,99,60,0,0
131494,-111.111111111111,4,2,13,60,0,0
131651,-111.111111111111,4,2,99,60,0,0
132122,-111.111111111111,4,2,23,60,0,0
132279,-111.111111111111,4,2,99,60,0,0
132750,-111.111111111111,4,2,14,60,0,0
132907,-111.111111111111,4,2,99,60,0,0
134007,-111.111111111111,4,2,34,60,0,0
134026,-111.111111111111,4,2,99,60,0,0
134635,-100,4,2,99,60,0,0
135263,-100,4,2,64,60,0,0
135577,-100,4,2,99,60,0,0
136049,-100,4,2,83,60,0,0
136206,-100,4,2,23,60,0,0
136363,-100,4,2,14,60,0,0
136520,-100,4,2,34,60,0,0
136598,-100,4,2,83,60,0,0
136677,-100,4,2,23,60,0,0
136756,-100,4,2,14,60,0,0
136834,-100,4,2,34,60,0,0
136912,-100,4,2,44,60,0,0
136991,-100,4,2,54,60,0,0
137069,-100,4,2,74,60,0,0
137148,-100,4,2,84,60,0,0
137462,-100,4,2,99,60,0,0
137776,-100,4,2,14,60,0,0
138091,-100,4,2,63,60,0,0
138169,-100,4,2,13,60,0,0
138248,-100,4,2,14,60,0,0
138326,-100,4,2,64,60,0,0
138405,-100,4,2,13,60,0,0
138483,-100,4,2,14,60,0,0
138562,-100,4,2,64,60,0,0
138640,-100,4,2,14,60,0,0
138719,-100,4,2,14,60,0,0
138797,-100,4,2,64,60,0,0
138876,-100,4,2,14,60,0,0
138954,-100,4,2,15,60,0,0
139033,-100,4,2,35,60,0,0
139112,-100,4,2,14,60,0,0
139190,-100,4,2,64,60,0,0
139269,-100,4,2,34,60,0,0
139347,-100,4,2,14,60,0,0
139425,-100,4,2,64,60,0,0
139504,-100,4,2,34,60,0,0
139582,-100,4,2,13,60,0,0
139661,-100,4,2,24,60,0,0
139818,-100,4,2,34,60,0,0
139897,-100,4,2,23,60,0,0
139975,-100,4,2,64,60,0,0
140053,-100,4,2,34,60,0,0
140132,-100,4,2,23,60,0,0
140210,-100,4,2,63,60,0,0
140290,-100,4,2,33,40,0,0
140525,-100,4,2,34,30,0,0
140604,-100,4,2,53,60,0,0
140682,-100,4,2,93,60,0,0
140761,-100,4,2,34,60,0,0
140839,-100,4,2,54,60,0,0
140918,-100,4,2,94,60,0,0
141075,-100,4,2,35,60,0,0
141389,-100,4,2,94,60,0,0
141546,-100,4,2,99,60,0,0
141625,-100,4,2,93,60,0,0
141703,-100,4,2,44,60,0,0
141782,-100,4,2,84,60,0,0
141860,-100,4,2,34,60,0,0
141938,-100,4,2,54,60,0,0
142017,-100,4,2,94,60,0,0
142095,-100,4,2,14,60,0,0
142174,-100,4,2,64,60,0,0
142252,-100,4,2,14,60,0,0
142331,-100,4,2,24,60,0,0
142410,-100,4,2,74,60,0,0
142488,-100,4,2,24,60,0,0
142567,-100,4,2,44,60,0,0
142645,-100,4,2,84,60,0,0
142724,-100,4,2,35,60,0,0
142803,-100,4,2,44,60,0,0
142881,-100,4,2,84,60,0,0
142960,-100,4,2,94,60,0,0
143038,-100,4,2,24,60,0,0
143117,-100,4,2,35,60,0,0
143274,-100,4,2,44,60,0,0
143352,-100,4,2,84,60,0,0
143431,-100,4,2,94,60,0,0
143509,-100,4,2,24,60,0,0
143588,-100,4,2,25,60,0,0
143745,-100,4,2,94,60,0,0
143824,-100,4,2,24,60,0,0
143902,-100,4,2,35,60,0,0
143981,-100,4,2,25,60,0,0
144059,-100,4,2,45,60,0,0
144373,-100,4,2,95,60,0,0
144452,-100,4,2,45,60,0,0
144530,-100,4,2,35,60,0,0
144609,-100,4,2,94,60,0,0
144687,-100,4,2,45,60,0,0
144766,-100,4,2,35,60,0,0
144845,-100,4,2,94,60,0,0
144923,-100,4,2,44,60,0,0
145002,-100,4,2,35,60,0,0
145080,-100,4,2,94,60,0,0
145159,-100,4,2,44,60,0,0
145237,-100,4,2,34,60,0,0
145316,-100,4,2,23,60,0,0
145394,-100,4,2,53,60,0,0
145473,-100,4,2,93,60,0,0
145551,-100,4,2,24,60,0,0
145630,-100,4,2,53,60,0,0
145708,-100,4,2,93,60,0,0
145787,-100,4,2,24,60,0,0
145865,-100,4,2,54,60,0,0
145944,-100,4,2,94,60,0,0
146101,-100,4,2,25,60,0,0
146415,-100,4,2,24,60,0,0
146886,-100,4,2,13,60,0,0
146965,-100,4,2,24,60,0,0
147043,-100,4,2,64,60,0,0
147122,-100,4,2,24,60,0,0
147201,-100,4,2,25,60,0,0
147279,-100,4,2,24,60,0,0
147358,-100,4,2,64,60,0,0
147436,-100,4,2,24,60,0,0
147515,-100,4,2,24,60,0,0
147593,-100,4,2,64,60,0,0
147672,-100,4,2,24,60,0,0
147750,-100,4,2,23,60,0,0
147829,-100,4,2,83,60,0,0
147907,-100,4,2,23,60,0,0
147986,-100,4,2,44,60,0,0
148064,-100,4,2,84,60,0,0
148143,-100,4,2,23,60,0,0
148221,-100,4,2,44,60,0,0
148300,-100,4,2,84,60,0,0
148379,-100,4,2,24,60,0,0
148457,-100,4,2,45,60,0,0
148614,-100,4,2,95,60,0,0
148928,-100,4,2,85,60,0,0
149085,-100,4,2,25,60,0,0
149164,-100,4,2,85,60,0,0
149242,-100,4,2,45,60,0,0
149320,-100,4,2,24,60,0,0
149399,-100,4,2,85,60,0,0
149477,-100,4,2,45,60,0,0
149557,-100,4,2,24,60,0,0
149635,-100,4,2,84,60,0,0
149714,-100,4,2,45,60,0,0
149792,-100,4,2,24,60,0,0
149870,-100,4,2,84,60,0,0
149949,-100,4,2,44,60,0,0
150027,-100,4,2,24,60,0,0
150106,-100,4,2,84,60,0,0
150184,-100,4,2,94,60,0,0
150263,-100,4,2,24,60,0,0
150341,-100,4,2,25,60,0,0
150656,-142.857142857143,4,2,99,50,0,0
151284,-83.3333333333333,4,2,99,60,0,0
151363,-83.3333333333333,4,2,99,70,0,0
151598,-100,4,2,45,70,0,1
151913,-100,4,2,94,70,0,1
152070,-100,4,2,45,70,0,1
152384,-100,4,2,55,70,0,1
152698,-100,4,2,45,70,0,1
153012,-100,4,2,25,70,0,1
153326,-100,4,2,35,70,0,1
153640,-100,4,2,24,70,0,1
153797,-100,4,2,74,70,0,1
153875,-100,4,2,94,70,0,1
153954,-100,4,2,24,70,0,1
154032,-100,4,2,35,70,0,1
154112,-100,4,2,25,70,0,1
154426,-100,4,2,74,70,0,1
154583,-100,4,2,25,70,0,1
154897,-100,4,2,45,70,0,1
155211,-100,4,2,25,70,0,1
155525,-100,4,2,35,70,0,1
155839,-100,4,2,24,70,0,1
156153,-100,4,2,35,70,0,1
156468,-100,4,2,74,70,0,1
157096,-100,4,2,44,70,0,1
157174,-100,4,2,54,70,0,1
157253,-100,4,2,74,70,0,1
157410,-100,4,2,54,70,0,1
157567,-100,4,2,44,70,0,1
157724,-100,4,2,24,70,0,1
158038,-100,4,2,83,70,0,1
158352,-100,4,2,54,70,0,1
158666,-100,4,2,83,70,0,1
158824,-100,4,2,54,70,0,1
158981,-100,4,2,74,70,0,1
159138,-100,4,2,54,70,0,1
159609,-100,4,2,54,70,0,1
159923,-100,4,2,44,70,0,1
160080,-100,4,2,24,70,0,1
160237,-100,4,2,44,70,0,1
161023,-100,4,2,44,70,0,1
161180,-100,4,2,54,70,0,1
161258,-100,4,2,74,70,0,1
161337,-100,4,2,94,70,0,1
161415,-100,4,2,24,70,0,1
161494,-100,4,2,35,70,0,1
161572,-100,4,2,25,70,0,1
161651,-100,4,2,45,70,0,1
161965,-100,4,2,94,70,0,1
162122,-100,4,2,45,70,0,1
162436,-100,4,2,55,70,0,1
162750,-100,4,2,45,70,0,1
163064,-100,4,2,25,70,0,1
163379,-100,4,2,35,70,0,1
163693,-100,4,2,24,70,0,1
163850,-100,4,2,74,70,0,1
163928,-100,4,2,94,70,0,1
164007,-100,4,2,24,70,0,1
164085,-100,4,2,35,70,0,1
164164,-100,4,2,25,70,0,1
164478,-100,4,2,74,70,0,1
164635,-100,4,2,25,70,0,1
164949,-100,4,2,45,70,0,1
165263,-100,4,2,75,70,0,1
165577,-100,4,2,55,70,0,1
165892,-100,4,2,45,70,0,1
166206,-100,4,2,25,70,0,1
166520,-100,4,2,45,70,0,1
166598,-100,4,2,25,70,0,1
166677,-100,4,2,35,70,0,1
166991,-100,4,2,99,70,0,1
167462,-100,4,2,94,70,0,1
167619,-100,4,2,45,70,0,1
167776,-100,4,2,25,70,0,1
167933,-100,4,2,99,70,0,1
168719,-100,4,2,35,70,0,1
168876,-100,4,2,25,70,0,1
169033,-100,4,2,45,70,0,1
169190,-100,4,2,99,70,0,1
170447,-100,4,2,25,70,0,1
170525,-100,4,2,95,79,0,1
170604,-100,4,2,85,76,0,1
170682,-100,4,2,45,73,0,1
170761,-100,4,2,24,70,0,1
170839,-100,4,2,94,69,0,1
170917,-100,4,2,84,66,0,1
170996,-100,4,2,44,63,0,1
171075,-100,4,2,23,60,0,1
171153,-100,4,2,93,59,0,1
171231,-100,4,2,83,56,0,1
171310,-100,4,2,43,53,0,1
171389,-100,4,2,22,20,0,1
171468,-100,4,2,92,20,0,1
171546,-100,4,2,82,20,0,1
171625,-100,4,2,42,20,0,0
171703,-100,4,2,45,70,0,1
172017,-100,4,2,94,70,0,1
172174,-100,4,2,45,70,0,1
172488,-100,4,2,55,70,0,1
172803,-100,4,2,85,70,0,1
173117,-100,4,2,45,70,0,1
173745,-100,4,2,25,70,0,1
173902,-100,4,2,74,70,0,1
173980,-100,4,2,94,70,0,1
174059,-100,4,2,24,70,0,1
174138,-100,4,2,35,70,0,1
174216,-100,4,2,25,70,0,1
174530,-100,4,2,74,70,0,1
174687,-100,4,2,25,70,0,1
175002,-100,4,2,45,70,0,1
175316,-100,4,2,25,70,0,1
175630,-100,4,2,35,70,0,1
175944,-100,4,2,24,70,0,1
176258,-100,4,2,35,70,0,1
176572,-100,4,2,74,70,0,1
177201,-100,4,2,45,70,0,1
177279,-100,4,2,55,70,0,1
177358,-100,4,2,75,70,0,1
177515,-100,4,2,55,70,0,1
177672,-100,4,2,45,70,0,1
177829,-100,4,2,85,70,0,1
178143,-100,4,2,45,70,0,1
178457,-100,4,2,25,70,0,1
178771,-100,4,2,36,70,0,1
178928,-100,4,2,26,70,0,1
179085,-100,4,2,26,70,0,1
180028,-100,4,2,36,70,0,1
180185,-100,4,2,25,70,0,1
180342,-100,4,2,36,70,0,1
181127,-100,4,2,44,60,0,1
181284,-100,4,2,54,62,0,1
181362,-100,4,2,74,64,0,1
181441,-100,4,2,94,66,0,1
181519,-100,4,2,24,68,0,1
181598,-100,4,2,35,70,0,1
181676,-100,4,2,25,72,0,1
181755,-100,4,2,45,74,0,1
182070,-100,4,2,85,55,0,1
182148,-100,4,2,55,55,0,1
182227,-100,4,2,45,55,0,1
182305,-100,4,2,55,55,0,1
182384,-100,4,2,85,55,0,1
182462,-100,4,2,55,55,0,1
182541,-100,4,2,45,55,0,1
182619,-100,4,2,55,55,0,1
182698,-100,4,2,85,55,0,1
182776,-100,4,2,55,55,0,1
182855,-100,4,2,45,55,0,1
182933,-100,4,2,55,55,0,1
183012,-100,4,2,85,55,0,1
183090,-100,4,2,55,55,0,1
183169,-100,4,2,45,55,0,1
183248,-100,4,2,55,55,0,1
183326,-100,4,2,85,55,0,1
183405,-100,4,2,55,55,0,1
183483,-100,4,2,45,55,0,1
183562,-100,4,2,55,55,0,1
183640,-100,4,2,85,55,0,1
183719,-100,4,2,55,55,0,1
183797,-100,4,2,45,55,0,1
183876,-100,4,2,55,55,0,1
183954,-100,4,2,75,55,0,1
184033,-100,4,2,95,55,0,1
184112,-100,4,2,25,55,0,1
184190,-100,4,2,36,55,0,1
184269,-100,4,2,26,55,0,1
184426,-100,4,2,25,55,0,1
184504,-100,4,2,36,55,0,1
184583,-100,4,2,26,55,0,1
184661,-100,4,2,36,55,0,1
184740,-100,4,2,25,55,0,1
184818,-100,4,2,36,55,0,1
184897,-100,4,2,26,55,0,1
184975,-100,4,2,36,55,0,1
185054,-100,4,2,25,55,0,1
185132,-100,4,2,36,55,0,1
185211,-100,4,2,26,55,0,1
185289,-100,4,2,46,55,0,1
185368,-100,4,2,76,70,0,1
185682,-100,4,2,56,70,0,1
185996,-100,4,2,46,70,0,1
186310,-100,4,2,26,70,0,1
186625,-100,4,2,46,70,0,1
186703,-100,4,2,26,70,0,1
186782,-100,4,2,36,70,0,1
187096,-100,4,2,99,70,0,1
187567,-100,4,2,95,70,0,1
187724,-100,4,2,46,70,0,1
187881,-100,4,2,26,70,0,1
188038,-100,4,2,99,70,0,1
188823,-100,4,2,36,70,0,1
188981,-100,4,2,26,70,0,1
189138,-100,4,2,46,70,0,1
189295,-100,4,2,99,70,0,1
190551,-100,4,2,25,70,0,1
190629,-100,4,2,95,79,0,1
190708,-100,4,2,85,76,0,1
190786,-100,4,2,45,73,0,1
190865,-100,4,2,24,70,0,1
190944,-100,4,2,94,69,0,1
191023,-100,4,2,84,66,0,1
191101,-100,4,2,44,63,0,1
191180,-100,4,2,23,60,0,1
191258,-100,4,2,93,59,0,1
191337,-100,4,2,83,56,0,1
191415,-100,4,2,43,53,0,1
191494,-100,4,2,43,40,0,1
191572,-100,4,2,83,39,0,1
191651,-100,4,2,93,36,0,1
191729,-100,4,2,23,33,0,1
191808,-100,4,2,25,70,0,1
191887,-100,4,2,95,69,0,1
191965,-100,4,2,85,66,0,1
192044,-100,4,2,45,63,0,1
192122,-100,4,2,24,60,0,1
192201,-100,4,2,94,59,0,1
192280,-100,4,2,84,56,0,1
192358,-100,4,2,44,53,0,1
192436,-100,4,2,23,50,0,1
192514,-100,4,2,93,49,0,1
192593,-100,4,2,83,46,0,1
192671,-100,4,2,43,43,0,1
192750,-100,4,2,99,60,0,1
193064,628.272251308901,4,2,15,70,1,0
193692,-100,4,2,24,50,0,0
193849,-100,4,2,44,50,0,0
194006,-100,4,2,54,50,0,0
194163,-100,4,2,74,50,0,0
194320,628.272251308901,4,2,94,50,1,0
194359,-100,4,2,99,5,0,0
195262,-100,4,2,24,40,0,0
195576,-100,4,2,14,60,0,0
195615,-100,4,2,99,5,0,0
196204,-100,4,2,94,60,0,0
196244,-100,4,2,99,5,0,0
196833,641.711229946524,4,2,84,50,1,0
197153,-100,4,2,74,50,0,0
197314,-100,4,2,54,50,0,0
197474,-100,4,2,44,50,0,0
197514,-100,4,2,99,5,0,0
197688,-100,4,2,34,50,0,0
197715,-100,4,2,99,5,0,0
197902,-100,4,2,73,50,0,0
198116,618.556701030928,4,2,93,50,1,0
198425,-100,4,2,13,50,0,0
198734,-100,4,2,34,50,0,0
198889,-100,4,2,13,50,0,0
199043,-100,4,2,34,50,0,0
199198,-100,4,2,54,50,0,0
199353,634.920634920635,4,2,44,50,1,0
199392,-100,4,2,99,5,0,0
199829,-100,4,2,24,50,0,0
199868,-100,4,2,99,5,0,0
200305,615.384615384615,4,2,93,50,1,0
200343,-100,4,2,99,5,0,0
200612,615.384615384615,4,2,99,5,1,0
201842,628.272251308901,4,2,84,50,1,0
201881,-100,4,2,99,5,0,0
203098,-100,4,2,84,50,0,0
203412,-100,4,2,34,50,0,0
203726,-100,4,2,24,50,0,0
203883,-100,4,2,44,50,0,0
204040,-100,4,2,54,50,0,0
204119,-100,4,2,44,50,0,0
204198,-100,4,2,54,50,0,0
204276,-100,4,2,74,50,0,0
204355,645.161290322581,4,2,94,60,1,0
204395,-100,4,2,99,5,0,0
205322,-100,4,2,24,30,0,0
205645,606.060606060606,4,2,25,60,1,0
205682,-100,4,2,99,5,0,0
206857,628.272251308901,4,2,84,60,1,0
207171,-100,4,2,15,60,0,0
207210,-100,4,2,99,5,0,0
207799,-100,4,2,44,40,0,0
207956,-100,4,2,54,40,0,0
208113,-100,4,2,74,40,0,0
208270,-100,4,2,54,40,0,0
208427,-100,4,2,74,40,0,0
208584,-100,4,2,54,40,0,0
208741,-100,4,2,74,40,0,0
209055,-100,4,2,14,40,0,0
209370,-100,4,2,14,40,0,0
209409,-100,4,2,99,5,0,0
209841,-100,4,2,94,50,0,0
209880,-100,4,2,99,5,0,0
210312,615.384615384615,4,2,94,50,1,0
210350,-100,4,2,99,5,0,0
210619,615.384615384615,4,2,99,5,1,0
211849,628.272251308901,4,2,94,50,1,0
211888,-100,4,2,99,5,0,0
213105,-100,4,2,94,60,0,0
213419,-100,4,2,34,50,0,0
213733,-100,4,2,24,50,0,0
213890,-100,4,2,44,50,0,0
214047,-100,4,2,54,50,0,0
214126,-100,4,2,44,50,0,0
214205,-100,4,2,54,50,0,0
214282,-100,4,2,74,50,0,0
214362,314.13612565445,4,2,94,60,1,0
214362,-125,4,2,94,60,0,0
214381,-125,4,2,99,5,0,0
214676,-125,4,2,99,40,0,0
214695,-125,4,2,99,5,0,0
214990,-125,4,2,99,60,0,0
215147,-125,4,2,99,60,0,0
215304,-125,4,2,99,60,0,0
215657,-125,4,2,14,60,0,0
215932,-125,4,2,99,60,0,0
216560,-125,4,2,99,60,0,0
216875,-125,4,2,99,60,0,0
217189,-166.666666666667,4,2,74,60,0,0
217208,-166.666666666667,4,2,99,5,0,0
217398,-166.666666666667,4,2,54,60,0,0
217503,-166.666666666667,4,2,44,60,0,0
217522,-166.666666666667,4,2,99,5,0,0
217712,-166.666666666667,4,2,34,60,0,0
217738,-166.666666666667,4,2,99,5,0,0
217922,-166.666666666667,4,2,73,60,0,0
218131,-166.666666666667,4,2,35,60,0,0
218157,-166.666666666667,4,2,99,5,0,0
218288,-125,4,2,99,60,0,0
218445,-125,4,2,35,40,0,0
218524,-125,4,2,74,40,0,0
218602,-125,4,2,44,40,0,0
218681,-125,4,2,34,40,0,0
218759,-125,4,2,74,45,0,0
218838,-125,4,2,44,40,0,0
218916,-125,4,2,34,40,0,0
218995,-125,4,2,73,40,0,0
219074,-125,4,2,44,50,0,0
219152,-125,4,2,34,40,0,0
219231,-125,4,2,73,40,0,0
219309,-125,4,2,43,40,0,0
219388,-125,4,2,74,50,0,0
219466,-125,4,2,54,50,0,0
219545,-125,4,2,44,50,0,0
219623,-125,4,2,54,50,0,0
219702,-125,4,2,74,50,0,0
219780,-125,4,2,54,50,0,0
219859,-125,4,2,44,50,0,0
219937,-125,4,2,54,50,0,0
220016,-125,4,2,74,50,0,0
220094,-125,4,2,54,50,0,0
220173,-125,4,2,44,50,0,0
220252,-125,4,2,54,50,0,0
220330,-125,4,2,74,50,0,0
220409,-125,4,2,54,50,0,0
220487,-125,4,2,44,50,0,0
220565,-125,4,2,54,50,0,0
220644,-125,4,2,74,50,0,0
220664,-125,4,2,99,5,0,0
220958,-125,4,2,94,50,0,0
221037,-125,4,2,44,50,0,0
221115,-125,4,2,14,50,0,0
221194,-125,4,2,93,50,0,0
221272,-125,4,2,74,50,0,0
221351,-125,4,2,44,50,0,0
221430,-125,4,2,14,50,0,0
221508,-125,4,2,93,50,0,0
221587,-125,4,2,44,50,0,0
221665,-125,4,2,14,50,0,0
221744,-125,4,2,93,50,0,0
221822,-125,4,2,73,40,0,0
221901,-125,4,2,45,60,0,0
221920,-125,4,2,99,5,0,0
222005,-125,4,2,99,50,0,0
222019,-125,4,2,99,5,0,0
222110,-125,4,2,99,50,0,0
222215,-125,4,2,99,50,0,0
222235,-125,4,2,99,5,0,0
222320,-125,4,2,99,50,0,0
222333,-125,4,2,99,5,0,0
222424,-125,4,2,99,50,0,0
222529,-125,4,2,99,40,0,0
222608,-125,4,2,99,50,0,0
222843,-125,4,2,55,60,0,0
222922,-125,4,2,54,40,0,0
223000,-125,4,2,24,40,0,0
223079,-125,4,2,93,40,0,0
223157,-125,4,2,45,60,0,0
223314,-125,4,2,94,40,0,0
223393,-125,4,2,44,40,0,0
223471,-125,4,2,35,60,0,0
223550,-125,4,2,94,40,0,0
223629,-125,4,2,54,40,0,0
223707,-125,4,2,34,40,0,0
223786,-125,4,2,24,50,0,0
223943,-125,4,2,44,50,0,0
224100,-125,4,2,54,50,0,0
224178,-125,4,2,44,50,0,0
224257,-125,4,2,54,50,0,0
224335,-125,4,2,74,50,0,0
224414,-125,4,2,94,50,0,0
224433,-125,4,2,99,5,0,0
224728,-125,4,2,99,50,0,0
224748,-125,4,2,99,5,0,0
225042,-125,4,2,99,60,0,0
225121,-125,4,2,99,60,0,0
225356,-125,4,2,99,60,0,0
225435,-125,4,2,99,60,0,0
225670,-111.111111111111,4,2,25,60,0,0
225749,-111.111111111111,4,2,99,60,0,0
225985,-111.111111111111,4,2,99,60,0,0
226613,-111.111111111111,4,2,75,60,0,0
226770,-111.111111111111,4,2,55,60,0,0
226927,-99.9999999999999,4,2,36,60,0,0
227163,-99.9999999999999,4,2,15,60,0,0
227398,-99.9999999999999,4,2,95,60,0,0
227555,-99.9999999999999,4,2,75,60,0,0
227791,-99.9999999999999,4,2,45,60,0,0
228026,-99.9999999999999,4,2,15,60,0,0
228183,-99.9999999999999,4,2,95,60,0,0
228498,-99.9999999999999,4,2,75,60,0,0
228812,-99.9999999999999,4,2,55,60,0,0
228969,-99.9999999999999,4,2,45,60,0,0
229126,-99.9999999999999,4,2,25,60,0,0
229283,-99.9999999999999,4,2,35,60,0,0
229440,-99.9999999999999,4,2,25,60,0,0
229754,-99.9999999999999,4,2,99,60,0,0
230068,-99.9999999999999,4,2,14,60,0,0
230382,-99.9999999999999,4,2,99,60,0,0
230540,-99.9999999999999,4,2,99,60,0,0
230697,-99.9999999999999,4,2,55,60,0,0
231011,-99.9999999999999,4,2,99,60,0,0
231325,-99.9999999999999,4,2,55,60,0,0
231560,-99.9999999999999,4,2,75,60,0,0
231796,-99.9999999999999,4,2,55,60,0,0
231953,-99.9999999999999,4,2,15,60,0,0
232267,-99.9999999999999,4,2,99,60,0,0
233210,-99.9999999999999,4,2,95,60,0,0
233524,-83.3333333333333,4,2,25,60,0,0
233602,-83.3333333333333,4,2,55,60,0,0
233681,-83.3333333333333,4,2,35,60,0,0
233759,-83.3333333333333,4,2,84,60,0,0
233838,-83.3333333333333,4,2,34,37,0,0
233916,-83.3333333333333,4,2,83,37,0,0
233995,-83.3333333333333,4,2,23,37,0,0
234074,-83.3333333333333,4,2,92,37,0,0
234152,-83.3333333333333,4,2,99,25,0,0
234466,-111.111111111111,4,2,93,60,0,0
234623,-111.111111111111,4,2,99,60,0,0
235723,-111.111111111111,4,2,23,60,0,0
235880,-111.111111111111,4,2,99,60,0,0
236351,-111.111111111111,4,2,34,60,0,0
236508,-111.111111111111,4,2,99,60,0,0
236979,-111.111111111111,4,2,24,60,0,0
237136,-111.111111111111,4,2,99,60,0,0
238236,-111.111111111111,4,2,44,60,0,0
238393,-111.111111111111,4,2,99,60,0,0
238550,-111.111111111111,4,2,99,60,0,0
238864,-100,4,2,99,60,0,0
239492,-100,4,2,74,60,0,0
239806,-100,4,2,99,60,0,0
240278,-100,4,2,93,60,0,0
240435,-100,4,2,34,60,0,0
240592,-100,4,2,24,60,0,0
240749,-100,4,2,44,60,0,0
240827,-100,4,2,93,60,0,0
240906,-100,4,2,34,60,0,0
240985,-100,4,2,24,60,0,0
241063,-100,4,2,44,60,0,0
241141,-100,4,2,54,60,0,0
241220,-100,4,2,64,60,0,0
241298,-100,4,2,84,60,0,0
241377,-100,4,2,94,60,0,0
241691,-100,4,2,99,60,0,0
242005,-100,4,2,24,60,0,0
242320,-100,4,2,73,60,0,0
242398,-100,4,2,23,60,0,0
242477,-100,4,2,24,60,0,0
242555,-100,4,2,74,60,0,0
242634,-100,4,2,23,60,0,0
242712,-100,4,2,24,60,0,0
242791,-100,4,2,74,60,0,0
242869,-100,4,2,24,60,0,0
242948,-100,4,2,24,60,0,0
243026,-100,4,2,74,60,0,0
243105,-100,4,2,24,60,0,0
243183,-100,4,2,25,60,0,0
243262,-100,4,2,45,60,0,0
243341,-100,4,2,24,60,0,0
243419,-100,4,2,74,60,0,0
243498,-100,4,2,44,60,0,0
243576,-100,4,2,24,60,0,0
243654,-100,4,2,74,60,0,0
243733,-100,4,2,44,60,0,0
243811,-100,4,2,23,60,0,0
243890,-100,4,2,35,60,0,0
244047,-100,4,2,44,60,0,0
244126,-100,4,2,34,60,0,0
244204,-100,4,2,74,60,0,0
244282,-100,4,2,44,60,0,0
244361,-100,4,2,34,60,0,0
244439,-100,4,2,73,60,0,0
244519,-100,4,2,13,50,0,0
244597,-100,4,2,63,50,0,0
244676,-100,4,2,13,50,0,0
244754,-100,4,2,14,50,0,0
244833,-100,4,2,63,50,0,0
244911,-100,4,2,13,50,0,0
244990,-100,4,2,14,50,0,0
245068,-100,4,2,64,50,0,0
245147,-100,4,2,14,60,0,0
245304,-100,4,2,15,60,0,0
245618,-100,4,2,14,60,0,0
245775,-100,4,2,99,60,0,0
246089,-100,4,2,14,60,0,0
246167,-100,4,2,64,60,0,0
246246,-100,4,2,14,60,0,0
246324,-100,4,2,24,60,0,0
246403,-100,4,2,74,60,0,0
246481,-100,4,2,24,60,0,0
246560,-100,4,2,34,60,0,0
246639,-100,4,2,84,60,0,0
246717,-100,4,2,35,60,0,0
246796,-100,4,2,54,60,0,0
246874,-100,4,2,94,60,0,0
246953,-100,4,2,15,60,0,0
247032,-100,4,2,54,60,0,0
247110,-100,4,2,94,60,0,0
247189,-100,4,2,14,60,0,0
247267,-100,4,2,35,60,0,0
247346,-100,4,2,15,60,0,0
247503,-100,4,2,54,60,0,0
247581,-100,4,2,94,60,0,0
247660,-100,4,2,14,60,0,0
247738,-100,4,2,35,60,0,0
247817,-100,4,2,35,60,0,0
247974,-100,4,2,14,60,0,0
248053,-100,4,2,35,60,0,0
248131,-100,4,2,15,60,0,0
248210,-100,4,2,35,60,0,0
248288,-100,4,2,55,60,0,0
248602,-100,4,2,15,60,0,0
248681,-100,4,2,55,60,0,0
248759,-100,4,2,15,60,0,0
248838,-100,4,2,14,60,0,0
248916,-100,4,2,55,60,0,0
248995,-100,4,2,15,60,0,0
249074,-100,4,2,14,60,0,0
249152,-100,4,2,54,60,0,0
249231,-100,4,2,15,60,0,0
249309,-100,4,2,14,60,0,0
249388,-100,4,2,54,60,0,0
249466,-100,4,2,14,60,0,0
249545,-100,4,2,33,60,0,0
249623,-100,4,2,63,60,0,0
249702,-100,4,2,13,60,0,0
249780,-100,4,2,34,60,0,0
249859,-100,4,2,63,60,0,0
249937,-100,4,2,13,60,0,0
250016,-100,4,2,34,60,0,0
250094,-100,4,2,64,60,0,0
250173,-100,4,2,14,60,0,0
250330,-100,4,2,35,60,0,0
250644,-100,4,2,35,60,0,0
251115,-100,4,2,23,60,0,0
251194,-100,4,2,34,60,0,0
251272,-100,4,2,74,60,0,0
251351,-100,4,2,35,60,0,0
251430,-100,4,2,35,60,0,0
251508,-100,4,2,35,60,0,0
251587,-100,4,2,74,60,0,0
251665,-100,4,2,34,60,0,0
251744,-100,4,2,35,60,0,0
251822,-100,4,2,74,60,0,0
251901,-100,4,2,34,60,0,0
251979,-100,4,2,34,60,0,0
252058,-100,4,2,93,60,0,0
252136,-100,4,2,34,60,0,0
252215,-100,4,2,54,60,0,0
252293,-100,4,2,94,60,0,0
252372,-100,4,2,34,60,0,0
252450,-100,4,2,54,60,0,0
252529,-100,4,2,94,60,0,0
252608,-100,4,2,35,60,0,0
252686,-100,4,2,55,60,0,0
252843,-100,4,2,15,60,0,0
253157,-100,4,2,95,60,0,0
253314,-100,4,2,36,60,0,0
253393,-100,4,2,95,60,0,0
253471,-100,4,2,55,60,0,0
253549,-100,4,2,35,60,0,0
253628,-100,4,2,95,60,0,0
253706,-100,4,2,55,60,0,0
253786,-100,4,2,35,60,0,0
253864,-100,4,2,94,60,0,0
253943,-100,4,2,55,60,0,0
254021,-100,4,2,35,60,0,0
254099,-100,4,2,94,60,0,0
254178,-100,4,2,54,60,0,0
254256,-100,4,2,35,60,0,0
254335,-100,4,2,94,60,0,0
254413,-100,4,2,15,60,0,0
254492,-100,4,2,35,60,0,0
254570,-100,4,2,35,60,0,0
255827,-142.857142857143,4,2,99,60,0,0
255985,-142.857142857143,4,2,99,60,0,0
256142,-142.857142857143,4,2,99,60,0,0
256770,-83.3333333333334,4,2,99,60,0,0
256790,-83.3333333333334,4,2,99,5,0,0
257084,-100,4,2,55,70,0,1
257398,-100,4,2,14,70,0,1
257555,-100,4,2,55,70,0,1
257869,-100,4,2,65,70,0,1
258183,-100,4,2,55,70,0,1
258498,-100,4,2,35,70,0,1
258812,-100,4,2,15,70,0,1
259126,-100,4,2,35,70,0,1
259283,-100,4,2,84,70,0,1
259361,-100,4,2,14,70,0,1
259440,-100,4,2,35,70,0,1
259518,-100,4,2,15,70,0,1
259598,-100,4,2,35,70,0,1
259912,-100,4,2,84,70,0,1
260069,-100,4,2,35,70,0,1
260383,-100,4,2,55,70,0,1
260697,-100,4,2,35,70,0,1
261011,-100,4,2,15,70,0,1
261325,-100,4,2,35,70,0,1
261639,-100,4,2,15,70,0,1
261954,-100,4,2,84,70,0,1
262582,-100,4,2,54,70,0,1
262660,-100,4,2,64,70,0,1
262739,-100,4,2,84,70,0,1
262896,-100,4,2,64,70,0,1
263053,-100,4,2,54,70,0,1
263210,-100,4,2,34,70,0,1
263524,-100,4,2,93,70,0,1
263838,-100,4,2,64,70,0,1
264152,-100,4,2,93,70,0,1
264310,-100,4,2,64,70,0,1
264467,-100,4,2,84,70,0,1
264624,-100,4,2,64,70,0,1
265094,-100,4,2,64,70,0,1
265409,-100,4,2,54,70,0,1
265566,-100,4,2,34,70,0,1
265723,-100,4,2,54,70,0,1
266509,-100,4,2,54,70,0,1
266666,-100,4,2,64,70,0,1
266744,-100,4,2,84,70,0,1
266823,-100,4,2,14,70,0,1
266901,-100,4,2,35,70,0,1
266980,-100,4,2,15,70,0,1
267058,-100,4,2,35,70,0,1
267137,-100,4,2,55,70,0,1
267451,-100,4,2,14,70,0,1
267608,-100,4,2,55,70,0,1
267922,-100,4,2,65,70,0,1
268236,-100,4,2,55,70,0,1
268550,-100,4,2,35,70,0,1
268865,-100,4,2,15,70,0,1
269179,-100,4,2,35,70,0,1
269336,-100,4,2,84,70,0,1
269414,-100,4,2,14,70,0,1
269493,-100,4,2,35,70,0,1
269571,-100,4,2,15,70,0,1
269650,-100,4,2,35,70,0,1
269964,-100,4,2,84,70,0,1
270121,-100,4,2,35,70,0,1
270435,-100,4,2,55,70,0,1
270749,-100,4,2,85,70,0,1
271063,-100,4,2,65,70,0,1
271378,-100,4,2,55,70,0,1
271692,-100,4,2,35,70,0,1
272006,-100,4,2,55,70,0,1
272084,-100,4,2,35,70,0,1
272163,-100,4,2,15,70,0,1
272477,-100,4,2,99,70,0,1
272948,-100,4,2,14,70,0,1
273105,-100,4,2,55,70,0,1
273262,-100,4,2,35,70,0,1
273419,-100,4,2,99,70,0,1
273733,-100,4,2,99,70,0,1
274205,-100,4,2,15,70,0,1
274362,-100,4,2,35,70,0,1
274519,-100,4,2,55,70,0,1
274676,-100,4,2,99,70,0,1
275933,-100,4,2,36,70,0,1
276011,-100,4,2,15,79,0,1
276090,-100,4,2,95,76,0,1
276168,-100,4,2,55,73,0,1
276247,-100,4,2,35,70,0,1
276325,-100,4,2,14,69,0,1
276403,-100,4,2,94,66,0,1
276482,-100,4,2,54,63,0,1
276561,-100,4,2,34,60,0,1
276639,-100,4,2,13,59,0,1
276717,-100,4,2,93,56,0,1
276796,-100,4,2,53,53,0,1
276875,-100,4,2,33,20,0,1
276954,-100,4,2,12,20,0,1
277032,-100,4,2,92,20,0,1
277110,-100,4,2,52,20,0,0
277189,-100,4,2,55,70,0,1
277503,-100,4,2,14,70,0,1
277660,-100,4,2,55,70,0,1
277974,-100,4,2,65,70,0,1
278289,-100,4,2,95,70,0,1
278603,-100,4,2,55,70,0,1
279231,-100,4,2,35,70,0,1
279388,-100,4,2,84,70,0,1
279466,-100,4,2,14,70,0,1
279545,-100,4,2,35,70,0,1
279624,-100,4,2,15,70,0,1
279702,-100,4,2,35,70,0,1
280016,-100,4,2,84,70,0,1
280173,-100,4,2,35,70,0,1
280488,-100,4,2,55,70,0,1
280644,-100,4,2,35,70,0,1
280723,-100,4,2,14,70,0,1
280801,-100,4,2,24,70,0,1
280880,-100,4,2,35,70,0,1
280958,-90.9090909090909,4,2,35,75,0,1
280978,-90.9090909090909,4,2,99,5,0,1
281168,-83.3333333333333,4,2,25,75,0,1
281174,-90.9090909090909,4,2,99,5,0,1
281377,-76.9230769230769,4,2,15,75,0,1
281390,-90.9090909090909,4,2,99,5,0,1
281587,-71.4285714285714,4,2,35,75,0,1
281606,-90.9090909090909,4,2,99,5,0,1
281796,-66.6666666666667,4,2,15,75,0,1
281803,-90.9090909090909,4,2,99,5,0,1
282005,-62.5,4,2,35,75,0,1
282019,-90.9090909090909,4,2,99,5,0,1
282215,-100,4,2,84,75,0,1
282687,-100,4,2,55,70,0,1
282765,-100,4,2,65,70,0,1
282844,-100,4,2,85,70,0,1
283001,-100,4,2,65,70,0,1
283158,-100,4,2,55,70,0,1
283315,-100,4,2,95,70,0,1
283629,-100,4,2,55,70,0,1
283943,-100,4,2,36,70,0,1
284257,-100,4,2,16,70,0,1
284414,-100,4,2,36,70,0,1
284571,-100,4,2,36,70,0,1
285514,-100,4,2,16,70,0,1
285671,-100,4,2,36,70,0,1
285828,-100,4,2,16,70,0,1
286613,-100,4,2,54,70,0,1
286770,-100,4,2,64,62,0,1
286848,-100,4,2,84,64,0,1
286927,-100,4,2,14,66,0,1
287005,-100,4,2,35,68,0,1
287084,-100,4,2,15,70,0,1
287162,-100,4,2,35,72,0,1
287241,-100,4,2,55,74,0,1
287556,-100,4,2,95,55,0,1
287634,-100,4,2,65,55,0,1
287713,-100,4,2,55,55,0,1
287791,-100,4,2,65,55,0,1
287870,-100,4,2,95,55,0,1
287948,-100,4,2,65,55,0,1
288027,-100,4,2,55,55,0,1
288105,-100,4,2,65,55,0,1
288184,-100,4,2,95,55,0,1
288262,-100,4,2,65,55,0,1
288341,-100,4,2,55,55,0,1
288419,-100,4,2,65,55,0,1
288498,-100,4,2,95,55,0,1
288576,-100,4,2,65,55,0,1
288655,-100,4,2,55,55,0,1
288734,-100,4,2,65,55,0,1
288812,-100,4,2,95,55,0,1
288891,-100,4,2,65,55,0,1
288969,-100,4,2,55,55,0,1
289048,-100,4,2,65,55,0,1
289126,-100,4,2,95,55,0,1
289205,-100,4,2,65,55,0,1
289283,-100,4,2,55,55,0,1
289362,-100,4,2,65,55,0,1
289440,-100,4,2,85,55,0,1
289519,-100,4,2,15,55,0,1
289598,-100,4,2,36,55,0,1
289676,-100,4,2,16,55,0,1
289754,-100,4,2,36,55,0,1
289911,-100,4,2,36,55,0,1
289990,-100,4,2,16,55,0,1
290068,-100,4,2,36,55,0,1
290147,-100,4,2,16,55,0,1
290226,-100,4,2,36,55,0,1
290304,-100,4,2,16,55,0,1
290383,-100,4,2,36,55,0,1
290461,-100,4,2,16,55,0,1
290540,-100,4,2,36,55,0,1
290618,-100,4,2,16,55,0,1
290697,-100,4,2,36,55,0,1
290775,-100,4,2,56,55,0,1
290854,-100,4,2,86,70,0,1
291168,-100,4,2,66,70,0,1
291482,-100,4,2,56,70,0,1
291796,-100,4,2,36,70,0,1
292111,-100,4,2,56,70,0,1
292189,-100,4,2,36,70,0,1
292268,-100,4,2,16,70,0,1
292581,-100,4,2,99,70,0,1
293053,-100,4,2,15,70,0,1
293210,-100,4,2,56,70,0,1
293367,-100,4,2,36,70,0,1
293524,-100,4,2,99,70,0,1
294309,-100,4,2,16,70,0,1
294467,-100,4,2,36,70,0,1
294624,-100,4,2,56,70,0,1
294781,-100,4,2,99,70,0,1
298550,-100,4,2,36,70,0,1
298628,-100,4,2,15,79,0,1
298707,-100,4,2,95,76,0,1
298785,-100,4,2,55,73,0,1
298864,-100,4,2,35,70,0,1
298942,-100,4,2,14,69,0,1
299020,-100,4,2,94,66,0,1
299099,-100,4,2,54,63,0,1
299178,-100,4,2,34,60,0,1
299256,-100,4,2,13,59,0,1
299334,-100,4,2,93,56,0,1
299413,-100,4,2,53,53,0,1
299492,-100,4,2,33,20,0,1
299571,-100,4,2,12,20,0,1
299649,-100,4,2,92,20,0,1
299728,-100,4,2,52,20,0,0
299807,-100,4,2,99,70,0,0
300121,-172.413793103448,4,2,99,70,0,0
300140,-100,4,2,99,5,0,0

[Colours]
Combo1 : 40,40,255
Combo2 : 221,255,255
Combo3 : 62,158,255
SliderBorder : 221,255,255
SliderTrackOverride : 25,24,25

[HitObjects]
66,252,1141,5,2,0:0:0:0:
84,248,1453,5,2,0:0:0:0:
160,235,1609,1,2,0:0:0:0:
234,223,1766,1,2,0:0:0:0:
133,102,1925,1,8,0:0:0:0:
106,174,2085,1,8,0:0:0:0:
85,248,2244,1,2,0:0:0:0:
184,157,2404,5,2,0:0:0:0:
200,150,2718,1,2,0:0:0:0:
216,143,3032,1,8,0:0:0:0:
232,136,3347,1,2,0:0:0:0:
427,244,3976,5,2,0:0:0:0:
413,256,4290,1,2,0:0:0:0:
398,266,4605,1,2,0:0:0:0:
114,118,4919,5,2,0:0:0:0:
21,160,5233,2,0,P|14:193|23:225,1,67.5000025749208,2|2,0:0|0:0,0:0:0:0:
114,118,5862,2,0,P|120:85|111:53,1,67.5000025749208,2|2,0:0|0:0,0:0:0:0:
92,190,6491,1,8,0:0:0:0:
191,134,6805,2,0,L|249:128,2,45.0000017166138,8|8|2,0:0|0:0|0:0,0:0:0:0:
92,190,7434,6,0,P|102:223|96:256,2,67.5000025749208,2|8|8,0:0|0:0|0:0,0:0:0:0:
231,224,8378,2,0,L|298:224,1,67.5000025749208,8|2,0:0|0:0,0:0:0:0:
437,282,9007,2,0,L|369:282,1,67.5000025749208,8|8,0:0|0:0,0:0:0:0:
483,209,9635,1,8,0:0:0:0:
406,365,9950,5,2,0:0:0:0:
395,368,10270,1,2,0:0:0:0:
385,373,10591,1,2,0:0:0:0:
175,218,11233,6,0,L|151:315,1,90,2|2,0:0|0:0,0:0:0:0:
109,150,11898,1,8,0:0:0:0:
120,163,12242,5,8,0:0:0:0:
251,207,12419,1,8,0:0:0:0:
39,130,12597,1,2,0:0:0:0:
327,241,12911,5,2,0:0:0:0:
317,256,13225,1,2,0:0:0:0:
308,271,13540,1,2,0:0:0:0:
185,143,14169,5,2,0:0:0:0:
195,128,14483,1,2,0:0:0:0:
204,113,14798,1,2,0:0:0:0:
426,77,15112,5,2,0:0:0:0:
437,90,15427,1,2,0:0:0:0:
426,104,15741,1,8,0:0:0:0:
437,118,16056,1,2,0:0:0:0:
350,301,16685,5,8,0:0:0:0:
332,305,16999,1,8,0:0:0:0:
314,310,17313,1,2,0:0:0:0:
90,192,17628,5,2,0:0:0:0:
98,176,17961,1,8,0:0:0:0:
97,158,18294,1,2,0:0:0:0:
85,143,18628,1,2,0:0:0:0:
256,55,19294,5,8,0:0:0:0:
273,53,19627,1,2,0:0:0:0:
290,50,19960,1,2,0:0:0:0:
420,193,20294,6,0,L|425:215,2,22.5,2|2|8,0:0|0:0|0:0,0:0:0:0:
414,178,21744,5,8,0:0:0:0:
372,276,23207,6,0,B|433:263|453:351|376:392|284:372|264:276|292:216|372:200,1,337.5,6|0,0:0|0:0,0:0:0:0:
506,151,25934,5,2,0:0:0:0:
442,203,26100,1,2,0:0:0:0:
359,203,26267,1,2,0:0:0:0:
298,146,26434,1,2,0:0:0:0:
318,21,26600,6,0,B|340:97|298:146|298:146|248:138|248:138|200:132|127:188|148:260|198:312|282:318|308:278|327:202|225:209,1,540,6|0,0:0|0:0,0:0:0:0:
110,257,29110,1,4,0:0:0:0:
402,127,29429,5,2,0:0:0:0:
360,193,29588,1,2,0:0:0:0:
438,200,29748,2,0,L|493:233,2,60,2|8|2,0:0|0:0|0:0,0:0:0:0:
257,57,30386,5,2,0:0:0:0:
239,60,30696,1,2,0:0:0:0:
221,63,31006,1,8,0:0:0:0:
203,66,31316,1,2,0:0:0:0:
190,210,31626,6,0,L|278:194,1,90,6|0,0:0|0:0,0:0:0:0:
434,213,32099,2,0,P|445:170|435:127,1,90,2|0,0:0|0:0,0:0:0:0:
282,9,32573,6,0,B|312:68|312:68|216:88|216:224|312:264|400:224|400:144|356:120|312:144,1,405,2|0,0:0|0:0,0:0:0:0:
272,280,34110,2,0,P|416:251|433:105,1,315,4|0,0:0|0:0,0:0:0:0:
272,92,35373,1,4,0:0:0:0:
412,256,35688,5,8,0:0:0:0:
398,243,36004,1,2,0:0:0:0:
313,147,36162,1,2,0:0:0:0:
349,302,36320,1,2,0:0:0:0:
462,192,36478,1,2,0:0:0:0:
285,254,36636,6,0,P|329:380|426:285,1,315,6|0,0:0|0:0,0:0:0:0:
360,188,37940,2,0,B|330:155|393:107|393:107|436:169|370:219|370:219|349:302,1,315,2|0,0:0|0:0,0:0:0:0:
327,376,39155,1,4,0:0:0:0:
102,287,39472,6,0,P|87:240|82:288,1,135,8|0,0:0|0:0,0:0:0:0:
187,267,40107,5,2,0:0:0:0:
46,184,40266,1,2,0:0:0:0:
46,348,40424,1,2,0:0:0:0:
183,241,40583,1,2,0:0:0:0:
25,200,40742,1,2,0:0:0:0:
70,357,40900,1,2,0:0:0:0:
87,270,41059,5,2,0:0:0:0:
91,259,41377,1,2,0:0:0:0:
155,60,41694,6,0,L|130:146,1,90,6|0,0:0|0:0,0:0:0:0:
66,345,42170,2,0,L|90:258,1,90,2|0,0:0|0:0,0:0:0:0:
161,62,42647,6,0,B|176:145|259:170|341:183|380:56|347:-10|236:-34|179:61|267:74,1,405,2|0,0:0|0:0,0:0:0:0:
376,0,44177,2,0,P|334:193|230:213,1,315,4|0,0:0|0:0,0:0:0:0:
252,70,45440,1,4,0:0:0:0:
119,192,45755,5,8,0:0:0:0:
136,189,46071,1,2,0:0:0:0:
201,265,46229,1,2,0:0:0:0:
183,104,46387,1,2,0:0:0:0:
315,169,46545,1,2,0:0:0:0:
103,194,46703,6,0,L|250:179,1,135,6|0,0:0|0:0,0:0:0:0:
286,231,47331,2,0,P|249:186|374:204,1,315,8|0,0:1|0:0,0:0:0:0:
315,169,48587,2,0,L|258:37,1,135,8|0,0:1|0:0,0:0:0:0:
145,26,49216,1,4,0:0:0:0:
417,102,49530,5,2,0:0:0:0:
315,169,49687,1,2,0:0:0:0:
420,230,49844,2,0,P|429:261|423:294,2,67.5,2|8|2,0:0|0:0|0:0,0:0:0:0:
315,169,50472,6,0,L|270:159,1,45,2|0,0:0|0:0,0:0:0:0:
141,128,50786,2,0,L|197:140,1,45,2|0,0:0|0:0,0:0:0:0:
43,142,51100,2,0,L|-7:180,1,45,8|0,0:0|0:0,0:0:0:0:
77,52,51415,2,0,L|69:-12,1,45,2|0,0:0|0:0,0:0:0:0:
108,232,51729,6,0,L|119:321,1,90,6|0,0:0|0:0,0:0:0:0:
143,175,52200,2,0,L|53:186,1,90,2|0,0:0|0:0,0:0:0:0:
207,125,52671,1,2,0:0:0:0:
143,251,52828,1,2,0:0:0:0:
207,125,52985,2,0,L|227:273,1,135,6|0,0:0|0:0,0:0:0:0:
265,68,53613,2,0,L|131:84,1,135,8|0,0:0|0:0,0:0:0:0:
193,263,54242,6,0,L|282:251,1,90,2|0,0:0|0:0,0:0:0:0:
512,220,54713,2,0,L|363:238,1,135,2|0,0:0|0:0,0:0:0:0:
304,248,55263,2,0,L|250:255,1,45,2|0,0:0|0:0,0:0:0:0:
185,266,55498,2,0,L|140:272,1,45,2|0,0:0|0:0,0:0:0:0:
377,236,55812,2,0,L|422:230,1,45,8|0,0:0|0:0,0:0:0:0:
310,176,56127,5,2,0:0:0:0:
265,328,56284,1,2,0:0:0:0:
318,147,56441,1,2,0:0:0:0:
256,356,56598,1,2,0:0:0:0:
154,193,56755,6,0,B|117:212|108:237|108:237|155:118|112:28|32:68|39:134|91:126,1,315,6|0,0:0|0:0,0:0:0:0:
153,192,58011,2,0,B|239:240|296:163|296:163|273:123|271:82|271:82|244:149,1,315,2|0,0:0|0:0,0:0:0:0:
94,340,59268,6,0,P|145:345|107:312,1,135,6|0,0:0|0:0,0:0:0:0:
188,336,59896,2,0,L|323:336,1,135,2|0,0:0|0:0,0:0:0:0:
404,312,60524,2,0,P|366:345|417:340,1,135,2|0,0:0|0:0,0:0:0:0:
499,188,61153,5,2,0:0:0:0:
345,234,61310,1,2,0:0:0:0:
375,57,61467,1,2,0:0:0:0:
421,211,61624,1,8,0:0:0:0:
260,160,61781,6,0,L|395:133,1,135,6|0,0:0|0:0,0:0:0:0:
450,79,62422,2,0,B|393:133|393:133|469:151,1,157.5,2|0,0:0|0:0,0:0:0:0:
471,244,63077,2,0,L|323:209,1,135,2|0,0:0|0:0,0:0:0:0:
255,263,63782,2,0,P|265:294|258:327,2,67.5,2|2|2,0:0|0:0|0:0,0:0:0:0:
65,151,64515,6,0,B|82:249|82:249|94:215,1,135,6|0,0:0|0:0,0:0:0:0:
93,215,65304,2,0,P|162:227|210:170,1,135
267,126,66167,6,0,B|284:224|284:224|296:190,1,135,2|0,0:0|0:0,0:0:0:0:
295,190,67167,2,0,P|364:202|412:145,1,135
381,35,68667,5,2,0:1:0:0:
381,46,68981,1,2,0:1:0:0:
131,338,69295,5,2,0:0:0:0:
287,221,69452,1,2,0:0:0:0:
325,199,69530,1,2,0:0:0:0:
337,156,69609,1,2,0:0:0:0:
314,119,69687,1,8,0:0:0:0:
271,109,69766,1,8,0:0:0:0:
234,133,69844,1,2,0:0:0:0:
226,176,69923,6,0,L|226:320,1,135,2|0,0:0|0:0,0:0:0:0:
293,371,70237,1,2,0:0:0:0:
104,311,70394,2,0,P|165:285|226:311,1,135,2|0,0:0|0:0,0:0:0:0:
66,379,70708,2,0,L|66:244,1,135,2|0,0:0|0:0,0:0:0:0:
144,72,71023,6,0,P|94:90|143:108,1,135,2|0,0:0|0:0,0:0:0:0:
246,90,71337,2,0,L|347:90,1,90,2|0,0:0|0:0,0:0:0:0:
43,26,71651,2,0,P|21:88|41:150,1,135,8|0,0:0|0:0,0:0:0:0:
149,192,71965,1,8,0:0:0:0:
303,163,72122,5,2,0:0:0:0:
264,142,72200,1,2,0:0:0:0:
219,140,72279,1,8,0:0:0:0:
178,158,72357,1,8,0:0:0:0:
149,192,72436,6,0,B|149:293|149:293|117:260,1,135,2|0,0:0|0:0,0:0:0:0:
55,189,72750,1,2,0:0:0:0:
226,334,72907,2,0,P|289:356|350:329,1,135,2|0,0:0|0:0,0:0:0:0:
407,206,73221,2,0,P|439:168|427:216,1,135,2|0,0:0|0:0,0:0:0:0:
246,230,73536,6,0,B|151:231|151:231|180:203,1,135,2|0,0:0|0:0,0:0:0:0:
312,187,73850,2,0,P|324:237|308:277,1,90,8|0,0:0|0:0,0:0:0:0:
88,307,74164,2,0,B|183:306|183:306|153:333,1,135,8|0,0:0|0:0,0:0:0:0:
24,349,74478,2,0,P|10:307|25:262,1,90,8|0,0:0|0:0,0:0:0:0:
195,142,74792,5,2,0:0:0:0:
165,162,74870,1,0,0:0:0:0:
130,169,74949,1,0,0:0:0:0:
95,161,75027,1,0,0:0:0:0:
67,140,75106,1,0,0:0:0:0:
52,108,75185,1,0,0:0:0:0:
48,72,75263,1,0,0:0:0:0:
195,142,75420,5,2,0:0:0:0:
205,185,75498,1,2,0:0:0:0:
215,229,75577,1,2,0:0:0:0:
84,336,75735,1,2,0:0:0:0:
392,220,75892,1,2,0:0:0:0:
108,192,76049,6,0,P|97:148|108:106,1,90,2|0,0:0|0:0,0:0:0:0:
372,161,76363,2,0,P|383:204|372:248,1,90,2|0,0:0|0:0,0:0:0:0:
152,384,76677,2,0,P|141:340|152:297,1,90,2|0,0:0|0:0,0:0:0:0:
372,247,76991,5,2,0:0:0:0:
75,222,77148,1,2,0:0:0:0:
437,161,77305,1,2,0:0:0:0:
221,12,77462,5,2,0:0:0:0:
202,42,77540,1,0,0:0:0:0:
197,78,77619,1,0,0:0:0:0:
204,113,77697,1,0,0:0:0:0:
224,142,77776,2,0,L|282:155,1,45,0|0,0:0|0:0,0:0:0:0:
437,161,77934,2,0,L|348:178,1,90,2|0,0:0|0:0,0:0:0:0:
54,228,78248,5,2,0:0:0:0:
458,156,78405,1,2,0:0:0:0:
256,373,78562,5,2,0:0:0:0:
237,343,78640,1,0,0:0:0:0:
232,307,78719,1,0,0:0:0:0:
239,272,78797,1,0,0:0:0:0:
259,243,78876,2,0,L|348:226,2,90
0,289,79347,5,2,0:0:0:0:
185,217,79504,1,2,0:0:0:0:
208,180,79582,1,2,0:0:0:0:
200,137,79661,1,2,0:0:0:0:
164,111,79739,1,8,0:0:0:0:
121,118,79818,1,8,0:0:0:0:
94,153,79896,1,2,0:0:0:0:
100,197,79975,6,0,L|100:337,1,135,2|0,0:0|0:0,0:0:0:0:
3,384,80289,1,2,0:0:0:0:
221,292,80447,2,0,B|288:289|288:289|232:328,1,135,2|0,0:0|0:0,0:0:0:0:
309,217,80761,2,0,P|359:259|354:324,1,135,2|0,0:0|0:0,0:0:0:0:
158,327,81075,6,0,L|288:289,1,135,2|0,0:0|0:0,0:0:0:0:
459,232,81389,2,0,L|372:256,1,90,2|0,0:0|0:0,0:0:0:0:
157,327,81703,2,0,P|185:275|127:266,1,135,8|0,0:0|0:0,0:0:0:0:
52,340,82017,1,8,0:0:0:0:
257,330,82174,5,2,0:0:0:0:
266,286,82252,1,2,0:0:0:0:
256,242,82331,1,8,0:0:0:0:
228,208,82409,1,8,0:0:0:0:
191,182,82488,6,0,P|168:119|189:57,1,135,2|0,0:0|0:0,0:0:0:0:
292,32,82803,1,2,0:0:0:0:
123,127,82960,2,0,B|68:154|-6:148|18:95|35:117,1,135,2|0,0:0|0:0,0:0:0:0:
94,217,83274,2,0,B|121:272|115:346|62:322|84:305,1,135,2|0,0:0|0:0,0:0:0:0:
256,324,83588,6,0,B|355:311|355:311|308:294,1,135,2|0,0:0|0:0,0:0:0:0:
184,293,83903,2,0,P|179:337|199:377,1,90,2|0,0:0|0:0,0:0:0:0:
416,199,84216,2,0,B|316:210|316:210|358:182,1,135,2|0,0:0|0:0,0:0:0:0:
473,145,84531,2,0,P|492:184|486:228,1,90,2|0,0:0|0:0,0:0:0:0:
327,326,84845,5,2,0:0:0:0:
310,335,84923,1,2,0:0:0:0:
292,342,85002,2,0,L|148:342,1,135,8|0,0:0|0:0,0:0:0:0:
60,362,85316,2,0,P|134:361|170:267,1,180,8|0,0:1|0:0,0:0:0:0:
0,23,85787,5,2,0:0:0:0:
95,290,85944,1,2,0:0:0:0:
287,91,86101,1,2,0:0:0:0:
114,133,86258,5,2,0:1:0:0:
247,262,86415,1,0,0:0:0:0:
287,91,86572,2,0,P|275:48|294:2,2,90,8|0|0,0:1|0:0|0:0,0:0:0:0:
479,246,87043,5,8,0:0:0:0:
67,183,87201,1,2,0:0:0:0:
254,368,87358,5,2,0:0:0:0:
273,337,87436,1,0,0:0:0:0:
287,304,87515,1,2,0:1:0:0:
289,268,87593,1,0,0:0:0:0:
277,235,87672,1,0,0:0:0:0:
257,204,87750,1,0,0:0:0:0:
238,174,87829,1,8,0:1:0:0:
225,140,87907,1,0,0:0:0:0:
227,105,87986,1,0,0:0:0:0:
241,72,88064,1,0,0:0:0:0:
261,42,88143,6,0,L|293:78,1,45,8|0,0:1|0:0,0:0:0:0:
366,65,88300,2,0,L|360:112,1,45,0|0,0:0|0:0,0:0:0:0:
417,161,88457,2,0,L|377:189,1,45,8|0,0:1|0:0,0:0:0:0:
383,263,88614,2,0,L|335:252,1,45,0|0,0:0|0:0,0:0:0:0:
333,331,88771,5,8,0:0:0:0:
321,338,88850,1,2,0:0:0:0:
308,343,88928,1,2,0:0:0:0:
295,348,89007,1,2,0:0:0:0:
234,384,89085,5,8,0:0:0:0:
222,377,89164,1,2,0:0:0:0:
209,372,89242,1,2,0:0:0:0:
196,367,89321,1,2,0:0:0:0:
149,314,89399,5,8,0:0:0:0:
137,321,89478,1,2,0:0:0:0:
124,326,89556,1,2,0:0:0:0:
111,331,89635,1,2,0:0:0:0:
52,372,89713,5,8,0:0:0:0:
40,365,89792,1,2,0:0:0:0:
27,360,89870,1,2,0:0:0:0:
14,355,89949,1,2,0:0:0:0:
4,351,90028,6,0,L|4:275,1,67.5,2|0,0:0|0:0,0:0:0:0:
8,190,90342,6,0,B|6:283|6:283|41:236|111:224,1,216,4|0,0:1|0:0,0:0:0:0:
346,315,90656,5,2,0:0:0:0:
181,210,90813,1,2,0:0:0:0:
256,369,90970,1,8,0:0:0:0:
256,144,91127,2,0,L|255:298,1,135,8|0,0:0|0:0,0:0:0:0:
256,369,91441,2,0,L|256:266,1,90,8|0,0:0|0:0,0:0:0:0:
256,71,91756,1,2,0:0:0:0:
128,140,91913,5,0,0:0:0:0:
256,212,92070,1,0,0:0:0:0:
193,31,92227,2,0,P|182:73|198:115,1,90,2|0,0:0|0:0,0:0:0:0:
260,296,92541,2,0,P|271:253|255:211,1,90,2|0,0:0|0:0,0:0:0:0:
67,243,92855,6,0,B|179:243|179:243|163:225,1,135,2|0,0:0|0:0,0:0:0:0:
89,172,93169,1,2,0:0:0:0:
46,311,93326,1,2,0:0:0:0:
112,103,93484,1,2,0:0:0:0:
2,369,93640,2,0,P|44:384|86:371,1,90,2|0,0:0|0:0,0:0:0:0:
229,230,93954,5,2,0:0:0:0:
46,311,94112,1,8,0:0:0:0:
286,280,94269,1,2,0:0:0:0:
46,311,94426,5,2,0:0:0:0:
18,276,94504,1,2,0:0:0:0:
21,232,94583,1,2,0:0:0:0:
53,201,94661,1,2,0:0:0:0:
96,199,94740,1,2,0:0:0:0:
131,227,94818,1,8,0:0:0:0:
137,270,94897,2,0,L|137:334,1,45,8|0,0:0|0:0,0:0:0:0:
21,232,95054,6,0,L|21:92,1,135,8|0,0:1|0:0,0:0:0:0:
26,12,95368,6,0,P|33:74|113:85,1,135,2|0,0:0|0:0,0:0:0:0:
203,75,95682,1,2,0:0:0:0:
131,227,95839,1,2,0:0:0:0:
321,227,95996,1,8,0:0:0:0:
169,155,96153,1,2,0:0:0:0:
337,295,96310,5,2,0:0:0:0:
375,273,96388,1,2,0:0:0:0:
392,232,96467,1,2,0:0:0:0:
382,189,96545,1,2,0:0:0:0:
342,156,96626,5,2,0:0:0:0:
298,152,96702,1,2,0:0:0:0:
260,174,96781,1,2,0:0:0:0:
228,207,96859,1,2,0:0:0:0:
184,230,96938,5,2,0:0:0:0:
139,233,97016,1,2,0:0:0:0:
97,215,97095,1,2,0:0:0:0:
69,179,97173,1,2,0:0:0:0:
42,136,97253,5,8,0:0:0:0:
46,180,97331,1,2,0:0:0:0:
51,225,97410,1,8,0:0:0:0:
56,270,97488,1,2,0:0:0:0:
66,339,97567,5,2,0:0:0:0:
32,63,97724,1,8,0:0:0:0:
21,261,97881,2,0,L|8:127,1,135,2|2,0:0|0:0,0:0:0:0:
1,53,98195,5,8,0:0:0:0:
25,334,98352,1,2,0:0:0:0:
254,171,98509,5,2,0:0:0:0:
228,133,98587,1,2,0:0:0:0:
182,136,98666,1,2,0:0:0:0:
160,175,98744,1,2,0:0:0:0:
181,214,98824,2,0,L|217:248,1,45,2|0,0:0|0:0,0:0:0:0:
318,292,98981,5,2,0:0:0:0:
328,300,99059,1,2,0:0:0:0:
338,308,99138,2,0,L|450:308,1,90,8|2,0:0|0:0,0:0:0:0:
285,367,99452,5,2,0:0:0:0:
257,331,99530,1,8,0:0:0:0:
254,287,99609,1,8,0:0:0:0:
276,249,99687,1,2,0:0:0:0:
313,216,99766,5,2,0:0:0:0:
268,215,99844,1,8,0:0:0:0:
223,215,99923,1,2,0:0:0:0:
178,215,100001,1,2,0:0:0:0:
145,155,100080,6,0,P|126:220|101:158,1,175.499991966248
113,4,100394,6,0,L|129:223,1,216,4|0,0:1|0:0,0:0:0:0:
54,329,100708,5,2,0:0:0:0:
238,284,100865,1,2,0:0:0:0:
32,256,101023,1,8,0:0:0:0:
265,213,101180,2,0,P|311:260|302:324,1,135,8|0,0:0|0:0,0:0:0:0:
265,213,101494,2,0,L|362:193,1,90,8|0,0:0|0:0,0:0:0:0:
238,284,101809,1,2,0:0:0:0:
301,68,101965,5,0,0:0:0:0:
458,231,102122,1,0,0:0:0:0:
179,330,102279,2,0,P|163:288|172:245,1,90,2|0,0:0|0:0,0:0:0:0:
301,68,102593,2,0,P|316:109|307:152,1,90,2|0,0:0|0:0,0:0:0:0:
107,113,102907,6,0,L|256:113,1,135,2|0,0:0|0:0,0:0:0:0:
371,185,103221,1,2,0:0:0:0:
479,25,103378,1,2,0:0:0:0:
483,259,103536,1,2,0:0:0:0:
376,99,103693,2,0,P|362:141|371:185,1,90,2|0,0:0|0:0,0:0:0:0:
482,351,104007,5,2,0:0:0:0:
284,285,104165,1,8,0:0:0:0:
440,147,104322,1,2,0:0:0:0:
284,360,104478,5,2,0:0:0:0:
241,346,104556,1,2,0:0:0:0:
213,312,104635,1,2,0:0:0:0:
208,268,104713,1,2,0:0:0:0:
233,225,104792,5,2,0:0:0:0:
187,225,104870,1,2,0:0:0:0:
142,225,104949,1,2,0:0:0:0:
97,226,105027,1,8,0:0:0:0:
27,224,105106,6,0,P|61:178|13:200,1,135,2|0,0:0|0:0,0:0:0:0:
78,313,105420,6,0,L|221:311,1,135,2|0,0:0|0:0,0:0:0:0:
337,295,105734,5,2,0:0:0:0:
413,128,105891,1,2,0:0:0:0:
453,384,106049,1,8,0:0:0:0:
376,213,106206,1,2,0:0:0:0:
258,358,106363,5,2,0:0:0:0:
213,362,106441,1,2,0:0:0:0:
169,354,106520,1,2,0:0:0:0:
132,330,106598,1,2,0:0:0:0:
105,287,106677,5,2,0:0:0:0:
106,242,106755,1,2,0:0:0:0:
127,202,106834,1,2,0:0:0:0:
157,169,106912,1,2,0:0:0:0:
186,128,106991,5,2,0:0:0:0:
200,86,107069,1,2,0:0:0:0:
187,43,107148,1,2,0:0:0:0:
154,14,107226,1,2,0:0:0:0:
104,5,107305,5,8,0:0:0:0:
62,18,107383,1,2,0:0:0:0:
32,51,107462,1,8,0:0:0:0:
26,95,107541,1,2,0:0:0:0:
54,143,107619,5,2,0:0:0:0:
394,108,107776,1,8,0:0:0:0:
283,360,107934,2,0,P|246:305|254:239,1,135,2|0,0:0|0:0,0:0:0:0:
407,105,108247,5,2,0:0:0:0:
48,159,108404,1,2,0:0:0:0:
284,360,108562,5,2,0:0:0:0:
317,329,108640,1,2,0:0:0:0:
339,291,108719,1,2,0:0:0:0:
348,247,108797,1,2,0:0:0:0:
341,197,108876,5,2,0:0:0:0:
320,158,108954,1,2,0:0:0:0:
285,130,109033,1,2,0:0:0:0:
242,122,109111,1,2,0:0:0:0:
197,144,109190,5,2,0:0:0:0:
176,183,109268,1,2,0:0:0:0:
187,226,109347,1,2,0:0:0:0:
224,250,109425,1,2,0:0:0:0:
265,231,109504,6,0,P|260:211|228:184,2,33.7500012874604,2|2|8,0:0|0:0|0:0,0:0:0:0:
300,141,109661,2,0,P|282:127|263:122,2,33.7500012874604,8|2|2,0:0|0:0|0:0,0:0:0:0:
269,48,109818,2,0,P|246:48|227:55,2,33.7500012874604,2|2|2,0:0|0:0|0:0,0:0:0:0:
162,23,109975,2,0,P|154:44|155:64,2,33.7500012874604,8|8|2,0:0|0:0|0:0,0:0:0:0:
86,86,110132,6,0,P|70:141|126:132,1,135,2|0,0:0|0:0,0:0:0:0:
209,183,110447,6,0,B|293:230|293:147|380:192,1,180,4|0,0:1|0:0,0:0:0:0:
264,120,110918,5,8,0:0:0:0:
340,264,111075,1,2,0:0:0:0:
302,79,111232,1,2,0:0:0:0:
313,303,111389,5,2,0:0:0:0:
274,325,111467,1,2,0:0:0:0:
230,323,111546,1,8,0:0:0:0:
191,292,111624,5,2,0:0:0:0:
183,249,111703,1,2,0:0:0:0:
202,209,111781,1,8,0:0:0:0:
245,185,111860,5,2,0:0:0:0:
289,189,111938,1,2,0:0:0:0:
327,212,112017,1,8,0:0:0:0:
374,226,112096,5,8,0:0:0:0:
415,209,112174,1,2,0:0:0:0:
439,172,112252,1,8,0:0:0:0:
446,122,112331,5,2,0:0:0:0:
422,85,112409,1,2,0:0:0:0:
381,69,112488,1,2,0:0:0:0:
338,80,112567,1,8,0:0:0:0:
308,120,112646,6,0,B|310:265,1,135,2|0,0:0|0:0,0:0:0:0:
382,354,112960,1,8,0:1:0:0:
190,265,113117,1,0,0:0:0:0:
190,265,113195,1,0,0:0:0:0:
190,265,113274,2,0,B|128:252|128:252|95:277|95:277|65:259|12:271,1,180,2|0,0:1|0:0,0:0:0:0:
160,362,113745,1,8,0:0:0:0:
240,130,113902,5,8,0:0:0:0:
214,93,113980,1,8,0:0:0:0:
169,100,114059,1,2,0:0:0:0:
149,140,114137,1,8,0:0:0:0:
164,182,114216,1,2,0:0:0:0:
200,207,114294,1,2,0:0:0:0:
244,217,114373,1,2,0:0:0:0:
289,215,114451,1,2,0:0:0:0:
332,200,114530,5,2,0:0:0:0:
372,181,114608,1,8,0:0:0:0:
415,191,114687,1,2,0:0:0:0:
443,226,114765,1,2,0:0:0:0:
445,270,114844,1,8,0:0:0:0:
419,306,114922,1,2,0:0:0:0:
377,319,115001,1,8,0:0:0:0:
336,304,115079,1,2,0:0:0:0:
312,267,115159,6,0,L|312:117,1,135,2|0,0:0|0:0,0:0:0:0:
443,226,115473,6,0,P|358:206|312:132,1,180,8|2,0:1|0:1,0:0:0:0:
148,20,115944,5,2,0:0:0:0:
140,31,116023,1,0,0:0:0:0:
131,41,116101,2,0,L|130:141,1,90,2|2,0:0|0:0,0:0:0:0:
128,342,116415,5,8,0:0:0:0:
92,368,116493,1,2,0:0:0:0:
52,345,116572,1,2,0:0:0:0:
48,300,116650,1,2,0:0:0:0:
78,266,116729,1,2,0:0:0:0:
121,258,116807,1,2,0:0:0:0:
163,275,116886,1,8,0:0:0:0:
197,305,116965,1,2,0:0:0:0:
230,335,117043,5,2,0:0:0:0:
269,358,117121,1,8,0:0:0:0:
312,368,117200,1,2,0:0:0:0:
357,363,117278,1,2,0:0:0:0:
397,345,117357,1,8,0:0:0:0:
427,312,117435,1,2,0:0:0:0:
440,268,117515,1,2,0:0:0:0:
440,223,117593,1,8,0:0:0:0:
427,174,117672,6,0,P|373:158|402:196,1,135,2|0,0:0|0:0,0:0:0:0:
488,278,117986,1,8,0:1:0:0:
440,80,118143,2,0,P|353:79|301:149,1,180
424,314,118614,5,2,0:0:0:0:
424,314,118693,1,8,0:0:0:0:
424,314,118771,2,0,L|434:367,1,45,8|0,0:0|0:0,0:0:0:0:
485,234,118928,2,0,L|461:135,1,90,8|0,0:0|0:0,0:0:0:0:
342,304,119242,5,8,0:0:0:0:
311,336,119320,1,2,0:0:0:0:
269,351,119399,1,2,0:0:0:0:
225,346,119477,1,8,0:0:0:0:
182,310,119557,5,2,0:0:0:0:
146,282,119635,1,2,0:0:0:0:
102,273,119714,1,8,0:0:0:0:
59,284,119792,1,2,0:0:0:0:
16,318,119871,5,2,0:0:0:0:
38,279,119949,1,8,0:0:0:0:
45,235,120028,1,2,0:0:0:0:
34,191,120106,1,2,0:0:0:0:
0,149,120185,6,0,P|64:163|116:124,1,135,2|0,0:0|0:0,0:0:0:0:
141,20,120499,6,0,B|144:76|117:124|117:124|191:107,1,180,4|0,0:1|0:0,0:0:0:0:
423,58,120970,5,8,0:0:0:0:
257,129,121127,1,2,0:0:0:0:
414,144,121284,1,2,0:0:0:0:
226,197,121441,5,2,0:0:0:0:
192,167,121519,1,2,0:0:0:0:
182,124,121598,1,8,0:0:0:0:
200,77,121677,5,2,0:0:0:0:
237,52,121755,1,2,0:0:0:0:
281,53,121833,1,8,0:0:0:0:
321,81,121912,5,2,0:0:0:0:
353,113,121990,1,2,0:0:0:0:
391,139,122070,1,8,0:0:0:0:
439,138,122148,5,2,0:0:0:0:
475,111,122227,1,2,0:0:0:0:
489,68,122304,1,8,0:0:0:0:
466,23,122383,5,2,0:0:0:0:
427,0,122461,1,2,0:0:0:0:
392,30,122541,2,0,P|396:53|417:67,1,45,2|2,0:0|0:0,0:0:0:0:
509,211,122698,2,0,L|410:211,1,90,2|0,0:0|0:0,0:0:0:0:
190,210,123012,5,2,0:0:0:0:
214,176,123090,1,2,0:0:0:0:
254,190,123169,1,2,0:0:0:0:
259,234,123247,1,2,0:0:0:0:
235,271,123326,1,2,0:0:0:0:
193,286,123404,1,2,0:0:0:0:
152,272,123483,1,2,0:0:0:0:
123,239,123561,1,2,0:0:0:0:
113,196,123640,6,0,L|105:151,1,45,2|2,0:0|0:0,0:0:0:0:
42,40,123797,2,0,L|34:84,1,45,2|2,0:0|0:0,0:0:0:0:
198,146,123954,2,0,P|241:159|284:146,1,90,2|0,0:0|0:0,0:0:0:0:
486,11,124269,5,2,0:0:0:0:
448,34,124347,1,2,0:0:0:0:
425,73,124426,1,2,0:0:0:0:
424,117,124504,1,2,0:0:0:0:
447,161,124583,5,2,0:0:0:0:
446,205,124661,1,2,0:0:0:0:
423,244,124740,1,2,0:0:0:0:
385,267,124818,1,2,0:0:0:0:
336,256,124897,5,2,0:0:0:0:
293,240,124975,1,2,0:0:0:0:
256,267,125054,1,2,0:0:0:0:
261,311,125132,1,2,0:0:0:0:
309,335,125211,6,0,B|419:335|419:335|390:353,1,135,8|0,0:0|0:0,0:0:0:0:
256,381,125525,2,0,L|163:381,1,90,8|0,0:1|0:0,0:0:0:0:
72,225,125839,5,8,0:0:0:0:
38,197,125917,1,2,0:0:0:0:
39,154,125996,1,2,0:0:0:0:
75,130,126074,1,2,0:0:0:0:
116,144,126153,1,8,0:0:0:0:
157,157,126232,1,2,0:0:0:0:
192,133,126311,1,2,0:0:0:0:
194,89,126389,1,8,0:0:0:0:
162,62,126468,6,0,P|164:9|203:48,1,135,2|0,0:0|0:0,0:0:0:0:
91,91,126782,2,0,P|76:50|81:5,1,90,8|8,0:0|0:0,0:0:0:0:
152,138,127096,5,8,0:0:0:0:
116,164,127174,1,2,0:0:0:0:
72,166,127253,1,2,0:0:0:0:
34,143,127331,1,2,0:0:0:0:
10,100,127410,5,8,0:0:0:0:
10,149,127488,1,8,0:0:0:0:
6,198,127567,1,2,0:0:0:0:
3,247,127645,1,2,0:0:0:0:
3,296,127724,2,0,P|46:280|99:294,1,90,2|0,0:0|0:0,0:0:0:0:
248,362,128038,5,2,0:0:0:0:
290,375,128116,1,2,0:0:0:0:
335,376,128195,1,8,0:0:0:0:
378,363,128273,1,2,0:0:0:0:
415,339,128352,1,8,0:0:0:0:
443,304,128430,1,2,0:0:0:0:
460,262,128509,1,2,0:0:0:0:
464,218,128587,1,2,0:0:0:0:
447,145,128666,6,0,L|484:302,1,135,2|0,0:0|0:0,0:0:0:0:
499,363,128981,2,0,L|477:275,1,90,2|0,0:0|0:0,0:0:0:0:
487,83,129295,6,0,L|506:65,1,26.9999991760254,8|0,0:0|0:0,0:0:0:0:
458,48,129373,2,0,L|468:14,1,26.9999991760254,2|0,0:0|0:0,0:0:0:0:
417,31,129452,2,0,L|415:-3,1,26.9999991760254,8|0,0:0|0:0,0:0:0:0:
372,36,129530,2,0,L|364:-5,1,26.9999991760254,2|0,0:0|0:0,0:0:0:0:
341,66,129609,6,0,L|357:87,1,26.9999991760254,8|0,0:0|0:0,0:0:0:0:
312,101,129687,2,0,L|319:136,1,26.9999991760254,2|0,0:0|0:0,0:0:0:0:
271,118,129766,2,0,L|269:152,1,26.9999991760254,2|0,0:0|0:0,0:0:0:0:
226,113,129845,2,0,L|218:154,1,26.9999991760254,2|0,0:0|0:0,0:0:0:0:
179,105,129923,6,0,P|152:110|126:104,1,53.9999983520508,2|0,0:1|0:0,0:0:0:0:
12,154,130080,2,0,L|27:209,1,53.9999983520508
108,292,130237,5,2,0:0:0:0:
296,264,130395,1,0,0:0:0:0:
85,280,130551,1,2,0:1:0:0:
322,247,130709,1,0,0:0:0:0:
62,268,130865,1,2,0:1:0:0:
348,229,131023,1,0,0:0:0:0:
43,256,131180,1,2,0:1:0:0:
372,206,131337,1,0,0:0:0:0:
123,95,131494,5,8,0:0:0:0:
123,287,131651,1,0,0:0:0:0:
289,191,131808,1,2,0:1:0:0:
96,116,131965,1,0,0:0:0:0:
155,299,132122,5,8,0:0:0:0:
283,156,132279,1,0,0:0:0:0:
54,213,132436,1,2,0:1:0:0:
421,282,132593,1,0,0:0:0:0:
195,94,132750,5,2,0:0:0:0:
271,343,132907,1,8,0:1:0:0:
75,239,133064,1,2,0:1:0:0:
391,198,133221,1,8,0:1:0:0:
100,152,133379,5,2,0:1:0:0:
166,349,133536,1,8,0:1:0:0:
198,72,133693,1,2,0:1:0:0:
132,269,133850,1,8,0:1:0:0:
399,166,134007,6,0,L|417:113,1,40.4999987640381,2|0,0:0|0:0,0:0:0:0:
264,11,134164,2,0,L|246:64,1,40.4999987640381,8|0,0:1|0:0,0:0:0:0:
270,198,134321,2,0,L|288:145,1,40.4999987640381,2|0,0:1|0:0,0:0:0:0:
135,43,134478,2,0,L|117:96,1,40.4999987640381,8|0,0:1|0:0,0:0:0:0:
69,213,134635,6,0,P|75:265|103:222,1,135,10|0,0:1|0:0,0:0:0:0:
44,129,134949,2,0,L|1:119,1,45,10|0,0:1|0:0,0:0:0:0:
172,166,135106,2,0,L|215:176,1,45,10|0,0:1|0:0,0:0:0:0:
329,229,135263,6,0,P|380:222|337:194,1,135,2|0,0:0|0:0,0:0:0:0:
172,166,135577,2,0,L|309:204,1,135,2|0,0:1|0:0,0:0:0:0:
446,242,135892,1,2,0:1:0:0:
256,333,136049,5,2,0:0:0:0:
294,91,136206,1,8,0:0:0:0:
352,286,136363,1,2,0:0:0:0:
218,98,136520,5,2,0:0:0:0:
227,54,136598,1,2,0:0:0:0:
259,23,136677,1,8,0:0:0:0:
302,16,136755,1,2,0:0:0:0:
343,33,136834,1,2,0:0:0:0:
367,71,136912,1,2,0:0:0:0:
366,115,136991,1,2,0:0:0:0:
341,151,137069,1,2,0:0:0:0:
299,167,137148,6,0,B|277:170|260:178|260:178|285:146|294:89,1,135,2|0,0:0|0:0,0:0:0:0:
232,15,137462,1,2,0:1:0:0:
429,82,137619,1,8,0:1:0:0:
308,251,137776,2,0,P|290:210|299:167,1,90,8|0,0:0|0:0,0:0:0:0:
398,323,138091,5,2,0:0:0:0:
354,335,138169,1,8,0:0:0:0:
311,347,138248,1,2,0:0:0:0:
268,359,138326,1,2,0:0:0:0:
220,373,138405,5,8,0:0:0:0:
227,329,138483,1,2,0:0:0:0:
220,284,138562,1,2,0:0:0:0:
190,252,138640,1,8,0:0:0:0:
142,235,138719,5,2,0:0:0:0:
98,243,138797,1,2,0:0:0:0:
66,274,138876,1,8,0:0:0:0:
57,317,138954,1,2,0:0:0:0:
78,356,139033,6,0,P|100:351|120:339,1,45,2|8,0:0|0:0,0:0:0:0:
231,235,139190,2,0,P|209:240|190:252,1,45,2|2,0:0|0:0,0:0:0:0:
297,298,139347,5,8,0:0:0:0:
319,259,139425,1,2,0:0:0:0:
320,214,139504,1,2,0:0:0:0:
300,175,139582,1,8,0:0:0:0:
262,149,139661,6,0,P|244:109|251:65,1,90,8|2,0:0|0:0,0:0:0:0:
162,57,139897,2,0,L|161:11,2,45,8|2|2,0:0|0:0|0:0,0:0:0:0:
111,156,140132,2,0,L|104:112,1,45,8|2,0:0|0:0,0:0:0:0:
22,80,140290,2,0,L|31:242,1,135,8|8,0:0|0:0,0:0:0:0:
53,323,140604,5,2,0:0:0:0:
71,282,140682,1,2,0:0:0:0:
106,254,140761,1,8,0:0:0:0:
150,244,140839,1,2,0:0:0:0:
193,255,140918,6,0,L|211:306,1,45,2|0,0:0|0:0,0:0:0:0:
313,289,141075,2,0,L|284:376,1,90,8|0,0:0|0:0,0:0:0:0:
273,175,141389,1,2,0:0:0:0:
143,355,141546,6,0,L|128:313,1,45,2|2,0:1|0:0,0:0:0:0:
273,175,141703,2,0,L|288:217,1,45,2|2,0:0|0:0,0:0:0:0:
385,362,141860,5,8,0:0:0:0:
429,368,141938,1,2,0:0:0:0:
470,352,142017,1,2,0:0:0:0:
500,307,142095,5,2,0:0:0:0:
494,263,142174,1,2,0:0:0:0:
463,231,142252,1,8,0:0:0:0:
413,209,142331,5,2,0:0:0:0:
373,189,142409,1,2,0:0:0:0:
350,151,142488,1,8,0:0:0:0:
341,97,142567,5,2,0:0:0:0:
360,56,142645,1,2,0:0:0:0:
397,31,142723,1,8,0:0:0:0:
451,33,142803,6,0,L|467:76,1,45,2|2,0:0|0:0,0:0:0:0:
459,226,142960,2,0,L|443:183,1,45,2|8,0:0|0:0,0:0:0:0:
344,13,143117,2,0,L|360:56,1,45,8|0,0:0|0:0,0:0:0:0:
275,153,143274,5,2,0:0:0:0:
254,192,143352,1,2,0:0:0:0:
253,236,143431,1,2,0:0:0:0:
272,277,143509,1,8,0:0:0:0:
308,304,143588,1,2,0:0:0:0:
275,153,143745,5,2,0:0:0:0:
233,139,143823,1,8,0:0:0:0:
188,142,143902,1,8,0:0:0:0:
145,153,143980,1,2,0:0:0:0:
104,172,144059,2,0,B|76:224|86:271|116:277|144:258|119:246,1,135,2|0,0:0|0:0,0:0:0:0:
63,317,144373,5,2,0:0:0:0:
103,337,144451,1,2,0:0:0:0:
148,334,144530,1,8,0:0:0:0:
184,309,144608,1,2,0:0:0:0:
210,266,144687,5,2,0:0:0:0:
223,223,144765,1,8,0:0:0:0:
260,199,144844,1,2,0:0:0:0:
303,203,144922,1,2,0:0:0:0:
338,237,145001,5,8,0:0:0:0:
343,281,145080,1,2,0:0:0:0:
319,318,145158,1,2,0:0:0:0:
277,332,145236,1,8,0:0:0:0:
223,317,145316,5,2,0:0:0:0:
180,304,145394,1,2,0:0:0:0:
137,314,145473,1,2,0:0:0:0:
104,345,145551,1,2,0:0:0:0:
71,379,145630,5,2,0:0:0:0:
42,341,145708,1,2,0:0:0:0:
33,297,145787,1,2,0:0:0:0:
46,254,145865,1,2,0:0:0:0:
83,220,145944,6,0,P|87:198|83:176,1,45,2|0,0:0|0:0,0:0:0:0:
11,98,146101,2,0,L|104:107,1,90,2|0,0:0|0:0,0:0:0:0:
256,126,146415,1,8,0:0:0:0:
501,151,146572,2,0,L|408:142,1,90
170,117,146886,6,0,L|214:120,1,45,8|2,0:0|0:0,0:0:0:0:
341,134,147043,2,0,L|296:130,1,45,2|8,0:0|0:0,0:0:0:0:
94,95,147201,5,2,0:0:0:0:
94,139,147279,1,8,0:0:0:0:
118,176,147358,1,2,0:0:0:0:
159,194,147436,1,2,0:0:0:0:
208,196,147515,5,8,0:0:0:0:
178,231,147593,1,2,0:0:0:0:
150,266,147672,1,2,0:0:0:0:
133,308,147750,1,8,0:0:0:0:
152,353,147829,5,2,0:0:0:0:
194,359,147907,1,8,0:0:0:0:
221,326,147986,1,2,0:0:0:0:
198,289,148064,1,2,0:0:0:0:
150,266,148143,5,8,0:0:0:0:
105,261,148221,1,2,0:0:0:0:
60,254,148300,1,2,0:0:0:0:
25,224,148379,1,8,0:0:0:0:
18,174,148457,6,0,L|25:127,1,45,2|0,0:0|0:0,0:0:0:0:
125,41,148614,2,0,L|116:99,1,45,2|0,0:0|0:0,0:0:0:0:
191,162,148771,2,0,L|182:220,1,45
98,229,148928,2,0,L|105:182,1,45,2|0,0:0|0:0,0:0:0:0:
125,41,149085,5,8,0:0:0:0:
160,68,149163,1,2,0:0:0:0:
201,87,149242,1,2,0:0:0:0:
245,87,149320,1,8,0:0:0:0:
289,65,149399,5,2,0:0:0:0:
325,39,149477,1,2,0:0:0:0:
365,18,149556,1,8,0:0:0:0:
409,12,149634,1,2,0:0:0:0:
456,25,149713,5,2,0:0:0:0:
489,48,149792,1,8,0:0:0:0:
501,90,149870,1,2,0:0:0:0:
497,135,149949,1,2,0:0:0:0:
467,174,150027,5,8,0:0:0:0:
427,193,150106,1,2,0:0:0:0:
382,190,150184,1,2,0:0:0:0:
347,163,150263,1,8,0:0:0:0:
332,115,150341,5,2,0:0:0:0:
242,229,150656,5,2,0:1:0:0:
242,229,150813,2,0,L|286:237,2,31.4999990386963,0|0|2,0:0|0:0|0:1,0:0:0:0:
178,265,151049,2,0,L|134:257,2,31.4999990386963,0|0|0,0:0|0:0|0:0,0:0:0:0:
321,292,151284,6,0,P|348:232|285:163,1,161.999995056153,4|0,0:1|0:0,0:0:0:0:
256,339,151598,6,0,L|412:340,1,135,2|0,0:0|0:0,0:0:0:0:
490,362,151912,1,2,0:0:0:0:
321,292,152069,2,0,P|295:231|321:170,1,135,2|0,0:0|0:0,0:0:0:0:
456,292,152383,2,0,L|321:292,1,135,2|0,0:0|0:0,0:0:0:0:
202,254,152698,6,0,B|185:266|176:284|176:284|175:189,1,135,2|0,0:0|0:0,0:0:0:0:
99,94,153012,2,0,L|99:184,1,90,2|0,0:0|0:0,0:0:0:0:
121,336,153326,2,0,P|174:363|237:332,1,135,8|0,0:0|0:0,0:0:0:0:
286,259,153640,1,8,0:0:0:0:
240,115,153797,5,2,0:0:0:0:
218,154,153875,1,2,0:0:0:0:
219,198,153954,1,8,0:0:0:0:
241,237,154032,1,8,0:0:0:0:
286,259,154112,6,0,B|386:259|386:259|360:298,1,135,2|0,0:0|0:0,0:0:0:0:
237,331,154425,1,2,0:0:0:0:
124,192,154583,2,0,P|99:133|131:67,1,135,2|0,0:0|0:0,0:0:0:0:
124,192,154897,2,0,B|14:191|14:191|41:169,1,135,2|0,0:0|0:0,0:0:0:0:
178,133,155211,6,0,P|203:192|170:257,1,135,2|0,0:0|0:0,0:0:0:0:
178,133,155525,2,0,L|276:116,1,90,8|0,0:0|0:0,0:0:0:0:
468,80,155839,2,0,P|427:46|480:43,1,135,8|0,0:0|0:0,0:0:0:0:
484,156,156153,2,0,L|484:256,1,90,8|0,0:0|0:0,0:0:0:0:
331,290,156468,5,2,0:0:0:0:
297,275,156546,1,0,0:0:0:0:
262,273,156625,1,0,0:0:0:0:
228,284,156703,1,0,0:0:0:0:
195,299,156782,1,0,0:0:0:0:
159,300,156860,1,0,0:0:0:0:
126,287,156939,1,0,0:0:0:0:
105,79,157096,5,2,0:0:0:0:
133,112,157174,1,2,0:0:0:0:
177,114,157253,1,2,0:0:0:0:
384,78,157410,1,2,0:0:0:0:
78,170,157567,1,2,0:0:0:0:
276,364,157724,6,0,L|392:364,1,90,2|0,0:0|0:0,0:0:0:0:
299,178,158038,2,0,P|287:221|301:263,1,90,2|0,0:0|0:0,0:0:0:0:
512,323,158352,2,0,L|422:323,1,90,2|0,0:0|0:0,0:0:0:0:
151,323,158666,5,2,0:0:0:0:
469,221,158824,1,2,0:0:0:0:
67,154,158981,1,2,0:0:0:0:
258,308,159138,5,2,0:0:0:0:
286,286,159216,1,0,0:0:0:0:
300,253,159295,1,0,0:0:0:0:
297,217,159373,1,0,0:0:0:0:
278,187,159452,2,0,L|223:195,1,45
75,216,159609,2,0,L|167:205,1,90,2|0,0:0|0:0,0:0:0:0:
464,164,159923,5,2,0:0:0:0:
48,220,160080,1,2,0:0:0:0:
256,63,160237,5,2,0:0:0:0:
275,93,160315,1,0,0:0:0:0:
280,129,160394,1,0,0:0:0:0:
273,164,160472,1,0,0:0:0:0:
252,193,160551,2,0,P|240:236|251:279,2,90,0|0|0,0:0|0:0|0:0,0:0:0:0:
450,111,161022,5,2,0:0:0:0:
252,193,161180,1,2,0:0:0:0:
211,210,161258,1,2,0:0:0:0:
170,196,161337,1,2,0:0:0:0:
148,158,161415,1,8,0:0:0:0:
159,115,161494,1,8,0:0:0:0:
195,91,161572,1,2,0:0:0:0:
239,98,161651,6,0,B|337:98|337:98|299:125,1,135,2|0,0:0|0:0,0:0:0:0:
148,158,161964,1,2,0:0:0:0:
354,30,162122,2,0,P|404:70|394:141,1,135,2|0,0:0|0:0,0:0:0:0:
354,30,162436,2,0,L|499:20,1,135,2|0,0:0|0:0,0:0:0:0:
337,98,162750,6,0,L|192:108,1,135,2|0,0:0|0:0,0:0:0:0:
64,133,163064,2,0,P|31:117|64:101,1,90,2|0,0:0|0:0,0:0:0:0:
193,263,163379,2,0,B|224:310|193:368|193:368|214:356,1,135,8|0,0:0|0:0,0:0:0:0:
332,259,163692,1,8,0:0:0:0:
125,314,163850,5,2,0:0:0:0:
106,273,163928,1,2,0:0:0:0:
111,229,164007,1,8,0:0:0:0:
138,194,164085,1,8,0:0:0:0:
180,179,164164,6,0,B|245:203|326:170|254:119|248:166,1,135,2|0,0:0|0:0,0:0:0:0:
236,267,164478,1,2,0:0:0:0:
327,103,164635,2,0,P|267:75|206:100,1,135,2|0,0:0|0:0,0:0:0:0:
351,180,164949,2,0,P|399:136|400:70,1,135,2|0,0:0|0:0,0:0:0:0:
266,154,165263,6,0,P|265:219|314:264,1,135,2|0,0:0|0:0,0:0:0:0:
421,352,165578,2,0,L|322:352,1,90,2|0,0:0|0:0,0:0:0:0:
117,352,165891,2,0,L|252:352,1,135,2|0,0:0|0:0,0:0:0:0:
511,352,166206,2,0,L|421:352,1,90,2|0,0:0|0:0,0:0:0:0:
117,352,166520,5,2,0:0:0:0:
104,341,166598,1,2,0:0:0:0:
91,328,166677,2,0,P|64:267|91:202,1,135,8|0,0:0|0:0,0:0:0:0:
235,88,166991,2,0,P|171:111|211:56,1,180,8|0,0:1|0:0,0:0:0:0:
426,178,167462,5,2,0:0:0:0:
86,206,167619,1,2,0:0:0:0:
356,16,167776,1,2,0:0:0:0:
256,273,167934,5,2,0:1:0:0:
99,74,168090,1,0,0:0:0:0:
133,262,168248,2,0,P|90:279|48:269,2,90,8|0|0,0:1|0:0|0:0,0:0:0:0:
426,178,168719,5,8,0:0:0:0:
86,206,168876,1,2,0:0:0:0:
254,372,169033,5,2,0:0:0:0:
289,374,169112,1,0,0:0:0:0:
322,361,169190,1,2,0:1:0:0:
345,333,169268,1,0,0:0:0:0:
354,299,169347,1,0,0:0:0:0:
346,264,169425,1,0,0:0:0:0:
323,237,169504,1,8,0:1:0:0:
290,223,169582,1,0,0:0:0:0:
255,225,169661,1,0,0:0:0:0:
224,243,169739,1,0,0:0:0:0:
204,273,169818,6,0,P|199:294|205:316,1,45,8|0,0:1|0:0,0:0:0:0:
322,361,169975,2,0,P|326:339|321:317,1,45,0|0,0:0|0:0,0:0:0:0:
278,172,170132,2,0,P|273:193|279:215,1,45,8|0,0:1|0:0,0:0:0:0:
396,260,170289,2,0,P|400:238|395:216,1,45,0|0,0:0|0:0,0:0:0:0:
361,97,170447,5,8,0:0:0:0:
347,92,170525,1,2,0:0:0:0:
333,88,170603,1,2,0:0:0:0:
319,84,170682,1,2,0:0:0:0:
256,123,170761,5,8,0:0:0:0:
242,128,170839,1,2,0:0:0:0:
228,132,170917,1,2,0:0:0:0:
214,136,170996,1,2,0:0:0:0:
154,96,171075,5,8,0:0:0:0:
140,91,171153,1,2,0:0:0:0:
126,87,171231,1,2,0:0:0:0:
112,83,171310,1,2,0:0:0:0:
56,133,171389,6,0,L|18:141,7,22.5,2|0|2|0|2|0|2|0,0:0|0:0|0:0|0:0|0:0|0:0|0:0|0:0,0:0:0:0:
33,137,171703,6,0,B|51:185|32:248|32:248|73:232,1,135,6|0,0:1|0:0,0:0:0:0:
196,211,172017,1,2,0:0:0:0:
147,378,172174,2,0,P|113:321|130:257,1,135,2|0,0:0|0:0,0:0:0:0:
273,290,172488,2,0,B|302:282|302:317|279:338|237:342|202:313,1,135,2|0,0:0|0:0,0:0:0:0:
325,225,172803,6,0,P|366:275|359:342,1,135,2|0,0:0|0:0,0:0:0:0:
325,225,173117,2,0,L|413:209,1,90,2|0,0:0|0:0,0:0:0:0:
202,313,173431,2,0,B|113:330|113:330|120:353|155:362,1,135,2|0,0:0|0:0,0:0:0:0:
274,367,173745,1,2,0:0:0:0:
134,240,173902,5,2,0:0:0:0:
99,212,173980,1,2,0:0:0:0:
83,170,174059,1,8,0:0:0:0:
90,126,174137,1,8,0:0:0:0:
121,91,174216,6,0,P|165:137|155:215,1,135,2|0,0:0|0:0,0:0:0:0:
70,278,174530,1,2,0:0:0:0:
251,218,174687,2,0,B|299:198|351:199|370:222|345:242|327:228,1,135,2|0,0:0|0:0,0:0:0:0:
259,126,175002,2,0,B|239:78|240:26|263:7|283:32|269:50,1,135,2|0,0:0|0:0,0:0:0:0:
178,165,175316,6,0,B|68:165|68:165|89:149,1,135,2|0,0:0|0:0,0:0:0:0:
259,126,175630,2,0,P|274:167|260:209,1,90,8|0,0:0|0:0,0:0:0:0:
344,97,175944,2,0,P|365:153|346:232,1,135,8|0,0:0|0:0,0:0:0:0:
440,203,176258,2,0,P|450:160|438:117,1,90,8|0,0:0|0:0,0:0:0:0:
259,126,176572,5,2,0:0:0:0:
227,142,176650,1,0,0:0:0:0:
191,144,176729,1,0,0:0:0:0:
157,134,176807,1,0,0:0:0:0:
129,111,176886,1,0,0:0:0:0:
124,146,176964,1,0,0:0:0:0:
119,182,177043,1,0,0:0:0:0:
91,373,177201,5,2,0:0:0:0:
126,346,177279,1,2,0:0:0:0:
171,343,177358,1,2,0:0:0:0:
374,363,177515,1,2,0:0:0:0:
32,324,177672,1,2,0:0:0:0:
259,219,177829,6,0,P|271:260|255:311,1,90,2|0,0:0|0:0,0:0:0:0:
32,324,178143,2,0,P|-4:311|38:303,1,90,2|0,0:0|0:0,0:0:0:0:
219,157,178457,2,0,P|261:144|304:158,1,90,8|0,0:0|0:0,0:0:0:0:
446,353,178771,5,8,0:0:0:0:
90,230,178928,1,2,0:0:0:0:
422,154,179085,1,2,0:0:0:0:
209,5,179242,5,0,0:0:0:0:
190,35,179320,1,0,0:0:0:0:
185,71,179399,1,0,0:0:0:0:
192,106,179477,1,0,0:0:0:0:
212,135,179556,2,0,L|270:148,1,45,0|0,0:0|0:0,0:0:0:0:
422,154,179714,2,0,L|333:171,1,90
84,215,180028,5,8,0:0:0:0:
428,169,180185,1,8,0:0:0:0:
256,373,180342,5,8,0:0:0:0:
237,343,180420,1,0,0:0:0:0:
232,307,180499,1,0,0:0:0:0:
239,272,180577,1,0,0:0:0:0:
259,243,180656,2,0,L|168:252,2,90,0|0|0,0:0|0:0|0:0,0:0:0:0:
512,208,181127,5,2,0:0:0:0:
259,243,181284,1,2,0:0:0:0:
229,210,181362,1,2,0:0:0:0:
230,166,181441,1,2,0:0:0:0:
261,134,181519,1,8,0:0:0:0:
304,134,181598,1,8,0:0:0:0:
337,164,181676,1,2,0:0:0:0:
339,208,181755,2,0,L|340:316,1,90,2|0,0:0|0:0,0:0:0:0:
184,376,182070,5,2,0:0:0:0:
143,358,182148,1,2,0:0:0:0:
99,354,182227,1,2,0:0:0:0:
53,360,182305,1,2,0:0:0:0:
6,378,182384,5,2,0:0:0:0:
31,341,182462,1,2,0:0:0:0:
55,302,182541,1,2,0:0:0:0:
76,263,182619,1,2,0:0:0:0:
99,219,182698,5,2,0:0:0:0:
113,176,182776,1,2,0:0:0:0:
118,131,182855,1,2,0:0:0:0:
110,87,182933,1,2,0:0:0:0:
78,48,183012,5,2,0:0:0:0:
35,52,183090,1,2,0:0:0:0:
7,88,183169,1,2,0:0:0:0:
20,132,183248,1,2,0:0:0:0:
51,169,183326,5,2,0:0:0:0:
89,192,183405,1,2,0:0:0:0:
132,204,183483,1,2,0:0:0:0:
177,204,183562,1,2,0:0:0:0:
222,185,183640,5,2,0:0:0:0:
262,164,183719,1,2,0:0:0:0:
301,142,183797,1,2,0:0:0:0:
343,125,183876,1,2,0:0:0:0:
388,106,183954,6,0,P|411:106|432:112,1,45,2|2,0:0|0:0,0:0:0:0:
442,283,184112,2,0,P|419:283|398:276,1,45,8|8,0:0|0:0,0:0:0:0:
264,296,184269,2,0,P|253:275|249:253,1,45,2|0,0:0|0:0,0:0:0:0:
194,117,184426,5,8,0:0:0:0:
176,76,184504,1,8,0:0:0:0:
189,33,184583,1,2,0:0:0:0:
230,18,184661,1,8,0:0:0:0:
273,42,184740,5,8,0:0:0:0:
271,86,184818,1,8,0:0:0:0:
240,118,184897,1,2,0:0:0:0:
204,146,184975,1,8,0:0:0:0:
167,179,185054,5,8,0:0:0:0:
142,216,185132,1,8,0:0:0:0:
143,261,185211,1,2,0:0:0:0:
175,292,185289,1,2,0:0:0:0:
224,295,185368,6,0,P|265:276|286:237,1,90,2|0,0:0|0:0,0:0:0:0:
398,0,185682,2,0,L|398:90,1,90,2|0,0:0|0:0,0:0:0:0:
389,383,185996,2,0,P|348:364|327:325,1,90,2|0,0:0|0:0,0:0:0:0:
209,97,186310,2,0,L|209:187,1,90,2|0,0:0|0:0,0:0:0:0:
410,308,186625,5,2,0:0:0:0:
410,308,186703,1,2,0:0:0:0:
410,308,186782,2,0,B|455:329|505:303|505:303|485:348,1,135,8|0,0:0|0:0,0:0:0:0:
375,375,187096,2,0,B|237:375|237:375|199:352,1,180,8|0,0:1|0:0,0:0:0:0:
59,128,187567,5,2,0:0:0:0:
443,172,187724,1,2,0:0:0:0:
33,237,187881,1,2,0:0:0:0:
354,188,188038,5,2,0:1:0:0:
59,128,188195,1,0,0:0:0:0:
198,366,188352,2,0,P|215:326|205:282,1,90,8|0,0:1|0:0,0:0:0:0:
59,128,188666,1,0,0:0:0:0:
437,254,188824,5,8,0:0:0:0:
33,237,188981,1,2,0:0:0:0:
369,144,189138,1,2,0:0:0:0:
255,371,189295,5,2,0:1:0:0:
174,202,189452,1,0,0:0:0:0:
362,218,189609,1,8,0:1:0:0:
96,288,189766,6,0,L|51:293,1,45
142,368,189923,2,0,L|186:373,1,45,8|0,0:1|0:0,0:0:0:0:
291,291,190080,2,0,L|246:296,1,45,0|0,0:0|0:0,0:0:0:0:
344,371,190237,2,0,L|388:376,1,45,8|0,0:1|0:0,0:0:0:0:
486,295,190394,2,0,L|441:300,1,45,0|0,0:0|0:0,0:0:0:0:
378,197,190551,5,8,0:0:0:0:
372,170,190629,1,2,0:0:0:0:
366,144,190708,1,2,0:0:0:0:
360,117,190786,1,2,0:0:0:0:
385,61,190865,6,0,P|407:62|427:52,3,45,8|2|2|2,0:0|0:0|0:0|0:0,0:0:0:0:
261,70,191180,5,8,0:0:0:0:
234,76,191258,1,2,0:0:0:0:
208,82,191337,1,2,0:0:0:0:
181,88,191415,1,2,0:0:0:0:
125,63,191494,6,0,P|126:40|116:20,3,45,2|2|2|8,0:0|0:0|0:0|0:0,0:0:0:0:
134,187,191808,5,8,0:0:0:0:
140,214,191886,1,2,0:0:0:0:
146,240,191965,1,2,0:0:0:0:
152,267,192043,1,2,0:0:0:0:
129,324,192122,6,0,P|106:322|86:332,3,45,8|2|2|2,0:0|0:0|0:0|0:0,0:0:0:0:
251,314,192436,5,8,0:0:0:0:
278,308,192514,1,2,0:0:0:0:
304,302,192593,1,2,0:0:0:0:
331,296,192671,1,2,0:0:0:0:
359,290,192750,5,2,0:1:0:0:
450,163,192907,1,0,0:0:0:0:
504,368,193064,1,4,0:1:0:0:
494,358,193692,5,2,0:0:0:0:
402,333,193849,1,2,0:0:0:0:
487,200,194006,1,2,0:0:0:0:
462,292,194163,1,2,0:0:0:0:
502,117,194320,6,0,P|432:36|432:140,1,270,6|2,0:0|0:0,0:0:0:0:
93,126,195576,6,0,P|42:137|76:97,1,135,8|0,0:0|0:0,0:0:0:0:
199,87,196204,2,0,P|232:47|182:58,1,135,2|0,0:0|0:0,0:0:0:0:
142,168,196833,1,4,0:0:0:0:
140,180,197153,5,2,0:0:0:0:
120,268,197314,1,2,0:0:0:0:
100,355,197474,2,0,P|71:363|43:353,2,60,2|8|2,0:0|0:0|0:0,0:0:0:0:
204,296,198116,5,2,0:0:0:0:
32,240,198425,1,8,0:0:0:0:
204,296,198734,5,8,0:0:0:0:
120,268,198889,1,8,0:0:0:0:
32,240,199043,1,8,0:0:0:0:
53,328,199198,1,2,0:0:0:0:
204,296,199353,6,0,P|248:284|296:300,1,90,6|0,0:0|0:0,0:0:0:0:
421,354,199829,2,0,P|377:366|329:350,1,90,2|0,0:0|0:0,0:0:0:0:
204,296,200305,6,0,B|202:341|144:395|51:314|108:237|161:248|161:248|161:150|161:150|210:203,1,405,2|0,0:0|0:0,0:0:0:0:
310,267,201842,2,0,B|272:300|256:204|308:184|348:204|384:252|356:296|356:296|409:264|460:296,1,315,4|0,0:0|0:0,0:0:0:0:
410,367,203098,1,4,0:0:0:0:
443,173,203412,5,8,0:0:0:0:
441,185,203726,1,2,0:0:0:0:
469,78,203883,1,2,0:0:0:0:
408,277,204040,1,2,0:0:0:0:
402,291,204118,1,2,0:0:0:0:
397,306,204197,1,2,0:0:0:0:
392,321,204275,1,2,0:0:0:0:
386,336,204355,2,0,B|338:351|338:351|315:319|315:319|258:370|211:358|197:298|246:250|265:302,1,270,6|2,0:0|0:0,0:0:0:0:
141,210,205645,6,0,B|103:243|101:291|101:291|84:220|16:193|16:193|24:150|-1:109,1,315,2|0,0:0|0:0,0:0:0:0:
51,40,206857,1,4,0:0:0:0:
57,48,207171,2,0,B|127:76|127:20|187:48,1,135,2|0,0:0|0:0,0:0:0:0:
316,95,207799,5,2,0:0:0:0:
364,234,207956,1,2,0:0:0:0:
316,95,208113,1,2,0:0:0:0:
389,303,208270,1,2,0:0:0:0:
340,165,208427,1,2,0:0:0:0:
389,303,208584,1,2,0:0:0:0:
316,95,208741,5,2,0:0:0:0:
408,376,209055,1,8,0:0:0:0:
416,133,209370,6,0,P|371:136|339:167,1,90,12|0,0:0|0:0,0:0:0:0:
312,336,209841,2,0,P|357:333|389:302,1,90,2|0,0:0|0:0,0:0:0:0:
340,165,210312,6,0,B|351:115|326:84|272:70|242:82|217:123|211:167|247:204|301:226|301:226|201:254,1,405,2|0,0:0|0:0,0:0:0:0:
158,157,211849,2,0,B|135:101|192:46|192:46|103:72|103:72|62:25|16:45,1,315,4|0,0:0|0:0,0:0:0:0:
35,130,213105,1,4,0:0:0:0:
228,120,213419,5,8,0:0:0:0:
218,132,213733,1,2,0:0:0:0:
130,201,213890,1,2,0:0:0:0:
292,168,214047,1,2,0:0:0:0:
300,151,214125,1,2,0:0:0:0:
304,134,214204,1,2,0:0:0:0:
303,116,214282,1,2,0:0:0:0:
298,100,214362,6,0,B|357:104|357:104|385:88|385:88|446:91,2,144,6|2|8,0:0|0:1|0:1,0:0:0:0:
153,52,215147,1,0,0:0:0:0:
146,59,215304,2,0,P|164:106|141:164,1,108,2|0,0:1|0:0,0:0:0:0:
0,210,215657,6,0,L|90:210,1,90,8|0,0:0|0:0,0:0:0:0:
158,268,215932,2,0,L|203:267,3,36,2|0|0|0,0:1|0:0|0:0|0:0,0:0:0:0:
233,344,216246,2,0,L|277:344,3,36,8|0|0|0,0:1|0:0|0:0|0:0,0:0:0:0:
348,343,216560,5,2,0:1:0:0:
373,339,216638,1,0,0:0:0:0:
398,335,216717,1,0,0:0:0:0:
423,331,216795,1,0,0:0:0:0:
447,327,216875,2,0,P|435:294|439:259,1,72,2|0,0:1|0:0,0:0:0:0:
489,70,217189,6,0,P|498:104|486:137,1,71.9999978027344,2|2,0:0|0:0,0:0:0:0:
403,167,217503,2,0,L|325:153,2,71.9999978027344,2|8|2,0:0|0:0|0:0,0:0:0:0:
472,216,218131,2,0,L|488:287,1,53.9999983520508,8|0,0:0|0:0,0:0:0:0:
366,334,218445,5,8,0:0:0:0:
342,349,218523,1,2,0:0:0:0:
314,354,218602,1,2,0:0:0:0:
286,348,218680,1,8,0:0:0:0:
251,323,218759,6,0,L|221:283,3,36,2|2|8|2,0:0|0:0|0:0|0:0,0:0:0:0:
283,198,219074,6,0,L|313:158,3,36,2|8|2|2,0:0|0:0|0:0|0:0,0:0:0:0:
384,220,219388,5,2,0:0:0:0:
412,212,219466,1,2,0:0:0:0:
440,204,219545,1,2,0:0:0:0:
468,195,219623,1,2,0:0:0:0:
508,168,219702,5,2,0:0:0:0:
480,160,219780,1,2,0:0:0:0:
452,152,219859,1,2,0:0:0:0:
424,143,219937,1,2,0:0:0:0:
384,116,220016,5,2,0:0:0:0:
412,108,220094,1,2,0:0:0:0:
440,100,220173,1,2,0:0:0:0:
468,91,220251,1,2,0:0:0:0:
508,60,220330,5,2,0:0:0:0:
480,52,220408,1,2,0:0:0:0:
452,44,220487,1,2,0:0:0:0:
424,35,220565,1,2,0:0:0:0:
376,23,220644,6,0,P|323:8|271:38,1,108,2|0,0:0|0:0,0:0:0:0:
333,93,220958,5,2,0:0:0:0:
347,118,221037,1,2,0:0:0:0:
371,132,221116,1,2,0:0:0:0:
400,131,221194,1,2,0:0:0:0:
432,133,221272,5,2,0:0:0:0:
452,155,221351,1,2,0:0:0:0:
459,185,221429,1,2,0:0:0:0:
463,213,221508,1,2,0:0:0:0:
450,242,221586,5,2,0:0:0:0:
439,269,221665,1,2,0:0:0:0:
434,297,221744,1,2,0:0:0:0:
440,324,221822,1,2,0:0:0:0:
456,351,221901,6,0,P|479:356|502:353,2,48,2|0|0,0:0|0:0|0:0,0:0:0:0:
350,337,222215,2,0,P|326:332|302:336,2,48,2|0|0,0:1|0:0|0:0,0:0:0:0:
454,338,222529,2,0,L|467:246,1,72,4|0,0:1|0:0,0:0:0:0:
417,132,222843,5,2,0:0:0:0:
401,108,222922,1,2,0:0:0:0:
393,81,223000,1,2,0:0:0:0:
397,52,223079,1,2,0:0:0:0:
411,28,223157,6,0,L|324:29,1,72,2|2,0:0|0:0,0:0:0:0:
238,79,223393,1,2,0:0:0:0:
257,102,223471,1,8,0:0:0:0:
271,126,223549,1,2,0:0:0:0:
275,154,223628,1,2,0:0:0:0:
267,182,223706,1,8,0:0:0:0:
250,204,223785,5,2,0:0:0:0:
104,260,223943,1,2,0:0:0:0:
250,204,224100,1,2,0:0:0:0:
279,190,224178,1,2,0:0:0:0:
311,185,224257,2,0,L|354:184,1,36,2|2,0:0|0:0,0:0:0:0:
376,270,224414,6,0,B|423:269|423:269|456:238|456:238|512:239,2,144,6|2|8,0:0|0:1|0:1,0:0:0:0:
163,288,225199,1,0,0:0:0:0:
154,284,225356,2,0,L|261:276,1,108,2|0,0:1|0:0,0:0:0:0:
89,330,225670,6,0,P|74:273|103:221,1,121.499996292114,2|0,0:0|0:0,0:0:0:0:
176,203,225985,1,2,0:1:0:0:
208,200,226063,1,0,0:0:0:0:
240,197,226142,1,0,0:0:0:0:
272,194,226220,1,0,0:0:0:0:
304,190,226299,2,0,L|329:152,3,40.4999987640381,2|0|0|0,0:1|0:0|0:0|0:0,0:0:0:0:
430,84,226613,5,2,0:0:0:0:
430,84,226691,1,0,0:0:0:0:
430,84,226770,2,0,L|474:79,1,40.4999987640381,2|0,0:0|0:0,0:0:0:0:
306,79,226927,6,0,L|210:89,1,90,8|0,0:0|0:0,0:0:0:0:
141,38,227163,2,0,P|126:81|145:140,1,90,8|0,0:0|0:0,0:0:0:0:
99,209,227398,2,0,P|121:217|143:216,1,45,2|0,0:0|0:0,0:0:0:0:
190,295,227555,2,0,P|222:263|234:218,1,90,2|0,0:0|0:0,0:0:0:0:
312,177,227791,2,0,P|284:146|231:135,1,90,2|0,0:0|0:0,0:0:0:0:
99,209,228026,2,0,P|121:217|143:216,1,45,8|0,0:0|0:0,0:0:0:0:
320,251,228183,6,0,P|362:266|404:251,1,90,2|0,0:0|0:0,0:0:0:0:
486,89,228498,2,0,L|502:35,3,45,2|0|0|0,0:0|0:0|0:0|0:0,0:0:0:0:
371,54,228812,6,0,L|327:63,1,45,2|0,0:0|0:0,0:0:0:0:
147,106,228969,2,0,L|190:115,1,45,2|0,0:0|0:0,0:0:0:0:
335,261,229126,2,0,L|291:270,1,45,2|0,0:0|0:0,0:0:0:0:
111,313,229283,2,0,L|154:322,1,45,8|0,0:0|0:0,0:0:0:0:
220,233,229440,5,2,0:0:0:0:
245,209,229518,1,0,0:0:0:0:
234,177,229597,1,0,0:0:0:0:
201,165,229675,1,0,0:0:0:0:
169,181,229754,1,2,0:1:0:0:
150,211,229832,1,0,0:0:0:0:
147,246,229911,1,0,0:0:0:0:
163,278,229989,1,0,0:0:0:0:
192,299,230068,5,8,0:0:0:0:
227,304,230146,1,0,0:0:0:0:
261,294,230225,1,0,0:0:0:0:
290,273,230303,1,0,0:0:0:0:
311,243,230382,1,2,0:1:0:0:
318,208,230460,1,0,0:0:0:0:
313,170,230540,2,0,P|307:149|295:130,1,45,0|0,0:0|0:0,0:0:0:0:
188,77,230697,5,2,0:0:0:0:
217,103,230775,1,0,0:0:0:0:
253,121,230854,1,0,0:0:0:0:
294,129,230932,1,0,0:0:0:0:
334,127,231011,1,2,0:1:0:0:
373,115,231089,1,0,0:0:0:0:
406,94,231168,1,0,0:0:0:0:
435,65,231246,1,0,0:0:0:0:
454,29,231325,6,0,L|461:124,1,90,2|0,0:0|0:0,0:0:0:0:
469,231,231560,2,0,L|463:142,1,90,2|0,0:0|0:0,0:0:0:0:
472,255,231796,2,0,L|475:299,1,45,2|0,0:0|0:0,0:0:0:0:
339,329,231953,5,8,0:0:0:0:
304,302,232031,1,0,0:0:0:0:
261,287,232110,1,0,0:0:0:0:
216,282,232188,1,0,0:0:0:0:
173,293,232267,1,8,0:1:0:0:
145,328,232345,1,0,0:0:0:0:
166,367,232424,1,0,0:0:0:0:
210,374,232502,1,0,0:0:0:0:
236,336,232581,5,8,0:1:0:0:
234,291,232659,1,0,0:0:0:0:
222,248,232738,1,0,0:0:0:0:
209,204,232816,1,0,0:0:0:0:
203,160,232895,1,8,0:1:0:0:
215,117,232973,1,0,0:0:0:0:
251,90,233052,1,0,0:0:0:0:
295,94,233131,1,0,0:0:0:0:
326,126,233210,2,0,P|322:162|266:143,1,90,2|0,0:0|0:0,0:0:0:0:
160,55,233524,6,0,L|161:17,1,26.9999991760254,8|0,0:0|0:0,0:0:0:0:
116,44,233602,2,0,L|102:10,1,26.9999991760254,2|0,0:0|0:0,0:0:0:0:
76,62,233681,2,0,L|49:42,1,26.9999991760254,8|0,0:0|0:0,0:0:0:0:
55,101,233759,2,0,L|19:98,1,26.9999991760254,2|0,0:0|0:0,0:0:0:0:
60,145,233838,6,0,L|28:155,1,26.9999991760254,8|0,0:0|0:0,0:0:0:0:
89,179,233916,2,0,L|62:207,1,26.9999991760254,2|0,0:0|0:0,0:0:0:0:
128,201,233995,2,0,L|110:241,1,26.9999991760254,2|0,0:0|0:0,0:0:0:0:
166,225,234074,2,0,L|166:256,1,26.9999991760254,2|0,0:0|0:0,0:0:0:0:
218,243,234152,6,0,P|244:252|270:247,1,53.9999983520508,2|0,0:1|0:0,0:0:0:0:
425,245,234309,2,0,P|399:236|373:241,1,53.9999983520508,0|0,0:1|0:0,0:0:0:0:
320,321,234466,5,2,0:0:0:0:
217,171,234623,1,0,0:0:0:0:
46,302,234780,5,2,0:1:0:0:
236,256,234937,1,0,0:0:0:0:
90,70,235094,5,2,0:1:0:0:
140,279,235251,1,0,0:0:0:0:
344,117,235409,5,2,0:1:0:0:
114,171,235566,1,0,0:0:0:0:
289,384,235723,5,8,0:0:0:0:
230,131,235880,1,0,0:0:0:0:
124,311,236037,5,2,0:1:0:0:
346,226,236194,1,0,0:0:0:0:
163,74,236351,5,8,0:0:0:0:
275,289,236508,1,0,0:0:0:0:
404,92,236665,5,2,0:1:0:0:
169,283,236822,1,0,0:0:0:0:
449,384,236979,5,2,0:0:0:0:
368,168,237136,1,8,0:1:0:0:
221,345,237293,5,2,0:1:0:0:
434,240,237451,1,8,0:1:0:0:
140,149,237608,5,2,0:1:0:0:
340,349,237765,1,8,0:1:0:0:
334,6,237922,5,2,0:1:0:0:
248,246,238079,1,8,0:1:0:0:
495,175,238236,5,2,0:0:0:0:
200,225,238393,1,8,0:1:0:0:
488,195,238550,5,2,0:1:0:0:
152,200,238707,1,8,0:1:0:0:
477,217,238864,6,0,L|456:270,1,45,10|0,0:1|0:0,0:0:0:0:
325,199,239021,1,0,0:0:0:0:
325,199,239099,1,0,0:0:0:0:
325,199,239178,2,0,L|275:185,1,45,10|0,0:1|0:0,0:0:0:0:
269,52,239335,2,0,L|325:39,1,45,10|0,0:1|0:0,0:0:0:0:
450,78,239492,2,0,L|417:164,1,90,2|0,0:0|0:0,0:0:0:0:
263,272,239807,5,2,0:1:0:0:
447,239,239964,1,0,0:0:0:0:
172,288,240121,5,2,0:1:0:0:
356,255,240278,1,2,0:0:0:0:
79,305,240435,5,8,0:0:0:0:
263,272,240592,1,2,0:0:0:0:
39,367,240749,5,2,0:0:0:0:
13,330,240827,1,2,0:0:0:0:
10,286,240906,1,8,0:0:0:0:
34,248,240984,1,2,0:0:0:0:
76,233,241063,1,2,0:0:0:0:
121,235,241141,1,2,0:0:0:0:
165,227,241220,1,2,0:0:0:0:
197,196,241298,1,2,0:0:0:0:
207,153,241377,2,0,P|212:109|196:67,1,90,2|0,0:0|0:0,0:0:0:0:
72,23,241691,5,2,0:1:0:0:
305,75,241848,1,8,0:1:0:0:
113,123,242005,2,0,L|57:135,2,45,8|0|0,0:0|0:0|0:0,0:0:0:0:
286,4,242320,5,2,0:0:0:0:
330,7,242398,1,8,0:0:0:0:
365,34,242477,1,2,0:0:0:0:
376,77,242555,1,2,0:0:0:0:
358,123,242634,5,8,0:0:0:0:
326,154,242712,1,2,0:0:0:0:
291,182,242791,1,2,0:0:0:0:
270,222,242869,1,8,0:0:0:0:
275,271,242948,5,2,0:0:0:0:
302,305,243026,1,2,0:0:0:0:
346,314,243105,2,0,P|360:297|364:275,1,45,8|2,0:0|0:0,0:0:0:0:
326,154,243262,5,2,0:0:0:0:
293,123,243340,1,8,0:0:0:0:
249,118,243419,1,2,0:0:0:0:
209,137,243497,1,2,0:0:0:0:
169,167,243576,5,8,0:0:0:0:
134,195,243654,1,2,0:0:0:0:
95,216,243733,1,2,0:0:0:0:
50,217,243811,1,8,0:0:0:0:
7,191,243890,6,0,L|0:131,1,45,8|0,0:0|0:0,0:0:0:0:
41,19,244047,2,0,L|48:79,1,45,2|8,0:0|0:0,0:0:0:0:
103,241,244204,2,0,L|96:181,1,45,2|2,0:0|0:0,0:0:0:0:
123,74,244361,2,0,L|130:134,1,45,8|2,0:0|0:0,0:0:0:0:
153,299,244519,5,2,0:0:0:0:
174,337,244597,1,2,0:0:0:0:
216,349,244676,1,8,0:0:0:0:
253,326,244754,1,2,0:0:0:0:
263,283,244833,1,2,0:0:0:0:
251,240,244911,1,8,0:0:0:0:
233,199,244990,1,2,0:0:0:0:
229,155,245068,1,2,0:0:0:0:
248,115,245147,6,0,P|266:100|287:94,1,45,2|0,0:0|0:0,0:0:0:0:
396,169,245304,2,0,P|355:187|311:179,1,90,2|0,0:0|0:0,0:0:0:0:
131,62,245618,1,8,0:0:0:0:
138,67,245775,2,0,L|139:161,1,90,2|0,0:1|0:0,0:0:0:0:
102,303,246089,5,2,0:0:0:0:
58,308,246167,1,2,0:0:0:0:
17,291,246246,1,8,0:0:0:0:
4,243,246324,5,2,0:0:0:0:
27,206,246403,1,2,0:0:0:0:
70,196,246481,1,8,0:0:0:0:
117,209,246560,5,2,0:0:0:0:
157,230,246638,1,2,0:0:0:0:
197,249,246717,1,8,0:0:0:0:
241,270,246795,5,2,0:0:0:0:
286,272,246875,1,2,0:0:0:0:
325,248,246953,1,2,0:0:0:0:
318,194,247032,5,2,0:0:0:0:
300,152,247110,1,2,0:0:0:0:
293,108,247189,1,8,0:0:0:0:
301,65,247267,1,8,0:0:0:0:
332,33,247346,2,0,P|361:30|386:38,1,45,2|0,0:0|0:0,0:0:0:0:
300,152,247503,5,2,0:0:0:0:
259,168,247581,1,2,0:0:0:0:
213,174,247660,1,8,0:0:0:0:
168,169,247738,1,8,0:0:0:0:
125,157,247817,1,2,0:0:0:0:
4,36,247974,5,8,0:0:0:0:
8,80,248052,1,8,0:0:0:0:
10,125,248131,1,2,0:0:0:0:
11,171,248210,1,2,0:0:0:0:
14,216,248288,6,0,L|19:320,1,90,2|0,0:0|0:0,0:0:0:0:
255,359,248602,5,8,0:0:0:0:
291,332,248680,1,2,0:0:0:0:
335,321,248759,1,2,0:0:0:0:
379,328,248837,1,8,0:0:0:0:
421,353,248916,5,2,0:0:0:0:
414,309,248994,1,2,0:0:0:0:
416,264,249073,1,8,0:0:0:0:
433,223,249152,1,2,0:0:0:0:
462,177,249231,6,0,P|484:173|506:176,1,45,2|8,0:0|0:0,0:0:0:0:
414,309,249388,2,0,P|392:313|369:310,1,45,2|2,0:0|0:0,0:0:0:0:
242,252,249545,5,2,0:0:0:0:
215,216,249623,1,2,0:0:0:0:
204,172,249702,1,8,0:0:0:0:
211,128,249780,1,2,0:0:0:0:
232,82,249859,5,2,0:0:0:0:
188,89,249937,1,8,0:0:0:0:
143,87,250016,1,2,0:0:0:0:
102,70,250094,1,2,0:0:0:0:
64,36,250173,6,0,L|44:80,1,45,8|0,0:0|0:0,0:0:0:0:
7,169,250330,2,0,P|-7:211|3:254,1,90,2|0,0:0|0:0,0:0:0:0:
133,337,250644,2,0,L|223:337,2,90,8|0|0,0:0|0:0|0:0,0:0:0:0:
200,186,251115,5,8,0:0:0:0:
238,208,251193,1,2,0:0:0:0:
282,218,251272,1,2,0:0:0:0:
325,210,251350,1,8,0:0:0:0:
373,194,251430,5,2,0:0:0:0:
358,236,251508,1,8,0:0:0:0:
357,281,251587,1,2,0:0:0:0:
373,322,251665,1,2,0:0:0:0:
405,360,251744,5,8,0:0:0:0:
361,352,251822,1,2,0:0:0:0:
316,356,251901,1,2,0:0:0:0:
278,378,251979,1,8,0:0:0:0:
237,349,252058,5,2,0:0:0:0:
196,330,252136,1,8,0:0:0:0:
151,323,252215,1,2,0:0:0:0:
107,329,252293,1,2,0:0:0:0:
60,347,252372,5,8,0:0:0:0:
51,304,252450,1,2,0:0:0:0:
41,260,252529,1,2,0:0:0:0:
31,216,252607,1,8,0:0:0:0:
23,166,252686,6,0,L|70:182,1,45,2|0,0:0|0:0,0:0:0:0:
177,244,252843,2,0,P|221:254|260:234,1,90,8|0,0:0|0:0,0:0:0:0:
409,162,253157,1,2,0:0:0:0:
254,38,253314,5,8,0:0:0:0:
228,76,253392,1,2,0:0:0:0:
207,115,253471,1,2,0:0:0:0:
195,158,253549,1,8,0:0:0:0:
199,203,253628,1,2,0:0:0:0:
227,237,253706,1,2,0:0:0:0:
270,244,253785,1,8,0:0:0:0:
293,209,253863,1,2,0:0:0:0:
281,167,253942,1,2,0:0:0:0:
248,137,254020,1,8,0:0:0:0:
205,125,254099,1,2,0:0:0:0:
160,128,254177,1,2,0:0:0:0:
111,150,254257,6,0,L|79:168,8,22.5,8|0|2|0|2|0|8|0|2,0:0|0:0|0:0|0:0|0:0|0:0|0:0|0:0|0:0,0:0:0:0:
72,40,255827,6,0,L|60:116,1,62.9999980773926,2|0,0:1|0:0,0:0:0:0:
40,192,256142,1,2,0:1:0:0:
221,228,256299,1,0,0:0:0:0:
221,228,256377,1,0,0:0:0:0:
221,228,256456,1,2,0:1:0:0:
221,228,256534,1,0,0:0:0:0:
221,228,256613,1,0,0:0:0:0:
221,228,256691,1,0,0:0:0:0:
221,228,256770,6,0,B|345:228|345:228|309:192,1,161.999995056153,4|0,0:1|0:0,0:0:0:0:
159,167,257084,6,0,P|133:228|158:289,1,135,2|0,0:0|0:0,0:0:0:0:
259,348,257398,1,8,0:0:0:0:
159,168,257555,2,0,L|10:168,1,135,2|0,0:0|0:0,0:0:0:0:
221,228,257869,2,0,P|246:167|221:106,1,135,2|0,0:0|0:0,0:0:0:0:
158,274,258183,6,0,L|307:274,1,135,2|0,0:0|0:0,0:0:0:0:
402,230,258498,2,0,P|369:217|401:205,1,90,2|0,0:0|0:0,0:0:0:0:
293,274,258812,2,0,P|274:210|302:150,1,135,2|0,0:0|0:0,0:0:0:0:
407,113,259126,1,8,0:0:0:0:
246,193,259283,5,2,0:0:0:0:
207,215,259361,1,8,0:0:0:0:
163,214,259440,1,8,0:0:0:0:
124,192,259518,1,2,0:0:0:0:
102,147,259598,6,0,P|82:80|114:23,1,135,2|0,0:0|0:0,0:0:0:0:
165,90,259911,1,2,0:0:0:0:
165,246,260069,2,0,P|106:271|40:239,1,135,2|0,0:0|0:0,0:0:0:0:
184,177,260382,2,0,L|204:329,1,135,2|0,0:0|0:0,0:0:0:0:
321,307,260697,6,0,P|262:282|197:315,1,135,2|0,0:0|0:0,0:0:0:0:
368,361,261011,2,0,L|381:259,1,90,2|0,0:0|0:0,0:0:0:0:
414,92,261325,2,0,P|363:108|397:67,1,135,8|0,0:0|0:0,0:0:0:0:
485,153,261639,2,0,L|486:250,1,90,2|0,0:0|0:0,0:0:0:0:
393,374,261953,5,2,0:0:0:0:
358,384,262031,1,0,0:0:0:0:
323,381,262110,1,0,0:0:0:0:
290,366,262188,1,0,0:0:0:0:
266,339,262267,1,0,0:0:0:0:
253,306,262345,1,0,0:0:0:0:
253,270,262424,1,0,0:0:0:0:
275,67,262582,5,2,0:0:0:0:
247,100,262660,1,2,0:0:0:0:
203,102,262739,1,2,0:0:0:0:
0,20,262896,1,2,0:0:0:0:
213,31,263053,1,2,0:0:0:0:
0,161,263210,6,0,P|42:146|84:159,1,90,2|0,0:0|0:0,0:0:0:0:
45,316,263524,2,0,P|30:273|43:231,1,90,2|0,0:0|0:0,0:0:0:0:
196,271,263838,2,0,P|153:285|111:272,1,90,2|0,0:0|0:0,0:0:0:0:
272,154,264152,5,2,0:0:0:0:
111,367,264309,1,2,0:0:0:0:
417,250,264466,1,2,0:0:0:0:
118,239,264623,5,2,0:0:0:0:
90,217,264702,1,0,0:0:0:0:
76,184,264781,1,0,0:0:0:0:
79,148,264859,1,0,0:0:0:0:
98,118,264938,2,0,P|125:113|153:126,1,45,0|0,0:0|0:0,0:0:0:0:
199,249,265095,2,0,P|155:259|117:238,1,90,2|0,0:0|0:0,0:0:0:0:
300,113,265409,5,2,0:0:0:0:
168,368,265566,1,2,0:0:0:0:
73,176,265723,6,0,P|110:161|158:174,1,90,2|0,0:0|0:0,0:0:0:0:
301,281,266037,1,0,0:0:0:0:
300,113,266194,2,0,L|286:17,1,90
42,40,266508,5,2,0:0:0:0:
178,253,266666,1,2,0:0:0:0:
196,294,266744,1,2,0:0:0:0:
235,311,266823,1,8,0:0:0:0:
278,298,266901,1,8,0:0:0:0:
298,259,266980,1,2,0:0:0:0:
288,217,267058,1,2,0:0:0:0:
252,193,267136,6,0,P|219:135|237:72,1,135,2|0,0:0|0:0,0:0:0:0:
331,27,267450,1,8,0:0:0:0:
178,137,267608,2,0,B|70:138|70:138|105:155,1,135,2|0,0:0|0:0,0:0:0:0:
252,193,267922,2,0,P|284:250|266:313,1,135,2|0,0:0|0:0,0:0:0:0:
117,353,268236,6,0,P|67:338|115:316,1,135,2|0,0:0|0:0,0:0:0:0:
266,313,268550,2,0,L|361:313,1,90,2|0,0:0|0:0,0:0:0:0:
491,313,268864,2,0,L|356:313,1,135,2|0,0:0|0:0,0:0:0:0:
218,374,269178,1,8,0:0:0:0:
341,239,269336,5,2,0:0:0:0:
360,198,269414,1,8,0:0:0:0:
355,154,269493,1,8,0:0:0:0:
328,119,269571,1,2,0:0:0:0:
286,104,269650,6,0,B|252:104|252:104|218:129|218:129|157:130,1,135,2|0,0:0|0:0,0:0:0:0:
40,90,269964,1,2,0:0:0:0:
166,209,270121,2,0,P|190:269|162:329,1,135,2|0,0:0|0:0,0:0:0:0:
6,263,270435,2,0,B|54:242|106:262|106:262|79:232,1,135,2|0,0:0|0:0,0:0:0:0:
72,86,270749,6,0,B|54:46|17:49|17:49|-1:77|13:109,1,135,2|0,0:0|0:0,0:0:0:0:
150,190,271063,2,0,P|192:202|235:189,1,90,2|0,0:0|0:0,0:0:0:0:
433,122,271377,2,0,P|369:104|307:129,1,135,2|0,0:0|0:0,0:0:0:0:
194,247,271692,2,0,L|194:337,1,90,2|0,0:0|0:0,0:0:0:0:
132,182,272006,5,2,0:0:0:0:
132,182,272084,1,2,0:0:0:0:
132,182,272163,2,0,P|193:155|258:182,1,135,2|0,0:0|0:0,0:0:0:0:
344,304,272477,2,0,P|276:322|311:261,1,180,8|0,0:1|0:0,0:0:0:0:
494,357,272948,5,8,0:0:0:0:
199,356,273105,1,2,0:0:0:0:
360,109,273262,1,2,0:0:0:0:
348,356,273419,5,2,0:1:0:0:
439,218,273576,1,0,0:0:0:0:
294,143,273733,2,0,P|286:91|316:48,2,90,8|0|0,0:1|0:0|0:0,0:0:0:0:
419,363,274205,5,2,0:0:0:0:
360,109,274362,1,2,0:0:0:0:
214,299,274519,5,2,0:0:0:0:
230,330,274597,1,0,0:0:0:0:
266,333,274676,1,2,0:1:0:0:
287,304,274754,1,0,0:0:0:0:
284,267,274833,1,0,0:0:0:0:
264,237,274911,1,0,0:0:0:0:
232,220,274990,1,8,0:1:0:0:
197,220,275068,1,0,0:0:0:0:
165,236,275147,1,0,0:0:0:0:
143,264,275225,1,0,0:0:0:0:
137,299,275304,6,0,L|145:346,1,45,8|0,0:1|0:0,0:0:0:0:
266,333,275461,2,0,L|307:349,1,45,0|0,0:0|0:0,0:0:0:0:
380,252,275618,2,0,L|416:220,1,45,8|0,0:1|0:0,0:0:0:0:
342,123,275775,2,0,L|334:79,1,45,0|0,0:0|0:0,0:0:0:0:
243,30,275933,5,8,0:0:0:0:
229,35,276011,1,8,0:0:0:0:
215,39,276089,1,2,0:0:0:0:
201,43,276168,1,2,0:0:0:0:
154,96,276247,5,8,0:0:0:0:
159,110,276325,1,8,0:0:0:0:
163,124,276403,1,2,0:0:0:0:
167,138,276482,1,2,0:0:0:0:
158,209,276560,5,8,0:0:0:0:
144,214,276638,1,8,0:0:0:0:
130,218,276718,1,2,0:0:0:0:
116,222,276795,1,2,0:0:0:0:
77,279,276875,6,0,L|86:305,7,22.5,2|0|8|0|2|0|2|0,0:0|0:0|0:0|0:0|0:0|0:0|0:0|0:0,0:0:0:0:
105,337,277189,6,0,P|165:309|228:329,1,135,6|0,0:1|0:0,0:0:0:0:
301,377,277503,1,8,0:0:0:0:
166,272,277660,2,0,P|141:210|168:149,1,135,2|0,0:0|0:0,0:0:0:0:
306,223,277974,2,0,B|271:252|229:248|206:227|206:192|235:200,1,135,2|0,0:0|0:0,0:0:0:0:
357,281,278289,6,0,P|385:221|355:163,1,135,2|0,0:0|0:0,0:0:0:0:
267,71,278603,2,0,L|373:48,1,90,2|0,0:0|0:0,0:0:0:0:
234,137,278916,2,0,P|193:86|210:23,1,135,2|0,0:0|0:0,0:0:0:0:
267,71,279231,1,2,0:0:0:0:
137,154,279388,5,2,0:0:0:0:
95,169,279466,1,8,0:0:0:0:
51,162,279545,1,8,0:0:0:0:
18,132,279623,1,2,0:0:0:0:
6,89,279702,6,0,L|14:228,1,135,2|0,0:0|0:0,0:0:0:0:
21,303,280016,1,2,0:0:0:0:
156,186,280173,2,0,P|215:158|275:185,1,135,2|0,0:0|0:0,0:0:0:0:
333,259,280487,1,2,0:0:0:0:
420,135,280644,5,8,0:0:0:0:
431,121,280723,1,8,0:0:0:0:
444,108,280801,2,0,L|485:109,2,22.5,8|0|8,0:0|0:0|0:0,0:0:0:0:
344,24,280958,6,0,L|242:38,1,99.0000030212403,6|0,0:1|0:0,0:0:0:0:
171,87,281168,6,0,L|306:106,1,107.999996704102,6|0,0:1|0:0,0:0:0:0:
368,151,281377,6,0,L|224:171,1,116.999994644165,6|0,0:1|0:0,0:0:0:0:
154,215,281587,6,0,L|299:235,1,125.999996154785,12|0,0:1|0:0,0:0:0:0:
388,280,281796,6,0,L|238:301,1,135.000005149842,6|0,0:1|0:0,0:0:0:0:
134,344,282005,6,0,L|286:366,1,144,6|0,0:1|0:0,0:0:0:0:
402,353,282215,6,0,P|420:349|441:334,4,45,6|0|0|0|0,0:1|0:0|0:0|0:0|0:0,0:0:0:0:
375,203,282686,5,2,0:0:0:0:
375,203,282765,1,2,0:0:0:0:
375,203,282843,1,2,0:0:0:0:
276,364,283001,1,2,0:0:0:0:
153,131,283158,1,2,0:0:0:0:
190,367,283314,6,0,P|233:377|276:364,1,90,2|0,0:0|0:0,0:0:0:0:
450,277,283629,2,0,L|461:187,1,90,2|0,0:0|0:0,0:0:0:0:
483,29,283943,2,0,L|472:119,1,90,8|0,0:0|0:0,0:0:0:0:
435,350,284257,5,2,0:0:0:0:
233,195,284414,1,2,0:0:0:0:
510,187,284571,1,2,0:0:0:0:
265,227,284728,5,0,0:0:0:0:
233,195,284806,1,0,0:0:0:0:
220,152,284885,1,0,0:0:0:0:
228,109,284963,1,0,0:0:0:0:
256,74,285042,2,0,P|277:66|299:69,1,45,0|0,0:0|0:0,0:0:0:0:
264,227,285200,2,0,P|223:241|179:234,1,90
28,84,285514,5,2,0:0:0:0:
200,326,285671,1,8,0:0:0:0:
109,170,285827,5,2,0:0:0:0:
139,151,285906,1,0,0:0:0:0:
175,146,285985,1,0,0:0:0:0:
210,153,286063,1,0,0:0:0:0:
239,173,286142,2,0,L|294:100,2,90,0|0|0,0:0|0:0|0:0,0:0:0:0:
67,379,286613,5,2,0:0:0:0:
239,173,286770,1,2,0:0:0:0:
272,202,286848,1,2,0:0:0:0:
276,246,286927,1,8,0:0:0:0:
249,281,287005,1,8,0:0:0:0:
205,285,287084,1,2,0:0:0:0:
170,258,287162,1,2,0:0:0:0:
163,215,287241,2,0,P|156:168|172:120,1,90,2|0,0:0|0:0,0:0:0:0:
332,40,287555,5,2,0:0:0:0:
364,70,287633,1,2,0:0:0:0:
405,89,287712,1,2,0:0:0:0:
449,93,287791,1,2,0:0:0:0:
495,76,287869,5,2,0:0:0:0:
509,32,287948,1,2,0:0:0:0:
473,4,288026,1,2,0:0:0:0:
429,14,288104,1,2,0:0:0:0:
405,58,288184,5,2,0:0:0:0:
401,103,288261,1,2,0:0:0:0:
404,148,288341,1,2,0:0:0:0:
417,191,288418,1,2,0:0:0:0:
444,233,288498,5,2,0:0:0:0:
468,271,288576,1,2,0:0:0:0:
471,316,288655,1,2,0:0:0:0:
443,350,288733,1,2,0:0:0:0:
394,362,288812,5,2,0:0:0:0:
352,350,288890,1,2,0:0:0:0:
324,315,288969,1,2,0:0:0:0:
306,274,289047,1,2,0:0:0:0:
269,240,289126,5,2,0:0:0:0:
227,225,289204,1,2,0:0:0:0:
183,233,289283,1,2,0:0:0:0:
150,262,289361,1,2,0:0:0:0:
139,310,289440,6,0,P|133:331|136:353,1,45,2|8,0:0|0:0,0:0:0:0:
306,274,289597,2,0,P|311:252|308:230,1,45,8|2,0:0|0:0,0:0:0:0:
206,53,289754,2,0,P|201:75|204:97,1,45,2|0,0:0|0:0,0:0:0:0:
276,178,289911,5,8,0:0:0:0:
321,181,289989,1,2,0:0:0:0:
365,173,290068,1,2,0:0:0:0:
407,156,290146,1,2,0:0:0:0:
446,125,290225,5,8,0:0:0:0:
468,86,290303,1,2,0:0:0:0:
461,41,290382,1,2,0:0:0:0:
418,26,290460,1,2,0:0:0:0:
377,54,290539,5,8,0:0:0:0:
364,97,290617,1,2,0:0:0:0:
362,142,290697,1,2,0:0:0:0:
374,186,290775,1,2,0:0:0:0:
401,227,290854,6,0,P|444:236|487:225,1,90,2|0,0:0|0:0,0:0:0:0:
256,67,291168,2,0,P|212:57|169:68,1,90,2|0,0:0|0:0,0:0:0:0:
256,317,291482,2,0,P|299:326|342:315,1,90,2|0,0:0|0:0,0:0:0:0:
110,156,291796,2,0,P|67:147|24:158,1,90,2|0,0:0|0:0,0:0:0:0:
135,367,292111,5,2,0:0:0:0:
135,367,292189,1,2,0:0:0:0:
135,367,292268,2,0,P|158:295|122:241,1,135,2|0,0:0|0:0,0:0:0:0:
88,307,292581,2,0,L|268:307,1,180,8|0,0:1|0:0,0:0:0:0:
469,367,293053,5,8,0:0:0:0:
65,307,293210,1,2,0:0:0:0:
489,242,293367,1,2,0:0:0:0:
132,338,293524,5,2,0:1:0:0:
405,300,293681,1,0,0:0:0:0:
240,168,293838,2,0,L|259:257,1,90,8|0,0:1|0:0,0:0:0:0:
155,128,294152,1,0,0:0:0:0:
339,161,294309,6,0,L|386:170,1,45,2|0,0:0|0:0,0:0:0:0:
433,281,294466,2,0,L|374:295,1,45,2|0,0:0|0:0,0:0:0:0:
280,324,294623,5,2,0:0:0:0:
240,302,294701,1,0,0:0:0:0:
196,293,294780,1,2,0:1:0:0:
151,296,294858,1,0,0:0:0:0:
109,310,294937,1,0,0:0:0:0:
70,333,295015,1,0,0:0:0:0:
77,288,295094,5,2,0:1:0:0:
85,244,295172,1,0,0:0:0:0:
85,199,295251,1,0,0:0:0:0:
77,155,295329,1,0,0:0:0:0:
60,113,295409,6,0,L|73:70,1,45,2|0,0:1|0:0,0:0:0:0:
201,148,295566,2,0,L|214:191,1,45
293,61,295723,2,0,L|306:18,1,45,2|0,0:1|0:0,0:0:0:0:
434,96,295880,2,0,L|447:139,1,45
410,260,296037,5,8,0:1:0:0:
378,291,296115,1,0,0:0:0:0:
338,312,296194,1,0,0:0:0:0:
294,317,296272,1,0,0:0:0:0:
246,303,296351,5,8,0:1:0:0:
210,276,296430,1,0,0:0:0:0:
187,238,296508,1,0,0:0:0:0:
182,193,296587,1,0,0:0:0:0:
204,148,296665,5,8,0:1:0:0:
244,132,296744,1,0,0:0:0:0:
284,150,296822,1,0,0:0:0:0:
288,192,296901,1,0,0:0:0:0:
249,223,296979,5,8,0:1:0:0:
207,239,297058,1,0,0:0:0:0:
163,249,297136,1,0,0:0:0:0:
119,258,297215,1,0,0:0:0:0:
71,271,297293,5,2,0:1:0:0:
38,300,297372,1,0,0:0:0:0:
42,343,297451,1,0,0:0:0:0:
77,369,297529,1,0,0:0:0:0:
126,363,297608,5,8,0:1:0:0:
149,326,297686,1,0,0:0:0:0:
146,281,297765,1,0,0:0:0:0:
133,238,297843,1,0,0:0:0:0:
118,190,297922,6,0,L|165:176,1,45,2|0,0:1|0:0,0:0:0:0:
326,114,298079,2,0,L|279:128,1,45
278,257,298236,2,0,L|291:299,1,45,8|0,0:1|0:0,0:0:0:0:
454,321,298393,2,0,L|467:278,1,45
512,148,298550,5,8,0:0:0:0:
486,159,298628,1,8,0:0:0:0:
461,168,298707,1,2,0:0:0:0:
435,179,298785,1,2,0:0:0:0:
369,207,298864,5,8,0:0:0:0:
343,196,298942,1,8,0:0:0:0:
318,187,299021,1,2,0:0:0:0:
292,176,299099,1,2,0:0:0:0:
248,118,299178,5,8,0:0:0:0:
222,129,299256,1,8,0:0:0:0:
197,138,299335,1,2,0:0:0:0:
171,149,299413,1,2,0:0:0:0:
105,177,299492,5,2,0:0:0:0:
79,166,299570,1,8,0:0:0:0:
54,157,299649,1,2,0:0:0:0:
28,146,299727,1,2,0:0:0:0:
2,137,299807,5,2,0:1:0:0:
2,137,300121,6,0,B|32:199|114:233|194:201|235:166|235:166|315:134|315:6|219:-10|123:6|123:134|203:166|203:166|283:277|283:326|219:374|219:374|155:325|155:277|203:229|203:229,1,1044.00003186035,4|0,0:1|0:0,0:0:0:0:
