osu file format v14

[General]
AudioFilename: audio.mp3
AudioLeadIn: 0
PreviewTime: 69064
Countdown: 0
SampleSet: Soft
StackLeniency: 0.7
Mode: 3
LetterboxInBreaks: 0
SpecialStyle: 0
WidescreenStoryboard: 1

[Editor]
Bookmarks: 921,26345,46449,69064,69692,78802,79744,89483,89797,99849,109901,110216,119954,120268,128750,129064,130006,140059,147598,150111,151053,151367,160477,161420,170216,171472,180582,181525,190320,192519,192833,194090,214195,224247,233043,234299,244352,251891,254404,256603,256917,266027,266970,275765,277022,280634,282361,284559,286129,287072,295867,298380,299951,303093
DistanceSpacing: 0.8
BeatDivisor: 4
GridSize: 32
TimelineZoom: 1.6

[Metadata]
Title:Halcyon -Long Version-
TitleUnicode:Halcyon -Long Version-
Artist:xi
ArtistUnicode:xi
Creator:Kawawa
Version:Halcyon Days
Source:
Tags:THE BMS OF FIGHTERS 2010 -THE EVOLUTION OF WAR- BOF2010 BMS SOUND VOLTEX III GRAVITY WARS Arcaea Cytus GROOVE COASTER 2 CHUNITHM PLUS Muse Dash TAPSONIC TOP オンゲキ ONGEKI maimai DX yama_ko RENAISSANCE HARDCORE Instrumental Video Game Lyrical Signal Parousia Marathon Extended Groundbreaking -BOF2010 COMPILATION ALBUM-
BeatmapID:2694154
BeatmapSetID:742318

[Difficulty]
HPDrainRate:8.8
CircleSize:7
OverallDifficulty:9
ApproachRate:5
SliderMultiplier:1.4
SliderTickRate:1

[Events]
//Background and Video events
0,0,"background2.jpg",0,0
//Break Periods
//Storyboard Layer 0 (Background)
//Storyboard Layer 1 (Fail)
//Storyboard Layer 2 (Pass)
//Storyboard Layer 3 (Foreground)
//Storyboard Layer 4 (Overlay)
//Storyboard Sound Samples

[TimingPoints]
921,631.578947368421,4,2,1,10,1,0
921,-62.111801242236,4,2,1,10,0,0
2184,628.272251308901,4,2,1,10,1,0
2184,-62.5,4,2,1,10,0,0
9723,641.711229946524,4,2,1,10,1,0
9723,-61.3496932515337,4,2,1,10,0,0
11006,659.340659340659,4,2,1,10,1,0
11006,-59.5238095238095,4,2,1,10,0,0
11665,697.674418604651,4,2,1,10,1,0
11665,-56.1797752808989,4,2,1,10,0,0
12362,628.272251308901,4,2,1,10,1,0
12362,-62.5,4,2,1,10,0,0
17388,670.391061452514,4,2,1,10,1,0
17388,-58.4795321637427,4,2,1,10,0,0
20069,727.272727272727,4,2,1,10,1,0
20069,-54.054054054054,4,2,1,10,0,0
22978,683.371298405467,4,2,1,10,1,0
22978,-57.4712643678161,4,2,1,10,0,0
25711,634.920634920635,4,2,1,10,1,0
25711,-58.1395348837209,4,2,1,10,0,0
26345,628.272251308901,4,2,1,10,1,0
26345,-58.8235294117647,4,2,1,10,0,0
46449,-55.5555555555556,4,2,1,10,0,0
62156,666.666666666667,4,2,1,10,1,0
62156,-52.3560209424084,4,2,1,10,0,0
62822,705.882352941176,4,2,1,10,1,0
62822,-49.5049504950495,4,2,1,10,0,0
63527,750,4,2,1,10,1,0
63527,-46.5116279069767,4,2,1,10,0,0
64274,800,4,2,1,10,1,0
64274,-43.6681222707424,4,2,1,10,0,0
65077,882.352941176471,4,2,1,10,1,0
65077,-39.5256916996047,4,2,1,10,0,0
65959,1000,4,2,1,10,1,0
65959,-34.8432055749129,4,2,1,10,0,0
66959,1500,4,2,1,10,1,0
66959,-23.2558139534884,4,2,1,10,0,0
67709,727.272727272727,4,2,1,10,1,0
67709,-48.0769230769231,4,2,1,10,0,0
68436,314.13612565445,4,2,1,20,1,0
69692,-100,4,2,1,20,0,1
78802,-100,4,2,1,20,0,0
79744,-100,4,2,1,20,0,1
89483,-47.6190476190476,4,2,1,20,0,0
89522,-66.6666666666667,4,2,1,20,0,0
89561,-111.111111111111,4,2,1,20,0,0
89600,-142.857142857143,4,2,1,20,0,0
89640,-200,4,2,1,20,0,0
89679,-333.333333333333,4,2,1,20,0,0
89718,-100,4,2,1,20,0,0
89797,-20.6185567010309,4,2,1,20,0,0
89836,-222.222222222222,4,2,1,20,0,0
90111,-100,4,2,1,20,0,0
94823,-20.6185567010309,4,2,1,20,0,0
94862,-222.222222222222,4,2,1,20,0,0
95137,-100,4,2,1,20,0,0
99849,-20.6185567010309,4,2,1,20,0,0
99888,-222.222222222222,4,2,1,20,0,0
100163,-100,4,2,1,20,0,0
104875,-20.6185567010309,4,2,1,20,0,0
104915,-222.222222222222,4,2,1,20,0,0
105189,-100,4,2,1,20,0,0
109901,-55.5555555555556,4,2,1,20,0,0
109941,-166.666666666667,4,2,1,20,0,0
110098,-55.5555555555556,4,2,1,20,0,0
110137,-100,4,2,1,20,0,0
110216,-100,4,2,1,20,0,1
119954,-55.5555555555556,4,2,1,20,0,0
119994,-166.666666666667,4,2,1,20,0,0
120151,-55.5555555555556,4,2,1,20,0,0
120190,-100,4,2,1,20,0,0
120268,-100,4,2,1,20,0,1
128750,-100,4,2,1,20,0,0
129064,-100,4,2,1,20,0,1
130006,-100,4,2,1,20,0,0
147598,-100,4,2,1,20,0,1
150111,-100,4,2,1,20,0,0
151053,-47.6190476190476,4,2,1,20,0,0
151093,-66.6666666666667,4,2,1,20,0,0
151132,-111.111111111111,4,2,1,20,0,0
151171,-142.857142857143,4,2,1,20,0,0
151210,-200,4,2,1,20,0,0
151250,-333.333333333333,4,2,1,20,0,0
151289,-100,4,2,1,20,0,0
151367,-100,4,2,1,20,0,1
160477,-100,4,2,1,20,0,0
161420,-100,4,2,1,20,0,1
170216,-100,4,2,1,20,0,0
171472,-100,4,2,1,20,0,1
180582,-100,4,2,1,20,0,0
181525,-100,4,2,1,20,0,1
192519,-47.6190476190476,4,2,1,20,0,0
192559,-66.6666666666667,4,2,1,20,0,0
192598,-111.111111111111,4,2,1,20,0,0
192637,-142.857142857143,4,2,1,20,0,0
192676,-200,4,2,1,20,0,0
192716,-333.333333333333,4,2,1,20,0,0
192755,-100,4,2,1,20,0,0
192833,-125,4,2,1,15,0,0
213723,-117.647058823529,4,2,1,20,0,0
213881,-111.111111111111,4,2,1,20,0,0
214038,-105.263157894737,4,2,1,20,0,0
214195,-100,4,2,1,20,0,0
224247,-100,4,2,1,20,0,1
233043,-100,4,2,1,20,0,0
233357,-100,4,2,1,20,0,1
234299,-100,4,2,1,20,0,0
251891,-100,4,2,1,20,0,1
254404,-100,4,2,1,20,0,0
256603,-47.6190476190476,4,2,1,20,0,0
256642,-66.6666666666667,4,2,1,20,0,0
256682,-111.111111111111,4,2,1,20,0,0
256721,-142.857142857143,4,2,1,20,0,0
256760,-200,4,2,1,20,0,0
256799,-333.333333333333,4,2,1,20,0,0
256839,-100,4,2,1,20,0,0
256917,-100,4,2,1,20,0,1
266027,-100,4,2,1,20,0,0
266970,-100,4,2,1,20,0,1
275765,-100,4,2,1,20,0,0
277022,-100,4,2,1,20,0,1
280634,314.13612565445,4,2,1,20,1,0
280634,-45.4545454545455,4,2,1,20,0,0
280712,-232.558139534884,4,2,1,20,0,0
280895,-37.037037037037,4,2,1,20,0,0
280948,-232.558139534884,4,2,1,20,0,0
281105,-37.037037037037,4,2,1,20,0,0
281157,-232.558139534884,4,2,1,20,0,0
281314,-37.037037037037,4,2,1,20,0,0
281366,-232.558139534884,4,2,1,20,0,0
281524,-37.037037037037,4,2,1,20,0,0
281576,-232.558139534884,4,2,1,20,0,0
281733,-45.4545454545455,4,2,1,20,0,0
281785,-250,4,2,1,20,0,0
281890,-100,4,2,1,20,0,0
282361,314.13612565445,7,2,1,20,1,1
284559,314.13612565445,4,2,1,20,1,1
286129,-100,4,2,1,20,0,0
287072,-100,4,2,1,20,0,1
298380,-100,4,2,1,20,0,0
299323,-66.6666666666667,4,2,1,20,0,0
299362,-200,4,2,1,20,0,0
299401,-66.6666666666667,4,2,1,20,0,0
299441,-200,4,2,1,20,0,0
299480,-66.6666666666667,4,2,1,20,0,0
299519,-200,4,2,1,20,0,0
299559,-66.6666666666667,4,2,1,20,0,0
299598,-200,4,2,1,20,0,0
299637,-11.4942528735632,4,2,1,20,0,0
299657,-285.714285714286,4,2,1,20,0,0
299873,-100,4,2,1,20,0,0
299951,-100,4,2,1,20,0,1
303093,-100,4,2,1,20,0,0

[HitObjects]
109,192,921,5,0,0:0:0:0:
109,192,1236,1,0,0:0:0:0:
256,192,1394,1,0,0:0:0:0:
402,192,1552,1,0,0:0:0:0:
36,192,1710,1,0,0:0:0:0:
182,192,1868,1,0,0:0:0:0:
329,192,2026,1,0,0:0:0:0:
475,192,2184,1,0,0:0:0:0:
36,192,2184,1,0,0:0:0:0:
256,192,2184,128,0,3126:0:0:0:0:
402,192,2498,128,0,3754:0:0:0:0:
36,192,2812,128,0,3754:0:0:0:0:
182,192,3126,128,0,3754:0:0:0:0:
256,192,3754,1,0,0:0:0:0:
329,192,4068,1,0,0:0:0:0:
402,192,4382,1,0,0:0:0:0:
475,192,4697,128,0,4854:0:0:0:0:
182,192,4697,1,0,0:0:0:0:
109,192,5011,1,0,0:0:0:0:
36,192,5011,1,0,0:0:0:0:
402,192,5011,128,0,5168:0:0:0:0:
182,192,5325,1,0,0:0:0:0:
329,192,5325,128,0,5639:0:0:0:0:
109,192,5639,1,0,0:0:0:0:
36,192,5639,1,0,0:0:0:0:
182,192,5953,1,0,0:0:0:0:
329,192,5953,128,0,6110:0:0:0:0:
109,192,6267,1,0,0:0:0:0:
36,192,6267,1,0,0:0:0:0:
256,192,6267,128,0,6424:0:0:0:0:
182,192,6581,128,0,6896:0:0:0:0:
475,192,6581,1,0,0:0:0:0:
402,192,6791,1,0,0:0:0:0:
329,192,7000,1,0,0:0:0:0:
256,192,7210,1,0,0:0:0:0:
475,192,7210,1,0,0:0:0:0:
36,192,7210,128,0,7367:0:0:0:0:
109,192,7524,128,0,7681:0:0:0:0:
182,192,7838,128,0,8152:0:0:0:0:
36,192,8152,1,0,0:0:0:0:
402,192,8152,1,0,0:0:0:0:
182,192,8466,128,0,8623:0:0:0:0:
256,192,8780,128,0,8937:0:0:0:0:
402,192,8780,1,0,0:0:0:0:
36,192,8780,1,0,0:0:0:0:
329,192,9094,128,0,9409:0:0:0:0:
109,192,9409,1,0,0:0:0:0:
475,192,9409,1,0,0:0:0:0:
329,192,9723,128,0,9883:0:0:0:0:
402,192,10043,128,0,10204:0:0:0:0:
475,192,10364,128,0,10685:0:0:0:0:
256,192,10364,1,0,0:0:0:0:
109,192,10364,1,0,0:0:0:0:
36,192,11006,128,0,11170:0:0:0:0:
182,192,11006,1,0,0:0:0:0:
329,192,11006,1,0,0:0:0:0:
109,192,11335,128,0,11500:0:0:0:0:
402,192,11665,1,0,0:0:0:0:
256,192,11665,1,0,0:0:0:0:
182,192,11665,128,0,12013:0:0:0:0:
402,192,12013,1,0,0:0:0:0:
329,192,12188,1,0,0:0:0:0:
256,192,12362,128,0,13304:0:0:0:0:
109,192,12362,1,0,0:0:0:0:
36,192,12362,1,0,0:0:0:0:
402,192,12676,128,0,13304:0:0:0:0:
109,192,12990,128,0,13932:0:0:0:0:
329,192,13304,128,0,13932:0:0:0:0:
475,192,13932,1,0,0:0:0:0:
329,192,14246,1,0,0:0:0:0:
182,192,14560,1,0,0:0:0:0:
36,192,14875,1,0,0:0:0:0:
256,192,14875,128,0,15817:0:0:0:0:
475,192,14875,1,0,0:0:0:0:
402,192,15189,128,0,15503:0:0:0:0:
475,192,15503,128,0,16445:0:0:0:0:
329,192,15817,128,0,16445:0:0:0:0:
182,192,15817,1,0,0:0:0:0:
36,192,15817,1,0,0:0:0:0:
109,192,16445,1,0,0:0:0:0:
182,192,16759,1,0,0:0:0:0:
256,192,17074,1,0,0:0:0:0:
329,192,17388,1,0,0:0:0:0:
475,192,17388,1,0,0:0:0:0:
36,192,17388,128,0,19063:0:0:0:0:
256,192,17723,128,0,18393:0:0:0:0:
402,192,18058,128,0,19063:0:0:0:0:
182,192,18393,128,0,19063:0:0:0:0:
256,192,19063,1,0,0:0:0:0:
329,192,19399,1,0,0:0:0:0:
402,192,19734,1,0,0:0:0:0:
475,192,20069,128,0,20250:0:0:0:0:
36,192,20069,128,0,22978:0:0:0:0:
182,192,20069,128,0,22978:0:0:0:0:
402,192,20114,128,0,20296:0:0:0:0:
329,192,20159,128,0,21705:0:0:0:0:
475,192,21523,128,0,21705:0:0:0:0:
109,192,22978,128,0,25711:0:0:0:0:
475,192,22978,1,0,0:0:0:0:
402,192,22978,128,0,26028:0:0:0:0:
256,192,22978,128,0,25869:0:0:0:0:
36,192,25711,128,0,26345:0:0:0:0:
182,192,25869,128,0,26345:0:0:0:0:
329,192,26028,128,0,26345:0:0:0:0:
475,192,26187,128,0,26345:0:0:0:0:
109,192,26345,1,0,0:0:0:30:KicK.wav
402,192,26345,1,0,0:0:0:20:BeLL.wav
256,192,26345,128,0,28858:0:0:0:0:
182,192,28858,1,0,0:0:0:20:BeLL.wav
36,192,28858,1,0,0:0:0:0:
475,192,29172,128,0,29695:0:0:0:0:
329,192,29329,128,0,29695:0:0:0:0:
109,192,29486,128,0,30114:0:0:0:0:
256,192,29695,128,0,30114:0:0:0:0:
402,192,29905,128,0,30114:0:0:0:0:
36,192,30114,128,0,31371:0:0:0:0:
329,192,30428,128,0,31371:0:0:0:0:
182,192,30742,128,0,31371:0:0:0:0:
475,192,31057,128,0,31371:0:0:0:0:
402,192,31371,1,0,0:0:0:20:BeLL.wav
109,192,31371,128,0,35140:0:0:0:0:
256,192,31371,1,0,0:0:0:0:
402,192,31842,128,0,35140:0:0:0:0:
256,192,32313,128,0,35140:0:0:0:0:
182,192,33884,1,0,0:0:0:20:BeLL.wav
36,192,33884,1,0,0:0:0:0:
475,192,35140,1,0,0:0:0:20:BeLL.wav
329,192,35140,1,0,0:0:0:0:
402,192,35454,128,0,35769:0:0:0:0:
36,192,35769,128,0,36397:0:0:0:0:
182,192,35926,128,0,36397:0:0:0:0:
329,192,36083,128,0,36397:0:0:0:0:
475,192,36240,128,0,36397:0:0:0:0:
109,192,36397,1,0,0:0:0:0:
402,192,36397,1,0,0:0:0:20:BeLL.wav
256,192,36397,128,0,38910:0:0:0:0:
109,192,37653,128,0,38910:0:0:0:0:
475,192,38910,1,0,0:0:0:20:BeLL.wav
329,192,38910,1,0,0:0:0:0:
109,192,39224,128,0,39852:0:0:0:0:
329,192,39852,128,0,40166:0:0:0:0:
182,192,40009,128,0,40166:0:0:0:0:
475,192,40166,1,0,0:0:0:0:
402,192,40166,1,0,0:0:0:20:BeLL.wav
36,192,40166,128,0,40324:0:0:0:0:
256,192,40324,128,0,40481:0:0:0:0:
109,192,40481,128,0,40638:0:0:0:0:
329,192,40638,128,0,41345:0:0:0:0:
182,192,40795,128,0,41345:0:0:0:0:
475,192,41109,128,0,41345:0:0:0:0:
182,192,41423,1,0,0:0:0:0:
329,192,41423,1,0,0:0:0:20:BeLL.wav
475,192,41423,128,0,45193:0:0:0:0:
109,192,41894,128,0,45193:0:0:0:0:
256,192,42365,128,0,45193:0:0:0:0:
36,192,43936,1,0,0:0:0:20:BeLL.wav
182,192,43936,1,0,0:0:0:0:
329,192,45193,1,0,0:0:0:20:BeLL.wav
182,192,45193,1,0,0:0:0:0:
402,192,45507,128,0,45821:0:0:0:0:
36,192,45821,128,0,46449:0:0:0:0:
182,192,45978,128,0,46449:0:0:0:0:
329,192,46135,128,0,46449:0:0:0:0:
475,192,46292,128,0,46449:0:0:0:0:
402,192,46449,1,0,0:0:0:0:
109,192,46449,1,0,0:0:0:30:KicK.wav
256,192,46449,128,0,48962:0:0:0:20:BeLL.wav
109,192,46763,1,0,0:0:0:50:Drum.wav
36,192,47077,1,0,0:0:0:30:Snare B.wav
182,192,47077,1,0,0:0:0:0:
475,192,47392,1,0,0:0:0:50:Drum.wav
402,192,47549,1,0,0:0:0:30:Snare B.wav
329,192,47706,1,0,0:0:0:50:Drum.wav
402,192,47863,1,0,0:0:0:30:Snare B.wav
475,192,48020,1,0,0:0:0:50:Drum.wav
475,192,48229,1,0,0:0:0:50:Drum.wav
182,192,48334,1,0,0:0:0:30:Snare B.wav
36,192,48334,1,0,0:0:0:0:
36,192,48648,1,0,0:0:0:50:Drum.wav
475,192,48962,1,0,0:0:0:20:BeLL.wav
109,192,48962,1,0,0:0:0:50:Drum.wav
329,192,48962,1,0,0:0:0:0:
402,192,49276,1,0,0:0:0:30:Snare B.wav
329,192,49276,1,0,0:0:0:0:
109,192,49276,128,0,49434:0:0:0:0:
182,192,49434,128,0,49591:0:0:0:0:
36,192,49591,1,0,0:0:0:0:
402,192,49591,1,0,0:0:0:30:Snare B.wav
256,192,49591,128,0,49800:0:0:0:0:
182,192,49800,128,0,50009:0:0:0:0:
475,192,49905,1,0,0:0:0:50:Drum.wav
109,192,50009,128,0,50219:0:0:0:0:
329,192,50062,1,0,0:0:0:30:Snare B.wav
475,192,50219,1,0,0:0:0:50:Drum.wav
36,192,50219,128,0,50533:0:0:0:0:
329,192,50376,1,0,0:0:0:30:Snare B.wav
475,192,50533,1,0,0:0:0:50:Drum.wav
109,192,50533,128,0,50847:0:0:0:0:
475,192,50690,1,0,0:0:0:50:Drum.wav
402,192,50847,1,0,0:0:0:0:
329,192,50847,1,0,0:0:0:30:Snare B.wav
182,192,50847,128,0,51161:0:0:0:0:
402,192,51161,1,0,0:0:0:0:
36,192,51161,1,0,0:0:0:30:Snare B.wav
256,192,51161,128,0,51475:0:0:0:0:
109,192,51318,1,0,0:0:0:50:Drum.wav
36,192,51475,1,0,0:0:0:20:BeLL.wav
182,192,51475,1,0,0:0:0:30:KicK.wav
475,192,51475,128,0,52418:0:0:0:0:
329,192,51475,1,0,0:0:0:0:
182,192,51790,1,0,0:0:0:50:Drum.wav
329,192,51947,128,0,52418:0:0:0:0:
109,192,52104,1,0,0:0:0:30:Snare B.wav
36,192,52104,1,0,0:0:0:0:
402,192,52418,1,0,0:0:0:50:Drum.wav
36,192,52418,128,0,52732:0:0:0:0:
329,192,52575,1,0,0:0:0:30:Snare B.wav
109,192,52575,128,0,52889:0:0:0:0:
475,192,52732,1,0,0:0:0:50:Drum.wav
256,192,52732,1,0,0:0:0:20:BeLL.wav
182,192,52732,128,0,53988:0:0:0:0:
402,192,52889,1,0,0:0:0:30:Snare B.wav
329,192,53046,1,0,0:0:0:50:Drum.wav
329,192,53255,1,0,0:0:0:50:Drum.wav
475,192,53360,1,0,0:0:0:0:
402,192,53360,1,0,0:0:0:30:Snare B.wav
36,192,53360,128,0,53988:0:0:0:0:
329,192,53674,1,0,0:0:0:50:Drum.wav
256,192,53988,1,0,0:0:0:20:BeLL.wav
475,192,53988,1,0,0:0:0:50:Drum.wav
402,192,53988,128,0,55245:0:0:0:0:
109,192,53988,1,0,0:0:0:0:
36,192,54303,1,0,0:0:0:30:Snare B.wav
182,192,54303,1,0,0:0:0:0:
256,192,54460,128,0,55245:0:0:0:0:
36,192,54617,1,0,0:0:0:30:Snare B.wav
182,192,54617,1,0,0:0:0:0:
475,192,54931,1,0,0:0:0:50:Drum.wav
109,192,54931,128,0,55245:0:0:0:0:
329,192,55088,1,0,0:0:0:30:Snare B.wav
36,192,55245,1,0,0:0:0:50:Drum.wav
182,192,55245,1,0,0:0:0:20:BeLL.wav
475,192,55245,128,0,55873:0:0:0:0:
256,192,55402,1,0,0:0:0:30:Snare B.wav
109,192,55559,1,0,0:0:0:50:Drum.wav
329,192,55559,128,0,55873:0:0:0:0:
109,192,55716,1,0,0:0:0:50:Drum.wav
182,192,55873,1,0,0:0:0:30:Snare B.wav
36,192,55873,128,0,56030:0:0:0:0:
402,192,55873,1,0,0:0:0:0:
256,192,56030,1,0,0:0:0:50:Drum.wav
109,192,56030,128,0,56187:0:0:0:0:
329,192,56187,1,0,0:0:0:50:Drum.wav
182,192,56187,128,0,56345:0:0:0:0:
402,192,56345,1,0,0:0:0:50:Drum.wav
256,192,56345,128,0,56502:0:0:0:0:
109,192,56502,1,0,0:0:0:20:BeLL.wav
475,192,56502,1,0,0:0:0:30:KicK.wav
36,192,56502,1,0,0:0:0:0:
329,192,56502,128,0,59015:0:0:0:0:
109,192,56816,1,0,0:0:0:50:Drum.wav
36,192,57130,1,0,0:0:0:30:Snare B.wav
182,192,57130,1,0,0:0:0:0:
109,192,57444,1,0,0:0:0:50:Drum.wav
256,192,57601,1,0,0:0:0:30:Snare B.wav
36,192,57758,1,0,0:0:0:50:Drum.wav
475,192,57758,128,0,59015:0:0:0:0:
256,192,57915,1,0,0:0:0:30:Snare B.wav
109,192,58072,1,0,0:0:0:50:Drum.wav
109,192,58282,1,0,0:0:0:50:Drum.wav
36,192,58386,1,0,0:0:0:30:Snare B.wav
182,192,58386,1,0,0:0:0:0:
182,192,58701,1,0,0:0:0:50:Drum.wav
402,192,59015,1,0,0:0:0:50:Drum.wav
256,192,59015,1,0,0:0:0:0:
109,192,59015,1,0,0:0:0:20:BeLL.wav
36,192,59015,128,0,60271:0:0:0:0:
475,192,59329,1,0,0:0:0:30:Snare B.wav
329,192,59329,1,0,0:0:0:0:
475,192,59643,1,0,0:0:0:30:Snare B.wav
329,192,59643,1,0,0:0:0:0:
109,192,59643,128,0,60271:0:0:0:0:
329,192,59957,1,0,0:0:0:50:Drum.wav
402,192,60114,1,0,0:0:0:30:Snare B.wav
475,192,60271,1,0,0:0:0:20:BeLL.wav
182,192,60271,1,0,0:0:0:50:Drum.wav
256,192,60271,128,0,60899:0:0:0:0:
329,192,60428,1,0,0:0:0:30:Snare B.wav
182,192,60585,1,0,0:0:0:50:Drum.wav
182,192,60742,1,0,0:0:0:50:Drum.wav
36,192,60899,1,0,0:0:0:0:
329,192,60899,1,0,0:0:0:30:Snare B.wav
475,192,60899,128,0,61057:0:0:0:0:
256,192,61057,1,0,0:0:0:0:
402,192,61057,128,0,61214:0:0:0:0:
182,192,61214,1,0,0:0:0:30:Snare B.wav
36,192,61214,1,0,0:0:0:0:
329,192,61214,128,0,61371:0:0:0:0:
109,192,61371,1,0,0:0:0:50:Drum.wav
256,192,61371,128,0,61528:0:0:0:0:
402,192,61528,1,0,0:0:0:20:BeLL.wav
475,192,61528,1,0,0:0:0:30:KicK.wav
36,192,61528,1,0,0:0:0:0:
182,192,61528,128,0,62156:0:0:0:0:
402,192,61842,1,0,0:0:0:50:Drum.wav
475,192,62156,1,0,0:0:0:30:Snare B.wav
36,192,62156,1,0,0:0:0:0:
329,192,62156,128,0,62822:0:0:0:0:
36,192,62489,1,0,0:0:0:50:Drum.wav
182,192,62656,1,0,0:0:0:30:Snare B.wav
109,192,62822,1,0,0:0:0:20:BeLL.wav
402,192,62822,1,0,0:0:0:50:Drum.wav
475,192,62822,128,0,63527:0:0:0:0:
329,192,62998,1,0,0:0:0:30:Snare B.wav
256,192,63174,1,0,0:0:0:50:Drum.wav
256,192,63351,1,0,0:0:0:50:Drum.wav
182,192,63527,1,0,0:0:0:30:Snare B.wav
36,192,63527,128,0,63777:0:0:0:0:
329,192,63527,1,0,0:0:0:0:
402,192,63714,1,0,0:0:0:0:
109,192,63777,128,0,64027:0:0:0:0:
475,192,63902,1,0,0:0:0:50:Drum.wav
182,192,64027,128,0,64274:0:0:0:50:Drum.wav
329,192,64027,1,0,0:0:0:0:
109,192,64274,1,0,0:0:0:30:KicK.wav
36,192,64274,1,0,0:0:0:20:BeLL.wav
256,192,64274,128,0,68436:0:0:0:0:
402,192,64274,1,0,0:0:0:0:
329,192,64674,1,0,0:0:0:30:Snare B.wav
475,192,64674,1,0,0:0:0:0:
475,192,65077,1,0,0:0:0:0:
329,192,65077,1,0,0:0:0:30:Snare B.wav
36,192,65518,1,0,0:0:0:50:Drum.wav
182,192,65738,1,0,0:0:0:30:Snare B.wav
402,192,65959,128,0,68436:0:0:0:50:Drum.wav
36,192,65959,1,0,0:0:0:20:BeLL.wav
475,192,65959,128,0,68436:0:0:0:0:
182,192,66209,1,0,0:0:0:30:Snare B.wav
109,192,66459,1,0,0:0:0:50:Drum.wav
109,192,66709,1,0,0:0:0:50:Drum.wav
182,192,66959,1,0,0:0:0:30:Snare B.wav
36,192,66959,1,0,0:0:0:0:
182,192,67709,1,0,0:0:0:30:Snare B.wav
36,192,67709,1,0,0:0:0:0:
109,192,68436,1,0,0:0:0:50:Drum.wav
329,192,68750,128,0,68828:0:0:0:30:KicK.wav
475,192,68750,128,0,68828:0:0:0:0:
402,192,69064,1,0,0:0:0:30:Synth.wav
109,192,69064,1,0,0:0:0:0:
256,192,69064,1,0,0:0:0:0:
402,192,69221,1,0,0:0:0:30:Synth.wav
109,192,69221,1,0,0:0:0:50:Drum.wav
329,192,69299,1,0,0:0:0:30:Synth.wav
182,192,69299,1,0,0:0:0:50:Drum.wav
256,192,69378,1,0,0:0:0:30:Synth.wav
36,192,69378,1,0,0:0:0:50:Drum.wav
475,192,69378,1,0,0:0:0:0:
329,192,69456,1,0,0:0:0:30:Synth.wav
109,192,69456,1,0,0:0:0:50:Drum.wav
402,192,69535,1,0,0:0:0:30:Synth.wav
182,192,69535,1,0,0:0:0:50:Drum.wav
475,192,69614,1,0,0:0:0:30:Synth.wav
256,192,69614,1,0,0:0:0:50:Drum.wav
402,192,69692,1,0,0:0:0:50:CrashL.wav
182,192,69692,1,0,0:0:0:50:Synth.wav
109,192,69692,1,0,0:0:0:50:KicK.wav
36,192,69692,1,0,0:0:0:0:
329,192,69692,1,0,0:0:0:0:
182,192,69849,1,0,0:0:0:50:Synth.wav
329,192,69849,1,0,0:0:0:0:
402,192,69849,1,0,0:0:0:0:
36,192,70006,1,0,0:0:0:50:Synth.wav
256,192,70006,1,0,0:0:0:50:Snare A.wav
109,192,70006,1,0,0:0:0:0:
475,192,70006,1,0,0:0:0:0:
402,192,70085,1,0,0:0:0:0:
36,192,70163,1,0,0:0:0:50:Synth.wav
182,192,70163,1,0,0:0:0:0:
109,192,70163,1,0,0:0:0:0:
329,192,70163,1,0,0:0:0:0:
402,192,70242,1,0,0:0:0:0:
475,192,70320,1,0,0:0:0:0:
182,192,70320,1,0,0:0:0:0:
109,192,70399,1,0,0:0:0:0:
36,192,70477,1,0,0:0:0:50:Synth.wav
402,192,70477,1,0,0:0:0:0:
475,192,70477,1,0,0:0:0:0:
256,192,70477,1,0,0:0:0:0:
182,192,70556,1,0,0:0:0:0:
329,192,70634,1,0,0:0:0:0:
109,192,70634,1,0,0:0:0:0:
402,192,70713,1,0,0:0:0:0:
36,192,70792,1,0,0:0:0:50:Synth.wav
256,192,70792,1,0,0:0:0:50:Snare A.wav
475,192,70792,1,0,0:0:0:0:
109,192,70792,1,0,0:0:0:0:
329,192,70870,1,0,0:0:0:0:
402,192,70949,1,0,0:0:0:0:
182,192,70949,1,0,0:0:0:0:
109,192,71027,1,0,0:0:0:0:
402,192,71106,1,0,0:0:0:50:Synth.wav
475,192,71106,1,0,0:0:0:0:
36,192,71106,1,0,0:0:0:0:
256,192,71106,1,0,0:0:0:0:
182,192,71184,1,0,0:0:0:0:
109,192,71263,1,0,0:0:0:50:Snare A.wav
329,192,71263,1,0,0:0:0:0:
182,192,71341,1,0,0:0:0:0:
402,192,71420,1,0,0:0:0:50:Synth.wav
256,192,71420,1,0,0:0:0:0:
475,192,71420,1,0,0:0:0:0:
36,192,71420,1,0,0:0:0:0:
109,192,71498,1,0,0:0:0:0:
182,192,71577,1,0,0:0:0:0:
329,192,71577,1,0,0:0:0:0:
475,192,71655,1,0,0:0:0:0:
109,192,71734,1,0,0:0:0:50:Synth.wav
256,192,71734,1,0,0:0:0:0:
36,192,71734,1,0,0:0:0:0:
402,192,71734,1,0,0:0:0:0:
329,192,71812,1,0,0:0:0:0:
182,192,71891,1,0,0:0:0:50:Synth.wav
402,192,71891,1,0,0:0:0:50:Snare A.wav
475,192,71891,1,0,0:0:0:0:
256,192,71970,1,0,0:0:0:50:Synth.wav
36,192,71970,1,0,0:0:0:0:
329,192,72048,1,0,0:0:0:50:Synth.wav
109,192,72048,1,0,0:0:0:50:KicK.wav
402,192,72127,1,0,0:0:0:50:Synth.wav
182,192,72127,1,0,0:0:0:0:
256,192,72205,1,0,0:0:0:50:Synth.wav
109,192,72205,1,0,0:0:0:50:KicK.wav
36,192,72205,1,0,0:0:0:0:
475,192,72205,1,0,0:0:0:0:
256,192,72362,1,0,0:0:0:50:Synth.wav
109,192,72362,1,0,0:0:0:0:
36,192,72362,1,0,0:0:0:0:
475,192,72519,1,0,0:0:0:50:Synth.wav
329,192,72519,1,0,0:0:0:50:Snare A.wav
182,192,72519,1,0,0:0:0:0:
402,192,72519,1,0,0:0:0:0:
36,192,72598,1,0,0:0:0:0:
475,192,72676,1,0,0:0:0:50:Synth.wav
402,192,72676,1,0,0:0:0:0:
109,192,72676,1,0,0:0:0:0:
256,192,72676,1,0,0:0:0:0:
182,192,72755,1,0,0:0:0:0:
329,192,72833,1,0,0:0:0:0:
109,192,72833,1,0,0:0:0:0:
256,192,72912,1,0,0:0:0:0:
182,192,72990,1,0,0:0:0:50:Synth.wav
36,192,72990,1,0,0:0:0:0:
475,192,72990,1,0,0:0:0:0:
402,192,72990,1,0,0:0:0:0:
329,192,73069,1,0,0:0:0:0:
182,192,73148,1,0,0:0:0:0:
402,192,73148,1,0,0:0:0:0:
256,192,73226,1,0,0:0:0:0:
329,192,73305,1,0,0:0:0:50:Synth.wav
475,192,73305,1,0,0:0:0:50:Snare A.wav
36,192,73305,1,0,0:0:0:0:
109,192,73305,1,0,0:0:0:0:
182,192,73383,1,0,0:0:0:0:
329,192,73462,1,0,0:0:0:0:
109,192,73462,1,0,0:0:0:0:
256,192,73540,1,0,0:0:0:0:
36,192,73619,1,0,0:0:0:50:Synth.wav
402,192,73619,1,0,0:0:0:0:
182,192,73619,1,0,0:0:0:0:
475,192,73619,1,0,0:0:0:0:
329,192,73697,1,0,0:0:0:0:
256,192,73776,1,0,0:0:0:50:Snare A.wav
36,192,73776,1,0,0:0:0:0:
109,192,73854,1,0,0:0:0:0:
182,192,73933,1,0,0:0:0:50:Synth.wav
402,192,73933,1,0,0:0:0:0:
329,192,73933,1,0,0:0:0:0:
475,192,73933,1,0,0:0:0:0:
36,192,74011,1,0,0:0:0:0:
329,192,74090,1,0,0:0:0:0:
182,192,74090,1,0,0:0:0:0:
475,192,74168,1,0,0:0:0:0:
256,192,74247,1,0,0:0:0:50:Synth.wav
402,192,74247,1,0,0:0:0:0:
109,192,74247,1,0,0:0:0:0:
36,192,74247,1,0,0:0:0:0:
475,192,74326,1,0,0:0:0:0:
182,192,74404,1,0,0:0:0:50:Snare A.wav
329,192,74404,1,0,0:0:0:0:
109,192,74483,1,0,0:0:0:0:
402,192,74561,1,0,0:0:0:50:Synth.wav
256,192,74561,1,0,0:0:0:50:KicK.wav
36,192,74561,1,0,0:0:0:0:
475,192,74561,1,0,0:0:0:0:
182,192,74640,1,0,0:0:0:50:KicK.wav
329,192,74640,1,0,0:0:0:0:
109,192,74718,1,0,0:0:0:0:
256,192,74718,1,0,0:0:0:50:KicK.wav
36,192,74718,1,0,0:0:0:0:
36,192,74875,1,0,0:0:0:0:
109,192,74875,1,0,0:0:0:50:KicK.wav
256,192,74875,1,0,0:0:0:0:
402,192,75032,1,0,0:0:0:50:CrashL.wav
475,192,75032,1,0,0:0:0:50:KicK.wav
182,192,75032,1,0,0:0:0:0:
329,192,75032,1,0,0:0:0:0:
182,192,75189,1,0,0:0:0:50:Synth.wav
36,192,75189,1,0,0:0:0:0:
329,192,75189,1,0,0:0:0:0:
256,192,75268,1,0,0:0:0:50:Synth.wav
402,192,75268,1,0,0:0:0:0:
329,192,75346,1,0,0:0:0:50:Synth.wav
36,192,75346,1,0,0:0:0:0:
109,192,75346,1,0,0:0:0:0:
475,192,75346,1,0,0:0:0:0:
182,192,75425,1,0,0:0:0:0:
36,192,75504,1,0,0:0:0:50:Synth.wav
402,192,75504,1,0,0:0:0:0:
329,192,75504,1,0,0:0:0:0:
109,192,75504,1,0,0:0:0:0:
256,192,75582,1,0,0:0:0:0:
109,192,75661,1,0,0:0:0:50:Synth.wav
182,192,75661,1,0,0:0:0:50:KicK.wav
402,192,75661,1,0,0:0:0:0:
475,192,75661,1,0,0:0:0:0:
329,192,75739,1,0,0:0:0:0:
182,192,75818,1,0,0:0:0:50:Synth.wav
475,192,75818,1,0,0:0:0:50:KicK.wav
36,192,75818,1,0,0:0:0:0:
256,192,75818,1,0,0:0:0:0:
402,192,75896,1,0,0:0:0:0:
256,192,75975,1,0,0:0:0:50:CrashL.wav
475,192,75975,1,0,0:0:0:50:KicK.wav
329,192,75975,1,0,0:0:0:0:
36,192,75975,1,0,0:0:0:0:
109,192,76053,1,0,0:0:0:0:
329,192,76132,1,0,0:0:0:50:Synth.wav
182,192,76132,1,0,0:0:0:0:
402,192,76132,1,0,0:0:0:0:
475,192,76132,1,0,0:0:0:0:
109,192,76210,1,0,0:0:0:0:
256,192,76289,1,0,0:0:0:0:
36,192,76289,1,0,0:0:0:0:
329,192,76367,1,0,0:0:0:0:
402,192,76446,1,0,0:0:0:50:Synth.wav
475,192,76446,1,0,0:0:0:0:
109,192,76446,1,0,0:0:0:0:
182,192,76446,1,0,0:0:0:0:
256,192,76525,1,0,0:0:0:0:
109,192,76603,1,0,0:0:0:50:CrashL.wav
475,192,76603,1,0,0:0:0:0:
36,192,76603,1,0,0:0:0:0:
329,192,76603,1,0,0:0:0:0:
256,192,76682,1,0,0:0:0:0:
182,192,76760,1,0,0:0:0:0:
402,192,76760,1,0,0:0:0:0:
329,192,76839,1,0,0:0:0:0:
109,192,76917,1,0,0:0:0:50:Synth.wav
256,192,76917,1,0,0:0:0:50:KicK.wav
36,192,76917,1,0,0:0:0:0:
475,192,76917,1,0,0:0:0:0:
402,192,76996,1,0,0:0:0:0:
182,192,77074,1,0,0:0:0:50:Synth.wav
329,192,77074,1,0,0:0:0:50:KicK.wav
109,192,77074,1,0,0:0:0:0:
36,192,77074,1,0,0:0:0:0:
475,192,77153,1,0,0:0:0:0:
256,192,77231,1,0,0:0:0:50:Synth.wav
36,192,77231,1,0,0:0:0:50:CrashL.wav
402,192,77231,1,0,0:0:0:50:KicK.wav
109,192,77231,1,0,0:0:0:0:
182,192,77231,1,0,0:0:0:0:
475,192,77310,1,0,0:0:0:0:
182,192,77388,1,0,0:0:0:0:
329,192,77388,1,0,0:0:0:0:
109,192,77467,1,0,0:0:0:0:
329,192,77545,1,0,0:0:0:0:
36,192,77545,1,0,0:0:0:0:
402,192,77624,1,0,0:0:0:0:
475,192,77703,1,0,0:0:0:50:Synth.wav
256,192,77703,1,0,0:0:0:50:KicK.wav
109,192,77703,1,0,0:0:0:0:
182,192,77703,1,0,0:0:0:0:
36,192,77703,1,0,0:0:0:50:CrashL.wav
402,192,77781,1,0,0:0:0:0:
109,192,77860,1,0,0:0:0:0:
329,192,77860,1,0,0:0:0:0:
182,192,77938,1,0,0:0:0:0:
256,192,78017,1,0,0:0:0:50:Synth.wav
402,192,78017,1,0,0:0:0:50:KicK.wav
36,192,78017,1,0,0:0:0:0:
475,192,78017,1,0,0:0:0:0:
109,192,78095,1,0,0:0:0:0:
182,192,78174,1,0,0:0:0:50:Synth.wav
329,192,78174,1,0,0:0:0:50:KicK.wav
475,192,78174,1,0,0:0:0:0:
402,192,78174,1,0,0:0:0:0:
36,192,78252,1,0,0:0:0:0:
109,192,78331,1,0,0:0:0:50:Synth.wav
256,192,78331,1,0,0:0:0:50:KicK.wav
329,192,78331,1,0,0:0:0:0:
402,192,78331,1,0,0:0:0:0:
475,192,78331,1,0,0:0:0:50:CrashL.wav
36,192,78409,1,0,0:0:0:0:
182,192,78488,1,0,0:0:0:0:
329,192,78488,1,0,0:0:0:0:
475,192,78566,1,0,0:0:0:0:
402,192,78645,1,0,0:0:0:50:Snare A.wav
109,192,78645,1,0,0:0:0:0:
36,192,78645,1,0,0:0:0:0:
256,192,78645,1,0,0:0:0:0:
475,192,78723,1,0,0:0:0:0:
182,192,78802,1,0,0:0:0:50:KicK.wav
36,192,78802,1,0,0:0:0:0:
329,192,78802,1,0,0:0:0:0:
109,192,78802,1,0,0:0:0:0:
402,192,78959,1,0,0:0:0:0:
256,192,78959,1,0,0:0:0:0:
36,192,79116,1,0,0:0:0:50:Synth.wav
475,192,79116,1,0,0:0:0:50:KicK.wav
182,192,79116,1,0,0:0:0:0:
329,192,79116,1,0,0:0:0:0:
109,192,79273,1,0,0:0:0:50:Synth.wav
256,192,79273,1,0,0:0:0:50:Drum.wav
475,192,79312,1,0,0:0:0:50:Drum.wav
182,192,79352,1,0,0:0:0:50:Synth.wav
402,192,79352,1,0,0:0:0:50:Drum.wav
329,192,79391,1,0,0:0:0:50:Drum.wav
256,192,79430,1,0,0:0:0:50:Synth.wav
36,192,79430,1,0,0:0:0:50:Drum.wav
329,192,79509,1,0,0:0:0:50:Synth.wav
109,192,79509,1,0,0:0:0:50:Drum.wav
402,192,79587,1,0,0:0:0:50:Synth.wav
182,192,79587,1,0,0:0:0:50:Drum.wav
475,192,79666,1,0,0:0:0:50:Synth.wav
256,192,79666,1,0,0:0:0:50:Drum.wav
109,192,79744,1,0,0:0:0:50:Synth.wav
329,192,79744,1,0,0:0:0:50:KicK.wav
36,192,79744,1,0,0:0:0:0:
182,192,79744,1,0,0:0:0:0:
402,192,79744,1,0,0:0:0:50:CrashL.wav
109,192,79901,1,0,0:0:0:50:Synth.wav
329,192,79901,1,0,0:0:0:50:KicK.wav
182,192,79901,1,0,0:0:0:0:
475,192,80059,1,0,0:0:0:50:Synth.wav
36,192,80059,1,0,0:0:0:50:Snare A.wav
256,192,80059,1,0,0:0:0:0:
402,192,80059,1,0,0:0:0:0:
182,192,80137,1,0,0:0:0:0:
475,192,80216,1,0,0:0:0:50:Synth.wav
109,192,80216,1,0,0:0:0:0:
36,192,80216,1,0,0:0:0:0:
402,192,80216,1,0,0:0:0:0:
329,192,80294,1,0,0:0:0:0:
256,192,80373,1,0,0:0:0:0:
109,192,80373,1,0,0:0:0:0:
329,192,80451,1,0,0:0:0:0:
36,192,80530,1,0,0:0:0:50:KicK.wav
475,192,80530,1,0,0:0:0:50:Synth.wav
182,192,80530,1,0,0:0:0:0:
402,192,80530,1,0,0:0:0:0:
256,192,80608,1,0,0:0:0:0:
109,192,80687,1,0,0:0:0:0:
329,192,80687,1,0,0:0:0:0:
182,192,80765,1,0,0:0:0:0:
36,192,80844,1,0,0:0:0:50:Synth.wav
109,192,80844,1,0,0:0:0:50:Snare A.wav
475,192,80844,1,0,0:0:0:0:
329,192,80844,1,0,0:0:0:0:
256,192,80922,1,0,0:0:0:0:
182,192,81001,1,0,0:0:0:0:
402,192,81001,1,0,0:0:0:0:
329,192,81079,1,0,0:0:0:0:
256,192,81158,1,0,0:0:0:50:Synth.wav
36,192,81158,1,0,0:0:0:50:KicK.wav
109,192,81158,1,0,0:0:0:0:
475,192,81158,1,0,0:0:0:0:
402,192,81237,1,0,0:0:0:0:
329,192,81315,1,0,0:0:0:50:Snare A.wav
109,192,81315,1,0,0:0:0:0:
182,192,81394,1,0,0:0:0:0:
36,192,81472,1,0,0:0:0:50:Synth.wav
475,192,81472,1,0,0:0:0:50:KicK.wav
256,192,81472,1,0,0:0:0:0:
402,192,81472,1,0,0:0:0:0:
182,192,81551,1,0,0:0:0:0:
329,192,81629,1,0,0:0:0:0:
109,192,81629,1,0,0:0:0:0:
256,192,81708,1,0,0:0:0:0:
36,192,81786,1,0,0:0:0:50:Synth.wav
182,192,81786,1,0,0:0:0:50:KicK.wav
402,192,81786,1,0,0:0:0:0:
475,192,81786,1,0,0:0:0:0:
329,192,81865,1,0,0:0:0:0:
36,192,81943,1,0,0:0:0:50:Synth.wav
475,192,81943,1,0,0:0:0:0:
256,192,81943,1,0,0:0:0:0:
109,192,82022,1,0,0:0:0:50:Synth.wav
329,192,82022,1,0,0:0:0:0:
182,192,82100,1,0,0:0:0:50:Synth.wav
402,192,82100,1,0,0:0:0:0:
256,192,82179,1,0,0:0:0:50:Synth.wav
475,192,82179,1,0,0:0:0:0:
109,192,82257,1,0,0:0:0:50:CrashL.wav
36,192,82257,1,0,0:0:0:50:KicK.wav
329,192,82257,1,0,0:0:0:0:
402,192,82257,1,0,0:0:0:0:
182,192,82257,1,0,0:0:0:50:Synth.wav
182,192,82415,1,0,0:0:0:50:KicK.wav
329,192,82415,1,0,0:0:0:50:Synth.wav
402,192,82415,1,0,0:0:0:0:
475,192,82572,1,0,0:0:0:50:Synth.wav
256,192,82572,1,0,0:0:0:50:Snare A.wav
36,192,82572,1,0,0:0:0:0:
109,192,82572,1,0,0:0:0:0:
182,192,82650,1,0,0:0:0:0:
329,192,82729,1,0,0:0:0:50:Synth.wav
475,192,82729,1,0,0:0:0:0:
109,192,82729,1,0,0:0:0:0:
402,192,82729,1,0,0:0:0:0:
36,192,82807,1,0,0:0:0:0:
329,192,82886,1,0,0:0:0:0:
182,192,82886,1,0,0:0:0:0:
402,192,82964,1,0,0:0:0:0:
109,192,83043,1,0,0:0:0:50:Synth.wav
36,192,83043,1,0,0:0:0:50:KicK.wav
475,192,83043,1,0,0:0:0:0:
256,192,83043,1,0,0:0:0:0:
402,192,83121,1,0,0:0:0:0:
182,192,83200,1,0,0:0:0:0:
329,192,83200,1,0,0:0:0:0:
36,192,83278,1,0,0:0:0:0:
402,192,83357,1,0,0:0:0:50:Synth.wav
475,192,83357,1,0,0:0:0:50:Snare A.wav
109,192,83357,1,0,0:0:0:0:
182,192,83357,1,0,0:0:0:0:
329,192,83435,1,0,0:0:0:0:
36,192,83514,1,0,0:0:0:0:
256,192,83514,1,0,0:0:0:0:
109,192,83593,1,0,0:0:0:0:
329,192,83671,1,0,0:0:0:50:Synth.wav
402,192,83671,1,0,0:0:0:50:KicK.wav
182,192,83671,1,0,0:0:0:0:
475,192,83671,1,0,0:0:0:0:
36,192,83750,1,0,0:0:0:0:
109,192,83828,1,0,0:0:0:50:Snare A.wav
329,192,83828,1,0,0:0:0:0:
256,192,83907,1,0,0:0:0:0:
36,192,83985,1,0,0:0:0:50:Synth.wav
402,192,83985,1,0,0:0:0:50:KicK.wav
182,192,83985,1,0,0:0:0:0:
475,192,83985,1,0,0:0:0:0:
329,192,84064,1,0,0:0:0:0:
402,192,84142,1,0,0:0:0:0:
109,192,84142,1,0,0:0:0:0:
182,192,84221,1,0,0:0:0:0:
256,192,84299,1,0,0:0:0:50:Synth.wav
475,192,84299,1,0,0:0:0:50:KicK.wav
36,192,84299,1,0,0:0:0:0:
402,192,84299,1,0,0:0:0:0:
109,192,84378,1,0,0:0:0:0:
329,192,84456,1,0,0:0:0:50:Snare A.wav
182,192,84456,1,0,0:0:0:0:
475,192,84535,1,0,0:0:0:0:
36,192,84614,1,0,0:0:0:50:Synth.wav
256,192,84614,1,0,0:0:0:50:KicK.wav
402,192,84614,1,0,0:0:0:0:
109,192,84692,1,0,0:0:0:50:Synth.wav
329,192,84692,1,0,0:0:0:50:KicK.wav
182,192,84692,1,0,0:0:0:0:
36,192,84771,1,0,0:0:0:50:Synth.wav
256,192,84771,1,0,0:0:0:50:KicK.wav
402,192,84771,1,0,0:0:0:50:CrashL.wav
475,192,84771,1,0,0:0:0:0:
109,192,84849,1,0,0:0:0:0:
402,192,84928,1,0,0:0:0:50:KicK.wav
182,192,84928,1,0,0:0:0:0:
329,192,85006,1,0,0:0:0:0:
256,192,85085,1,0,0:0:0:50:Snare A.wav
36,192,85085,1,0,0:0:0:0:
475,192,85085,1,0,0:0:0:0:
402,192,85163,1,0,0:0:0:0:
36,192,85242,1,0,0:0:0:0:
329,192,85242,1,0,0:0:0:0:
109,192,85320,1,0,0:0:0:0:
475,192,85399,1,0,0:0:0:0:
182,192,85399,1,0,0:0:0:0:
402,192,85477,1,0,0:0:0:0:
36,192,85556,1,0,0:0:0:50:Synth.wav
256,192,85556,1,0,0:0:0:50:KicK.wav
329,192,85556,1,0,0:0:0:0:
109,192,85556,1,0,0:0:0:0:
475,192,85634,1,0,0:0:0:0:
109,192,85713,1,0,0:0:0:50:Synth.wav
329,192,85713,1,0,0:0:0:0:
402,192,85713,1,0,0:0:0:0:
182,192,85713,1,0,0:0:0:0:
36,192,85792,1,0,0:0:0:0:
182,192,85870,1,0,0:0:0:50:Synth.wav
256,192,85870,1,0,0:0:0:50:Snare A.wav
475,192,85870,1,0,0:0:0:0:
402,192,85870,1,0,0:0:0:0:
109,192,85949,1,0,0:0:0:0:
329,192,86027,1,0,0:0:0:0:
36,192,86027,1,0,0:0:0:0:
256,192,86106,1,0,0:0:0:0:
182,192,86184,1,0,0:0:0:50:KicK.wav
475,192,86184,1,0,0:0:0:0:
402,192,86263,1,0,0:0:0:0:
36,192,86341,1,0,0:0:0:50:Snare A.wav
182,192,86341,1,0,0:0:0:0:
329,192,86341,1,0,0:0:0:0:
402,192,86420,1,0,0:0:0:0:
475,192,86498,1,0,0:0:0:0:
36,192,86498,1,0,0:0:0:0:
182,192,86577,1,0,0:0:0:0:
329,192,86655,1,0,0:0:0:50:KicK.wav
475,192,86655,1,0,0:0:0:0:
256,192,86734,1,0,0:0:0:0:
109,192,86812,1,0,0:0:0:50:Synth.wav
402,192,86812,1,0,0:0:0:50:KicK.wav
182,192,86812,1,0,0:0:0:0:
36,192,86812,1,0,0:0:0:0:
329,192,86891,1,0,0:0:0:0:
182,192,86970,1,0,0:0:0:50:Synth.wav
475,192,86970,1,0,0:0:0:50:Snare A.wav
109,192,86970,1,0,0:0:0:0:
256,192,86970,1,0,0:0:0:0:
402,192,87048,1,0,0:0:0:0:
256,192,87127,1,0,0:0:0:50:Synth.wav
36,192,87127,1,0,0:0:0:50:KicK.wav
182,192,87127,1,0,0:0:0:50:CrashL.wav
475,192,87127,1,0,0:0:0:0:
329,192,87127,1,0,0:0:0:0:
109,192,87284,1,0,0:0:0:50:Drum.wav
329,192,87284,1,0,0:0:0:0:
402,192,87362,5,0,0:0:0:0:
475,192,87441,1,0,0:0:0:50:KicK.wav
182,192,87441,1,0,0:0:0:0:
109,192,87519,1,0,0:0:0:0:
256,192,87598,1,0,0:0:0:50:Snare A.wav
475,192,87598,1,0,0:0:0:0:
36,192,87598,1,0,0:0:0:0:
402,192,87676,1,0,0:0:0:0:
182,192,87755,1,0,0:0:0:50:Drum.wav
329,192,87755,1,0,0:0:0:0:
36,192,87833,1,0,0:0:0:50:Drum.wav
109,192,87833,1,0,0:0:0:0:
256,192,87912,1,0,0:0:0:50:Drum.wav
402,192,87912,1,0,0:0:0:0:
109,192,87990,1,0,0:0:0:50:Drum.wav
182,192,87990,1,0,0:0:0:0:
329,192,88069,1,0,0:0:0:50:Drum.wav
475,192,88069,1,0,0:0:0:0:
182,192,88148,1,0,0:0:0:50:Drum.wav
256,192,88148,1,0,0:0:0:0:
475,192,88226,1,0,0:0:0:50:Drum.wav
109,192,88226,1,0,0:0:0:0:
36,192,88226,1,0,0:0:0:0:
402,192,88265,1,0,0:0:0:50:Drum.wav
256,192,88305,1,0,0:0:0:50:Drum.wav
182,192,88344,1,0,0:0:0:50:Drum.wav
402,192,88383,1,0,0:0:0:50:Drum.wav
329,192,88422,1,0,0:0:0:50:Drum.wav
182,192,88462,1,0,0:0:0:50:Drum.wav
109,192,88501,1,0,0:0:0:50:Drum.wav
36,192,88540,1,0,0:0:0:50:CrashL.wav
402,192,88540,1,0,0:0:0:50:KicK.wav
475,192,88540,1,0,0:0:0:50:Synth.wav
256,192,88540,1,0,0:0:0:0:
329,192,88619,1,0,0:0:0:0:
109,192,88619,1,0,0:0:0:0:
182,192,88697,1,0,0:0:0:0:
402,192,88697,1,0,0:0:0:0:
256,192,88776,1,0,0:0:0:0:
475,192,88776,1,0,0:0:0:0:
36,192,88854,1,0,0:0:0:0:
109,192,88854,1,0,0:0:0:0:
329,192,88854,1,0,0:0:0:0:
475,192,88933,1,0,0:0:0:0:
256,192,88933,1,0,0:0:0:0:
402,192,89011,1,0,0:0:0:0:
182,192,89011,1,0,0:0:0:0:
329,192,89090,1,0,0:0:0:0:
109,192,89090,1,0,0:0:0:0:
256,192,89168,1,0,0:0:0:50:Drum.wav
36,192,89168,1,0,0:0:0:0:
475,192,89168,1,0,0:0:0:0:
182,192,89247,1,0,0:0:0:50:Drum.wav
329,192,89247,1,0,0:0:0:0:
402,192,89247,1,0,0:0:0:0:
475,192,89326,1,0,0:0:0:50:Drum.wav
36,192,89326,1,0,0:0:0:0:
109,192,89326,1,0,0:0:0:0:
182,192,89404,1,0,0:0:0:50:Drum.wav
402,192,89404,1,0,0:0:0:0:
329,192,89404,1,0,0:0:0:0:
256,192,89483,128,0,89718:0:0:0:50:KicK.wav
475,192,89483,128,0,89718:0:0:0:0:
36,192,89483,128,0,89718:0:0:0:0:
109,192,89483,128,0,89718:0:0:0:0:
36,192,89797,1,0,0:0:0:50:KicK.wav
256,192,89797,1,0,0:0:0:50:CrashS.wav
402,192,89797,1,0,0:0:0:50:Chord B.wav
109,192,89797,1,0,0:0:0:0:
475,192,89797,1,0,0:0:0:0:
182,192,90111,128,0,90346:0:0:0:50:CrashL.wav
109,192,90111,128,0,90346:0:0:0:50:Snare A.wav
36,192,90111,128,0,90346:0:0:0:50:Chord B.wav
329,192,90111,128,0,90346:0:0:0:0:
402,192,90111,128,0,90346:0:0:0:0:
475,192,90111,128,0,90346:0:0:0:0:
182,192,90425,1,0,0:0:0:50:Chord B.wav
109,192,90425,1,0,0:0:0:0:
475,192,90425,1,0,0:0:0:0:
402,192,90504,1,0,0:0:0:0:
36,192,90582,1,0,0:0:0:50:KicK.wav
329,192,90582,1,0,0:0:0:0:
109,192,90582,1,0,0:0:0:0:
182,192,90582,1,0,0:0:0:50:Chord B.wav
402,192,90661,1,0,0:0:0:0:
256,192,90739,1,0,0:0:0:50:Chord B.wav
475,192,90739,1,0,0:0:0:0:
36,192,90739,1,0,0:0:0:0:
109,192,90818,1,0,0:0:0:0:
329,192,90896,128,0,91053:0:0:0:50:Chord B.wav
182,192,90896,1,0,0:0:0:50:Snare A.wav
475,192,90896,1,0,0:0:0:0:
402,192,90896,128,0,91053:0:0:0:0:
36,192,90975,1,0,0:0:0:0:
182,192,91053,1,0,0:0:0:0:
256,192,91132,1,0,0:0:0:0:
475,192,91210,1,0,0:0:0:50:KicK.wav
36,192,91210,128,0,91367:0:0:0:0:
329,192,91210,1,0,0:0:0:0:
109,192,91210,128,0,91367:0:0:0:50:Chord B.wav
256,192,91289,1,0,0:0:0:0:
475,192,91367,1,0,0:0:0:50:Snare A.wav
182,192,91367,1,0,0:0:0:0:
402,192,91446,1,0,0:0:0:0:
182,192,91525,128,0,91682:0:0:0:50:Chord B.wav
256,192,91525,128,0,91682:0:0:0:0:
329,192,91525,1,0,0:0:0:0:
475,192,91603,1,0,0:0:0:0:
402,192,91682,1,0,0:0:0:50:KicK.wav
36,192,91682,1,0,0:0:0:0:
109,192,91682,1,0,0:0:0:0:
475,192,91760,1,0,0:0:0:0:
109,192,91839,1,0,0:0:0:50:KicK.wav
36,192,91839,1,0,0:0:0:0:
256,192,91839,1,0,0:0:0:0:
329,192,91917,1,0,0:0:0:0:
182,192,91996,1,0,0:0:0:50:Snare A.wav
475,192,91996,1,0,0:0:0:0:
402,192,91996,1,0,0:0:0:0:
109,192,92074,1,0,0:0:0:0:
36,192,92153,1,0,0:0:0:0:
402,192,92153,1,0,0:0:0:0:
329,192,92231,1,0,0:0:0:0:
475,192,92310,1,0,0:0:0:50:KicK.wav
109,192,92310,1,0,0:0:0:0:
256,192,92310,1,0,0:0:0:0:
402,192,92388,1,0,0:0:0:0:
329,192,92467,1,0,0:0:0:0:
109,192,92467,1,0,0:0:0:0:
182,192,92545,1,0,0:0:0:0:
402,192,92624,128,0,92781:0:0:0:50:Chord B.wav
36,192,92624,1,0,0:0:0:0:
256,192,92624,1,0,0:0:0:50:Snare A.wav
475,192,92624,128,0,92781:0:0:0:0:
109,192,92703,1,0,0:0:0:0:
329,192,92781,1,0,0:0:0:0:
182,192,92781,1,0,0:0:0:0:
109,192,92860,1,0,0:0:0:0:
36,192,92938,1,0,0:0:0:50:Chord B.wav
256,192,92938,1,0,0:0:0:0:
475,192,92938,1,0,0:0:0:0:
402,192,93017,1,0,0:0:0:0:
109,192,93095,1,0,0:0:0:50:Chord B.wav
329,192,93095,1,0,0:0:0:50:KicK.wav
182,192,93095,1,0,0:0:0:0:
402,192,93174,1,0,0:0:0:50:Snare A.wav
36,192,93174,1,0,0:0:0:0:
182,192,93252,1,0,0:0:0:50:Chord B.wav
475,192,93252,1,0,0:0:0:0:
256,192,93252,1,0,0:0:0:0:
36,192,93331,1,0,0:0:0:0:
256,192,93409,1,0,0:0:0:50:Chord B.wav
475,192,93409,1,0,0:0:0:50:Snare A.wav
329,192,93409,1,0,0:0:0:0:
109,192,93409,1,0,0:0:0:0:
36,192,93488,1,0,0:0:0:0:
402,192,93566,1,0,0:0:0:0:
182,192,93566,1,0,0:0:0:0:
329,192,93645,1,0,0:0:0:0:
109,192,93723,1,0,0:0:0:50:Chord B.wav
256,192,93723,1,0,0:0:0:50:KicK.wav
475,192,93723,1,0,0:0:0:0:
36,192,93723,1,0,0:0:0:0:
402,192,93802,1,0,0:0:0:0:
182,192,93881,1,0,0:0:0:50:Chord B.wav
475,192,93881,1,0,0:0:0:50:Snare A.wav
329,192,93881,1,0,0:0:0:0:
109,192,93881,1,0,0:0:0:0:
36,192,93959,1,0,0:0:0:0:
256,192,94038,1,0,0:0:0:50:Chord B.wav
182,192,94038,1,0,0:0:0:0:
402,192,94038,1,0,0:0:0:0:
36,192,94116,1,0,0:0:0:0:
109,192,94195,1,0,0:0:0:50:Chord B.wav
475,192,94195,1,0,0:0:0:50:KicK.wav
329,192,94195,1,0,0:0:0:0:
182,192,94273,1,0,0:0:0:50:Chord B.wav
402,192,94273,1,0,0:0:0:0:
36,192,94352,1,0,0:0:0:50:Chord B.wav
475,192,94352,1,0,0:0:0:50:KicK.wav
256,192,94352,1,0,0:0:0:0:
109,192,94430,1,0,0:0:0:50:Chord B.wav
329,192,94430,1,0,0:0:0:0:
182,192,94509,1,0,0:0:0:50:Chord B.wav
475,192,94509,1,0,0:0:0:50:Snare A.wav
402,192,94509,1,0,0:0:0:0:
109,192,94587,1,0,0:0:0:50:Chord B.wav
329,192,94587,1,0,0:0:0:0:
182,192,94666,1,0,0:0:0:50:Chord B.wav
402,192,94666,1,0,0:0:0:0:
256,192,94744,1,0,0:0:0:50:Chord B.wav
475,192,94744,1,0,0:0:0:0:
329,192,94823,1,0,0:0:0:50:Chord B.wav
402,192,94823,1,0,0:0:0:50:KicK.wav
36,192,94823,1,0,0:0:0:50:CrashS.wav
182,192,94823,1,0,0:0:0:0:
109,192,94823,1,0,0:0:0:0:
402,192,95137,128,0,95373:0:0:0:50:CrashL.wav
109,192,95137,128,0,95373:0:0:0:50:Chord B.wav
36,192,95137,128,0,95373:0:0:0:50:Snare A.wav
182,192,95137,128,0,95373:0:0:0:0:
256,192,95137,128,0,95373:0:0:0:0:
475,192,95137,128,0,95373:0:0:0:0:
256,192,95451,1,0,0:0:0:50:Chord B.wav
36,192,95451,1,0,0:0:0:0:
475,192,95451,1,0,0:0:0:0:
109,192,95530,1,0,0:0:0:0:
182,192,95608,1,0,0:0:0:50:Chord B.wav
329,192,95608,1,0,0:0:0:50:KicK.wav
475,192,95608,1,0,0:0:0:0:
402,192,95608,1,0,0:0:0:0:
109,192,95687,1,0,0:0:0:0:
256,192,95765,1,0,0:0:0:50:Chord B.wav
36,192,95765,1,0,0:0:0:0:
475,192,95765,1,0,0:0:0:0:
402,192,95844,1,0,0:0:0:0:
182,192,95922,1,0,0:0:0:50:Chord B.wav
36,192,95922,1,0,0:0:0:50:Snare A.wav
329,192,95922,1,0,0:0:0:0:
109,192,95922,1,0,0:0:0:0:
256,192,96001,1,0,0:0:0:0:
402,192,96079,1,0,0:0:0:50:Chord B.wav
475,192,96079,1,0,0:0:0:0:
329,192,96158,1,0,0:0:0:50:Chord B.wav
182,192,96158,1,0,0:0:0:0:
256,192,96237,1,0,0:0:0:50:Chord B.wav
36,192,96237,1,0,0:0:0:50:KicK.wav
109,192,96237,1,0,0:0:0:0:
329,192,96315,1,0,0:0:0:50:Chord B.wav
182,192,96315,1,0,0:0:0:0:
36,192,96394,1,0,0:0:0:50:Chord B.wav
475,192,96394,1,0,0:0:0:50:Snare A.wav
402,192,96394,1,0,0:0:0:0:
109,192,96472,1,0,0:0:0:50:Chord B.wav
256,192,96472,1,0,0:0:0:0:
182,192,96551,1,0,0:0:0:50:Chord B.wav
329,192,96551,1,0,0:0:0:0:
109,192,96629,1,0,0:0:0:50:Chord B.wav
256,192,96629,1,0,0:0:0:0:
402,192,96708,1,0,0:0:0:50:Chord B.wav
36,192,96708,1,0,0:0:0:50:KicK.wav
475,192,96708,1,0,0:0:0:0:
329,192,96786,1,0,0:0:0:50:Chord B.wav
182,192,96786,1,0,0:0:0:0:
256,192,96865,1,0,0:0:0:50:Chord B.wav
475,192,96865,1,0,0:0:0:50:KicK.wav
109,192,96865,1,0,0:0:0:0:
329,192,96943,1,0,0:0:0:50:Chord B.wav
182,192,96943,1,0,0:0:0:0:
36,192,97022,1,0,0:0:0:50:Chord B.wav
402,192,97022,1,0,0:0:0:50:Snare A.wav
475,192,97022,1,0,0:0:0:0:
109,192,97100,1,0,0:0:0:50:Chord B.wav
256,192,97100,1,0,0:0:0:0:
182,192,97179,1,0,0:0:0:50:Chord B.wav
329,192,97179,1,0,0:0:0:0:
256,192,97257,1,0,0:0:0:50:Chord B.wav
402,192,97257,1,0,0:0:0:0:
182,192,97336,1,0,0:0:0:50:Chord B.wav
329,192,97336,1,0,0:0:0:50:CrashL.wav
109,192,97336,1,0,0:0:0:50:KicK.wav
36,192,97336,1,0,0:0:0:0:
475,192,97336,1,0,0:0:0:0:
256,192,97493,1,0,0:0:0:50:Chord B.wav
402,192,97493,1,0,0:0:0:0:
182,192,97493,1,0,0:0:0:0:
36,192,97650,128,0,97886:0:0:0:50:Snare A.wav
475,192,97650,1,0,0:0:0:0:
256,192,97650,1,0,0:0:0:0:
329,192,97650,1,0,0:0:0:50:Chord B.wav
109,192,97650,128,0,97886:0:0:0:0:
475,192,97807,1,0,0:0:0:50:Chord B.wav
182,192,97807,1,0,0:0:0:0:
329,192,97886,1,0,0:0:0:50:Chord B.wav
402,192,97886,1,0,0:0:0:0:
109,192,97964,1,0,0:0:0:50:Chord B.wav
36,192,97964,1,0,0:0:0:0:
256,192,97964,1,0,0:0:0:0:
329,192,98043,1,0,0:0:0:0:
475,192,98121,1,0,0:0:0:50:Chord B.wav
402,192,98121,1,0,0:0:0:50:KicK.wav
36,192,98121,1,0,0:0:0:0:
182,192,98121,1,0,0:0:0:0:
256,192,98200,1,0,0:0:0:50:Snare A.wav
182,192,98278,1,0,0:0:0:50:Chord B.wav
402,192,98278,1,0,0:0:0:0:
109,192,98357,1,0,0:0:0:50:Chord B.wav
329,192,98357,1,0,0:0:0:0:
256,192,98435,1,0,0:0:0:50:Chord B.wav
36,192,98435,1,0,0:0:0:50:Snare A.wav
475,192,98435,1,0,0:0:0:0:
329,192,98488,1,0,0:0:0:50:Chord B.wav
109,192,98514,1,0,0:0:0:0:
402,192,98540,1,0,0:0:0:50:Chord B.wav
475,192,98593,1,0,0:0:0:50:Chord B.wav
182,192,98593,1,0,0:0:0:0:
36,192,98671,1,0,0:0:0:0:
256,192,98671,1,0,0:0:0:0:
402,192,98750,1,0,0:0:0:50:Chord B.wav
109,192,98750,1,0,0:0:0:50:KicK.wav
329,192,98750,1,0,0:0:0:0:
475,192,98828,1,0,0:0:0:50:Chord B.wav
182,192,98828,1,0,0:0:0:0:
402,192,98907,1,0,0:0:0:50:Chord B.wav
109,192,98907,1,0,0:0:0:50:Snare A.wav
36,192,98907,1,0,0:0:0:0:
329,192,98985,1,0,0:0:0:0:
256,192,99064,1,0,0:0:0:50:Chord B.wav
109,192,99064,1,0,0:0:0:50:KicK.wav
36,192,99064,1,0,0:0:0:0:
475,192,99064,1,0,0:0:0:0:
402,192,99142,1,0,0:0:0:0:
329,192,99221,1,0,0:0:0:50:Chord B.wav
182,192,99221,1,0,0:0:0:0:
402,192,99299,1,0,0:0:0:50:Chord B.wav
109,192,99299,1,0,0:0:0:0:
256,192,99378,1,0,0:0:0:50:Chord B.wav
475,192,99378,1,0,0:0:0:50:KicK.wav
36,192,99378,1,0,0:0:0:0:
329,192,99456,1,0,0:0:0:50:Chord B.wav
109,192,99456,1,0,0:0:0:0:
402,192,99535,1,0,0:0:0:50:Chord B.wav
182,192,99535,1,0,0:0:0:50:Snare A.wav
475,192,99535,1,0,0:0:0:0:
329,192,99614,1,0,0:0:0:50:Chord B.wav
109,192,99614,1,0,0:0:0:0:
256,192,99692,1,0,0:0:0:50:Chord B.wav
36,192,99692,1,0,0:0:0:0:
182,192,99771,1,0,0:0:0:50:Chord B.wav
329,192,99771,1,0,0:0:0:0:
109,192,99849,1,0,0:0:0:50:Chord B.wav
475,192,99849,1,0,0:0:0:50:KicK.wav
36,192,99849,1,0,0:0:0:50:CrashS.wav
402,192,99849,1,0,0:0:0:0:
256,192,99849,1,0,0:0:0:0:
402,192,100163,128,0,100399:0:0:0:50:Chord B.wav
329,192,100163,128,0,100399:0:0:0:50:Snare A.wav
475,192,100163,128,0,100399:0:0:0:50:CrashL.wav
256,192,100163,128,0,100399:0:0:0:0:
182,192,100163,128,0,100399:0:0:0:0:
36,192,100163,128,0,100399:0:0:0:0:
329,192,100477,1,0,0:0:0:50:Chord B.wav
402,192,100477,1,0,0:0:0:0:
109,192,100477,1,0,0:0:0:0:
182,192,100556,1,0,0:0:0:0:
475,192,100634,1,0,0:0:0:50:KicK.wav
329,192,100634,1,0,0:0:0:50:Chord B.wav
109,192,100634,1,0,0:0:0:0:
402,192,100634,1,0,0:0:0:0:
256,192,100713,1,0,0:0:0:0:
182,192,100792,1,0,0:0:0:50:Chord B.wav
36,192,100792,1,0,0:0:0:0:
475,192,100792,1,0,0:0:0:0:
402,192,100870,1,0,0:0:0:0:
182,192,100949,1,0,0:0:0:0:
109,192,100949,128,0,101106:0:0:0:0:
329,192,100949,1,0,0:0:0:50:Snare A.wav
36,192,100949,128,0,101106:0:0:0:50:Chord B.wav
475,192,101027,1,0,0:0:0:0:
329,192,101106,1,0,0:0:0:0:
256,192,101184,1,0,0:0:0:0:
36,192,101263,1,0,0:0:0:50:KicK.wav
475,192,101263,128,0,101420:0:0:0:0:
402,192,101263,128,0,101420:0:0:0:50:Chord B.wav
182,192,101263,1,0,0:0:0:0:
256,192,101341,1,0,0:0:0:0:
36,192,101420,1,0,0:0:0:50:Snare A.wav
329,192,101420,1,0,0:0:0:0:
109,192,101498,1,0,0:0:0:0:
182,192,101577,128,0,101734:0:0:0:50:Chord B.wav
256,192,101577,128,0,101734:0:0:0:0:
475,192,101577,1,0,0:0:0:0:
402,192,101655,1,0,0:0:0:0:
329,192,101734,1,0,0:0:0:50:KicK.wav
36,192,101734,1,0,0:0:0:0:
109,192,101734,1,0,0:0:0:0:
475,192,101812,1,0,0:0:0:0:
109,192,101891,1,0,0:0:0:50:KicK.wav
36,192,101891,1,0,0:0:0:0:
329,192,101891,1,0,0:0:0:0:
182,192,101970,1,0,0:0:0:0:
256,192,102048,1,0,0:0:0:50:Snare A.wav
475,192,102048,1,0,0:0:0:0:
402,192,102048,1,0,0:0:0:0:
182,192,102127,1,0,0:0:0:0:
402,192,102205,1,0,0:0:0:0:
109,192,102205,1,0,0:0:0:0:
329,192,102284,1,0,0:0:0:0:
475,192,102362,1,0,0:0:0:50:KicK.wav
36,192,102362,1,0,0:0:0:0:
256,192,102362,1,0,0:0:0:0:
109,192,102441,1,0,0:0:0:0:
182,192,102519,1,0,0:0:0:0:
329,192,102519,1,0,0:0:0:0:
475,192,102598,1,0,0:0:0:0:
329,192,102676,128,0,102833:0:0:0:50:Chord B.wav
36,192,102676,1,0,0:0:0:0:
182,192,102676,1,0,0:0:0:50:Snare A.wav
402,192,102676,128,0,102833:0:0:0:0:
256,192,102755,1,0,0:0:0:0:
475,192,102833,1,0,0:0:0:0:
109,192,102833,1,0,0:0:0:0:
256,192,102912,1,0,0:0:0:0:
182,192,102990,1,0,0:0:0:50:Chord B.wav
475,192,102990,1,0,0:0:0:0:
36,192,102990,1,0,0:0:0:0:
402,192,103069,1,0,0:0:0:0:
36,192,103148,1,0,0:0:0:50:KicK.wav
109,192,103148,1,0,0:0:0:50:Chord B.wav
329,192,103148,1,0,0:0:0:0:
256,192,103226,1,0,0:0:0:50:Snare A.wav
402,192,103226,1,0,0:0:0:0:
182,192,103305,1,0,0:0:0:50:Chord B.wav
475,192,103305,1,0,0:0:0:0:
109,192,103305,1,0,0:0:0:0:
329,192,103383,1,0,0:0:0:0:
475,192,103462,1,0,0:0:0:50:Snare A.wav
256,192,103462,1,0,0:0:0:50:Chord B.wav
402,192,103462,1,0,0:0:0:0:
182,192,103462,1,0,0:0:0:0:
109,192,103540,1,0,0:0:0:0:
402,192,103619,1,0,0:0:0:0:
36,192,103619,1,0,0:0:0:0:
329,192,103697,1,0,0:0:0:0:
256,192,103776,1,0,0:0:0:50:Chord B.wav
36,192,103776,1,0,0:0:0:50:KicK.wav
475,192,103776,1,0,0:0:0:0:
182,192,103776,1,0,0:0:0:0:
402,192,103854,1,0,0:0:0:0:
109,192,103933,1,0,0:0:0:50:Snare A.wav
329,192,103933,1,0,0:0:0:50:Chord B.wav
475,192,103933,1,0,0:0:0:0:
256,192,103933,1,0,0:0:0:0:
36,192,104011,1,0,0:0:0:0:
402,192,104090,1,0,0:0:0:50:Chord B.wav
182,192,104090,1,0,0:0:0:50:KicK.wav
329,192,104090,1,0,0:0:0:0:
475,192,104090,1,0,0:0:0:0:
109,192,104168,1,0,0:0:0:0:
36,192,104247,1,0,0:0:0:50:Chord B.wav
256,192,104247,1,0,0:0:0:0:
109,192,104326,1,0,0:0:0:50:Chord B.wav
329,192,104326,1,0,0:0:0:0:
475,192,104404,1,0,0:0:0:50:KicK.wav
182,192,104404,1,0,0:0:0:50:Chord B.wav
402,192,104404,1,0,0:0:0:0:
256,192,104483,1,0,0:0:0:50:Chord B.wav
109,192,104483,1,0,0:0:0:0:
475,192,104561,1,0,0:0:0:50:Snare A.wav
329,192,104561,1,0,0:0:0:50:Chord B.wav
36,192,104561,1,0,0:0:0:0:
256,192,104640,1,0,0:0:0:50:Chord B.wav
402,192,104640,1,0,0:0:0:0:
182,192,104718,1,0,0:0:0:50:Chord B.wav
329,192,104718,1,0,0:0:0:0:
109,192,104797,1,0,0:0:0:50:Chord B.wav
256,192,104797,1,0,0:0:0:0:
402,192,104875,1,0,0:0:0:50:CrashS.wav
182,192,104875,1,0,0:0:0:50:KicK.wav
36,192,104875,1,0,0:0:0:50:Chord B.wav
475,192,104875,1,0,0:0:0:0:
329,192,104875,1,0,0:0:0:0:
402,192,105189,128,0,105425:0:0:0:50:Snare A.wav
329,192,105189,128,0,105425:0:0:0:50:Chord B.wav
109,192,105189,128,0,105425:0:0:0:50:CrashL.wav
475,192,105189,128,0,105425:0:0:0:0:
256,192,105189,128,0,105425:0:0:0:0:
36,192,105189,128,0,105425:0:0:0:0:
256,192,105504,1,0,0:0:0:50:Chord B.wav
36,192,105504,1,0,0:0:0:0:
475,192,105504,1,0,0:0:0:0:
402,192,105582,1,0,0:0:0:0:
182,192,105661,1,0,0:0:0:50:KicK.wav
329,192,105661,1,0,0:0:0:50:Chord B.wav
36,192,105661,1,0,0:0:0:0:
109,192,105661,1,0,0:0:0:0:
402,192,105739,1,0,0:0:0:0:
182,192,105818,1,0,0:0:0:50:Chord B.wav
109,192,105818,1,0,0:0:0:0:
475,192,105818,1,0,0:0:0:0:
256,192,105896,1,0,0:0:0:0:
36,192,105975,1,0,0:0:0:50:Snare A.wav
475,192,105975,1,0,0:0:0:50:Chord B.wav
329,192,105975,1,0,0:0:0:0:
402,192,105975,1,0,0:0:0:0:
182,192,106053,1,0,0:0:0:0:
475,192,106132,1,0,0:0:0:50:Chord B.wav
109,192,106132,1,0,0:0:0:0:
402,192,106210,1,0,0:0:0:50:Chord B.wav
256,192,106210,1,0,0:0:0:0:
36,192,106289,1,0,0:0:0:50:KicK.wav
329,192,106289,1,0,0:0:0:50:Chord B.wav
182,192,106289,1,0,0:0:0:0:
256,192,106367,1,0,0:0:0:50:Chord B.wav
109,192,106367,1,0,0:0:0:0:
36,192,106446,1,0,0:0:0:50:Snare A.wav
402,192,106446,1,0,0:0:0:50:Chord B.wav
475,192,106446,1,0,0:0:0:0:
329,192,106525,1,0,0:0:0:50:Chord B.wav
182,192,106525,1,0,0:0:0:0:
256,192,106603,1,0,0:0:0:50:Chord B.wav
402,192,106603,1,0,0:0:0:0:
182,192,106682,1,0,0:0:0:50:Chord B.wav
329,192,106682,1,0,0:0:0:0:
36,192,106760,1,0,0:0:0:50:KicK.wav
475,192,106760,1,0,0:0:0:50:Chord B.wav
109,192,106760,1,0,0:0:0:0:
402,192,106839,1,0,0:0:0:50:Chord B.wav
256,192,106839,1,0,0:0:0:0:
36,192,106917,1,0,0:0:0:50:KicK.wav
329,192,106917,1,0,0:0:0:50:Chord B.wav
182,192,106917,1,0,0:0:0:0:
256,192,106996,1,0,0:0:0:50:Chord B.wav
109,192,106996,1,0,0:0:0:0:
36,192,107074,1,0,0:0:0:50:Snare A.wav
402,192,107074,1,0,0:0:0:50:Chord B.wav
475,192,107074,1,0,0:0:0:0:
329,192,107153,1,0,0:0:0:50:Chord B.wav
182,192,107153,1,0,0:0:0:0:
475,192,107231,1,0,0:0:0:50:Chord B.wav
36,192,107231,1,0,0:0:0:50:KicK.wav
109,192,107231,1,0,0:0:0:0:
402,192,107310,1,0,0:0:0:50:Chord B.wav
256,192,107310,1,0,0:0:0:0:
36,192,107388,1,0,0:0:0:50:KicK.wav
329,192,107388,1,0,0:0:0:50:CrashL.wav
109,192,107388,1,0,0:0:0:0:
475,192,107388,1,0,0:0:0:0:
182,192,107388,1,0,0:0:0:50:Chord B.wav
182,192,107545,1,0,0:0:0:50:Chord B.wav
402,192,107545,1,0,0:0:0:0:
329,192,107545,1,0,0:0:0:0:
402,192,107703,128,0,107938:0:0:0:50:Snare A.wav
36,192,107703,1,0,0:0:0:0:
109,192,107703,1,0,0:0:0:0:
256,192,107703,1,0,0:0:0:50:Chord B.wav
475,192,107703,128,0,107938:0:0:0:0:
182,192,107860,1,0,0:0:0:50:Chord B.wav
329,192,107860,1,0,0:0:0:0:
109,192,107938,1,0,0:0:0:50:Chord B.wav
36,192,107938,1,0,0:0:0:0:
256,192,108017,1,0,0:0:0:50:Chord B.wav
402,192,108017,1,0,0:0:0:0:
475,192,108017,1,0,0:0:0:0:
182,192,108095,1,0,0:0:0:0:
109,192,108174,1,0,0:0:0:50:Chord B.wav
475,192,108174,1,0,0:0:0:50:KicK.wav
402,192,108213,1,0,0:0:0:50:Drum.wav
329,192,108252,1,0,0:0:0:50:Drum.wav
36,192,108252,1,0,0:0:0:0:
256,192,108292,1,0,0:0:0:50:Drum.wav
182,192,108331,1,0,0:0:0:50:Chord B.wav
402,192,108331,1,0,0:0:0:50:Snare A.wav
475,192,108331,1,0,0:0:0:0:
256,192,108409,1,0,0:0:0:50:Chord B.wav
36,192,108409,1,0,0:0:0:0:
329,192,108488,1,0,0:0:0:50:Chord B.wav
109,192,108488,1,0,0:0:0:50:KicK.wav
475,192,108488,1,0,0:0:0:0:
402,192,108566,1,0,0:0:0:50:Chord B.wav
182,192,108566,1,0,0:0:0:0:
109,192,108645,1,0,0:0:0:50:Chord B.wav
475,192,108645,1,0,0:0:0:50:KicK.wav
256,192,108645,1,0,0:0:0:50:CrashL.wav
36,192,108645,1,0,0:0:0:0:
329,192,108723,1,0,0:0:0:50:Chord B.wav
402,192,108723,1,0,0:0:0:0:
182,192,108802,1,0,0:0:0:50:Chord B.wav
109,192,108802,1,0,0:0:0:0:
329,192,108881,1,0,0:0:0:50:Chord B.wav
256,192,108881,1,0,0:0:0:0:
402,192,108959,1,0,0:0:0:50:Chord B.wav
475,192,108959,1,0,0:0:0:50:Snare A.wav
109,192,108959,1,0,0:0:0:50:CrashL.wav
36,192,108959,1,0,0:0:0:0:
256,192,109038,1,0,0:0:0:50:Chord B.wav
182,192,109038,1,0,0:0:0:0:
329,192,109116,1,0,0:0:0:50:Chord B.wav
402,192,109116,1,0,0:0:0:0:
182,192,109195,1,0,0:0:0:50:Chord B.wav
109,192,109195,1,0,0:0:0:0:
36,192,109273,1,0,0:0:0:50:Chord B.wav
329,192,109273,1,0,0:0:0:50:KicK.wav
475,192,109273,1,0,0:0:0:0:
402,192,109273,1,0,0:0:0:0:
109,192,109326,1,0,0:0:0:50:Chord B.wav
182,192,109378,1,0,0:0:0:50:Chord B.wav
402,192,109430,1,0,0:0:0:50:Drum.wav
256,192,109430,1,0,0:0:0:50:Chord B.wav
329,192,109483,1,0,0:0:0:50:Drum.wav
109,192,109483,1,0,0:0:0:50:Chord B.wav
182,192,109535,1,0,0:0:0:50:Chord B.wav
36,192,109587,1,0,0:0:0:50:Drum.wav
256,192,109587,1,0,0:0:0:50:Chord B.wav
475,192,109587,1,0,0:0:0:0:
329,192,109640,1,0,0:0:0:50:Chord B.wav
402,192,109692,1,0,0:0:0:50:Chord B.wav
109,192,109692,1,0,0:0:0:50:Drum.wav
256,192,109744,1,0,0:0:0:50:Chord B.wav
329,192,109797,1,0,0:0:0:50:Chord B.wav
182,192,109797,1,0,0:0:0:50:Drum.wav
402,192,109849,1,0,0:0:0:50:Chord B.wav
36,192,109901,128,0,110137:0:0:0:50:CrashS.wav
475,192,109901,128,0,110137:0:0:0:50:KicK.wav
256,192,109901,128,0,110137:0:0:0:50:Synth.wav
109,192,109901,128,0,110137:0:0:0:50:Chord B.wav
256,192,110216,128,0,110608:0:0:0:50:CrashL.wav
402,192,110216,128,0,110608:0:0:0:50:Synth.wav
475,192,110216,128,0,111079:0:0:0:50:Snare A.wav
36,192,110216,128,0,110922:0:0:0:50:Chord B.wav
109,192,110216,128,0,110765:0:0:0:0:
182,192,110216,128,0,110608:0:0:0:0:
402,192,110687,128,0,110765:0:0:0:50:Chord B.wav
182,192,110687,128,0,110765:0:0:0:50:KicK.wav
256,192,110687,128,0,110765:0:0:0:0:
329,192,110844,128,0,110922:0:0:0:50:Chord B.wav
109,192,110844,128,0,110922:0:0:0:0:
182,192,110844,128,0,110922:0:0:0:0:
256,192,111001,128,0,111079:0:0:0:50:Chord B.wav
36,192,111001,128,0,111079:0:0:0:50:Snare A.wav
109,192,111001,128,0,111079:0:0:0:0:
475,192,111158,1,0,0:0:0:50:Chord B.wav
256,192,111158,1,0,0:0:0:0:
36,192,111158,128,0,111708:0:0:0:50:Synth.wav
402,192,111237,1,0,0:0:0:50:Chord B.wav
182,192,111237,1,0,0:0:0:0:
329,192,111315,1,0,0:0:0:50:Chord B.wav
109,192,111315,1,0,0:0:0:50:KicK.wav
256,192,111394,1,0,0:0:0:50:Chord B.wav
475,192,111394,1,0,0:0:0:0:
182,192,111472,1,0,0:0:0:50:Chord B.wav
109,192,111472,1,0,0:0:0:50:Snare A.wav
402,192,111472,1,0,0:0:0:0:
256,192,111551,1,0,0:0:0:50:Chord B.wav
475,192,111551,1,0,0:0:0:0:
329,192,111629,1,0,0:0:0:50:Chord B.wav
109,192,111629,1,0,0:0:0:0:
402,192,111708,1,0,0:0:0:50:Chord B.wav
182,192,111708,1,0,0:0:0:0:
475,192,111786,128,0,111943:0:0:0:50:Synth.wav
256,192,111786,1,0,0:0:0:50:Chord B.wav
36,192,111786,1,0,0:0:0:50:KicK.wav
329,192,111865,1,0,0:0:0:50:Chord B.wav
402,192,111865,1,0,0:0:0:0:
182,192,111943,1,0,0:0:0:50:Chord B.wav
109,192,111943,1,0,0:0:0:50:KicK.wav
256,192,112022,1,0,0:0:0:50:Chord B.wav
402,192,112022,128,0,112179:0:0:0:50:Synth.wav
329,192,112022,1,0,0:0:0:0:
109,192,112100,1,0,0:0:0:50:Chord B.wav
475,192,112100,1,0,0:0:0:50:Snare A.wav
36,192,112100,1,0,0:0:0:0:
182,192,112179,1,0,0:0:0:50:Chord B.wav
256,192,112179,1,0,0:0:0:0:
402,192,112257,1,0,0:0:0:0:
36,192,112257,1,0,0:0:0:50:Chord B.wav
329,192,112257,128,0,112415:0:0:0:50:Synth.wav
109,192,112310,1,0,0:0:0:50:Chord B.wav
182,192,112362,1,0,0:0:0:50:Chord B.wav
475,192,112415,128,0,113593:0:0:0:50:Synth.wav
256,192,112415,1,0,0:0:0:50:Chord B.wav
36,192,112415,1,0,0:0:0:0:
402,192,112415,1,0,0:0:0:50:KicK.wav
109,192,112572,1,0,0:0:0:0:
256,192,112572,1,0,0:0:0:0:
36,192,112572,1,0,0:0:0:0:
182,192,112729,1,0,0:0:0:50:Snare A.wav
329,192,112729,1,0,0:0:0:0:
402,192,112729,1,0,0:0:0:0:
109,192,112886,128,0,113121:0:0:0:50:BeLL2.wav
182,192,112886,1,0,0:0:0:50:KicK.wav
36,192,112886,128,0,113121:0:0:0:0:
329,192,112964,1,0,0:0:0:0:
256,192,113043,1,0,0:0:0:0:
402,192,113121,1,0,0:0:0:0:
109,192,113200,128,0,113357:0:0:0:50:BeLL2.wav
256,192,113200,1,0,0:0:0:50:KicK.wav
182,192,113200,1,0,0:0:0:0:
36,192,113200,128,0,113357:0:0:0:0:
402,192,113278,1,0,0:0:0:0:
329,192,113278,1,0,0:0:0:0:
182,192,113357,1,0,0:0:0:0:
329,192,113435,1,0,0:0:0:0:
36,192,113514,1,0,0:0:0:50:Snare A.wav
109,192,113514,1,0,0:0:0:0:
402,192,113514,1,0,0:0:0:0:
256,192,113514,1,0,0:0:0:0:
36,192,113671,1,0,0:0:0:0:
475,192,113671,1,0,0:0:0:50:Chord B.wav
256,192,113671,128,0,114221:0:0:0:50:Synth.wav
402,192,113750,1,0,0:0:0:50:Chord B.wav
109,192,113750,1,0,0:0:0:0:
329,192,113828,1,0,0:0:0:50:Chord B.wav
182,192,113828,1,0,0:0:0:50:KicK.wav
475,192,113907,1,0,0:0:0:50:Chord B.wav
36,192,113907,1,0,0:0:0:0:
402,192,113985,1,0,0:0:0:50:Chord B.wav
182,192,113985,1,0,0:0:0:50:Snare A.wav
109,192,113985,1,0,0:0:0:0:
475,192,114064,1,0,0:0:0:50:Chord B.wav
36,192,114064,1,0,0:0:0:0:
329,192,114142,1,0,0:0:0:50:Chord B.wav
109,192,114142,1,0,0:0:0:0:
402,192,114221,1,0,0:0:0:50:Chord B.wav
182,192,114221,1,0,0:0:0:0:
475,192,114299,1,0,0:0:0:50:KicK.wav
256,192,114299,1,0,0:0:0:50:Chord B.wav
36,192,114299,128,0,114535:0:0:0:50:Synth.wav
329,192,114378,1,0,0:0:0:50:Chord B.wav
109,192,114378,1,0,0:0:0:0:
402,192,114456,1,0,0:0:0:50:Chord B.wav
182,192,114456,1,0,0:0:0:50:KicK.wav
475,192,114535,1,0,0:0:0:50:Chord B.wav
256,192,114535,1,0,0:0:0:0:
109,192,114614,128,0,114849:0:0:0:50:Synth.wav
402,192,114614,1,0,0:0:0:50:Chord B.wav
329,192,114614,1,0,0:0:0:0:
36,192,114614,1,0,0:0:0:50:Snare A.wav
182,192,114692,1,0,0:0:0:50:Chord B.wav
256,192,114692,1,0,0:0:0:0:
475,192,114771,1,0,0:0:0:50:Chord B.wav
402,192,114771,1,0,0:0:0:0:
256,192,114849,1,0,0:0:0:50:Chord B.wav
329,192,114849,1,0,0:0:0:0:
402,192,114928,1,0,0:0:0:50:Chord B.wav
475,192,114928,1,0,0:0:0:0:
36,192,114928,1,0,0:0:0:50:KicK.wav
182,192,114928,128,0,115870:0:0:0:50:Synth.wav
329,192,115085,1,0,0:0:0:0:
109,192,115085,1,0,0:0:0:0:
36,192,115085,1,0,0:0:0:0:
256,192,115242,1,0,0:0:0:50:Snare A.wav
402,192,115242,1,0,0:0:0:0:
475,192,115242,1,0,0:0:0:0:
36,192,115399,128,0,115634:0:0:0:0:
475,192,115399,1,0,0:0:0:50:KicK.wav
109,192,115399,128,0,115634:0:0:0:50:BeLL2.wav
329,192,115477,1,0,0:0:0:0:
402,192,115556,1,0,0:0:0:0:
475,192,115634,1,0,0:0:0:0:
109,192,115713,128,0,115870:0:0:0:50:BeLL2.wav
256,192,115713,1,0,0:0:0:50:KicK.wav
329,192,115713,1,0,0:0:0:0:
36,192,115713,128,0,115870:0:0:0:0:
475,192,115792,1,0,0:0:0:0:
402,192,115792,1,0,0:0:0:0:
329,192,115870,1,0,0:0:0:50:Chord B.wav
256,192,115870,128,0,116106:0:0:0:50:Synth.wav
36,192,115949,1,0,0:0:0:50:Chord B.wav
402,192,116027,1,0,0:0:0:50:Chord B.wav
475,192,116027,1,0,0:0:0:50:Snare A.wav
109,192,116027,1,0,0:0:0:0:
182,192,116027,1,0,0:0:0:0:
329,192,116106,1,0,0:0:0:50:Chord B.wav
36,192,116184,1,0,0:0:0:50:Chord B.wav
256,192,116184,1,0,0:0:0:0:
475,192,116184,128,0,116734:0:0:0:50:Synth.wav
109,192,116263,1,0,0:0:0:50:Chord B.wav
329,192,116263,1,0,0:0:0:0:
182,192,116341,1,0,0:0:0:50:Chord B.wav
402,192,116341,1,0,0:0:0:50:KicK.wav
256,192,116420,1,0,0:0:0:50:Chord B.wav
36,192,116420,1,0,0:0:0:0:
402,192,116498,1,0,0:0:0:50:Chord B.wav
109,192,116498,1,0,0:0:0:50:Snare A.wav
182,192,116498,1,0,0:0:0:0:
329,192,116577,1,0,0:0:0:50:Chord B.wav
36,192,116577,1,0,0:0:0:0:
256,192,116655,1,0,0:0:0:50:Chord B.wav
109,192,116655,1,0,0:0:0:0:
182,192,116734,1,0,0:0:0:50:Chord B.wav
402,192,116734,1,0,0:0:0:0:
109,192,116812,1,0,0:0:0:50:Chord B.wav
329,192,116812,1,0,0:0:0:50:KicK.wav
475,192,116812,128,0,117048:0:0:0:50:Synth.wav
36,192,116891,1,0,0:0:0:50:Chord B.wav
256,192,116891,1,0,0:0:0:0:
109,192,116970,1,0,0:0:0:50:Chord B.wav
329,192,116970,1,0,0:0:0:50:KicK.wav
182,192,117048,1,0,0:0:0:50:Chord B.wav
402,192,117048,1,0,0:0:0:0:
256,192,117127,1,0,0:0:0:50:Chord B.wav
36,192,117127,1,0,0:0:0:0:
475,192,117127,1,0,0:0:0:50:Snare A.wav
109,192,117127,128,0,117362:0:0:0:50:Synth.wav
329,192,117205,1,0,0:0:0:50:Chord B.wav
402,192,117205,1,0,0:0:0:0:
256,192,117284,1,0,0:0:0:50:Chord B.wav
182,192,117284,1,0,0:0:0:0:
402,192,117362,1,0,0:0:0:50:Chord B.wav
475,192,117362,1,0,0:0:0:0:
329,192,117441,1,0,0:0:0:50:Chord B.wav
109,192,117441,1,0,0:0:0:0:
36,192,117441,1,0,0:0:0:50:KicK.wav
256,192,117441,128,0,118619:0:0:0:50:Synth.wav
329,192,117598,1,0,0:0:0:0:
475,192,117598,1,0,0:0:0:0:
109,192,117598,1,0,0:0:0:0:
182,192,117755,1,0,0:0:0:50:Snare A.wav
36,192,117755,1,0,0:0:0:0:
402,192,117755,1,0,0:0:0:0:
402,192,117912,128,0,118148:0:0:0:0:
36,192,117912,1,0,0:0:0:50:KicK.wav
475,192,117912,128,0,118148:0:0:0:50:BeLL2.wav
182,192,117990,1,0,0:0:0:0:
109,192,118069,1,0,0:0:0:0:
36,192,118148,1,0,0:0:0:0:
329,192,118226,1,0,0:0:0:50:KicK.wav
402,192,118226,128,0,118383:0:0:0:0:
182,192,118226,1,0,0:0:0:0:
475,192,118226,128,0,118383:0:0:0:50:BeLL2.wav
36,192,118305,1,0,0:0:0:0:
329,192,118383,1,0,0:0:0:50:Chord B.wav
109,192,118383,1,0,0:0:0:0:
475,192,118462,1,0,0:0:0:50:Chord B.wav
182,192,118462,1,0,0:0:0:0:
402,192,118540,1,0,0:0:0:50:Chord B.wav
109,192,118540,1,0,0:0:0:50:Snare A.wav
36,192,118540,1,0,0:0:0:0:
329,192,118619,1,0,0:0:0:50:Chord B.wav
182,192,118619,1,0,0:0:0:0:
475,192,118697,1,0,0:0:0:50:Synth.wav
256,192,118697,1,0,0:0:0:50:Chord B.wav
402,192,118697,1,0,0:0:0:0:
36,192,118697,1,0,0:0:0:0:
109,192,118776,1,0,0:0:0:0:
475,192,118854,1,0,0:0:0:50:KicK.wav
402,192,118854,1,0,0:0:0:0:
329,192,118854,1,0,0:0:0:0:
182,192,118854,1,0,0:0:0:0:
475,192,119011,1,0,0:0:0:50:Chord B.wav
256,192,119011,1,0,0:0:0:50:Snare A.wav
36,192,119011,1,0,0:0:0:0:
109,192,119011,1,0,0:0:0:0:
402,192,119090,1,0,0:0:0:50:Chord B.wav
182,192,119090,1,0,0:0:0:0:
329,192,119168,1,0,0:0:0:50:Chord B.wav
36,192,119168,1,0,0:0:0:50:KicK.wav
109,192,119168,1,0,0:0:0:0:
256,192,119247,1,0,0:0:0:50:Chord B.wav
402,192,119247,1,0,0:0:0:0:
182,192,119326,1,0,0:0:0:50:Chord B.wav
329,192,119326,1,0,0:0:0:50:KicK.wav
475,192,119326,1,0,0:0:0:0:
256,192,119404,1,0,0:0:0:50:Chord B.wav
36,192,119404,1,0,0:0:0:50:Snare A.wav
109,192,119404,1,0,0:0:0:0:
182,192,119483,1,0,0:0:0:50:Chord B.wav
402,192,119483,1,0,0:0:0:50:KicK.wav
475,192,119483,1,0,0:0:0:0:
109,192,119561,1,0,0:0:0:50:Chord B.wav
329,192,119561,1,0,0:0:0:0:
36,192,119640,1,0,0:0:0:50:Chord B.wav
256,192,119640,1,0,0:0:0:50:KicK.wav
475,192,119640,1,0,0:0:0:50:Snare A.wav
182,192,119718,1,0,0:0:0:50:Chord B.wav
402,192,119718,1,0,0:0:0:50:KicK.wav
329,192,119718,1,0,0:0:0:0:
475,192,119797,1,0,0:0:0:50:Chord B.wav
256,192,119797,1,0,0:0:0:50:KicK.wav
36,192,119797,1,0,0:0:0:0:
329,192,119875,1,0,0:0:0:50:Chord B.wav
109,192,119875,1,0,0:0:0:50:KicK.wav
182,192,119875,1,0,0:0:0:0:
475,192,119954,128,0,120189:0:0:0:50:Synth.wav
36,192,119954,128,0,120189:0:0:0:50:Chord B.wav
402,192,119954,128,0,120189:0:0:0:50:CrashS.wav
256,192,119954,128,0,120189:0:0:0:50:KicK.wav
329,192,120268,128,0,120661:0:0:0:50:Synth.wav
402,192,120268,128,0,120818:0:0:0:50:Chord B.wav
475,192,120268,128,0,120975:0:0:0:50:CrashL.wav
36,192,120268,128,0,121132:0:0:0:50:Snare A.wav
109,192,120268,128,0,120661:0:0:0:0:
182,192,120268,128,0,120661:0:0:0:0:
329,192,120739,128,0,120818:0:0:0:50:Chord B.wav
182,192,120739,128,0,120818:0:0:0:50:KicK.wav
109,192,120739,128,0,120818:0:0:0:0:
402,192,120896,128,0,120975:0:0:0:50:Chord B.wav
256,192,120896,128,0,120975:0:0:0:0:
182,192,120896,128,0,120975:0:0:0:0:
475,192,121053,128,0,121132:0:0:0:50:Chord B.wav
329,192,121053,128,0,121132:0:0:0:50:Snare A.wav
256,192,121053,128,0,121132:0:0:0:0:
256,192,121210,128,0,121760:0:0:0:50:Synth.wav
36,192,121210,1,0,0:0:0:50:Chord B.wav
475,192,121210,1,0,0:0:0:0:
109,192,121289,1,0,0:0:0:50:Chord B.wav
402,192,121289,1,0,0:0:0:0:
182,192,121367,1,0,0:0:0:50:Chord B.wav
329,192,121367,1,0,0:0:0:50:KicK.wav
36,192,121446,1,0,0:0:0:50:Chord B.wav
475,192,121446,1,0,0:0:0:0:
109,192,121525,1,0,0:0:0:50:Chord B.wav
402,192,121525,1,0,0:0:0:50:Snare A.wav
329,192,121525,1,0,0:0:0:0:
36,192,121603,1,0,0:0:0:50:Chord B.wav
475,192,121603,1,0,0:0:0:0:
182,192,121682,1,0,0:0:0:50:Chord B.wav
402,192,121682,1,0,0:0:0:0:
109,192,121760,1,0,0:0:0:50:Chord B.wav
329,192,121760,1,0,0:0:0:0:
182,192,121839,128,0,121996:0:0:0:50:Synth.wav
36,192,121839,1,0,0:0:0:50:Chord B.wav
256,192,121839,1,0,0:0:0:50:KicK.wav
402,192,121917,1,0,0:0:0:50:Chord B.wav
475,192,121917,1,0,0:0:0:0:
329,192,121996,1,0,0:0:0:50:Chord B.wav
256,192,121996,1,0,0:0:0:50:KicK.wav
182,192,122074,1,0,0:0:0:50:Chord B.wav
36,192,122074,1,0,0:0:0:0:
109,192,122074,128,0,122231:0:0:0:50:Synth.wav
402,192,122153,1,0,0:0:0:50:Chord B.wav
329,192,122153,1,0,0:0:0:50:Snare A.wav
475,192,122153,1,0,0:0:0:0:
256,192,122231,1,0,0:0:0:50:Chord B.wav
182,192,122231,1,0,0:0:0:0:
402,192,122310,1,0,0:0:0:50:Chord B.wav
109,192,122310,1,0,0:0:0:0:
36,192,122310,128,0,122467:0:0:0:50:Synth.wav
329,192,122362,1,0,0:0:0:50:Chord B.wav
256,192,122415,1,0,0:0:0:50:Chord B.wav
182,192,122467,1,0,0:0:0:50:Chord B.wav
109,192,122467,1,0,0:0:0:0:
402,192,122467,1,0,0:0:0:50:KicK.wav
475,192,122467,128,0,123331:0:0:0:50:Synth.wav
36,192,122624,1,0,0:0:0:0:
329,192,122624,1,0,0:0:0:0:
182,192,122624,1,0,0:0:0:0:
36,192,122781,1,0,0:0:0:50:Chord B.wav
256,192,122781,1,0,0:0:0:50:Snare A.wav
402,192,122781,1,0,0:0:0:0:
182,192,122860,1,0,0:0:0:50:Chord B.wav
329,192,122860,1,0,0:0:0:0:
109,192,122938,1,0,0:0:0:50:Chord B.wav
402,192,122938,1,0,0:0:0:50:KicK.wav
329,192,123017,1,0,0:0:0:50:Chord B.wav
36,192,123017,1,0,0:0:0:0:
256,192,123095,1,0,0:0:0:50:Chord B.wav
109,192,123095,1,0,0:0:0:0:
402,192,123174,1,0,0:0:0:50:Chord B.wav
182,192,123174,1,0,0:0:0:0:
329,192,123252,1,0,0:0:0:50:Chord B.wav
109,192,123252,1,0,0:0:0:50:KicK.wav
402,192,123331,1,0,0:0:0:50:Chord B.wav
182,192,123331,1,0,0:0:0:0:
475,192,123409,1,0,0:0:0:50:Chord B.wav
36,192,123409,1,0,0:0:0:0:
256,192,123409,128,0,123645:0:0:0:50:Synth.wav
402,192,123488,1,0,0:0:0:50:Chord B.wav
182,192,123488,1,0,0:0:0:0:
329,192,123566,1,0,0:0:0:50:Chord B.wav
36,192,123566,1,0,0:0:0:50:Snare A.wav
109,192,123566,1,0,0:0:0:0:
402,192,123645,1,0,0:0:0:50:Chord B.wav
182,192,123645,1,0,0:0:0:0:
475,192,123723,1,0,0:0:0:50:Chord B.wav
256,192,123723,1,0,0:0:0:0:
36,192,123723,128,0,124901:0:0:0:50:Synth.wav
329,192,123881,1,0,0:0:0:50:KicK.wav
182,192,123881,1,0,0:0:0:0:
109,192,123881,1,0,0:0:0:0:
402,192,123881,1,0,0:0:0:0:
329,192,124038,1,0,0:0:0:50:Chord B.wav
182,192,124038,1,0,0:0:0:50:Snare A.wav
475,192,124038,1,0,0:0:0:0:
402,192,124116,1,0,0:0:0:50:Chord B.wav
256,192,124116,1,0,0:0:0:0:
475,192,124195,1,0,0:0:0:50:Chord B.wav
109,192,124195,1,0,0:0:0:0:
329,192,124273,1,0,0:0:0:50:Chord B.wav
182,192,124273,1,0,0:0:0:0:
402,192,124352,1,0,0:0:0:50:Chord B.wav
256,192,124352,1,0,0:0:0:50:KicK.wav
475,192,124430,1,0,0:0:0:50:Chord B.wav
182,192,124430,1,0,0:0:0:0:
402,192,124509,1,0,0:0:0:50:Chord B.wav
109,192,124509,1,0,0:0:0:50:KicK.wav
329,192,124587,1,0,0:0:0:50:Chord B.wav
182,192,124587,1,0,0:0:0:0:
256,192,124666,1,0,0:0:0:50:Chord B.wav
402,192,124666,1,0,0:0:0:50:Snare A.wav
475,192,124666,1,0,0:0:0:0:
329,192,124744,1,0,0:0:0:50:Chord B.wav
109,192,124744,1,0,0:0:0:0:
402,192,124823,1,0,0:0:0:50:Chord B.wav
182,192,124823,1,0,0:0:0:50:KicK.wav
475,192,124901,1,0,0:0:0:50:Chord B.wav
256,192,124901,1,0,0:0:0:0:
182,192,124980,1,0,0:0:0:50:Synth.wav
36,192,124980,1,0,0:0:0:50:Chord B.wav
402,192,124980,1,0,0:0:0:50:KicK.wav
109,192,124980,1,0,0:0:0:0:
329,192,124980,1,0,0:0:0:0:
182,192,125137,1,0,0:0:0:0:
109,192,125137,1,0,0:0:0:0:
329,192,125137,1,0,0:0:0:0:
475,192,125216,1,0,0:0:0:0:
36,192,125294,1,0,0:0:0:50:Snare A.wav
402,192,125294,1,0,0:0:0:0:
109,192,125294,1,0,0:0:0:0:
256,192,125294,1,0,0:0:0:0:
475,192,125373,1,0,0:0:0:0:
329,192,125451,1,0,0:0:0:0:
109,192,125451,1,0,0:0:0:0:
182,192,125530,1,0,0:0:0:0:
475,192,125608,1,0,0:0:0:50:Synth.wav
256,192,125608,1,0,0:0:0:50:Chord B.wav
36,192,125608,1,0,0:0:0:50:KicK.wav
402,192,125608,1,0,0:0:0:0:
329,192,125687,1,0,0:0:0:50:Chord B.wav
109,192,125687,1,0,0:0:0:0:
402,192,125765,1,0,0:0:0:50:Chord B.wav
182,192,125765,1,0,0:0:0:0:
475,192,125844,1,0,0:0:0:50:Chord B.wav
256,192,125844,1,0,0:0:0:50:Snare A.wav
109,192,125844,1,0,0:0:0:0:
182,192,125922,1,0,0:0:0:50:Synth.wav
402,192,125922,1,0,0:0:0:50:Chord B.wav
36,192,125922,1,0,0:0:0:50:KicK.wav
329,192,126001,1,0,0:0:0:50:Chord B.wav
109,192,126001,1,0,0:0:0:0:
402,192,126079,1,0,0:0:0:50:Synth.wav
256,192,126079,1,0,0:0:0:50:Chord B.wav
475,192,126079,1,0,0:0:0:50:Snare A.wav
36,192,126079,1,0,0:0:0:0:
402,192,126237,1,0,0:0:0:50:Synth.wav
475,192,126237,1,0,0:0:0:50:Chord B.wav
182,192,126237,1,0,0:0:0:50:KicK.wav
329,192,126237,1,0,0:0:0:0:
109,192,126237,1,0,0:0:0:0:
109,192,126394,1,0,0:0:0:0:
329,192,126394,1,0,0:0:0:0:
182,192,126394,1,0,0:0:0:0:
475,192,126472,1,0,0:0:0:0:
402,192,126551,1,0,0:0:0:50:Chord B.wav
109,192,126551,1,0,0:0:0:50:Snare A.wav
36,192,126551,1,0,0:0:0:0:
256,192,126551,1,0,0:0:0:0:
329,192,126629,1,0,0:0:0:50:Chord B.wav
182,192,126708,1,0,0:0:0:50:Chord B.wav
402,192,126708,1,0,0:0:0:0:
256,192,126786,1,0,0:0:0:50:Chord B.wav
329,192,126865,1,0,0:0:0:50:Chord B.wav
109,192,126865,1,0,0:0:0:50:KicK.wav
402,192,126865,1,0,0:0:0:0:
36,192,126865,1,0,0:0:0:0:
475,192,126865,1,0,0:0:0:50:Synth.wav
182,192,126943,1,0,0:0:0:0:
475,192,127022,1,0,0:0:0:50:Synth.wav
329,192,127022,1,0,0:0:0:50:Snare A.wav
109,192,127022,1,0,0:0:0:0:
256,192,127100,1,0,0:0:0:0:
182,192,127179,1,0,0:0:0:50:Synth.wav
402,192,127179,1,0,0:0:0:50:Chord B.wav
36,192,127179,1,0,0:0:0:50:KicK.wav
475,192,127179,1,0,0:0:0:0:
256,192,127257,1,0,0:0:0:50:Synth.wav
109,192,127257,1,0,0:0:0:50:Chord B.wav
36,192,127336,1,0,0:0:0:50:KicK.wav
329,192,127336,1,0,0:0:0:50:Synth.wav
182,192,127336,1,0,0:0:0:50:Chord B.wav
402,192,127415,1,0,0:0:0:50:Synth.wav
256,192,127415,1,0,0:0:0:50:Chord B.wav
475,192,127493,1,0,0:0:0:50:Synth.wav
182,192,127493,1,0,0:0:0:50:KicK.wav
36,192,127493,1,0,0:0:0:0:
109,192,127493,1,0,0:0:0:0:
329,192,127493,1,0,0:0:0:50:Chord B.wav
182,192,127650,1,0,0:0:0:50:KicK.wav
475,192,127650,1,0,0:0:0:0:
329,192,127650,1,0,0:0:0:0:
109,192,127650,1,0,0:0:0:0:
256,192,127807,1,0,0:0:0:50:Chord B.wav
109,192,127807,1,0,0:0:0:50:Snare A.wav
36,192,127807,1,0,0:0:0:0:
475,192,127807,1,0,0:0:0:0:
329,192,127886,1,0,0:0:0:50:Chord B.wav
182,192,127886,1,0,0:0:0:0:
402,192,127886,1,0,0:0:0:0:
256,192,127964,1,0,0:0:0:50:Chord B.wav
109,192,127964,1,0,0:0:0:50:KicK.wav
36,192,127964,1,0,0:0:0:0:
402,192,128043,1,0,0:0:0:50:Chord B.wav
475,192,128043,1,0,0:0:0:50:Drum.wav
329,192,128121,1,0,0:0:0:50:Chord B.wav
182,192,128121,1,0,0:0:0:50:Drum.wav
109,192,128200,1,0,0:0:0:50:Chord B.wav
36,192,128200,1,0,0:0:0:50:Drum.wav
402,192,128278,1,0,0:0:0:50:Chord B.wav
256,192,128278,1,0,0:0:0:50:Drum.wav
475,192,128278,1,0,0:0:0:0:
182,192,128357,1,0,0:0:0:50:Chord B.wav
109,192,128357,1,0,0:0:0:50:Drum.wav
36,192,128357,1,0,0:0:0:0:
402,192,128435,1,0,0:0:0:50:Synth.wav
475,192,128435,1,0,0:0:0:50:Chord B.wav
329,192,128435,1,0,0:0:0:50:KicK.wav
256,192,128475,1,0,0:0:0:50:Drum.wav
182,192,128514,1,0,0:0:0:50:Drum.wav
109,192,128553,1,0,0:0:0:50:Drum.wav
36,192,128593,1,0,0:0:0:50:Drum.wav
475,192,128593,1,0,0:0:0:0:
402,192,128632,1,0,0:0:0:50:Drum.wav
329,192,128671,1,0,0:0:0:50:Drum.wav
256,192,128710,1,0,0:0:0:50:Drum.wav
36,192,128750,128,0,128985:0:0:0:50:Synth.wav
109,192,128750,128,0,128985:0:0:0:50:CrashS.wav
182,192,128750,128,0,128985:0:0:0:50:KicK.wav
36,192,129064,5,0,0:0:0:50:Snare A.wav
182,192,129064,1,0,0:0:0:50:CrashL.wav
475,192,129064,128,0,129142:0:0:0:0:
109,192,129064,1,0,0:0:0:0:
402,192,129103,128,0,129182:0:0:0:0:
329,192,129142,128,0,129221:0:0:0:0:
256,192,129182,128,0,129260:0:0:0:0:
182,192,129221,128,0,129299:0:0:0:0:
402,192,129260,128,0,129339:0:0:0:0:
329,192,129299,128,0,129378:0:0:0:0:
256,192,129339,128,0,129417:0:0:0:0:
182,192,129378,128,0,129456:0:0:0:0:
109,192,129417,128,0,129496:0:0:0:0:
329,192,129456,128,0,129535:0:0:0:0:
256,192,129496,128,0,129574:0:0:0:0:
182,192,129535,128,0,129614:0:0:0:0:
109,192,129574,128,0,129653:0:0:0:0:
36,192,129614,128,0,129692:0:0:0:0:
475,192,129692,128,0,129771:0:0:0:50:Drum.wav
402,192,129692,128,0,129771:0:0:0:0:
182,192,129771,128,0,129849:0:0:0:50:Drum.wav
256,192,129771,128,0,129849:0:0:0:0:
329,192,129849,128,0,129928:0:0:0:50:Drum.wav
402,192,129849,128,0,129928:0:0:0:0:
182,192,129928,128,0,130006:0:0:0:50:Drum.wav
109,192,129928,128,0,130006:0:0:0:0:
475,192,130006,1,0,0:0:0:50:KicK.wav
36,192,130006,1,0,0:0:0:50:Chord A.wav
402,192,130006,1,0,0:0:0:50:CrashL.wav
256,192,130006,128,0,131263:0:0:0:50:Synth.wav
109,192,130085,1,0,0:0:0:50:Chord A.wav
182,192,130163,1,0,0:0:0:50:Chord A.wav
402,192,130163,1,0,0:0:0:0:
329,192,130320,1,0,0:0:0:50:Chord A.wav
36,192,130320,1,0,0:0:0:50:KicK.wav
182,192,130320,1,0,0:0:0:0:
402,192,130399,1,0,0:0:0:50:Chord A.wav
475,192,130477,1,0,0:0:0:50:Chord A.wav
36,192,130477,1,0,0:0:0:0:
475,192,130634,1,0,0:0:0:50:Chord A.wav
182,192,130634,1,0,0:0:0:50:KicK.wav
109,192,130634,1,0,0:0:0:0:
402,192,130713,1,0,0:0:0:50:Chord A.wav
329,192,130792,1,0,0:0:0:50:Chord A.wav
182,192,130792,1,0,0:0:0:0:
475,192,130949,1,0,0:0:0:50:KicK.wav
36,192,130949,1,0,0:0:0:50:Chord A.wav
329,192,130949,1,0,0:0:0:0:
109,192,131027,1,0,0:0:0:50:Chord A.wav
182,192,131106,1,0,0:0:0:50:Chord A.wav
402,192,131106,1,0,0:0:0:0:
402,192,131263,1,0,0:0:0:50:Chord A.wav
36,192,131263,1,0,0:0:0:0:
182,192,131263,1,0,0:0:0:50:KicK.wav
475,192,131263,128,0,131812:0:0:0:50:Synth.wav
329,192,131341,1,0,0:0:0:50:Chord A.wav
256,192,131420,1,0,0:0:0:50:Chord A.wav
36,192,131420,1,0,0:0:0:0:
182,192,131577,1,0,0:0:0:50:Chord A.wav
402,192,131577,1,0,0:0:0:50:KicK.wav
329,192,131577,1,0,0:0:0:0:
109,192,131655,1,0,0:0:0:50:Chord A.wav
36,192,131734,1,0,0:0:0:50:Chord A.wav
256,192,131734,1,0,0:0:0:0:
36,192,131891,128,0,132519:0:0:0:0:
329,192,131891,128,0,131996:0:0:0:50:Synth.wav
109,192,131891,1,0,0:0:0:50:Chord A.wav
475,192,131891,1,0,0:0:0:50:KicK.wav
402,192,131891,128,0,131996:0:0:0:0:
182,192,131970,1,0,0:0:0:50:Chord A.wav
256,192,132048,1,0,0:0:0:50:Chord A.wav
109,192,132100,128,0,132205:0:0:0:50:Synth.wav
182,192,132100,128,0,132205:0:0:0:0:
402,192,132205,1,0,0:0:0:50:Chord A.wav
329,192,132205,1,0,0:0:0:50:KicK.wav
475,192,132284,1,0,0:0:0:50:Chord A.wav
256,192,132310,128,0,132415:0:0:0:50:Synth.wav
182,192,132310,128,0,132415:0:0:0:0:
402,192,132362,1,0,0:0:0:50:Snare A.wav
256,192,132519,1,0,0:0:0:0:
475,192,132519,1,0,0:0:0:50:KicK.wav
109,192,132519,1,0,0:0:0:50:Chord A.wav
329,192,132519,128,0,133776:0:0:0:50:Synth.wav
182,192,132598,1,0,0:0:0:50:Chord A.wav
109,192,132676,1,0,0:0:0:50:Chord A.wav
475,192,132676,1,0,0:0:0:0:
36,192,132833,1,0,0:0:0:50:Chord A.wav
402,192,132833,1,0,0:0:0:50:KicK.wav
256,192,132833,1,0,0:0:0:0:
109,192,132912,1,0,0:0:0:50:Chord A.wav
182,192,132990,1,0,0:0:0:50:Chord A.wav
402,192,132990,1,0,0:0:0:0:
475,192,133148,1,0,0:0:0:50:Chord A.wav
256,192,133148,1,0,0:0:0:50:KicK.wav
109,192,133148,1,0,0:0:0:0:
402,192,133226,1,0,0:0:0:50:Chord A.wav
475,192,133305,1,0,0:0:0:50:Chord A.wav
109,192,133305,1,0,0:0:0:0:
182,192,133462,1,0,0:0:0:50:Chord A.wav
36,192,133462,1,0,0:0:0:50:KicK.wav
402,192,133462,1,0,0:0:0:0:
109,192,133540,1,0,0:0:0:50:Chord A.wav
182,192,133619,1,0,0:0:0:50:Chord A.wav
402,192,133619,1,0,0:0:0:0:
475,192,133776,1,0,0:0:0:50:Chord B.wav
36,192,133776,1,0,0:0:0:0:
109,192,133776,1,0,0:0:0:50:KicK.wav
256,192,133776,128,0,135032:0:0:0:50:Synth.wav
402,192,133854,1,0,0:0:0:50:Chord B.wav
329,192,133933,1,0,0:0:0:50:Chord B.wav
109,192,133933,1,0,0:0:0:0:
475,192,134011,1,0,0:0:0:50:Chord B.wav
402,192,134090,1,0,0:0:0:50:Chord B.wav
182,192,134090,1,0,0:0:0:50:KicK.wav
36,192,134090,1,0,0:0:0:0:
475,192,134168,1,0,0:0:0:50:Chord B.wav
329,192,134247,1,0,0:0:0:50:Chord B.wav
36,192,134247,1,0,0:0:0:0:
402,192,134326,1,0,0:0:0:50:Chord B.wav
475,192,134404,1,0,0:0:0:50:Chord B.wav
109,192,134404,1,0,0:0:0:50:Snare A.wav
182,192,134404,1,0,0:0:0:50:KicK.wav
402,192,134483,1,0,0:0:0:50:Chord B.wav
329,192,134561,1,0,0:0:0:50:Chord B.wav
36,192,134561,1,0,0:0:0:0:
402,192,134640,1,0,0:0:0:50:Chord B.wav
182,192,134640,1,0,0:0:0:50:Snare A.wav
109,192,134640,1,0,0:0:0:0:
36,192,134718,1,0,0:0:0:50:Chord B.wav
475,192,134718,1,0,0:0:0:50:KicK.wav
182,192,134771,1,0,0:0:0:50:Chord B.wav
329,192,134823,1,0,0:0:0:50:Chord B.wav
475,192,134875,1,0,0:0:0:50:Chord B.wav
36,192,134875,1,0,0:0:0:50:Snare A.wav
109,192,134875,1,0,0:0:0:0:
402,192,134928,1,0,0:0:0:50:Chord B.wav
329,192,134980,1,0,0:0:0:50:Chord B.wav
109,192,135032,1,0,0:0:0:50:Chord A.wav
36,192,135032,1,0,0:0:0:50:CrashL.wav
402,192,135032,128,0,136839:0:0:0:50:Synth.wav
475,192,135032,1,0,0:0:0:50:KicK.wav
182,192,135111,1,0,0:0:0:50:Chord A.wav
109,192,135189,1,0,0:0:0:50:Chord A.wav
256,192,135189,1,0,0:0:0:0:
182,192,135346,1,0,0:0:0:50:KicK.wav
329,192,135346,1,0,0:0:0:50:Chord A.wav
36,192,135346,1,0,0:0:0:0:
475,192,135425,1,0,0:0:0:50:Chord A.wav
329,192,135504,1,0,0:0:0:50:Chord A.wav
109,192,135504,1,0,0:0:0:0:
475,192,135661,1,0,0:0:0:50:KicK.wav
256,192,135661,1,0,0:0:0:50:Chord A.wav
36,192,135661,1,0,0:0:0:0:
182,192,135739,1,0,0:0:0:50:Chord A.wav
109,192,135818,1,0,0:0:0:50:Chord A.wav
475,192,135818,1,0,0:0:0:0:
36,192,135975,1,0,0:0:0:50:KicK.wav
329,192,135975,1,0,0:0:0:50:Chord A.wav
182,192,135975,1,0,0:0:0:0:
475,192,136053,1,0,0:0:0:50:Chord A.wav
329,192,136132,1,0,0:0:0:50:Chord A.wav
182,192,136132,1,0,0:0:0:0:
36,192,136289,1,0,0:0:0:50:Chord B.wav
256,192,136289,1,0,0:0:0:0:
475,192,136289,1,0,0:0:0:50:KicK.wav
109,192,136367,1,0,0:0:0:50:Chord B.wav
182,192,136446,1,0,0:0:0:50:Chord B.wav
329,192,136446,1,0,0:0:0:0:
109,192,136525,1,0,0:0:0:50:Chord B.wav
36,192,136603,1,0,0:0:0:50:KicK.wav
182,192,136603,1,0,0:0:0:50:Chord B.wav
475,192,136603,1,0,0:0:0:0:
256,192,136682,1,0,0:0:0:50:Chord B.wav
329,192,136760,1,0,0:0:0:50:Chord B.wav
109,192,136760,1,0,0:0:0:0:
256,192,136812,1,0,0:0:0:50:Chord B.wav
182,192,136865,1,0,0:0:0:50:Chord B.wav
475,192,136917,128,0,137022:0:0:0:50:Synth.wav
36,192,136917,128,0,137545:0:0:0:0:
329,192,136917,1,0,0:0:0:50:KicK.wav
402,192,136917,128,0,137022:0:0:0:0:
109,192,136917,1,0,0:0:0:50:Chord A.wav
182,192,137074,1,0,0:0:0:50:Chord A.wav
329,192,137127,128,0,137231:0:0:0:50:Synth.wav
402,192,137127,128,0,137231:0:0:0:0:
256,192,137231,1,0,0:0:0:50:KicK.wav
475,192,137231,1,0,0:0:0:50:Chord A.wav
402,192,137310,1,0,0:0:0:50:Chord A.wav
182,192,137336,128,0,137441:0:0:0:50:Synth.wav
109,192,137336,128,0,137441:0:0:0:0:
329,192,137388,1,0,0:0:0:50:Snare A.wav
402,192,137545,1,0,0:0:0:50:KicK.wav
256,192,137545,1,0,0:0:0:0:
109,192,137545,1,0,0:0:0:50:Chord A.wav
475,192,137545,128,0,138723:0:0:0:50:Synth.wav
182,192,137624,1,0,0:0:0:50:Chord A.wav
109,192,137703,1,0,0:0:0:50:Chord A.wav
329,192,137703,1,0,0:0:0:0:
256,192,137860,1,0,0:0:0:50:KicK.wav
36,192,137860,1,0,0:0:0:50:Chord B.wav
402,192,137860,1,0,0:0:0:0:
109,192,137938,1,0,0:0:0:50:Chord B.wav
182,192,138017,1,0,0:0:0:50:Chord B.wav
329,192,138017,1,0,0:0:0:0:
256,192,138095,1,0,0:0:0:50:Chord B.wav
36,192,138174,1,0,0:0:0:50:KicK.wav
182,192,138174,1,0,0:0:0:50:Chord B.wav
402,192,138174,1,0,0:0:0:0:
256,192,138252,1,0,0:0:0:50:Chord B.wav
36,192,138331,1,0,0:0:0:50:Chord B.wav
329,192,138331,1,0,0:0:0:0:
109,192,138409,1,0,0:0:0:50:Chord B.wav
329,192,138488,1,0,0:0:0:50:KicK.wav
182,192,138488,1,0,0:0:0:50:Chord B.wav
402,192,138488,1,0,0:0:0:0:
256,192,138566,1,0,0:0:0:50:Chord B.wav
109,192,138645,1,0,0:0:0:50:Snare A.wav
329,192,138645,1,0,0:0:0:50:Chord B.wav
36,192,138645,1,0,0:0:0:0:
402,192,138723,1,0,0:0:0:50:Chord B.wav
36,192,138802,1,0,0:0:0:50:Synth.wav
256,192,138802,1,0,0:0:0:50:KicK.wav
475,192,138802,1,0,0:0:0:50:Chord B.wav
109,192,138802,1,0,0:0:0:50:CrashL.wav
402,192,138881,1,0,0:0:0:50:Chord B.wav
182,192,138881,1,0,0:0:0:0:
329,192,138959,1,0,0:0:0:50:Chord B.wav
109,192,138959,1,0,0:0:0:0:
256,192,139038,1,0,0:0:0:50:Chord B.wav
36,192,139038,1,0,0:0:0:0:
182,192,139116,1,0,0:0:0:50:Chord B.wav
475,192,139116,1,0,0:0:0:50:KicK.wav
402,192,139155,1,0,0:0:0:50:Drum.wav
36,192,139195,1,0,0:0:0:50:Chord B.wav
329,192,139195,1,0,0:0:0:50:Drum.wav
256,192,139234,1,0,0:0:0:50:Drum.wav
109,192,139273,1,0,0:0:0:50:Chord B.wav
475,192,139273,1,0,0:0:0:50:Drum.wav
402,192,139312,1,0,0:0:0:50:Drum.wav
182,192,139352,1,0,0:0:0:50:Chord B.wav
329,192,139352,1,0,0:0:0:50:Drum.wav
109,192,139391,1,0,0:0:0:50:Drum.wav
36,192,139430,1,0,0:0:0:50:Synth.wav
402,192,139430,1,0,0:0:0:50:Chord B.wav
256,192,139430,1,0,0:0:0:50:KicK.wav
475,192,139430,1,0,0:0:0:50:Snare A.wav
329,192,139509,1,0,0:0:0:50:Chord B.wav
109,192,139509,1,0,0:0:0:0:
402,192,139587,1,0,0:0:0:50:Chord B.wav
182,192,139587,1,0,0:0:0:0:
475,192,139666,1,0,0:0:0:50:Chord B.wav
109,192,139666,1,0,0:0:0:50:KicK.wav
256,192,139666,1,0,0:0:0:50:Snare A.wav
36,192,139666,1,0,0:0:0:0:
402,192,139744,1,0,0:0:0:50:Chord B.wav
329,192,139744,1,0,0:0:0:0:
256,192,139823,1,0,0:0:0:50:Chord B.wav
182,192,139823,1,0,0:0:0:0:
109,192,139901,1,0,0:0:0:50:Chord B.wav
36,192,139901,1,0,0:0:0:50:KicK.wav
402,192,139901,1,0,0:0:0:50:Snare A.wav
475,192,139901,1,0,0:0:0:0:
329,192,139980,1,0,0:0:0:50:Chord B.wav
256,192,139980,1,0,0:0:0:0:
182,192,140059,1,0,0:0:0:50:KicK.wav
109,192,140059,1,0,0:0:0:50:CrashL.wav
475,192,140059,1,0,0:0:0:50:Chord B.wav
36,192,140059,128,0,141237:0:0:0:50:Synth.wav
402,192,140137,1,0,0:0:0:50:Chord B.wav
329,192,140216,1,0,0:0:0:50:Chord B.wav
182,192,140216,1,0,0:0:0:0:
402,192,140294,1,0,0:0:0:50:Chord B.wav
109,192,140373,1,0,0:0:0:50:Chord B.wav
475,192,140373,1,0,0:0:0:50:KicK.wav
256,192,140373,1,0,0:0:0:0:
182,192,140451,1,0,0:0:0:50:Chord B.wav
329,192,140451,1,0,0:0:0:0:
256,192,140530,1,0,0:0:0:50:Chord B.wav
402,192,140530,1,0,0:0:0:0:
329,192,140608,1,0,0:0:0:50:Chord B.wav
475,192,140608,1,0,0:0:0:0:
256,192,140687,128,0,140765:0:0:0:50:Chord B.wav
402,192,140687,128,0,140765:0:0:0:50:KicK.wav
109,192,140687,128,0,140765:0:0:0:0:
182,192,140687,128,0,140765:0:0:0:0:
109,192,140844,128,0,140922:0:0:0:50:Chord B.wav
329,192,140844,128,0,140922:0:0:0:50:BeLL.wav
182,192,140844,128,0,140922:0:0:0:0:
402,192,140844,128,0,140922:0:0:0:0:
475,192,140844,128,0,140922:0:0:0:0:
256,192,141001,128,0,141079:0:0:0:50:KicK.wav
109,192,141001,128,0,141079:0:0:0:50:Chord B.wav
475,192,141001,128,0,141079:0:0:0:0:
402,192,141158,128,0,141237:0:0:0:50:BeLL.wav
182,192,141158,128,0,141237:0:0:0:50:Chord B.wav
329,192,141158,128,0,141237:0:0:0:0:
109,192,141158,128,0,141237:0:0:0:0:
475,192,141158,128,0,141237:0:0:0:0:
36,192,141315,1,0,0:0:0:50:Chord B.wav
402,192,141315,1,0,0:0:0:0:
256,192,141315,1,0,0:0:0:50:KicK.wav
475,192,141315,128,0,142493:0:0:0:50:Synth.wav
109,192,141394,1,0,0:0:0:50:Chord B.wav
402,192,141472,1,0,0:0:0:50:Chord B.wav
182,192,141472,1,0,0:0:0:0:
329,192,141551,1,0,0:0:0:50:Chord B.wav
36,192,141629,1,0,0:0:0:50:Chord B.wav
256,192,141629,1,0,0:0:0:50:KicK.wav
109,192,141629,1,0,0:0:0:0:
329,192,141708,1,0,0:0:0:50:Chord B.wav
402,192,141708,1,0,0:0:0:0:
182,192,141786,1,0,0:0:0:50:Chord B.wav
256,192,141786,1,0,0:0:0:0:
109,192,141865,1,0,0:0:0:50:Chord B.wav
36,192,141865,1,0,0:0:0:0:
402,192,141943,1,0,0:0:0:50:Chord B.wav
329,192,141943,1,0,0:0:0:50:KicK.wav
256,192,141943,1,0,0:0:0:0:
109,192,142022,1,0,0:0:0:50:Chord B.wav
182,192,142022,1,0,0:0:0:0:
402,192,142100,1,0,0:0:0:50:Chord B.wav
329,192,142100,1,0,0:0:0:0:
182,192,142179,1,0,0:0:0:50:Chord B.wav
256,192,142179,1,0,0:0:0:0:
402,192,142257,1,0,0:0:0:50:Chord B.wav
36,192,142257,1,0,0:0:0:50:KicK.wav
109,192,142257,1,0,0:0:0:0:
182,192,142336,1,0,0:0:0:50:Chord B.wav
256,192,142336,1,0,0:0:0:0:
36,192,142415,1,0,0:0:0:50:Chord B.wav
329,192,142415,1,0,0:0:0:50:Snare A.wav
402,192,142415,1,0,0:0:0:0:
182,192,142493,1,0,0:0:0:50:Chord B.wav
109,192,142493,1,0,0:0:0:0:
36,192,142572,1,0,0:0:0:50:Synth.wav
256,192,142572,1,0,0:0:0:50:Chord B.wav
475,192,142572,1,0,0:0:0:50:KicK.wav
402,192,142572,1,0,0:0:0:0:
329,192,142650,1,0,0:0:0:50:Chord B.wav
109,192,142650,1,0,0:0:0:0:
402,192,142729,1,0,0:0:0:50:Chord B.wav
36,192,142729,1,0,0:0:0:0:
182,192,142729,1,0,0:0:0:0:
475,192,142807,1,0,0:0:0:50:Chord B.wav
256,192,142807,1,0,0:0:0:0:
402,192,142886,1,0,0:0:0:50:Chord B.wav
36,192,142886,1,0,0:0:0:50:KicK.wav
329,192,142886,1,0,0:0:0:0:
182,192,142886,1,0,0:0:0:0:
109,192,142886,1,0,0:0:0:0:
475,192,143043,1,0,0:0:0:50:Chord B.wav
109,192,143043,1,0,0:0:0:0:
256,192,143043,1,0,0:0:0:0:
402,192,143121,1,0,0:0:0:50:Chord B.wav
182,192,143121,1,0,0:0:0:0:
329,192,143200,1,0,0:0:0:50:Chord B.wav
109,192,143200,1,0,0:0:0:0:
36,192,143200,1,0,0:0:0:50:KicK.wav
256,192,143278,1,0,0:0:0:50:Chord B.wav
402,192,143278,1,0,0:0:0:0:
109,192,143357,1,0,0:0:0:50:Chord B.wav
36,192,143357,1,0,0:0:0:0:
182,192,143357,1,0,0:0:0:0:
329,192,143357,1,0,0:0:0:0:
475,192,143357,1,0,0:0:0:0:
36,192,143514,1,0,0:0:0:50:Chord B.wav
256,192,143514,1,0,0:0:0:50:KicK.wav
402,192,143514,1,0,0:0:0:0:
109,192,143566,1,0,0:0:0:50:Chord B.wav
329,192,143593,1,0,0:0:0:0:
182,192,143619,1,0,0:0:0:50:Chord B.wav
475,192,143671,1,0,0:0:0:50:Chord B.wav
256,192,143671,1,0,0:0:0:50:Snare A.wav
36,192,143671,1,0,0:0:0:0:
402,192,143723,1,0,0:0:0:50:Chord B.wav
182,192,143750,1,0,0:0:0:0:
329,192,143776,1,0,0:0:0:50:Chord B.wav
256,192,143828,1,0,0:0:0:50:Chord B.wav
109,192,143828,1,0,0:0:0:50:KicK.wav
36,192,143828,1,0,0:0:0:0:
475,192,143828,1,0,0:0:0:0:
402,192,143828,1,0,0:0:0:0:
329,192,143985,1,0,0:0:0:0:
182,192,143985,1,0,0:0:0:0:
36,192,144142,1,0,0:0:0:50:Chord B.wav
475,192,144142,1,0,0:0:0:50:KicK.wav
256,192,144142,1,0,0:0:0:0:
109,192,144142,1,0,0:0:0:0:
402,192,144221,1,0,0:0:0:50:Chord B.wav
182,192,144221,1,0,0:0:0:0:
329,192,144299,1,0,0:0:0:50:Chord B.wav
36,192,144299,1,0,0:0:0:0:
109,192,144299,1,0,0:0:0:0:
256,192,144378,1,0,0:0:0:50:Chord B.wav
402,192,144378,1,0,0:0:0:0:
329,192,144456,1,0,0:0:0:50:Synth.wav
475,192,144456,1,0,0:0:0:50:Chord B.wav
36,192,144456,1,0,0:0:0:50:KicK.wav
182,192,144456,1,0,0:0:0:50:Snare A.wav
256,192,144535,1,0,0:0:0:50:Chord B.wav
109,192,144535,1,0,0:0:0:0:
182,192,144614,1,0,0:0:0:50:Chord B.wav
329,192,144614,1,0,0:0:0:0:
256,192,144692,1,0,0:0:0:50:Chord B.wav
402,192,144692,1,0,0:0:0:50:Snare A.wav
36,192,144692,1,0,0:0:0:0:
109,192,144771,1,0,0:0:0:50:KicK.wav
329,192,144771,1,0,0:0:0:50:Synth.wav
475,192,144771,1,0,0:0:0:50:Chord B.wav
36,192,144849,1,0,0:0:0:50:Chord B.wav
182,192,144849,1,0,0:0:0:0:
109,192,144928,1,0,0:0:0:50:Chord B.wav
402,192,144928,1,0,0:0:0:50:Snare A.wav
475,192,144928,1,0,0:0:0:0:
256,192,144928,1,0,0:0:0:0:
182,192,145006,1,0,0:0:0:50:Chord B.wav
329,192,145006,1,0,0:0:0:0:
109,192,145085,1,0,0:0:0:50:KicK.wav
36,192,145085,1,0,0:0:0:50:CrashL.wav
475,192,145085,1,0,0:0:0:50:Chord B.wav
256,192,145085,128,0,145634:0:0:0:50:Synth.wav
402,192,145163,1,0,0:0:0:50:Chord B.wav
36,192,145242,1,0,0:0:0:50:Chord B.wav
329,192,145242,1,0,0:0:0:0:
109,192,145320,1,0,0:0:0:50:Chord B.wav
182,192,145399,1,0,0:0:0:50:Chord B.wav
475,192,145399,1,0,0:0:0:50:KicK.wav
402,192,145399,1,0,0:0:0:0:
109,192,145477,1,0,0:0:0:50:Chord B.wav
329,192,145477,1,0,0:0:0:0:
36,192,145556,1,0,0:0:0:50:Chord B.wav
475,192,145556,1,0,0:0:0:0:
182,192,145634,1,0,0:0:0:50:Chord B.wav
402,192,145634,1,0,0:0:0:0:
329,192,145713,128,0,146106:0:0:0:50:Synth.wav
36,192,145713,128,0,145792:0:0:0:50:Chord B.wav
256,192,145713,128,0,145792:0:0:0:50:KicK.wav
475,192,145713,128,0,145792:0:0:0:0:
109,192,145713,128,0,145792:0:0:0:0:
402,192,145870,128,0,145949:0:0:0:50:Chord B.wav
475,192,145870,128,0,145949:0:0:0:50:BeLL.wav
36,192,145870,128,0,145949:0:0:0:0:
182,192,145870,128,0,145949:0:0:0:0:
109,192,145870,128,0,145949:0:0:0:0:
256,192,146027,128,0,146106:0:0:0:50:Chord B.wav
182,192,146027,128,0,146106:0:0:0:50:Snare A.wav
109,192,146027,128,0,146106:0:0:0:50:KicK.wav
402,192,146184,128,0,146891:0:0:0:50:Synth.wav
475,192,146184,128,0,146263:0:0:0:50:Chord B.wav
36,192,146184,128,0,146263:0:0:0:50:BeLL.wav
182,192,146184,128,0,146263:0:0:0:0:
256,192,146184,128,0,146263:0:0:0:0:
329,192,146184,128,0,146263:0:0:0:0:
109,192,146341,1,0,0:0:0:50:CrashL.wav
329,192,146341,1,0,0:0:0:50:KicK.wav
36,192,146341,1,0,0:0:0:0:
475,192,146341,1,0,0:0:0:0:
182,192,146498,1,0,0:0:0:50:Drum.wav
256,192,146498,1,0,0:0:0:0:
109,192,146498,1,0,0:0:0:0:
475,192,146655,1,0,0:0:0:50:Chord B.wav
329,192,146655,1,0,0:0:0:50:KicK.wav
256,192,146655,1,0,0:0:0:0:
36,192,146655,1,0,0:0:0:0:
109,192,146734,1,0,0:0:0:50:Chord B.wav
182,192,146734,1,0,0:0:0:0:
329,192,146812,1,0,0:0:0:50:Chord B.wav
36,192,146812,1,0,0:0:0:50:Drum.wav
256,192,146891,1,0,0:0:0:50:Chord B.wav
182,192,146891,1,0,0:0:0:0:
475,192,146970,1,0,0:0:0:50:Synth.wav
109,192,146970,1,0,0:0:0:50:Chord B.wav
36,192,146970,128,0,147205:0:0:0:50:KicK.wav
402,192,146970,1,0,0:0:0:0:
329,192,147048,1,0,0:0:0:50:Chord B.wav
256,192,147048,1,0,0:0:0:0:
475,192,147127,1,0,0:0:0:50:Chord B.wav
182,192,147127,1,0,0:0:0:50:Drum.wav
402,192,147205,1,0,0:0:0:50:Chord B.wav
329,192,147205,1,0,0:0:0:0:
36,192,147284,1,0,0:0:0:50:Synth.wav
182,192,147284,1,0,0:0:0:50:Chord B.wav
109,192,147284,128,0,147519:0:0:0:50:KicK.wav
256,192,147284,1,0,0:0:0:0:
402,192,147362,1,0,0:0:0:50:Chord B.wav
475,192,147362,1,0,0:0:0:0:
329,192,147441,1,0,0:0:0:50:Drum.wav
256,192,147441,1,0,0:0:0:50:Chord B.wav
182,192,147519,1,0,0:0:0:50:Chord B.wav
475,192,147519,1,0,0:0:0:0:
329,192,147598,1,0,0:0:0:50:Synth.wav
36,192,147598,1,0,0:0:0:50:KicK.wav
402,192,147598,1,0,0:0:0:50:CrashL.wav
109,192,147598,1,0,0:0:0:50:Chord B.wav
256,192,147676,1,0,0:0:0:50:Drum.wav
182,192,147676,1,0,0:0:0:0:
36,192,147755,1,0,0:0:0:50:Drum.wav
475,192,147755,1,0,0:0:0:0:
402,192,147755,1,0,0:0:0:0:
109,192,147794,1,0,0:0:0:50:Drum.wav
182,192,147833,1,0,0:0:0:50:Drum.wav
256,192,147873,1,0,0:0:0:50:Drum.wav
329,192,147912,1,0,0:0:0:50:KicK.wav
36,192,147912,1,0,0:0:0:0:
402,192,147912,1,0,0:0:0:0:
475,192,147990,1,0,0:0:0:50:Drum.wav
109,192,147990,1,0,0:0:0:0:
182,192,147990,1,0,0:0:0:0:
329,192,148069,1,0,0:0:0:50:Drum.wav
402,192,148069,1,0,0:0:0:0:
36,192,148069,1,0,0:0:0:0:
256,192,148108,1,0,0:0:0:50:Drum.wav
182,192,148148,1,0,0:0:0:50:Drum.wav
109,192,148187,1,0,0:0:0:50:Drum.wav
36,192,148226,1,0,0:0:0:50:KicK.wav
402,192,148226,1,0,0:0:0:50:BeLL.wav
329,192,148226,1,0,0:0:0:0:
475,192,148226,1,0,0:0:0:0:
256,192,148305,1,0,0:0:0:50:Drum.wav
475,192,148383,1,0,0:0:0:50:Drum.wav
36,192,148383,1,0,0:0:0:50:BeLL.wav
109,192,148383,1,0,0:0:0:0:
182,192,148383,1,0,0:0:0:0:
402,192,148422,1,0,0:0:0:50:Drum.wav
329,192,148462,1,0,0:0:0:50:Drum.wav
36,192,148501,1,0,0:0:0:50:Drum.wav
109,192,148540,1,0,0:0:0:50:KicK.wav
182,192,148540,1,0,0:0:0:0:
475,192,148540,1,0,0:0:0:0:
256,192,148619,1,0,0:0:0:50:Drum.wav
475,192,148697,1,0,0:0:0:50:Synth.wav
36,192,148697,1,0,0:0:0:50:Drum.wav
329,192,148697,1,0,0:0:0:50:BeLL.wav
402,192,148697,1,0,0:0:0:0:
109,192,148737,1,0,0:0:0:50:Drum.wav
182,192,148776,1,0,0:0:0:50:Drum.wav
475,192,148815,1,0,0:0:0:50:Drum.wav
329,192,148854,1,0,0:0:0:50:KicK.wav
402,192,148854,1,0,0:0:0:50:CrashL.wav
36,192,148854,1,0,0:0:0:0:
256,192,148933,1,0,0:0:0:50:Drum.wav
182,192,148933,1,0,0:0:0:0:
109,192,148933,1,0,0:0:0:0:
475,192,149011,1,0,0:0:0:50:Drum.wav
402,192,149011,1,0,0:0:0:0:
36,192,149011,1,0,0:0:0:0:
256,192,149090,1,0,0:0:0:0:
182,192,149090,1,0,0:0:0:0:
329,192,149090,1,0,0:0:0:50:Drum.wav
475,192,149168,1,0,0:0:0:50:KicK.wav
36,192,149168,1,0,0:0:0:0:
109,192,149168,1,0,0:0:0:0:
256,192,149247,1,0,0:0:0:0:
329,192,149247,1,0,0:0:0:0:
402,192,149247,1,0,0:0:0:50:Drum.wav
182,192,149326,1,0,0:0:0:50:Drum.wav
36,192,149326,1,0,0:0:0:0:
109,192,149326,1,0,0:0:0:0:
329,192,149404,1,0,0:0:0:0:
402,192,149404,1,0,0:0:0:0:
475,192,149404,1,0,0:0:0:50:Drum.wav
36,192,149483,1,0,0:0:0:50:KicK.wav
182,192,149483,1,0,0:0:0:0:
109,192,149483,1,0,0:0:0:0:
475,192,149561,1,0,0:0:0:50:Drum.wav
256,192,149561,1,0,0:0:0:0:
402,192,149561,1,0,0:0:0:0:
36,192,149640,1,0,0:0:0:50:Drum.wav
329,192,149640,1,0,0:0:0:0:
109,192,149640,1,0,0:0:0:0:
402,192,149718,1,0,0:0:0:50:Drum.wav
475,192,149718,1,0,0:0:0:0:
182,192,149718,1,0,0:0:0:0:
329,192,149797,1,0,0:0:0:50:KicK.wav
109,192,149797,1,0,0:0:0:0:
36,192,149797,1,0,0:0:0:0:
256,192,149849,1,0,0:0:0:50:Drum.wav
475,192,149849,1,0,0:0:0:0:
182,192,149901,1,0,0:0:0:50:Drum.wav
402,192,149901,1,0,0:0:0:0:
329,192,149954,1,0,0:0:0:50:Drum.wav
109,192,149954,1,0,0:0:0:0:
256,192,150006,1,0,0:0:0:50:Drum.wav
36,192,150006,1,0,0:0:0:0:
182,192,150059,1,0,0:0:0:50:Drum.wav
475,192,150111,128,0,150739:0:0:0:50:Cymbol.wav
329,192,150111,1,0,0:0:0:0:
402,192,150111,1,0,0:0:0:0:
109,192,150111,1,0,0:0:0:50:KicK.wav
329,192,150425,128,0,150739:0:0:0:0:
36,192,150582,128,0,150896:0:0:0:0:
109,192,150661,128,0,150896:0:0:0:0:
182,192,150739,128,0,150896:0:0:0:0:
475,192,150818,128,0,150896:0:0:0:0:
329,192,150896,128,0,150975:0:0:0:0:
182,192,150975,128,0,151053:0:0:0:0:
402,192,151053,128,0,151289:0:0:0:0:
36,192,151053,128,0,151289:0:0:0:0:
256,192,151053,128,0,151289:0:0:0:50:Impact A.wav
475,192,151053,128,0,151289:0:0:0:0:
402,192,151367,1,0,0:0:0:50:CrashL.wav
256,192,151367,1,0,0:0:0:50:Synth.wav
36,192,151367,1,0,0:0:0:0:
109,192,151367,1,0,0:0:0:0:
475,192,151367,1,0,0:0:0:50:KicK.wav
256,192,151525,1,0,0:0:0:50:Synth.wav
402,192,151525,1,0,0:0:0:50:KicK.wav
109,192,151525,1,0,0:0:0:0:
329,192,151682,1,0,0:0:0:50:Synth.wav
475,192,151682,1,0,0:0:0:0:
109,192,151682,1,0,0:0:0:0:
182,192,151682,1,0,0:0:0:0:
36,192,151682,1,0,0:0:0:50:Snare A.wav
256,192,151839,1,0,0:0:0:50:Synth.wav
475,192,151839,1,0,0:0:0:50:KicK.wav
36,192,151839,1,0,0:0:0:0:
402,192,151839,1,0,0:0:0:0:
109,192,151839,1,0,0:0:0:0:
256,192,151996,1,0,0:0:0:0:
402,192,151996,1,0,0:0:0:0:
329,192,152153,1,0,0:0:0:50:Synth.wav
475,192,152153,1,0,0:0:0:50:KicK.wav
36,192,152153,1,0,0:0:0:0:
109,192,152153,1,0,0:0:0:0:
182,192,152153,1,0,0:0:0:0:
182,192,152310,1,0,0:0:0:0:
475,192,152310,1,0,0:0:0:0:
36,192,152467,1,0,0:0:0:50:Synth.wav
109,192,152467,1,0,0:0:0:50:Snare A.wav
402,192,152467,1,0,0:0:0:0:
329,192,152467,1,0,0:0:0:0:
256,192,152467,1,0,0:0:0:0:
36,192,152624,1,0,0:0:0:0:
109,192,152624,1,0,0:0:0:0:
475,192,152781,1,0,0:0:0:50:Synth.wav
182,192,152781,1,0,0:0:0:50:KicK.wav
256,192,152781,1,0,0:0:0:0:
329,192,152781,1,0,0:0:0:0:
402,192,152781,1,0,0:0:0:0:
329,192,152938,1,0,0:0:0:50:Snare A.wav
182,192,152938,1,0,0:0:0:0:
36,192,152938,1,0,0:0:0:0:
256,192,153095,1,0,0:0:0:50:Synth.wav
36,192,153095,1,0,0:0:0:50:KicK.wav
109,192,153095,1,0,0:0:0:0:
402,192,153095,1,0,0:0:0:0:
475,192,153095,1,0,0:0:0:0:
329,192,153252,1,0,0:0:0:0:
182,192,153252,1,0,0:0:0:0:
182,192,153409,1,0,0:0:0:50:Synth.wav
109,192,153409,1,0,0:0:0:50:KicK.wav
36,192,153409,1,0,0:0:0:0:
475,192,153409,1,0,0:0:0:0:
329,192,153409,1,0,0:0:0:0:
256,192,153566,1,0,0:0:0:50:Synth.wav
475,192,153566,1,0,0:0:0:50:Snare A.wav
36,192,153566,1,0,0:0:0:0:
182,192,153645,1,0,0:0:0:50:Synth.wav
402,192,153645,1,0,0:0:0:0:
109,192,153723,1,0,0:0:0:50:Synth.wav
329,192,153723,1,0,0:0:0:0:
36,192,153802,1,0,0:0:0:50:Synth.wav
256,192,153802,1,0,0:0:0:0:
475,192,153881,1,0,0:0:0:50:KicK.wav
402,192,153881,1,0,0:0:0:0:
182,192,153881,1,0,0:0:0:0:
109,192,153881,1,0,0:0:0:0:
329,192,153881,1,0,0:0:0:50:Synth.wav
329,192,154038,1,0,0:0:0:50:Synth.wav
402,192,154038,1,0,0:0:0:50:KicK.wav
182,192,154038,1,0,0:0:0:0:
36,192,154195,1,0,0:0:0:50:Synth.wav
109,192,154195,1,0,0:0:0:50:Snare A.wav
475,192,154195,1,0,0:0:0:0:
256,192,154195,1,0,0:0:0:0:
402,192,154195,1,0,0:0:0:0:
182,192,154352,1,0,0:0:0:50:Synth.wav
329,192,154352,1,0,0:0:0:50:KicK.wav
109,192,154352,1,0,0:0:0:0:
36,192,154352,1,0,0:0:0:0:
475,192,154352,1,0,0:0:0:0:
182,192,154509,1,0,0:0:0:0:
329,192,154509,1,0,0:0:0:0:
475,192,154666,1,0,0:0:0:50:Synth.wav
109,192,154666,1,0,0:0:0:50:KicK.wav
402,192,154666,1,0,0:0:0:0:
256,192,154666,1,0,0:0:0:0:
36,192,154666,1,0,0:0:0:0:
256,192,154823,1,0,0:0:0:0:
402,192,154823,1,0,0:0:0:0:
109,192,154980,1,0,0:0:0:50:Synth.wav
182,192,154980,1,0,0:0:0:50:Snare A.wav
475,192,154980,1,0,0:0:0:0:
329,192,154980,1,0,0:0:0:0:
36,192,154980,1,0,0:0:0:0:
36,192,155137,1,0,0:0:0:0:
475,192,155137,1,0,0:0:0:0:
402,192,155294,1,0,0:0:0:50:Synth.wav
182,192,155294,1,0,0:0:0:50:KicK.wav
109,192,155294,1,0,0:0:0:0:
329,192,155294,1,0,0:0:0:0:
256,192,155294,1,0,0:0:0:0:
475,192,155451,1,0,0:0:0:50:Snare A.wav
109,192,155451,1,0,0:0:0:0:
182,192,155451,1,0,0:0:0:0:
109,192,155608,1,0,0:0:0:50:Synth.wav
182,192,155608,1,0,0:0:0:50:KicK.wav
329,192,155608,1,0,0:0:0:0:
475,192,155608,1,0,0:0:0:0:
36,192,155608,1,0,0:0:0:0:
256,192,155765,1,0,0:0:0:0:
402,192,155765,1,0,0:0:0:0:
109,192,155922,1,0,0:0:0:50:Synth.wav
475,192,155922,1,0,0:0:0:50:KicK.wav
329,192,155922,1,0,0:0:0:0:
36,192,155922,1,0,0:0:0:0:
182,192,155922,1,0,0:0:0:0:
402,192,156079,1,0,0:0:0:50:Snare A.wav
182,192,156079,1,0,0:0:0:0:
329,192,156079,1,0,0:0:0:0:
256,192,156237,1,0,0:0:0:50:Synth.wav
36,192,156237,1,0,0:0:0:50:KicK.wav
475,192,156237,1,0,0:0:0:0:
402,192,156237,1,0,0:0:0:0:
109,192,156237,1,0,0:0:0:0:
182,192,156394,1,0,0:0:0:50:KicK.wav
109,192,156394,1,0,0:0:0:0:
329,192,156472,1,0,0:0:0:50:KicK.wav
402,192,156472,1,0,0:0:0:0:
182,192,156551,1,0,0:0:0:50:KicK.wav
109,192,156551,1,0,0:0:0:0:
329,192,156629,1,0,0:0:0:50:KicK.wav
402,192,156629,1,0,0:0:0:0:
182,192,156708,1,0,0:0:0:50:KicK.wav
256,192,156708,1,0,0:0:0:50:CrashL.wav
36,192,156708,1,0,0:0:0:0:
109,192,156708,1,0,0:0:0:0:
475,192,156708,1,0,0:0:0:0:
36,192,156865,1,0,0:0:0:50:Synth.wav
402,192,156865,1,0,0:0:0:0:
475,192,156865,1,0,0:0:0:0:
182,192,156943,1,0,0:0:0:50:Synth.wav
109,192,156943,1,0,0:0:0:0:
329,192,156943,1,0,0:0:0:0:
36,192,157022,1,0,0:0:0:50:Synth.wav
402,192,157022,1,0,0:0:0:0:
475,192,157022,1,0,0:0:0:0:
329,192,157179,1,0,0:0:0:50:Synth.wav
109,192,157179,1,0,0:0:0:50:KicK.wav
36,192,157179,1,0,0:0:0:0:
182,192,157179,1,0,0:0:0:0:
402,192,157179,1,0,0:0:0:0:
256,192,157336,1,0,0:0:0:50:Synth.wav
329,192,157336,1,0,0:0:0:0:
109,192,157336,1,0,0:0:0:0:
36,192,157336,1,0,0:0:0:0:
475,192,157336,1,0,0:0:0:0:
182,192,157493,1,0,0:0:0:50:Synth.wav
402,192,157493,1,0,0:0:0:50:Snare A.wav
36,192,157493,1,0,0:0:0:0:
256,192,157493,1,0,0:0:0:0:
475,192,157493,1,0,0:0:0:0:
109,192,157650,1,0,0:0:0:0:
329,192,157650,1,0,0:0:0:0:
109,192,157807,1,0,0:0:0:50:Synth.wav
402,192,157807,1,0,0:0:0:50:KicK.wav
329,192,157807,1,0,0:0:0:0:
475,192,157807,1,0,0:0:0:0:
182,192,157807,1,0,0:0:0:0:
36,192,157964,1,0,0:0:0:50:Snare A.wav
256,192,157964,1,0,0:0:0:0:
475,192,157964,1,0,0:0:0:0:
109,192,158121,1,0,0:0:0:50:Synth.wav
402,192,158121,1,0,0:0:0:0:
256,192,158121,1,0,0:0:0:0:
475,192,158121,1,0,0:0:0:0:
36,192,158121,1,0,0:0:0:0:
329,192,158278,1,0,0:0:0:50:KicK.wav
182,192,158278,1,0,0:0:0:0:
475,192,158357,1,0,0:0:0:50:Drum.wav
36,192,158357,1,0,0:0:0:0:
329,192,158435,1,0,0:0:0:50:KicK.wav
182,192,158435,1,0,0:0:0:0:
475,192,158514,1,0,0:0:0:50:Drum.wav
36,192,158514,1,0,0:0:0:0:
256,192,158593,1,0,0:0:0:50:Snare A.wav
329,192,158593,1,0,0:0:0:0:
182,192,158593,1,0,0:0:0:0:
402,192,158593,1,0,0:0:0:0:
109,192,158593,1,0,0:0:0:50:Synth.wav
402,192,158750,1,0,0:0:0:50:Synth.wav
256,192,158750,1,0,0:0:0:0:
475,192,158750,1,0,0:0:0:0:
36,192,158750,1,0,0:0:0:0:
109,192,158750,1,0,0:0:0:0:
329,192,158907,1,0,0:0:0:50:Synth.wav
182,192,158907,1,0,0:0:0:50:KicK.wav
36,192,158907,1,0,0:0:0:50:CrashL.wav
256,192,158907,1,0,0:0:0:0:
475,192,158907,1,0,0:0:0:0:
329,192,159064,1,0,0:0:0:0:
182,192,159064,1,0,0:0:0:0:
36,192,159221,1,0,0:0:0:50:KicK.wav
475,192,159221,1,0,0:0:0:0:
256,192,159221,1,0,0:0:0:0:
109,192,159378,1,0,0:0:0:50:Synth.wav
36,192,159378,1,0,0:0:0:50:CrashL.wav
475,192,159378,1,0,0:0:0:50:KicK.wav
256,192,159378,1,0,0:0:0:0:
402,192,159378,1,0,0:0:0:0:
329,192,159535,1,0,0:0:0:0:
182,192,159535,1,0,0:0:0:0:
329,192,159692,1,0,0:0:0:50:Synth.wav
475,192,159692,1,0,0:0:0:50:KicK.wav
109,192,159692,1,0,0:0:0:0:
36,192,159692,1,0,0:0:0:0:
182,192,159692,1,0,0:0:0:0:
256,192,159849,1,0,0:0:0:50:Synth.wav
475,192,159849,1,0,0:0:0:50:KicK.wav
402,192,159849,1,0,0:0:0:0:
109,192,159849,1,0,0:0:0:0:
36,192,159849,1,0,0:0:0:0:
182,192,160006,1,0,0:0:0:50:Synth.wav
36,192,160006,1,0,0:0:0:0:
402,192,160006,1,0,0:0:0:0:
329,192,160006,1,0,0:0:0:50:CrashL.wav
475,192,160006,1,0,0:0:0:50:KicK.wav
329,192,160163,1,0,0:0:0:0:
182,192,160163,1,0,0:0:0:0:
36,192,160320,1,0,0:0:0:50:Snare A.wav
475,192,160320,1,0,0:0:0:0:
402,192,160320,1,0,0:0:0:0:
256,192,160320,1,0,0:0:0:0:
109,192,160320,1,0,0:0:0:0:
329,192,160477,1,0,0:0:0:50:KicK.wav
475,192,160477,1,0,0:0:0:0:
182,192,160477,1,0,0:0:0:0:
36,192,160477,1,0,0:0:0:0:
109,192,160477,1,0,0:0:0:0:
329,192,160634,1,0,0:0:0:0:
182,192,160634,1,0,0:0:0:0:
475,192,160792,1,0,0:0:0:50:Synth.wav
402,192,160792,1,0,0:0:0:50:KicK.wav
256,192,160792,1,0,0:0:0:0:
109,192,160792,1,0,0:0:0:0:
36,192,160792,1,0,0:0:0:0:
109,192,160949,1,0,0:0:0:50:Synth.wav
402,192,160949,1,0,0:0:0:50:Drum.wav
329,192,161027,1,0,0:0:0:50:Drum.wav
182,192,161027,1,0,0:0:0:50:Synth.wav
36,192,161106,1,0,0:0:0:50:Synth.wav
256,192,161106,1,0,0:0:0:50:Drum.wav
475,192,161106,1,0,0:0:0:0:
109,192,161184,1,0,0:0:0:50:Synth.wav
329,192,161184,1,0,0:0:0:50:Drum.wav
182,192,161263,1,0,0:0:0:50:Synth.wav
402,192,161263,1,0,0:0:0:50:Drum.wav
256,192,161341,1,0,0:0:0:50:Synth.wav
475,192,161341,1,0,0:0:0:50:Drum.wav
329,192,161420,1,0,0:0:0:50:Synth.wav
182,192,161420,1,0,0:0:0:50:KicK.wav
109,192,161420,1,0,0:0:0:50:CrashL.wav
36,192,161420,1,0,0:0:0:0:
402,192,161420,1,0,0:0:0:0:
329,192,161577,1,0,0:0:0:50:Synth.wav
109,192,161577,1,0,0:0:0:50:KicK.wav
182,192,161577,1,0,0:0:0:0:
256,192,161734,1,0,0:0:0:50:Synth.wav
36,192,161734,1,0,0:0:0:50:Snare A.wav
109,192,161734,1,0,0:0:0:0:
402,192,161734,1,0,0:0:0:0:
475,192,161734,1,0,0:0:0:0:
329,192,161891,1,0,0:0:0:50:Synth.wav
182,192,161891,1,0,0:0:0:50:KicK.wav
475,192,161891,1,0,0:0:0:0:
36,192,161891,1,0,0:0:0:0:
109,192,161891,1,0,0:0:0:0:
475,192,162048,1,0,0:0:0:0:
329,192,162048,1,0,0:0:0:0:
109,192,162205,1,0,0:0:0:50:Synth.wav
402,192,162205,1,0,0:0:0:50:KicK.wav
36,192,162205,1,0,0:0:0:0:
256,192,162205,1,0,0:0:0:0:
182,192,162205,1,0,0:0:0:0:
256,192,162362,1,0,0:0:0:0:
109,192,162362,1,0,0:0:0:0:
402,192,162519,1,0,0:0:0:50:Synth.wav
475,192,162519,1,0,0:0:0:50:Snare A.wav
36,192,162519,1,0,0:0:0:0:
182,192,162519,1,0,0:0:0:0:
329,192,162519,1,0,0:0:0:0:
36,192,162676,1,0,0:0:0:0:
329,192,162676,1,0,0:0:0:0:
182,192,162833,1,0,0:0:0:50:Synth.wav
475,192,162833,1,0,0:0:0:50:KicK.wav
109,192,162833,1,0,0:0:0:0:
402,192,162833,1,0,0:0:0:0:
256,192,162833,1,0,0:0:0:0:
36,192,162990,1,0,0:0:0:50:Snare A.wav
256,192,162990,1,0,0:0:0:0:
402,192,162990,1,0,0:0:0:0:
36,192,163148,1,0,0:0:0:50:Synth.wav
475,192,163148,1,0,0:0:0:50:KicK.wav
109,192,163148,1,0,0:0:0:0:
329,192,163148,1,0,0:0:0:0:
182,192,163148,1,0,0:0:0:0:
329,192,163305,1,0,0:0:0:0:
182,192,163305,1,0,0:0:0:0:
475,192,163462,1,0,0:0:0:50:Synth.wav
402,192,163462,1,0,0:0:0:50:KicK.wav
36,192,163462,1,0,0:0:0:0:
256,192,163462,1,0,0:0:0:0:
109,192,163462,1,0,0:0:0:0:
36,192,163619,1,0,0:0:0:50:Synth.wav
256,192,163619,1,0,0:0:0:0:
475,192,163619,1,0,0:0:0:0:
109,192,163697,1,0,0:0:0:50:Synth.wav
402,192,163697,1,0,0:0:0:0:
182,192,163776,1,0,0:0:0:50:Synth.wav
329,192,163776,1,0,0:0:0:0:
256,192,163854,1,0,0:0:0:50:Synth.wav
402,192,163854,1,0,0:0:0:0:
329,192,163933,1,0,0:0:0:50:Synth.wav
109,192,163933,1,0,0:0:0:50:KicK.wav
475,192,163933,1,0,0:0:0:50:CrashL.wav
182,192,163933,1,0,0:0:0:0:
36,192,163933,1,0,0:0:0:0:
329,192,164090,1,0,0:0:0:50:Synth.wav
36,192,164090,1,0,0:0:0:50:KicK.wav
182,192,164090,1,0,0:0:0:0:
475,192,164247,1,0,0:0:0:50:Synth.wav
109,192,164247,1,0,0:0:0:50:Snare A.wav
402,192,164247,1,0,0:0:0:0:
256,192,164247,1,0,0:0:0:0:
402,192,164404,1,0,0:0:0:50:Synth.wav
475,192,164404,1,0,0:0:0:50:KicK.wav
329,192,164404,1,0,0:0:0:0:
182,192,164404,1,0,0:0:0:0:
36,192,164404,1,0,0:0:0:0:
182,192,164561,1,0,0:0:0:0:
329,192,164561,1,0,0:0:0:0:
475,192,164718,1,0,0:0:0:50:Synth.wav
109,192,164718,1,0,0:0:0:50:KicK.wav
402,192,164718,1,0,0:0:0:0:
36,192,164718,1,0,0:0:0:0:
256,192,164718,1,0,0:0:0:0:
475,192,164875,1,0,0:0:0:0:
402,192,164875,1,0,0:0:0:0:
109,192,165032,1,0,0:0:0:50:Synth.wav
329,192,165032,1,0,0:0:0:50:Snare A.wav
182,192,165032,1,0,0:0:0:0:
256,192,165032,1,0,0:0:0:0:
36,192,165032,1,0,0:0:0:0:
109,192,165189,1,0,0:0:0:0:
182,192,165189,1,0,0:0:0:0:
402,192,165346,1,0,0:0:0:50:Synth.wav
475,192,165346,1,0,0:0:0:50:KicK.wav
36,192,165346,1,0,0:0:0:0:
329,192,165346,1,0,0:0:0:0:
256,192,165346,1,0,0:0:0:0:
329,192,165504,1,0,0:0:0:50:Snare A.wav
182,192,165504,1,0,0:0:0:0:
109,192,165504,1,0,0:0:0:0:
475,192,165661,1,0,0:0:0:50:Synth.wav
182,192,165661,1,0,0:0:0:50:KicK.wav
109,192,165661,1,0,0:0:0:0:
256,192,165661,1,0,0:0:0:0:
402,192,165661,1,0,0:0:0:0:
402,192,165818,1,0,0:0:0:0:
256,192,165818,1,0,0:0:0:0:
36,192,165975,1,0,0:0:0:50:Synth.wav
475,192,165975,1,0,0:0:0:50:KicK.wav
329,192,165975,1,0,0:0:0:0:
109,192,165975,1,0,0:0:0:0:
182,192,165975,1,0,0:0:0:0:
109,192,166132,1,0,0:0:0:50:Snare A.wav
329,192,166132,1,0,0:0:0:0:
182,192,166132,1,0,0:0:0:0:
36,192,166289,1,0,0:0:0:50:Synth.wav
402,192,166289,1,0,0:0:0:50:KicK.wav
475,192,166289,1,0,0:0:0:0:
256,192,166289,1,0,0:0:0:0:
329,192,166367,1,0,0:0:0:50:Synth.wav
109,192,166367,1,0,0:0:0:0:
182,192,166367,1,0,0:0:0:0:
402,192,166446,1,0,0:0:0:50:Synth.wav
36,192,166446,1,0,0:0:0:50:KicK.wav
475,192,166446,1,0,0:0:0:50:CrashL.wav
256,192,166446,1,0,0:0:0:0:
109,192,166603,1,0,0:0:0:0:
329,192,166603,1,0,0:0:0:0:
475,192,166760,1,0,0:0:0:50:Snare A.wav
329,192,166760,1,0,0:0:0:0:
109,192,166760,1,0,0:0:0:0:
182,192,166917,1,0,0:0:0:0:
36,192,166917,1,0,0:0:0:0:
402,192,166917,1,0,0:0:0:0:
182,192,167074,1,0,0:0:0:0:
402,192,167074,1,0,0:0:0:0:
256,192,167231,1,0,0:0:0:50:Synth.wav
36,192,167231,1,0,0:0:0:50:KicK.wav
109,192,167231,1,0,0:0:0:0:
475,192,167231,1,0,0:0:0:0:
329,192,167231,1,0,0:0:0:0:
475,192,167388,1,0,0:0:0:0:
182,192,167388,1,0,0:0:0:0:
109,192,167388,1,0,0:0:0:0:
402,192,167388,1,0,0:0:0:0:
329,192,167388,1,0,0:0:0:50:Synth.wav
402,192,167545,1,0,0:0:0:50:Synth.wav
256,192,167545,1,0,0:0:0:50:Snare A.wav
36,192,167545,1,0,0:0:0:0:
182,192,167545,1,0,0:0:0:0:
475,192,167545,1,0,0:0:0:0:
109,192,167703,1,0,0:0:0:0:
329,192,167703,1,0,0:0:0:0:
475,192,167860,1,0,0:0:0:50:KicK.wav
109,192,167860,1,0,0:0:0:0:
329,192,167860,1,0,0:0:0:0:
36,192,168017,1,0,0:0:0:50:Snare A.wav
182,192,168017,1,0,0:0:0:0:
402,192,168017,1,0,0:0:0:0:
402,192,168174,1,0,0:0:0:0:
182,192,168174,1,0,0:0:0:0:
36,192,168331,1,0,0:0:0:50:KicK.wav
109,192,168331,1,0,0:0:0:0:
256,192,168331,1,0,0:0:0:0:
109,192,168488,1,0,0:0:0:50:KicK.wav
402,192,168488,1,0,0:0:0:0:
182,192,168488,1,0,0:0:0:0:
475,192,168488,1,0,0:0:0:0:
329,192,168488,1,0,0:0:0:50:Synth.wav
402,192,168645,1,0,0:0:0:50:Synth.wav
475,192,168645,1,0,0:0:0:50:Snare A.wav
256,192,168645,1,0,0:0:0:0:
182,192,168645,1,0,0:0:0:0:
36,192,168645,1,0,0:0:0:0:
475,192,168802,1,0,0:0:0:50:Synth.wav
329,192,168802,1,0,0:0:0:50:CrashL.wav
256,192,168802,1,0,0:0:0:50:KicK.wav
109,192,168802,1,0,0:0:0:0:
36,192,168802,1,0,0:0:0:0:
182,192,168959,1,0,0:0:0:50:Drum.wav
329,192,168959,1,0,0:0:0:0:
109,192,169038,5,0,0:0:0:0:
256,192,169116,1,0,0:0:0:50:KicK.wav
402,192,169116,1,0,0:0:0:0:
36,192,169116,1,0,0:0:0:0:
475,192,169195,1,0,0:0:0:0:
36,192,169273,1,0,0:0:0:50:Snare A.wav
402,192,169273,1,0,0:0:0:0:
256,192,169273,1,0,0:0:0:0:
109,192,169352,1,0,0:0:0:0:
329,192,169430,1,0,0:0:0:50:Drum.wav
182,192,169430,1,0,0:0:0:0:
475,192,169509,1,0,0:0:0:50:Drum.wav
402,192,169509,1,0,0:0:0:0:
109,192,169587,1,0,0:0:0:50:Drum.wav
256,192,169587,1,0,0:0:0:0:
402,192,169666,1,0,0:0:0:50:Drum.wav
329,192,169666,1,0,0:0:0:0:
36,192,169744,1,0,0:0:0:50:Drum.wav
182,192,169744,1,0,0:0:0:0:
256,192,169823,1,0,0:0:0:50:Drum.wav
329,192,169823,1,0,0:0:0:0:
36,192,169901,1,0,0:0:0:50:Drum.wav
475,192,169901,1,0,0:0:0:0:
402,192,169901,1,0,0:0:0:0:
109,192,169941,1,0,0:0:0:50:Drum.wav
256,192,169980,1,0,0:0:0:50:Drum.wav
329,192,170019,1,0,0:0:0:50:Drum.wav
109,192,170059,1,0,0:0:0:50:Drum.wav
182,192,170098,1,0,0:0:0:50:Drum.wav
329,192,170137,1,0,0:0:0:50:Drum.wav
402,192,170176,1,0,0:0:0:50:Drum.wav
256,192,170216,1,0,0:0:0:50:Drum.wav
109,192,170216,1,0,0:0:0:50:CrashL.wav
475,192,170216,1,0,0:0:0:50:Synth.wav
36,192,170216,1,0,0:0:0:0:
329,192,170294,5,0,0:0:0:0:
182,192,170294,1,0,0:0:0:0:
402,192,170373,1,0,0:0:0:0:
256,192,170373,1,0,0:0:0:0:
475,192,170451,1,0,0:0:0:0:
182,192,170451,1,0,0:0:0:0:
402,192,170530,1,0,0:0:0:0:
109,192,170530,1,0,0:0:0:0:
36,192,170608,1,0,0:0:0:0:
329,192,170608,1,0,0:0:0:0:
256,192,170687,1,0,0:0:0:0:
109,192,170687,1,0,0:0:0:0:
475,192,170765,1,0,0:0:0:0:
402,192,170765,1,0,0:0:0:0:
329,192,170844,1,0,0:0:0:0:
182,192,170844,1,0,0:0:0:0:
109,192,170922,1,0,0:0:0:0:
36,192,170922,1,0,0:0:0:0:
256,192,171001,1,0,0:0:0:0:
402,192,171001,1,0,0:0:0:0:
182,192,171079,1,0,0:0:0:0:
109,192,171079,1,0,0:0:0:0:
475,192,171158,1,0,0:0:0:50:KicK.wav
329,192,171158,1,0,0:0:0:0:
36,192,171158,1,0,0:0:0:0:
256,192,171210,1,0,0:0:0:0:
182,192,171263,1,0,0:0:0:0:
109,192,171315,1,0,0:0:0:50:KicK.wav
36,192,171315,1,0,0:0:0:0:
475,192,171315,1,0,0:0:0:0:
402,192,171367,1,0,0:0:0:0:
182,192,171394,1,0,0:0:0:50:Drum.wav
329,192,171420,1,0,0:0:0:0:
109,192,171472,5,0,0:0:0:50:Synth.wav
475,192,171472,1,0,0:0:0:50:KicK.wav
402,192,171472,1,0,0:0:0:50:CrashL.wav
256,192,171472,1,0,0:0:0:0:
36,192,171472,1,0,0:0:0:0:
109,192,171629,1,0,0:0:0:50:Synth.wav
402,192,171629,1,0,0:0:0:50:KicK.wav
256,192,171629,1,0,0:0:0:0:
182,192,171786,1,0,0:0:0:50:Synth.wav
475,192,171786,1,0,0:0:0:50:Snare A.wav
329,192,171786,1,0,0:0:0:0:
36,192,171786,1,0,0:0:0:0:
256,192,171865,1,0,0:0:0:0:
329,192,171943,1,0,0:0:0:50:Synth.wav
109,192,171943,1,0,0:0:0:50:KicK.wav
475,192,171943,1,0,0:0:0:0:
36,192,171943,1,0,0:0:0:0:
402,192,171943,1,0,0:0:0:0:
182,192,172022,1,0,0:0:0:0:
109,192,172100,1,0,0:0:0:0:
402,192,172100,1,0,0:0:0:0:
329,192,172179,1,0,0:0:0:0:
256,192,172257,1,0,0:0:0:50:Synth.wav
109,192,172257,1,0,0:0:0:50:KicK.wav
475,192,172257,1,0,0:0:0:0:
36,192,172257,1,0,0:0:0:0:
182,192,172257,1,0,0:0:0:0:
402,192,172336,1,0,0:0:0:0:
182,192,172415,1,0,0:0:0:0:
329,192,172415,1,0,0:0:0:0:
109,192,172493,1,0,0:0:0:0:
36,192,172572,1,0,0:0:0:50:Synth.wav
329,192,172572,1,0,0:0:0:50:Snare A.wav
475,192,172572,1,0,0:0:0:0:
402,192,172572,1,0,0:0:0:0:
256,192,172572,1,0,0:0:0:0:
182,192,172650,1,0,0:0:0:0:
109,192,172729,1,0,0:0:0:0:
402,192,172729,1,0,0:0:0:0:
329,192,172807,1,0,0:0:0:0:
256,192,172886,1,0,0:0:0:50:Synth.wav
182,192,172886,1,0,0:0:0:50:KicK.wav
36,192,172886,1,0,0:0:0:0:
109,192,172886,1,0,0:0:0:0:
475,192,172886,1,0,0:0:0:0:
329,192,172964,1,0,0:0:0:0:
402,192,173043,1,0,0:0:0:50:Snare A.wav
182,192,173043,1,0,0:0:0:0:
36,192,173043,1,0,0:0:0:0:
256,192,173121,1,0,0:0:0:0:
36,192,173200,1,0,0:0:0:50:Synth.wav
329,192,173200,1,0,0:0:0:50:KicK.wav
475,192,173200,1,0,0:0:0:0:
402,192,173200,1,0,0:0:0:0:
109,192,173200,1,0,0:0:0:0:
182,192,173278,1,0,0:0:0:0:
329,192,173357,1,0,0:0:0:0:
109,192,173357,1,0,0:0:0:0:
256,192,173435,1,0,0:0:0:0:
402,192,173514,1,0,0:0:0:50:Synth.wav
182,192,173514,1,0,0:0:0:50:KicK.wav
36,192,173514,1,0,0:0:0:0:
109,192,173514,1,0,0:0:0:0:
475,192,173514,1,0,0:0:0:0:
329,192,173593,1,0,0:0:0:0:
36,192,173671,1,0,0:0:0:50:Synth.wav
402,192,173671,1,0,0:0:0:50:Snare A.wav
182,192,173671,1,0,0:0:0:0:
109,192,173750,1,0,0:0:0:50:Synth.wav
256,192,173750,1,0,0:0:0:0:
182,192,173828,1,0,0:0:0:50:Synth.wav
329,192,173828,1,0,0:0:0:0:
256,192,173907,1,0,0:0:0:50:Synth.wav
402,192,173907,1,0,0:0:0:0:
182,192,173985,1,0,0:0:0:50:Synth.wav
329,192,173985,1,0,0:0:0:50:KicK.wav
36,192,173985,1,0,0:0:0:0:
475,192,173985,1,0,0:0:0:0:
109,192,173985,1,0,0:0:0:0:
109,192,174142,1,0,0:0:0:50:KicK.wav
329,192,174142,1,0,0:0:0:0:
182,192,174142,1,0,0:0:0:50:Synth.wav
256,192,174299,1,0,0:0:0:50:Synth.wav
36,192,174299,1,0,0:0:0:50:Snare A.wav
402,192,174299,1,0,0:0:0:0:
475,192,174299,1,0,0:0:0:0:
182,192,174378,1,0,0:0:0:0:
402,192,174456,1,0,0:0:0:50:Synth.wav
109,192,174456,1,0,0:0:0:50:KicK.wav
36,192,174456,1,0,0:0:0:0:
329,192,174456,1,0,0:0:0:0:
475,192,174456,1,0,0:0:0:0:
256,192,174535,1,0,0:0:0:0:
182,192,174614,1,0,0:0:0:0:
402,192,174614,1,0,0:0:0:0:
329,192,174692,1,0,0:0:0:0:
256,192,174771,1,0,0:0:0:50:Synth.wav
109,192,174771,1,0,0:0:0:50:KicK.wav
475,192,174771,1,0,0:0:0:0:
182,192,174771,1,0,0:0:0:0:
36,192,174771,1,0,0:0:0:0:
329,192,174849,1,0,0:0:0:0:
402,192,174928,1,0,0:0:0:0:
109,192,174928,1,0,0:0:0:0:
182,192,175006,1,0,0:0:0:0:
256,192,175085,1,0,0:0:0:50:Synth.wav
402,192,175085,1,0,0:0:0:50:Snare A.wav
36,192,175085,1,0,0:0:0:0:
329,192,175085,1,0,0:0:0:0:
475,192,175085,1,0,0:0:0:0:
109,192,175163,1,0,0:0:0:0:
182,192,175242,1,0,0:0:0:0:
329,192,175242,1,0,0:0:0:0:
256,192,175320,1,0,0:0:0:0:
402,192,175399,1,0,0:0:0:50:Synth.wav
109,192,175399,1,0,0:0:0:50:KicK.wav
182,192,175399,1,0,0:0:0:0:
36,192,175399,1,0,0:0:0:0:
475,192,175399,1,0,0:0:0:0:
329,192,175477,1,0,0:0:0:0:
402,192,175556,1,0,0:0:0:50:Snare A.wav
256,192,175556,1,0,0:0:0:0:
109,192,175556,1,0,0:0:0:0:
182,192,175634,1,0,0:0:0:0:
475,192,175713,1,0,0:0:0:50:Synth.wav
109,192,175713,1,0,0:0:0:50:KicK.wav
329,192,175713,1,0,0:0:0:0:
36,192,175713,1,0,0:0:0:0:
402,192,175713,1,0,0:0:0:0:
256,192,175792,1,0,0:0:0:0:
182,192,175870,1,0,0:0:0:0:
329,192,175870,1,0,0:0:0:0:
475,192,175949,1,0,0:0:0:0:
36,192,176027,1,0,0:0:0:50:Synth.wav
256,192,176027,1,0,0:0:0:50:KicK.wav
109,192,176027,1,0,0:0:0:0:
402,192,176027,1,0,0:0:0:0:
182,192,176027,1,0,0:0:0:0:
329,192,176106,1,0,0:0:0:0:
109,192,176184,1,0,0:0:0:50:Snare A.wav
402,192,176184,1,0,0:0:0:0:
475,192,176184,1,0,0:0:0:0:
182,192,176263,1,0,0:0:0:0:
402,192,176341,1,0,0:0:0:50:Synth.wav
329,192,176341,1,0,0:0:0:50:KicK.wav
36,192,176341,1,0,0:0:0:0:
256,192,176341,1,0,0:0:0:0:
475,192,176341,1,0,0:0:0:0:
182,192,176498,1,0,0:0:0:50:KicK.wav
109,192,176498,1,0,0:0:0:0:
329,192,176577,1,0,0:0:0:50:KicK.wav
475,192,176577,1,0,0:0:0:0:
182,192,176655,1,0,0:0:0:50:KicK.wav
109,192,176655,1,0,0:0:0:0:
329,192,176734,1,0,0:0:0:50:KicK.wav
475,192,176734,1,0,0:0:0:0:
256,192,176812,1,0,0:0:0:50:CrashL.wav
182,192,176812,1,0,0:0:0:50:KicK.wav
36,192,176812,1,0,0:0:0:0:
109,192,176812,1,0,0:0:0:0:
402,192,176812,1,0,0:0:0:0:
36,192,176970,1,0,0:0:0:50:Synth.wav
475,192,176970,1,0,0:0:0:0:
256,192,176970,1,0,0:0:0:0:
109,192,177048,1,0,0:0:0:50:Synth.wav
329,192,177048,1,0,0:0:0:0:
182,192,177127,1,0,0:0:0:50:Synth.wav
475,192,177127,1,0,0:0:0:0:
36,192,177127,1,0,0:0:0:0:
402,192,177127,1,0,0:0:0:0:
256,192,177205,1,0,0:0:0:0:
109,192,177284,1,0,0:0:0:50:Synth.wav
475,192,177284,1,0,0:0:0:50:KicK.wav
329,192,177284,1,0,0:0:0:0:
402,192,177284,1,0,0:0:0:0:
182,192,177362,1,0,0:0:0:0:
402,192,177441,1,0,0:0:0:50:Synth.wav
36,192,177441,1,0,0:0:0:0:
109,192,177441,1,0,0:0:0:0:
329,192,177441,1,0,0:0:0:0:
256,192,177519,1,0,0:0:0:0:
475,192,177598,1,0,0:0:0:50:Synth.wav
182,192,177598,1,0,0:0:0:50:Snare A.wav
109,192,177598,1,0,0:0:0:0:
402,192,177598,1,0,0:0:0:0:
36,192,177598,1,0,0:0:0:0:
329,192,177676,1,0,0:0:0:0:
182,192,177755,1,0,0:0:0:0:
402,192,177755,1,0,0:0:0:0:
36,192,177833,1,0,0:0:0:0:
109,192,177912,1,0,0:0:0:50:Synth.wav
329,192,177912,1,0,0:0:0:50:KicK.wav
256,192,177912,1,0,0:0:0:0:
475,192,177912,1,0,0:0:0:0:
402,192,177912,1,0,0:0:0:0:
36,192,177990,1,0,0:0:0:0:
182,192,178069,1,0,0:0:0:50:Snare A.wav
329,192,178069,1,0,0:0:0:0:
475,192,178069,1,0,0:0:0:0:
256,192,178148,1,0,0:0:0:0:
182,192,178226,1,0,0:0:0:50:Synth.wav
109,192,178226,1,0,0:0:0:0:
402,192,178226,1,0,0:0:0:0:
36,192,178226,1,0,0:0:0:0:
475,192,178226,1,0,0:0:0:0:
329,192,178305,1,0,0:0:0:0:
109,192,178383,1,0,0:0:0:50:KicK.wav
402,192,178383,1,0,0:0:0:0:
182,192,178462,1,0,0:0:0:0:
475,192,178540,1,0,0:0:0:50:Synth.wav
36,192,178540,1,0,0:0:0:50:KicK.wav
256,192,178540,1,0,0:0:0:0:
329,192,178540,1,0,0:0:0:0:
402,192,178540,1,0,0:0:0:0:
109,192,178619,1,0,0:0:0:50:KicK.wav
36,192,178697,1,0,0:0:0:50:Synth.wav
329,192,178697,1,0,0:0:0:50:Snare A.wav
182,192,178697,1,0,0:0:0:0:
475,192,178697,1,0,0:0:0:0:
402,192,178697,1,0,0:0:0:0:
256,192,178854,1,0,0:0:0:0:
109,192,178854,1,0,0:0:0:0:
109,192,179011,1,0,0:0:0:50:Synth.wav
475,192,179011,1,0,0:0:0:50:CrashL.wav
256,192,179011,1,0,0:0:0:50:KicK.wav
36,192,179011,1,0,0:0:0:0:
402,192,179011,1,0,0:0:0:0:
329,192,179090,1,0,0:0:0:0:
402,192,179168,1,0,0:0:0:0:
182,192,179168,1,0,0:0:0:0:
475,192,179247,1,0,0:0:0:0:
182,192,179326,1,0,0:0:0:50:KicK.wav
329,192,179326,1,0,0:0:0:0:
36,192,179326,1,0,0:0:0:0:
109,192,179404,1,0,0:0:0:0:
36,192,179483,1,0,0:0:0:50:Synth.wav
256,192,179483,1,0,0:0:0:50:CrashL.wav
475,192,179483,1,0,0:0:0:50:KicK.wav
329,192,179483,1,0,0:0:0:0:
402,192,179483,1,0,0:0:0:0:
182,192,179561,1,0,0:0:0:0:
402,192,179640,1,0,0:0:0:0:
109,192,179640,1,0,0:0:0:0:
329,192,179718,1,0,0:0:0:0:
475,192,179797,1,0,0:0:0:50:Synth.wav
256,192,179797,1,0,0:0:0:50:KicK.wav
182,192,179797,1,0,0:0:0:0:
36,192,179797,1,0,0:0:0:0:
109,192,179797,1,0,0:0:0:0:
329,192,179875,1,0,0:0:0:0:
402,192,179954,1,0,0:0:0:50:Synth.wav
182,192,179954,1,0,0:0:0:50:KicK.wav
475,192,179954,1,0,0:0:0:0:
36,192,179954,1,0,0:0:0:0:
109,192,179954,1,0,0:0:0:0:
256,192,180032,1,0,0:0:0:0:
329,192,180111,1,0,0:0:0:50:Synth.wav
402,192,180111,1,0,0:0:0:50:CrashL.wav
109,192,180111,1,0,0:0:0:50:KicK.wav
36,192,180111,1,0,0:0:0:0:
475,192,180111,1,0,0:0:0:0:
182,192,180189,1,0,0:0:0:0:
329,192,180268,1,0,0:0:0:0:
109,192,180268,1,0,0:0:0:0:
256,192,180346,1,0,0:0:0:0:
36,192,180425,1,0,0:0:0:50:Snare A.wav
402,192,180425,1,0,0:0:0:0:
475,192,180425,1,0,0:0:0:0:
182,192,180425,1,0,0:0:0:0:
329,192,180504,1,0,0:0:0:0:
475,192,180582,1,0,0:0:0:50:KicK.wav
256,192,180582,1,0,0:0:0:0:
109,192,180582,1,0,0:0:0:0:
36,192,180582,1,0,0:0:0:0:
329,192,180739,1,0,0:0:0:0:
182,192,180739,1,0,0:0:0:0:
329,192,180896,1,0,0:0:0:50:Synth.wav
109,192,180896,1,0,0:0:0:50:KicK.wav
182,192,180896,1,0,0:0:0:0:
36,192,180896,1,0,0:0:0:0:
475,192,180896,1,0,0:0:0:0:
402,192,181053,1,0,0:0:0:50:Synth.wav
109,192,181053,1,0,0:0:0:50:Drum.wav
256,192,181053,1,0,0:0:0:0:
329,192,181132,1,0,0:0:0:50:Synth.wav
182,192,181132,1,0,0:0:0:50:Drum.wav
36,192,181210,1,0,0:0:0:50:Synth.wav
475,192,181210,1,0,0:0:0:50:Drum.wav
256,192,181210,1,0,0:0:0:0:
109,192,181289,1,0,0:0:0:50:Synth.wav
402,192,181289,1,0,0:0:0:50:Drum.wav
182,192,181367,1,0,0:0:0:50:Synth.wav
329,192,181367,1,0,0:0:0:50:Drum.wav
256,192,181446,1,0,0:0:0:50:Synth.wav
402,192,181446,1,0,0:0:0:50:Drum.wav
109,192,181525,128,0,181760:0:0:0:50:Synth.wav
36,192,181525,128,0,181760:0:0:0:50:CrashL.wav
182,192,181525,128,0,181760:0:0:0:50:KicK.wav
329,192,181525,128,0,181760:0:0:0:0:
475,192,181525,128,0,181760:0:0:0:0:
402,192,181839,1,0,0:0:0:50:Snare A.wav
329,192,181839,1,0,0:0:0:50:Chord B.wav
475,192,181839,1,0,0:0:0:0:
109,192,181917,1,0,0:0:0:50:Chord B.wav
36,192,181917,1,0,0:0:0:0:
182,192,181996,1,0,0:0:0:50:Chord B.wav
475,192,181996,1,0,0:0:0:0:
256,192,181996,1,0,0:0:0:50:BeLL.wav
402,192,181996,1,0,0:0:0:50:KicK.wav
109,192,182074,1,0,0:0:0:50:Chord B.wav
36,192,182074,1,0,0:0:0:0:
329,192,182153,1,0,0:0:0:50:Chord B.wav
475,192,182153,1,0,0:0:0:0:
402,192,182153,1,0,0:0:0:0:
109,192,182231,1,0,0:0:0:50:Chord B.wav
36,192,182231,1,0,0:0:0:0:
402,192,182310,1,0,0:0:0:50:KicK.wav
475,192,182310,1,0,0:0:0:0:
256,192,182310,1,0,0:0:0:50:BeLL.wav
182,192,182310,1,0,0:0:0:50:Chord B.wav
109,192,182388,1,0,0:0:0:50:Chord B.wav
36,192,182388,1,0,0:0:0:0:
329,192,182467,1,0,0:0:0:50:Chord B.wav
475,192,182467,1,0,0:0:0:0:
402,192,182467,1,0,0:0:0:0:
109,192,182545,1,0,0:0:0:50:Chord B.wav
36,192,182545,1,0,0:0:0:0:
402,192,182624,1,0,0:0:0:50:Snare A.wav
475,192,182624,1,0,0:0:0:0:
256,192,182624,1,0,0:0:0:50:BeLL.wav
182,192,182624,1,0,0:0:0:50:Chord B.wav
36,192,182703,1,0,0:0:0:0:
109,192,182703,1,0,0:0:0:50:Chord B.wav
475,192,182781,1,0,0:0:0:0:
402,192,182781,1,0,0:0:0:0:
329,192,182781,1,0,0:0:0:50:Chord B.wav
182,192,182860,1,0,0:0:0:50:Chord B.wav
256,192,182860,1,0,0:0:0:0:
475,192,182938,1,0,0:0:0:50:KicK.wav
36,192,182938,1,0,0:0:0:50:Chord B.wav
402,192,182938,1,0,0:0:0:50:BeLL.wav
109,192,182938,1,0,0:0:0:0:
329,192,183017,1,0,0:0:0:50:Chord B.wav
256,192,183017,1,0,0:0:0:0:
36,192,183095,1,0,0:0:0:50:Snare A.wav
182,192,183095,1,0,0:0:0:50:Chord B.wav
109,192,183095,1,0,0:0:0:0:
256,192,183174,1,0,0:0:0:50:Chord B.wav
329,192,183174,1,0,0:0:0:0:
475,192,183252,1,0,0:0:0:50:KicK.wav
36,192,183252,1,0,0:0:0:50:BeLL.wav
109,192,183252,1,0,0:0:0:0:
402,192,183252,1,0,0:0:0:50:Chord B.wav
182,192,183331,1,0,0:0:0:50:Chord B.wav
256,192,183331,1,0,0:0:0:0:
329,192,183409,1,0,0:0:0:50:Chord B.wav
402,192,183409,1,0,0:0:0:0:
475,192,183409,1,0,0:0:0:0:
182,192,183488,1,0,0:0:0:50:Chord B.wav
256,192,183488,1,0,0:0:0:0:
475,192,183566,1,0,0:0:0:50:KicK.wav
36,192,183566,1,0,0:0:0:50:BeLL.wav
109,192,183566,1,0,0:0:0:0:
402,192,183566,1,0,0:0:0:50:Chord B.wav
256,192,183645,1,0,0:0:0:50:Chord B.wav
329,192,183645,1,0,0:0:0:0:
36,192,183723,1,0,0:0:0:50:Synth.wav
182,192,183723,1,0,0:0:0:0:
109,192,183723,1,0,0:0:0:0:
329,192,183802,1,0,0:0:0:50:Synth.wav
475,192,183802,1,0,0:0:0:0:
402,192,183881,1,0,0:0:0:50:Synth.wav
256,192,183881,1,0,0:0:0:0:
329,192,183959,1,0,0:0:0:50:Synth.wav
182,192,183959,1,0,0:0:0:0:
36,192,184038,1,0,0:0:0:50:CrashL.wav
475,192,184038,1,0,0:0:0:50:KicK.wav
109,192,184038,1,0,0:0:0:50:Synth.wav
402,192,184038,1,0,0:0:0:0:
256,192,184038,1,0,0:0:0:0:
182,192,184195,1,0,0:0:0:50:KicK.wav
329,192,184195,1,0,0:0:0:50:Chord B.wav
475,192,184195,1,0,0:0:0:0:
402,192,184195,1,0,0:0:0:0:
109,192,184273,1,0,0:0:0:50:Chord B.wav
36,192,184273,1,0,0:0:0:0:
329,192,184352,1,0,0:0:0:50:Chord B.wav
182,192,184352,1,0,0:0:0:0:
256,192,184352,1,0,0:0:0:50:Snare A.wav
402,192,184430,1,0,0:0:0:50:Chord B.wav
475,192,184430,1,0,0:0:0:0:
329,192,184509,1,0,0:0:0:50:BeLL.wav
182,192,184509,1,0,0:0:0:50:KicK.wav
36,192,184509,1,0,0:0:0:50:Chord B.wav
109,192,184509,1,0,0:0:0:0:
402,192,184587,1,0,0:0:0:50:Chord B.wav
475,192,184587,1,0,0:0:0:0:
256,192,184666,1,0,0:0:0:0:
329,192,184666,1,0,0:0:0:0:
182,192,184666,1,0,0:0:0:50:Chord B.wav
109,192,184744,1,0,0:0:0:50:Chord B.wav
36,192,184744,1,0,0:0:0:0:
475,192,184823,1,0,0:0:0:50:KicK.wav
182,192,184823,1,0,0:0:0:50:Chord B.wav
402,192,184823,1,0,0:0:0:0:
329,192,184823,1,0,0:0:0:50:BeLL.wav
109,192,184901,1,0,0:0:0:50:Chord B.wav
36,192,184901,1,0,0:0:0:0:
402,192,184980,1,0,0:0:0:50:Chord B.wav
475,192,184980,1,0,0:0:0:0:
256,192,184980,1,0,0:0:0:0:
329,192,185059,1,0,0:0:0:50:Chord B.wav
182,192,185059,1,0,0:0:0:0:
256,192,185137,1,0,0:0:0:50:Snare A.wav
36,192,185137,1,0,0:0:0:50:BeLL.wav
475,192,185137,1,0,0:0:0:0:
109,192,185137,1,0,0:0:0:0:
402,192,185137,1,0,0:0:0:50:Synth.wav
329,192,185294,1,0,0:0:0:0:
109,192,185294,1,0,0:0:0:0:
182,192,185373,1,0,0:0:0:0:
329,192,185451,1,0,0:0:0:50:Synth.wav
36,192,185451,1,0,0:0:0:50:KicK.wav
256,192,185451,1,0,0:0:0:50:BeLL.wav
402,192,185451,1,0,0:0:0:0:
475,192,185451,1,0,0:0:0:0:
109,192,185608,1,0,0:0:0:50:Snare A.wav
36,192,185608,1,0,0:0:0:0:
402,192,185608,1,0,0:0:0:0:
182,192,185608,1,0,0:0:0:0:
256,192,185687,1,0,0:0:0:0:
402,192,185765,1,0,0:0:0:50:Synth.wav
475,192,185765,1,0,0:0:0:50:KicK.wav
36,192,185765,1,0,0:0:0:50:BeLL.wav
109,192,185765,1,0,0:0:0:0:
329,192,185765,1,0,0:0:0:0:
475,192,185922,1,0,0:0:0:0:
256,192,185922,1,0,0:0:0:0:
329,192,186001,1,0,0:0:0:0:
109,192,186079,1,0,0:0:0:50:Synth.wav
36,192,186079,1,0,0:0:0:50:KicK.wav
182,192,186079,1,0,0:0:0:50:BeLL.wav
402,192,186079,1,0,0:0:0:0:
475,192,186079,1,0,0:0:0:0:
329,192,186237,1,0,0:0:0:50:Snare A.wav
109,192,186237,1,0,0:0:0:0:
182,192,186237,1,0,0:0:0:0:
475,192,186394,1,0,0:0:0:50:Synth.wav
256,192,186394,1,0,0:0:0:50:KicK.wav
36,192,186394,1,0,0:0:0:0:
329,192,186472,1,0,0:0:0:50:Synth.wav
182,192,186472,1,0,0:0:0:0:
475,192,186551,1,0,0:0:0:50:Synth.wav
402,192,186551,1,0,0:0:0:50:CrashL.wav
256,192,186551,1,0,0:0:0:50:KicK.wav
109,192,186551,1,0,0:0:0:0:
36,192,186551,1,0,0:0:0:0:
109,192,186708,1,0,0:0:0:0:
402,192,186708,1,0,0:0:0:0:
475,192,186865,1,0,0:0:0:50:Snare A.wav
329,192,186865,1,0,0:0:0:0:
182,192,186865,1,0,0:0:0:0:
109,192,186943,1,0,0:0:0:0:
475,192,187022,1,0,0:0:0:0:
256,192,187022,1,0,0:0:0:0:
36,192,187022,1,0,0:0:0:0:
402,192,187100,1,0,0:0:0:0:
329,192,187179,1,0,0:0:0:0:
182,192,187179,1,0,0:0:0:0:
256,192,187257,1,0,0:0:0:0:
402,192,187336,1,0,0:0:0:50:Synth.wav
475,192,187336,1,0,0:0:0:50:KicK.wav
109,192,187336,1,0,0:0:0:0:
36,192,187336,1,0,0:0:0:0:
329,192,187336,1,0,0:0:0:0:
182,192,187415,1,0,0:0:0:0:
402,192,187493,1,0,0:0:0:50:Synth.wav
475,192,187493,1,0,0:0:0:0:
256,192,187493,1,0,0:0:0:0:
109,192,187493,1,0,0:0:0:0:
36,192,187493,1,0,0:0:0:0:
329,192,187572,1,0,0:0:0:0:
402,192,187650,1,0,0:0:0:50:Synth.wav
109,192,187650,1,0,0:0:0:50:Snare A.wav
475,192,187650,1,0,0:0:0:0:
182,192,187650,1,0,0:0:0:0:
36,192,187650,1,0,0:0:0:0:
329,192,187729,1,0,0:0:0:0:
256,192,187807,1,0,0:0:0:0:
36,192,187807,1,0,0:0:0:0:
109,192,187886,1,0,0:0:0:0:
475,192,187964,1,0,0:0:0:50:KicK.wav
329,192,187964,1,0,0:0:0:0:
182,192,187964,1,0,0:0:0:0:
36,192,188043,1,0,0:0:0:0:
475,192,188121,1,0,0:0:0:50:Snare A.wav
256,192,188121,1,0,0:0:0:0:
109,192,188121,1,0,0:0:0:0:
402,192,188200,1,0,0:0:0:0:
109,192,188278,1,0,0:0:0:0:
329,192,188278,1,0,0:0:0:0:
182,192,188357,1,0,0:0:0:0:
36,192,188435,1,0,0:0:0:50:KicK.wav
475,192,188435,1,0,0:0:0:0:
256,192,188435,1,0,0:0:0:0:
329,192,188514,1,0,0:0:0:0:
182,192,188593,1,0,0:0:0:50:Synth.wav
36,192,188593,1,0,0:0:0:50:KicK.wav
402,192,188593,1,0,0:0:0:0:
475,192,188593,1,0,0:0:0:0:
109,192,188593,1,0,0:0:0:0:
256,192,188671,1,0,0:0:0:50:KicK.wav
109,192,188750,1,0,0:0:0:50:Synth.wav
329,192,188750,1,0,0:0:0:50:Snare A.wav
36,192,188750,1,0,0:0:0:0:
475,192,188750,1,0,0:0:0:0:
402,192,188750,1,0,0:0:0:0:
182,192,188828,1,0,0:0:0:0:
36,192,188907,1,0,0:0:0:50:Synth.wav
475,192,188907,1,0,0:0:0:50:CrashL.wav
402,192,188907,1,0,0:0:0:0:
329,192,188907,1,0,0:0:0:0:
256,192,188907,1,0,0:0:0:50:KicK.wav
109,192,188985,1,0,0:0:0:0:
402,192,189064,1,0,0:0:0:50:Drum.wav
329,192,189064,1,0,0:0:0:0:
182,192,189064,1,0,0:0:0:0:
109,192,189142,1,0,0:0:0:0:
475,192,189221,1,0,0:0:0:50:KicK.wav
256,192,189221,1,0,0:0:0:0:
36,192,189221,1,0,0:0:0:0:
402,192,189299,1,0,0:0:0:0:
182,192,189378,1,0,0:0:0:50:Snare A.wav
36,192,189378,1,0,0:0:0:0:
329,192,189378,1,0,0:0:0:0:
475,192,189456,1,0,0:0:0:0:
329,192,189535,1,0,0:0:0:50:Drum.wav
182,192,189535,1,0,0:0:0:0:
109,192,189614,1,0,0:0:0:50:Drum.wav
36,192,189614,1,0,0:0:0:0:
402,192,189692,1,0,0:0:0:50:Drum.wav
256,192,189692,1,0,0:0:0:0:
182,192,189771,1,0,0:0:0:50:Drum.wav
109,192,189771,1,0,0:0:0:0:
475,192,189849,1,0,0:0:0:50:Drum.wav
329,192,189849,1,0,0:0:0:0:
256,192,189928,1,0,0:0:0:50:Drum.wav
182,192,189928,1,0,0:0:0:0:
402,192,190006,1,0,0:0:0:50:Drum.wav
36,192,190006,1,0,0:0:0:0:
109,192,190006,1,0,0:0:0:0:
329,192,190045,1,0,0:0:0:50:Drum.wav
256,192,190085,1,0,0:0:0:50:Drum.wav
182,192,190124,1,0,0:0:0:50:Drum.wav
475,192,190163,1,0,0:0:0:50:Drum.wav
402,192,190203,1,0,0:0:0:50:Drum.wav
329,192,190242,1,0,0:0:0:50:Drum.wav
256,192,190281,1,0,0:0:0:50:Drum.wav
36,192,190320,1,0,0:0:0:50:CrashL.wav
109,192,190320,1,0,0:0:0:50:Drum.wav
475,192,190320,1,0,0:0:0:0:
402,192,190320,1,0,0:0:0:0:
182,192,190399,1,0,0:0:0:0:
329,192,190399,1,0,0:0:0:0:
256,192,190477,1,0,0:0:0:0:
402,192,190477,1,0,0:0:0:0:
109,192,190556,1,0,0:0:0:0:
475,192,190556,1,0,0:0:0:0:
182,192,190634,1,0,0:0:0:0:
329,192,190634,1,0,0:0:0:0:
36,192,190713,1,0,0:0:0:0:
402,192,190713,1,0,0:0:0:0:
109,192,190792,1,0,0:0:0:0:
329,192,190792,1,0,0:0:0:0:
256,192,190870,1,0,0:0:0:0:
475,192,190870,1,0,0:0:0:0:
402,192,190949,1,0,0:0:0:0:
182,192,190949,1,0,0:0:0:0:
36,192,191027,1,0,0:0:0:0:
256,192,191027,1,0,0:0:0:0:
329,192,191106,1,0,0:0:0:0:
109,192,191106,1,0,0:0:0:0:
402,192,191184,1,0,0:0:0:0:
182,192,191184,1,0,0:0:0:0:
109,192,191263,1,0,0:0:0:0:
475,192,191263,1,0,0:0:0:0:
402,192,191315,1,0,0:0:0:0:
36,192,191341,1,0,0:0:0:0:
329,192,191367,1,0,0:0:0:0:
475,192,191420,1,0,0:0:0:0:
256,192,191420,1,0,0:0:0:0:
182,192,191472,1,0,0:0:0:0:
402,192,191498,1,0,0:0:0:0:
109,192,191525,1,0,0:0:0:0:
329,192,191577,1,0,0:0:0:0:
36,192,191577,1,0,0:0:0:0:
402,192,191655,1,0,0:0:0:0:
109,192,191655,1,0,0:0:0:0:
329,192,191734,1,0,0:0:0:0:
182,192,191734,1,0,0:0:0:0:
109,192,191812,1,0,0:0:0:0:
256,192,191812,1,0,0:0:0:0:
36,192,191891,1,0,0:0:0:0:
329,192,191891,1,0,0:0:0:0:
256,192,191970,1,0,0:0:0:0:
475,192,191970,1,0,0:0:0:0:
182,192,192048,1,0,0:0:0:0:
402,192,192048,1,0,0:0:0:0:
109,192,192127,1,0,0:0:0:0:
329,192,192127,1,0,0:0:0:0:
475,192,192205,1,0,0:0:0:50:Drum.wav
256,192,192205,1,0,0:0:0:0:
36,192,192205,1,0,0:0:0:0:
329,192,192284,1,0,0:0:0:50:Drum.wav
182,192,192284,1,0,0:0:0:0:
109,192,192284,1,0,0:0:0:0:
475,192,192362,1,0,0:0:0:50:Drum.wav
402,192,192362,1,0,0:0:0:0:
36,192,192362,1,0,0:0:0:0:
329,192,192441,1,0,0:0:0:50:Drum.wav
109,192,192441,1,0,0:0:0:0:
182,192,192441,1,0,0:0:0:0:
402,192,192519,128,0,192755:0:0:0:50:KicK.wav
475,192,192519,128,0,192755:0:0:0:0:
36,192,192519,128,0,192755:0:0:0:0:
256,192,192519,128,0,192755:0:0:0:0:
475,192,192833,1,0,0:0:0:50:CrashL.wav
109,192,192833,1,0,0:0:0:50:KicK.wav
402,192,192833,1,0,0:0:0:0:
36,192,192833,1,0,0:0:0:0:
182,192,192833,1,0,0:0:0:0:
329,192,192833,1,0,0:0:0:0:
109,192,193462,128,0,194090:0:0:0:0:
182,192,193619,128,0,194090:0:0:0:0:
256,192,193776,128,0,194090:0:0:0:0:
329,192,193933,128,0,194090:0:0:0:0:
36,192,194090,1,0,0:0:0:30:CrashL.wav
475,192,194090,1,0,0:0:0:30:KicK.wav
402,192,194090,128,0,196525:0:0:0:20:BeLL.wav
109,192,195032,128,0,196525:0:0:0:0:
329,192,195346,128,0,196525:0:0:0:0:
182,192,195975,128,0,196525:0:0:0:0:
182,192,196603,1,0,0:0:0:20:BeLL.wav
109,192,196603,1,0,0:0:0:0:
329,192,196917,128,0,197441:0:0:0:0:
182,192,197074,128,0,197441:0:0:0:0:
475,192,197231,128,0,197860:0:0:0:0:
256,192,197441,128,0,197860:0:0:0:0:
402,192,197650,128,0,197860:0:0:0:0:
109,192,197860,128,0,198017:0:0:0:0:
109,192,198174,128,0,199116:0:0:0:0:
402,192,198488,128,0,199116:0:0:0:0:
256,192,198645,128,0,198802:0:0:0:0:
182,192,198802,128,0,199116:0:0:0:0:
329,192,198959,128,0,199116:0:0:0:0:
256,192,199116,1,0,0:0:0:20:BeLL.wav
36,192,199116,128,0,202807:0:0:0:0:
475,192,199116,128,0,202807:0:0:0:0:
329,192,199587,128,0,201551:0:0:0:0:
182,192,200059,128,0,201551:0:0:0:0:
256,192,201629,128,0,202807:0:0:0:20:BeLL.wav
402,192,201629,128,0,202807:0:0:0:0:
109,192,201629,128,0,202807:0:0:0:0:
256,192,202886,1,0,0:0:0:20:BeLL.wav
36,192,202886,1,0,0:0:0:0:
475,192,202886,1,0,0:0:0:0:
329,192,203200,128,0,203828:0:0:0:0:
475,192,203514,128,0,203828:0:0:0:0:
402,192,203671,128,0,203828:0:0:0:0:
36,192,203828,128,0,203907:0:0:0:0:
182,192,203907,128,0,203985:0:0:0:0:
109,192,203985,128,0,204064:0:0:0:0:
256,192,204064,128,0,204142:0:0:0:0:
475,192,204142,1,0,0:0:0:0:
402,192,204142,1,0,0:0:0:20:BeLL.wav
329,192,204142,128,0,206577:0:0:0:0:
36,192,205085,128,0,206577:0:0:0:0:
182,192,205399,128,0,206577:0:0:0:0:
329,192,206655,5,0,0:0:0:20:BeLL.wav
475,192,206655,1,0,0:0:0:0:
402,192,206970,128,0,207598:0:0:0:0:
36,192,207598,128,0,207912:0:0:0:0:
256,192,207755,128,0,207912:0:0:0:0:
475,192,207912,128,0,208069:0:0:0:0:
182,192,208069,128,0,208226:0:0:0:0:
402,192,208226,128,0,208383:0:0:0:0:
109,192,208383,128,0,209090:0:0:0:0:
329,192,208540,128,0,209090:0:0:0:0:
475,192,208854,128,0,209090:0:0:0:0:
475,192,209168,1,0,0:0:0:20:BeLL.wav
329,192,209168,128,0,211603:0:0:0:0:
109,192,209168,128,0,212860:0:0:0:0:
182,192,209640,128,0,211603:0:0:0:0:
402,192,210111,128,0,212860:0:0:0:0:
256,192,211682,128,0,212860:0:0:0:20:BeLL.wav
475,192,211682,128,0,212860:0:0:0:0:
36,192,211682,128,0,212860:0:0:0:0:
36,192,212938,1,0,0:0:0:20:BeLL.wav
329,192,212938,1,0,0:0:0:0:
182,192,212938,1,0,0:0:0:0:
329,192,213252,128,0,213881:0:0:0:0:
36,192,213566,128,0,213881:0:0:0:0:
475,192,213723,1,0,0:0:0:0:
402,192,213723,1,0,0:0:0:30:KicK.wav
182,192,213723,128,0,213881:0:0:0:0:
475,192,213881,1,0,0:0:0:0:
402,192,213881,1,0,0:0:0:30:KicK.wav
109,192,213881,128,0,213959:0:0:0:0:
256,192,213959,128,0,214038:0:0:0:0:
475,192,214038,1,0,0:0:0:0:
402,192,214038,1,0,0:0:0:30:KicK.wav
182,192,214038,128,0,214116:0:0:0:0:
329,192,214116,128,0,214195:0:0:0:0:
402,192,214195,1,0,0:0:0:30:KicK.wav
475,192,214195,1,0,0:0:0:20:BeLL.wav
36,192,214195,128,0,215373:0:0:0:30:CrashL.wav
256,192,214195,1,0,0:0:0:20:Chord B.wav
109,192,214299,1,0,0:0:0:20:Chord B.wav
182,192,214404,1,0,0:0:0:20:Chord B.wav
256,192,214509,1,0,0:0:0:20:Chord B.wav
182,192,214614,1,0,0:0:0:20:Chord B.wav
256,192,214718,1,0,0:0:0:20:Chord B.wav
329,192,214823,1,0,0:0:0:20:Chord B.wav
256,192,214928,1,0,0:0:0:20:Chord B.wav
329,192,215032,1,0,0:0:0:20:Chord B.wav
402,192,215137,1,0,0:0:0:20:Chord B.wav
109,192,215137,128,0,215373:0:0:0:0:
329,192,215242,1,0,0:0:0:20:Chord B.wav
402,192,215346,1,0,0:0:0:20:Chord B.wav
256,192,215451,128,0,216079:0:0:0:0:
36,192,215451,1,0,0:0:0:20:Chord B.wav
475,192,215451,128,0,215687:0:0:0:0:
109,192,215490,1,0,0:0:0:20:Chord B.wav
182,192,215530,1,0,0:0:0:20:Chord B.wav
475,192,215765,128,0,215844:0:0:0:20:Chord B.wav
329,192,215844,128,0,215922:0:0:0:20:Chord B.wav
182,192,215922,128,0,216001:0:0:0:20:Chord B.wav
36,192,216001,128,0,216079:0:0:0:20:Chord B.wav
109,192,216079,128,0,216708:0:0:0:0:
475,192,216079,128,0,216158:0:0:0:20:Chord B.wav
402,192,216158,128,0,216237:0:0:0:20:Chord B.wav
329,192,216237,128,0,216315:0:0:0:20:Chord B.wav
256,192,216315,128,0,216394:0:0:0:20:Chord B.wav
402,192,216394,128,0,216472:0:0:0:20:Chord B.wav
329,192,216472,128,0,216551:0:0:0:20:Chord B.wav
256,192,216551,128,0,216629:0:0:0:20:Chord B.wav
182,192,216629,128,0,216708:0:0:0:20:Chord B.wav
36,192,216708,1,0,0:0:0:20:Chord B.wav
329,192,216708,1,0,0:0:0:0:
475,192,216708,128,0,217336:0:0:0:20:BeLL.wav
109,192,216812,1,0,0:0:0:20:Chord B.wav
182,192,216917,1,0,0:0:0:20:Chord B.wav
256,192,217022,1,0,0:0:0:20:Chord B.wav
36,192,217022,128,0,217336:0:0:0:0:
329,192,217127,1,0,0:0:0:20:Chord B.wav
109,192,217179,128,0,217336:0:0:0:0:
256,192,217231,1,0,0:0:0:20:Chord B.wav
329,192,217336,1,0,0:0:0:20:Chord B.wav
182,192,217336,128,0,217493:0:0:0:0:
402,192,217441,1,0,0:0:0:20:Chord B.wav
329,192,217545,1,0,0:0:0:20:Chord B.wav
109,192,217572,128,0,217729:0:0:0:0:
402,192,217650,1,0,0:0:0:20:Chord B.wav
475,192,217755,1,0,0:0:0:20:Chord B.wav
36,192,217807,128,0,217964:0:0:0:0:
402,192,217860,1,0,0:0:0:20:Chord B.wav
329,192,217964,1,0,0:0:0:20:Chord B.wav
256,192,217964,128,0,218200:0:0:0:0:
109,192,217964,128,0,218593:0:0:0:0:
402,192,218004,1,0,0:0:0:20:Chord B.wav
475,192,218043,1,0,0:0:0:20:Chord B.wav
475,192,218278,128,0,218750:0:0:0:0:
402,192,218278,128,0,218357:0:0:0:20:Chord B.wav
329,192,218357,128,0,218435:0:0:0:20:Chord B.wav
256,192,218435,128,0,218514:0:0:0:20:Chord B.wav
182,192,218514,128,0,218593:0:0:0:20:Chord B.wav
329,192,218593,128,0,218671:0:0:0:20:Chord B.wav
36,192,218593,128,0,218907:0:0:0:0:
256,192,218671,128,0,218750:0:0:0:20:Chord B.wav
182,192,218750,128,0,218828:0:0:0:20:Chord B.wav
402,192,218750,128,0,218907:0:0:0:0:
109,192,218828,128,0,218907:0:0:0:20:Chord B.wav
475,192,218907,1,0,0:0:0:0:
256,192,218907,128,0,218985:0:0:0:20:Chord B.wav
402,192,218985,1,0,0:0:0:0:
182,192,218985,128,0,219064:0:0:0:20:Chord B.wav
329,192,219064,1,0,0:0:0:0:
109,192,219064,128,0,219142:0:0:0:20:Chord B.wav
256,192,219142,1,0,0:0:0:0:
36,192,219142,128,0,219221:0:0:0:20:Chord B.wav
402,192,219221,1,0,0:0:0:20:BeLL.wav
182,192,219221,1,0,0:0:0:20:Chord B.wav
475,192,219221,1,0,0:0:0:0:
109,192,219299,1,0,0:0:0:0:
256,192,219326,1,0,0:0:0:20:Chord B.wav
36,192,219378,1,0,0:0:0:0:
329,192,219430,1,0,0:0:0:20:Chord B.wav
109,192,219456,1,0,0:0:0:0:
402,192,219535,1,0,0:0:0:20:Chord B.wav
182,192,219535,1,0,0:0:0:0:
109,192,219614,1,0,0:0:0:0:
475,192,219640,1,0,0:0:0:20:Chord B.wav
36,192,219692,1,0,0:0:0:0:
402,192,219744,1,0,0:0:0:20:Chord B.wav
109,192,219771,1,0,0:0:0:0:
329,192,219849,1,0,0:0:0:20:Chord B.wav
475,192,219849,1,0,0:0:0:0:
182,192,219849,1,0,0:0:0:0:
256,192,219928,1,0,0:0:0:0:
36,192,219954,1,0,0:0:0:20:Chord B.wav
329,192,220006,1,0,0:0:0:0:
109,192,220059,1,0,0:0:0:20:Chord B.wav
402,192,220085,1,0,0:0:0:0:
182,192,220163,1,0,0:0:0:20:Chord B.wav
475,192,220163,1,0,0:0:0:0:
402,192,220242,1,0,0:0:0:0:
109,192,220268,1,0,0:0:0:20:Chord B.wav
329,192,220320,1,0,0:0:0:0:
182,192,220373,1,0,0:0:0:20:Chord B.wav
402,192,220399,1,0,0:0:0:0:
36,192,220477,128,0,220713:0:0:0:0:
475,192,220477,1,0,0:0:0:20:Chord B.wav
256,192,220477,128,0,221106:0:0:0:0:
402,192,220517,1,0,0:0:0:20:Chord B.wav
329,192,220556,1,0,0:0:0:20:Chord B.wav
36,192,220792,128,0,220949:0:0:0:20:Chord B.wav
182,192,220870,128,0,221027:0:0:0:20:Chord B.wav
475,192,220949,128,0,221106:0:0:0:20:Chord B.wav
402,192,221027,128,0,221184:0:0:0:20:Chord B.wav
109,192,221106,128,0,221263:0:0:0:20:Chord B.wav
36,192,221106,128,0,221655:0:0:0:0:
256,192,221184,128,0,221341:0:0:0:20:Chord B.wav
475,192,221263,128,0,221420:0:0:0:20:Chord B.wav
402,192,221341,128,0,221498:0:0:0:20:Chord B.wav
182,192,221420,128,0,221577:0:0:0:20:Chord B.wav
329,192,221498,128,0,221655:0:0:0:20:Chord B.wav
475,192,221577,128,0,221734:0:0:0:20:Chord B.wav
402,192,221655,128,0,221812:0:0:0:20:Chord B.wav
182,192,221734,1,0,0:0:0:20:BeLL.wav
36,192,221734,1,0,0:0:0:20:Chord B.wav
256,192,221734,128,0,222598:0:0:0:0:
109,192,221839,1,0,0:0:0:20:Chord B.wav
36,192,221943,1,0,0:0:0:20:Chord B.wav
182,192,222048,1,0,0:0:0:20:Chord B.wav
475,192,222048,1,0,0:0:0:0:
402,192,222153,1,0,0:0:0:20:Chord B.wav
329,192,222257,1,0,0:0:0:20:Chord B.wav
36,192,222362,1,0,0:0:0:20:Chord B.wav
402,192,222362,128,0,222598:0:0:0:0:
109,192,222401,1,0,0:0:0:20:Chord B.wav
182,192,222441,1,0,0:0:0:20:Chord B.wav
36,192,222676,128,0,222912:0:0:0:0:
402,192,222676,1,0,0:0:0:0:
256,192,222676,128,0,222833:0:0:0:20:Chord B.wav
182,192,222755,128,0,222912:0:0:0:20:Chord B.wav
402,192,222833,128,0,222990:0:0:0:20:Chord B.wav
329,192,222912,128,0,223069:0:0:0:20:Chord B.wav
36,192,222990,1,0,0:0:0:20:BeLL.wav
475,192,222990,128,0,223540:0:0:0:0:
182,192,222990,128,0,223148:0:0:0:20:Chord B.wav
109,192,223069,128,0,223226:0:0:0:20:Chord B.wav
329,192,223148,128,0,223305:0:0:0:20:Chord B.wav
256,192,223226,128,0,223383:0:0:0:20:Chord B.wav
109,192,223305,128,0,223462:0:0:0:20:Chord B.wav
36,192,223383,128,0,223540:0:0:0:20:Chord B.wav
256,192,223462,128,0,223619:0:0:0:20:Chord B.wav
182,192,223540,128,0,223697:0:0:0:20:Chord B.wav
475,192,223619,128,0,223854:0:0:0:20:Chord B.wav
36,192,223619,128,0,223854:0:0:0:0:
402,192,223697,128,0,223854:0:0:0:20:Chord B.wav
329,192,223776,128,0,223854:0:0:0:20:Chord B.wav
182,192,223776,128,0,223854:0:0:0:0:
402,192,223933,1,0,0:0:0:30:Chord B.wav
109,192,223933,1,0,0:0:0:30:Drum.wav
329,192,224011,1,0,0:0:0:30:Chord B.wav
182,192,224011,1,0,0:0:0:30:Drum.wav
256,192,224090,1,0,0:0:0:30:Chord B.wav
475,192,224090,1,0,0:0:0:30:KicK.wav
36,192,224090,1,0,0:0:0:0:
182,192,224168,1,0,0:0:0:30:Chord B.wav
402,192,224168,1,0,0:0:0:30:KicK.wav
329,192,224168,1,0,0:0:0:0:
256,192,224247,128,0,225504:0:0:0:30:BeLL.wav
475,192,224247,1,0,0:0:0:30:Chord B.wav
36,192,224247,1,0,0:0:0:30:KicK.wav
109,192,224247,1,0,0:0:0:30:CrashL.wav
182,192,224326,1,0,0:0:0:30:Drum.wav
402,192,224352,1,0,0:0:0:30:Chord B.wav
109,192,224404,1,0,0:0:0:30:Drum.wav
329,192,224456,1,0,0:0:0:30:Chord B.wav
36,192,224483,1,0,0:0:0:30:Drum.wav
475,192,224561,1,0,0:0:0:30:Chord B.wav
182,192,224561,1,0,0:0:0:30:Drum.wav
109,192,224640,1,0,0:0:0:30:Drum.wav
402,192,224666,1,0,0:0:0:30:Chord B.wav
182,192,224718,1,0,0:0:0:30:Drum.wav
475,192,224771,1,0,0:0:0:30:Chord B.wav
36,192,224797,1,0,0:0:0:30:Drum.wav
329,192,224875,1,0,0:0:0:30:Chord B.wav
109,192,224875,1,0,0:0:0:30:Drum.wav
182,192,224954,1,0,0:0:0:30:Drum.wav
402,192,224980,1,0,0:0:0:30:Chord B.wav
36,192,225032,1,0,0:0:0:30:Drum.wav
475,192,225085,1,0,0:0:0:30:Chord B.wav
109,192,225111,1,0,0:0:0:30:Drum.wav
329,192,225189,1,0,0:0:0:30:Chord B.wav
182,192,225189,1,0,0:0:0:30:Drum.wav
109,192,225268,1,0,0:0:0:30:Drum.wav
475,192,225294,1,0,0:0:0:30:Chord B.wav
36,192,225346,1,0,0:0:0:30:Drum.wav
402,192,225399,1,0,0:0:0:30:Chord B.wav
109,192,225425,1,0,0:0:0:30:Drum.wav
329,192,225504,128,0,225582:0:0:0:30:Chord B.wav
182,192,225504,1,0,0:0:0:30:Drum.wav
402,192,225543,128,0,225621:0:0:0:30:Chord B.wav
475,192,225582,128,0,225661:0:0:0:30:Chord B.wav
36,192,225582,1,0,0:0:0:30:Drum.wav
182,192,225661,1,0,0:0:0:30:Drum.wav
329,192,225739,1,0,0:0:0:30:Drum.wav
182,192,225818,1,0,0:0:0:30:Chord B.wav
475,192,225818,1,0,0:0:0:30:Drum.wav
36,192,225818,1,0,0:0:0:0:
256,192,225896,1,0,0:0:0:30:Chord B.wav
402,192,225896,1,0,0:0:0:30:Drum.wav
109,192,225975,1,0,0:0:0:30:Chord B.wav
329,192,225975,1,0,0:0:0:30:Drum.wav
182,192,226053,1,0,0:0:0:30:Chord B.wav
402,192,226053,1,0,0:0:0:30:Drum.wav
36,192,226132,1,0,0:0:0:30:Chord B.wav
329,192,226132,1,0,0:0:0:30:Drum.wav
109,192,226210,1,0,0:0:0:30:Chord B.wav
256,192,226210,1,0,0:0:0:30:Drum.wav
182,192,226289,1,0,0:0:0:30:Chord B.wav
475,192,226289,1,0,0:0:0:30:Drum.wav
256,192,226367,1,0,0:0:0:30:Chord B.wav
402,192,226367,1,0,0:0:0:30:Drum.wav
182,192,226446,1,0,0:0:0:30:Chord B.wav
329,192,226446,1,0,0:0:0:30:Drum.wav
402,192,226525,1,0,0:0:0:30:Chord B.wav
109,192,226525,1,0,0:0:0:30:Drum.wav
256,192,226603,1,0,0:0:0:30:Chord B.wav
36,192,226603,1,0,0:0:0:30:KicK.wav
475,192,226603,1,0,0:0:0:0:
329,192,226682,1,0,0:0:0:30:Chord B.wav
109,192,226682,1,0,0:0:0:30:KicK.wav
182,192,226682,1,0,0:0:0:0:
256,192,226760,128,0,228017:0:0:0:30:BeLL.wav
36,192,226760,1,0,0:0:0:30:Chord B.wav
475,192,226760,1,0,0:0:0:30:CrashL.wav
402,192,226760,1,0,0:0:0:30:KicK.wav
329,192,226839,1,0,0:0:0:35:Drum.wav
109,192,226865,1,0,0:0:0:30:Chord B.wav
402,192,226917,1,0,0:0:0:35:Drum.wav
182,192,226970,1,0,0:0:0:30:Chord B.wav
475,192,226996,1,0,0:0:0:35:Drum.wav
36,192,227074,1,0,0:0:0:30:Chord B.wav
329,192,227074,1,0,0:0:0:35:Drum.wav
402,192,227153,1,0,0:0:0:35:Drum.wav
182,192,227179,1,0,0:0:0:30:Chord B.wav
329,192,227231,1,0,0:0:0:35:Drum.wav
109,192,227284,1,0,0:0:0:30:Chord B.wav
475,192,227310,1,0,0:0:0:35:Drum.wav
36,192,227388,128,0,227467:0:0:0:30:Chord B.wav
402,192,227388,1,0,0:0:0:35:Drum.wav
109,192,227428,128,0,227506:0:0:0:30:Chord B.wav
182,192,227467,128,0,227545:0:0:0:30:Chord B.wav
329,192,227467,1,0,0:0:0:35:Drum.wav
475,192,227545,1,0,0:0:0:35:Drum.wav
329,192,227624,1,0,0:0:0:35:Drum.wav
36,192,227703,1,0,0:0:0:30:Chord B.wav
402,192,227703,1,0,0:0:0:35:Drum.wav
109,192,227781,1,0,0:0:0:30:Chord B.wav
475,192,227781,1,0,0:0:0:35:Drum.wav
182,192,227860,1,0,0:0:0:30:Chord B.wav
329,192,227860,1,0,0:0:0:35:Drum.wav
109,192,227938,1,0,0:0:0:30:Chord B.wav
402,192,227938,1,0,0:0:0:35:Drum.wav
36,192,228017,1,0,0:0:0:30:BeLL.wav
475,192,228017,1,0,0:0:0:30:Chord B.wav
182,192,228017,1,0,0:0:0:35:Drum.wav
402,192,228095,1,0,0:0:0:35:Drum.wav
109,192,228121,1,0,0:0:0:30:Chord B.wav
329,192,228174,1,0,0:0:0:35:Drum.wav
182,192,228226,1,0,0:0:0:30:Chord B.wav
402,192,228252,1,0,0:0:0:35:Drum.wav
36,192,228331,1,0,0:0:0:30:Chord B.wav
256,192,228331,1,0,0:0:0:35:Drum.wav
475,192,228331,1,0,0:0:0:0:
109,192,228409,1,0,0:0:0:35:Drum.wav
329,192,228435,1,0,0:0:0:30:Chord B.wav
182,192,228488,1,0,0:0:0:35:Drum.wav
402,192,228540,1,0,0:0:0:30:Chord B.wav
109,192,228566,1,0,0:0:0:35:Drum.wav
256,192,228645,128,0,228723:0:0:0:30:Chord B.wav
475,192,228645,1,0,0:0:0:35:Drum.wav
36,192,228645,1,0,0:0:0:0:
329,192,228684,128,0,228763:0:0:0:30:Chord B.wav
402,192,228723,128,0,228802:0:0:0:30:Chord B.wav
182,192,228723,1,0,0:0:0:35:Drum.wav
109,192,228802,1,0,0:0:0:35:Drum.wav
256,192,228881,1,0,0:0:0:35:Drum.wav
36,192,228959,1,0,0:0:0:30:Chord B.wav
402,192,228959,1,0,0:0:0:35:Drum.wav
329,192,229038,1,0,0:0:0:30:Chord B.wav
109,192,229038,1,0,0:0:0:35:Drum.wav
475,192,229116,1,0,0:0:0:30:Chord B.wav
402,192,229116,1,0,0:0:0:30:KicK.wav
182,192,229116,1,0,0:0:0:0:
109,192,229195,1,0,0:0:0:30:Chord B.wav
256,192,229195,1,0,0:0:0:30:KicK.wav
36,192,229195,1,0,0:0:0:0:
402,192,229273,1,0,0:0:0:30:BeLL.wav
475,192,229273,1,0,0:0:0:30:Chord B.wav
182,192,229273,1,0,0:0:0:30:KicK.wav
329,192,229273,1,0,0:0:0:30:CrashL.wav
256,192,229352,1,0,0:0:0:40:Drum.wav
36,192,229378,1,0,0:0:0:30:Chord B.wav
402,192,229430,1,0,0:0:0:40:Drum.wav
475,192,229430,1,0,0:0:0:0:
109,192,229483,1,0,0:0:0:30:Chord B.wav
256,192,229509,1,0,0:0:0:40:Drum.wav
182,192,229587,1,0,0:0:0:30:Chord B.wav
329,192,229587,1,0,0:0:0:40:Drum.wav
475,192,229587,1,0,0:0:0:0:
402,192,229666,1,0,0:0:0:40:Drum.wav
109,192,229692,1,0,0:0:0:30:Chord B.wav
329,192,229744,1,0,0:0:0:40:Drum.wav
182,192,229797,1,0,0:0:0:30:Chord B.wav
402,192,229823,1,0,0:0:0:40:Drum.wav
36,192,229901,1,0,0:0:0:30:Chord B.wav
475,192,229901,1,0,0:0:0:40:Drum.wav
256,192,229901,1,0,0:0:0:0:
109,192,229941,1,0,0:0:0:30:Chord B.wav
182,192,229980,1,0,0:0:0:30:Chord B.wav
402,192,229980,1,0,0:0:0:40:Drum.wav
329,192,230059,1,0,0:0:0:40:Drum.wav
109,192,230059,1,0,0:0:0:0:
256,192,230137,1,0,0:0:0:40:Drum.wav
36,192,230137,1,0,0:0:0:0:
329,192,230216,1,0,0:0:0:30:Chord B.wav
182,192,230216,1,0,0:0:0:40:Drum.wav
475,192,230216,1,0,0:0:0:0:
402,192,230294,1,0,0:0:0:30:Chord B.wav
109,192,230294,1,0,0:0:0:40:Drum.wav
36,192,230373,1,0,0:0:0:30:Chord B.wav
475,192,230373,1,0,0:0:0:30:KicK.wav
256,192,230373,1,0,0:0:0:0:
109,192,230451,1,0,0:0:0:30:Chord B.wav
182,192,230451,1,0,0:0:0:30:KicK.wav
329,192,230451,1,0,0:0:0:0:
36,192,230530,1,0,0:0:0:30:Chord B.wav
475,192,230530,1,0,0:0:0:30:KicK.wav
256,192,230530,1,0,0:0:0:30:CrashL.wav
402,192,230530,1,0,0:0:0:0:
329,192,230608,1,0,0:0:0:45:Drum.wav
109,192,230634,1,0,0:0:0:30:Chord B.wav
402,192,230687,1,0,0:0:0:45:Drum.wav
475,192,230687,1,0,0:0:0:0:
182,192,230739,1,0,0:0:0:30:Chord B.wav
329,192,230765,1,0,0:0:0:45:Drum.wav
256,192,230844,1,0,0:0:0:30:Chord B.wav
36,192,230844,1,0,0:0:0:45:Drum.wav
475,192,230844,1,0,0:0:0:0:
109,192,230922,1,0,0:0:0:45:Drum.wav
329,192,230949,1,0,0:0:0:30:Chord B.wav
182,192,231001,1,0,0:0:0:45:Drum.wav
402,192,231053,1,0,0:0:0:30:Chord B.wav
109,192,231079,1,0,0:0:0:45:Drum.wav
475,192,231158,1,0,0:0:0:30:Chord B.wav
36,192,231158,1,0,0:0:0:45:Drum.wav
256,192,231158,1,0,0:0:0:0:
402,192,231197,1,0,0:0:0:30:Chord B.wav
329,192,231237,1,0,0:0:0:30:Chord B.wav
109,192,231237,1,0,0:0:0:45:Drum.wav
182,192,231315,1,0,0:0:0:45:Drum.wav
402,192,231315,1,0,0:0:0:0:
256,192,231394,1,0,0:0:0:45:Drum.wav
475,192,231394,1,0,0:0:0:0:
182,192,231472,1,0,0:0:0:30:Chord B.wav
36,192,231472,1,0,0:0:0:45:Drum.wav
402,192,231472,1,0,0:0:0:0:
109,192,231551,1,0,0:0:0:30:Chord B.wav
329,192,231551,1,0,0:0:0:45:Drum.wav
36,192,231629,1,0,0:0:0:30:Chord B.wav
256,192,231629,1,0,0:0:0:30:KicK.wav
475,192,231629,1,0,0:0:0:0:
182,192,231708,1,0,0:0:0:30:Chord B.wav
402,192,231708,1,0,0:0:0:30:KicK.wav
329,192,231708,1,0,0:0:0:0:
36,192,231786,1,0,0:0:0:30:CrashL.wav
109,192,231786,1,0,0:0:0:30:KicK.wav
475,192,231786,1,0,0:0:0:30:Chord B.wav
256,192,231786,128,0,232964:0:0:0:30:BeLL.wav
182,192,231865,1,0,0:0:0:50:Drum.wav
402,192,231891,1,0,0:0:0:30:Chord B.wav
36,192,231943,1,0,0:0:0:50:Drum.wav
329,192,231996,1,0,0:0:0:30:Chord B.wav
109,192,232022,1,0,0:0:0:50:Drum.wav
182,192,232022,1,0,0:0:0:0:
36,192,232100,1,0,0:0:0:30:Chord B.wav
475,192,232100,1,0,0:0:0:50:Drum.wav
329,192,232179,1,0,0:0:0:50:Drum.wav
182,192,232205,1,0,0:0:0:30:Chord B.wav
475,192,232257,1,0,0:0:0:50:Drum.wav
109,192,232310,1,0,0:0:0:30:Chord B.wav
402,192,232336,1,0,0:0:0:50:Drum.wav
329,192,232336,1,0,0:0:0:0:
475,192,232415,1,0,0:0:0:30:Chord B.wav
36,192,232415,1,0,0:0:0:50:Drum.wav
182,192,232493,1,0,0:0:0:50:Drum.wav
329,192,232519,1,0,0:0:0:30:Chord B.wav
36,192,232572,1,0,0:0:0:50:Drum.wav
109,192,232572,1,0,0:0:0:0:
402,192,232624,1,0,0:0:0:30:Chord B.wav
182,192,232650,1,0,0:0:0:50:Drum.wav
36,192,232729,1,0,0:0:0:30:Chord B.wav
475,192,232729,1,0,0:0:0:50:Drum.wav
329,192,232807,1,0,0:0:0:50:Drum.wav
109,192,232833,1,0,0:0:0:30:Chord B.wav
475,192,232886,1,0,0:0:0:50:Drum.wav
402,192,232886,1,0,0:0:0:0:
182,192,232938,1,0,0:0:0:30:Chord B.wav
329,192,232964,1,0,0:0:0:50:Drum.wav
256,192,233043,128,0,233278:0:0:0:30:CrashS.wav
402,192,233043,128,0,233278:0:0:0:30:BeLL.wav
109,192,233043,128,0,233278:0:0:0:30:Chord B.wav
36,192,233043,128,0,233278:0:0:0:30:KicK.wav
475,192,233043,128,0,233278:0:0:0:0:
36,192,233357,5,0,0:0:0:30:Snare A.wav
109,192,233357,1,0,0:0:0:30:CrashL.wav
475,192,233357,128,0,233435:0:0:0:0:
182,192,233357,1,0,0:0:0:0:
402,192,233396,128,0,233475:0:0:0:0:
329,192,233435,128,0,233514:0:0:0:0:
256,192,233475,128,0,233553:0:0:0:0:
182,192,233514,128,0,233593:0:0:0:0:
475,192,233553,128,0,233632:0:0:0:0:
402,192,233593,128,0,233671:0:0:0:0:
329,192,233632,128,0,233710:0:0:0:0:
36,192,233671,128,0,233750:0:0:0:0:
109,192,233710,128,0,233789:0:0:0:0:
182,192,233750,128,0,233828:0:0:0:0:
256,192,233789,128,0,233867:0:0:0:0:
329,192,233828,128,0,233907:0:0:0:0:
402,192,233867,128,0,233946:0:0:0:0:
475,192,233907,128,0,233985:0:0:0:0:
36,192,233985,128,0,234064:0:0:0:50:Drum.wav
182,192,233985,128,0,234064:0:0:0:0:
329,192,234064,128,0,234142:0:0:0:50:Drum.wav
402,192,234064,128,0,234142:0:0:0:0:
109,192,234142,128,0,234221:0:0:0:50:Drum.wav
256,192,234142,128,0,234221:0:0:0:0:
402,192,234221,128,0,234299:0:0:0:50:Drum.wav
475,192,234221,128,0,234299:0:0:0:0:
182,192,234299,1,0,0:0:0:50:Chord A.wav
36,192,234299,1,0,0:0:0:50:CrashL.wav
329,192,234299,1,0,0:0:0:50:KicK.wav
109,192,234299,128,0,235556:0:0:0:50:Synth.wav
256,192,234378,1,0,0:0:0:50:Chord A.wav
329,192,234456,1,0,0:0:0:50:Chord A.wav
475,192,234456,1,0,0:0:0:0:
402,192,234614,1,0,0:0:0:50:Chord A.wav
36,192,234614,1,0,0:0:0:50:KicK.wav
182,192,234614,1,0,0:0:0:0:
329,192,234692,1,0,0:0:0:50:Chord A.wav
475,192,234771,1,0,0:0:0:50:Chord A.wav
256,192,234771,1,0,0:0:0:0:
182,192,234928,1,0,0:0:0:50:Chord A.wav
475,192,234928,1,0,0:0:0:50:KicK.wav
329,192,234928,1,0,0:0:0:0:
36,192,235006,1,0,0:0:0:50:Chord A.wav
182,192,235085,1,0,0:0:0:50:Chord A.wav
402,192,235085,1,0,0:0:0:0:
36,192,235242,1,0,0:0:0:50:KicK.wav
475,192,235242,1,0,0:0:0:50:Chord A.wav
256,192,235242,1,0,0:0:0:0:
402,192,235320,1,0,0:0:0:50:Chord A.wav
329,192,235399,1,0,0:0:0:50:Chord A.wav
182,192,235399,1,0,0:0:0:0:
256,192,235556,1,0,0:0:0:50:Chord A.wav
36,192,235556,1,0,0:0:0:50:KicK.wav
475,192,235556,1,0,0:0:0:0:
402,192,235556,128,0,236106:0:0:0:50:Synth.wav
182,192,235634,1,0,0:0:0:50:Chord A.wav
109,192,235713,1,0,0:0:0:50:Chord A.wav
329,192,235713,1,0,0:0:0:0:
109,192,235870,1,0,0:0:0:50:Chord A.wav
329,192,235870,1,0,0:0:0:50:KicK.wav
475,192,235870,1,0,0:0:0:0:
182,192,235949,1,0,0:0:0:50:Chord A.wav
256,192,236027,1,0,0:0:0:50:Chord A.wav
36,192,236027,1,0,0:0:0:0:
256,192,236184,1,0,0:0:0:50:KicK.wav
475,192,236184,128,0,236812:0:0:0:0:
329,192,236184,128,0,236289:0:0:0:0:
36,192,236184,1,0,0:0:0:50:Chord A.wav
402,192,236184,128,0,236289:0:0:0:50:Synth.wav
109,192,236263,1,0,0:0:0:50:Chord A.wav
182,192,236341,1,0,0:0:0:50:Chord A.wav
109,192,236394,128,0,236498:0:0:0:50:Synth.wav
36,192,236394,128,0,236498:0:0:0:0:
402,192,236498,1,0,0:0:0:50:Chord A.wav
256,192,236498,1,0,0:0:0:50:KicK.wav
329,192,236577,1,0,0:0:0:50:Chord A.wav
109,192,236603,128,0,236708:0:0:0:50:Synth.wav
182,192,236603,128,0,236708:0:0:0:0:
402,192,236655,1,0,0:0:0:50:Snare A.wav
329,192,236812,1,0,0:0:0:50:Chord A.wav
36,192,236812,1,0,0:0:0:50:KicK.wav
109,192,236812,1,0,0:0:0:0:
256,192,236812,128,0,238069:0:0:0:50:Synth.wav
402,192,236891,1,0,0:0:0:50:Chord A.wav
475,192,236970,1,0,0:0:0:50:Chord A.wav
109,192,236970,1,0,0:0:0:0:
182,192,237127,1,0,0:0:0:50:Chord A.wav
329,192,237127,1,0,0:0:0:50:KicK.wav
475,192,237127,1,0,0:0:0:0:
109,192,237205,1,0,0:0:0:50:Chord A.wav
36,192,237284,1,0,0:0:0:50:Chord A.wav
329,192,237284,1,0,0:0:0:0:
475,192,237441,1,0,0:0:0:50:Chord A.wav
182,192,237441,1,0,0:0:0:50:KicK.wav
36,192,237441,1,0,0:0:0:0:
402,192,237519,1,0,0:0:0:50:Chord A.wav
329,192,237598,1,0,0:0:0:50:Chord A.wav
109,192,237598,1,0,0:0:0:0:
36,192,237755,1,0,0:0:0:50:Chord A.wav
475,192,237755,1,0,0:0:0:50:KicK.wav
329,192,237755,1,0,0:0:0:0:
109,192,237833,1,0,0:0:0:50:Chord A.wav
182,192,237912,1,0,0:0:0:50:Chord A.wav
402,192,237912,1,0,0:0:0:0:
36,192,238069,128,0,239326:0:0:0:50:Synth.wav
329,192,238069,1,0,0:0:0:50:Chord B.wav
475,192,238069,1,0,0:0:0:50:KicK.wav
109,192,238069,1,0,0:0:0:0:
402,192,238148,1,0,0:0:0:50:Chord B.wav
329,192,238226,1,0,0:0:0:50:Chord B.wav
182,192,238226,1,0,0:0:0:0:
256,192,238305,1,0,0:0:0:50:Chord B.wav
109,192,238383,1,0,0:0:0:50:Chord B.wav
402,192,238383,1,0,0:0:0:50:KicK.wav
475,192,238383,1,0,0:0:0:0:
182,192,238462,1,0,0:0:0:50:Chord B.wav
256,192,238540,1,0,0:0:0:50:Chord B.wav
402,192,238540,1,0,0:0:0:0:
329,192,238619,1,0,0:0:0:50:Chord B.wav
475,192,238697,1,0,0:0:0:50:Chord B.wav
109,192,238697,1,0,0:0:0:50:KicK.wav
256,192,238697,1,0,0:0:0:50:Snare A.wav
402,192,238776,1,0,0:0:0:50:Chord B.wav
329,192,238854,1,0,0:0:0:50:Chord B.wav
182,192,238854,1,0,0:0:0:0:
475,192,238933,1,0,0:0:0:50:Chord B.wav
256,192,238933,1,0,0:0:0:50:Snare A.wav
402,192,238933,1,0,0:0:0:0:
329,192,239011,1,0,0:0:0:50:Chord B.wav
109,192,239011,1,0,0:0:0:50:KicK.wav
256,192,239064,1,0,0:0:0:50:Chord B.wav
182,192,239116,1,0,0:0:0:50:Chord B.wav
402,192,239168,1,0,0:0:0:50:Chord B.wav
475,192,239168,1,0,0:0:0:50:Snare A.wav
109,192,239168,1,0,0:0:0:0:
329,192,239221,1,0,0:0:0:50:Chord B.wav
256,192,239273,1,0,0:0:0:50:Chord B.wav
109,192,239326,1,0,0:0:0:50:KicK.wav
182,192,239326,1,0,0:0:0:50:CrashL.wav
475,192,239326,128,0,241132:0:0:0:50:Synth.wav
402,192,239326,1,0,0:0:0:50:Chord A.wav
329,192,239404,1,0,0:0:0:50:Chord A.wav
402,192,239483,1,0,0:0:0:50:Chord A.wav
182,192,239483,1,0,0:0:0:0:
36,192,239640,1,0,0:0:0:50:KicK.wav
256,192,239640,1,0,0:0:0:50:Chord A.wav
109,192,239640,1,0,0:0:0:0:
182,192,239718,1,0,0:0:0:50:Chord A.wav
256,192,239797,1,0,0:0:0:50:Chord A.wav
402,192,239797,1,0,0:0:0:0:
36,192,239954,1,0,0:0:0:50:KicK.wav
402,192,239954,1,0,0:0:0:50:Chord A.wav
182,192,239954,1,0,0:0:0:0:
329,192,240032,1,0,0:0:0:50:Chord A.wav
256,192,240111,1,0,0:0:0:50:Chord A.wav
109,192,240111,1,0,0:0:0:0:
402,192,240268,1,0,0:0:0:50:KicK.wav
329,192,240268,1,0,0:0:0:50:Chord A.wav
109,192,240268,1,0,0:0:0:0:
256,192,240346,1,0,0:0:0:50:Chord A.wav
182,192,240425,1,0,0:0:0:50:Chord A.wav
36,192,240425,1,0,0:0:0:0:
402,192,240582,1,0,0:0:0:50:KicK.wav
109,192,240582,1,0,0:0:0:50:Chord B.wav
256,192,240582,1,0,0:0:0:0:
182,192,240661,1,0,0:0:0:50:Chord B.wav
256,192,240739,1,0,0:0:0:50:Chord B.wav
36,192,240739,1,0,0:0:0:0:
329,192,240818,1,0,0:0:0:50:Chord B.wav
109,192,240896,1,0,0:0:0:50:KicK.wav
182,192,240896,1,0,0:0:0:50:Chord B.wav
402,192,240896,1,0,0:0:0:0:
256,192,240975,1,0,0:0:0:50:Chord B.wav
36,192,241053,1,0,0:0:0:50:Chord B.wav
329,192,241053,1,0,0:0:0:0:
109,192,241106,1,0,0:0:0:50:Chord B.wav
182,192,241158,1,0,0:0:0:50:Chord B.wav
475,192,241210,1,0,0:0:0:50:KicK.wav
329,192,241210,1,0,0:0:0:50:Chord A.wav
36,192,241210,128,0,241315:0:0:0:0:
109,192,241210,128,0,241315:0:0:0:50:Synth.wav
256,192,241210,128,0,241839:0:0:0:0:
182,192,241367,1,0,0:0:0:50:Chord A.wav
475,192,241420,128,0,241525:0:0:0:50:Synth.wav
402,192,241420,128,0,241525:0:0:0:0:
36,192,241525,1,0,0:0:0:50:KicK.wav
329,192,241525,1,0,0:0:0:50:Chord A.wav
402,192,241603,1,0,0:0:0:50:Chord A.wav
109,192,241629,128,0,241734:0:0:0:50:Synth.wav
182,192,241629,128,0,241734:0:0:0:0:
475,192,241682,1,0,0:0:0:50:Snare A.wav
36,192,241839,128,0,243017:0:0:0:50:Synth.wav
475,192,241839,1,0,0:0:0:50:KicK.wav
109,192,241839,1,0,0:0:0:50:Chord A.wav
329,192,241839,1,0,0:0:0:0:
182,192,241917,1,0,0:0:0:50:Chord A.wav
109,192,241996,1,0,0:0:0:50:Chord A.wav
329,192,241996,1,0,0:0:0:0:
256,192,242153,1,0,0:0:0:50:Chord B.wav
402,192,242153,1,0,0:0:0:0:
475,192,242153,1,0,0:0:0:50:KicK.wav
109,192,242231,1,0,0:0:0:50:Chord B.wav
182,192,242310,1,0,0:0:0:50:Chord B.wav
329,192,242310,1,0,0:0:0:0:
256,192,242388,1,0,0:0:0:50:Chord B.wav
109,192,242467,1,0,0:0:0:50:KicK.wav
329,192,242467,1,0,0:0:0:50:Chord B.wav
475,192,242467,1,0,0:0:0:0:
402,192,242545,1,0,0:0:0:50:Chord B.wav
329,192,242624,1,0,0:0:0:50:Chord B.wav
182,192,242624,1,0,0:0:0:0:
402,192,242703,1,0,0:0:0:50:Chord B.wav
475,192,242781,1,0,0:0:0:50:KicK.wav
256,192,242781,1,0,0:0:0:50:Chord B.wav
109,192,242781,1,0,0:0:0:0:
329,192,242860,1,0,0:0:0:50:Chord B.wav
109,192,242938,1,0,0:0:0:50:Snare A.wav
402,192,242938,1,0,0:0:0:50:Chord B.wav
182,192,242938,1,0,0:0:0:0:
475,192,243017,1,0,0:0:0:50:Chord B.wav
36,192,243095,1,0,0:0:0:50:Synth.wav
109,192,243095,1,0,0:0:0:50:KicK.wav
329,192,243095,1,0,0:0:0:50:Chord B.wav
182,192,243095,1,0,0:0:0:50:CrashL.wav
256,192,243174,1,0,0:0:0:50:Chord B.wav
475,192,243174,1,0,0:0:0:0:
182,192,243252,1,0,0:0:0:50:Chord B.wav
402,192,243252,1,0,0:0:0:0:
109,192,243331,1,0,0:0:0:50:Chord B.wav
329,192,243331,1,0,0:0:0:0:
36,192,243409,1,0,0:0:0:50:Chord B.wav
256,192,243409,1,0,0:0:0:50:KicK.wav
329,192,243449,1,0,0:0:0:50:Drum.wav
109,192,243488,1,0,0:0:0:50:Chord B.wav
402,192,243488,1,0,0:0:0:50:Drum.wav
182,192,243527,1,0,0:0:0:50:Drum.wav
475,192,243566,1,0,0:0:0:50:Chord B.wav
256,192,243566,1,0,0:0:0:50:Drum.wav
402,192,243606,1,0,0:0:0:50:Drum.wav
182,192,243645,1,0,0:0:0:50:Chord B.wav
329,192,243645,1,0,0:0:0:50:Drum.wav
109,192,243684,1,0,0:0:0:50:Drum.wav
475,192,243723,1,0,0:0:0:50:Synth.wav
256,192,243723,1,0,0:0:0:50:Chord B.wav
36,192,243723,1,0,0:0:0:50:KicK.wav
402,192,243723,1,0,0:0:0:50:Snare A.wav
329,192,243802,1,0,0:0:0:50:Chord B.wav
109,192,243802,1,0,0:0:0:0:
402,192,243881,1,0,0:0:0:50:Chord B.wav
182,192,243881,1,0,0:0:0:0:
109,192,243959,1,0,0:0:0:50:Chord B.wav
475,192,243959,1,0,0:0:0:50:KicK.wav
36,192,243959,1,0,0:0:0:50:Snare A.wav
256,192,243959,1,0,0:0:0:0:
329,192,244038,1,0,0:0:0:50:Chord B.wav
402,192,244038,1,0,0:0:0:0:
182,192,244116,1,0,0:0:0:50:Chord B.wav
109,192,244116,1,0,0:0:0:0:
402,192,244195,1,0,0:0:0:50:Chord B.wav
36,192,244195,1,0,0:0:0:50:KicK.wav
329,192,244195,1,0,0:0:0:50:Snare A.wav
475,192,244195,1,0,0:0:0:0:
256,192,244273,1,0,0:0:0:50:Chord B.wav
182,192,244273,1,0,0:0:0:0:
402,192,244352,1,0,0:0:0:50:Chord B.wav
36,192,244352,1,0,0:0:0:50:KicK.wav
109,192,244352,1,0,0:0:0:50:CrashL.wav
475,192,244352,128,0,245530:0:0:0:50:Synth.wav
329,192,244430,1,0,0:0:0:50:Chord B.wav
256,192,244509,1,0,0:0:0:50:Chord B.wav
109,192,244509,1,0,0:0:0:0:
329,192,244587,1,0,0:0:0:50:Chord B.wav
36,192,244666,1,0,0:0:0:50:Chord B.wav
182,192,244666,1,0,0:0:0:50:KicK.wav
402,192,244666,1,0,0:0:0:0:
109,192,244744,1,0,0:0:0:50:Chord B.wav
256,192,244744,1,0,0:0:0:0:
182,192,244823,1,0,0:0:0:50:Chord B.wav
329,192,244823,1,0,0:0:0:0:
256,192,244901,1,0,0:0:0:50:Chord B.wav
402,192,244901,1,0,0:0:0:0:
36,192,244980,128,0,245059:0:0:0:50:Chord B.wav
329,192,244980,128,0,245059:0:0:0:50:KicK.wav
182,192,244980,128,0,245059:0:0:0:0:
109,192,244980,128,0,245059:0:0:0:0:
36,192,245137,128,0,245216:0:0:0:50:Chord B.wav
329,192,245137,128,0,245216:0:0:0:50:BeLL.wav
109,192,245137,128,0,245216:0:0:0:0:
256,192,245137,128,0,245216:0:0:0:0:
402,192,245137,128,0,245216:0:0:0:0:
36,192,245294,128,0,245373:0:0:0:50:Chord B.wav
402,192,245294,128,0,245373:0:0:0:50:KicK.wav
182,192,245294,128,0,245373:0:0:0:0:
329,192,245451,128,0,245530:0:0:0:50:BeLL.wav
256,192,245451,128,0,245530:0:0:0:50:Chord B.wav
36,192,245451,128,0,245530:0:0:0:0:
109,192,245451,128,0,245530:0:0:0:0:
402,192,245451,128,0,245530:0:0:0:0:
256,192,245608,128,0,246786:0:0:0:50:Synth.wav
475,192,245608,1,0,0:0:0:50:Chord B.wav
36,192,245608,1,0,0:0:0:50:KicK.wav
109,192,245608,1,0,0:0:0:0:
402,192,245687,1,0,0:0:0:50:Chord B.wav
329,192,245765,1,0,0:0:0:50:Chord B.wav
109,192,245765,1,0,0:0:0:0:
402,192,245844,1,0,0:0:0:50:Chord B.wav
109,192,245922,1,0,0:0:0:50:Chord B.wav
36,192,245922,1,0,0:0:0:50:KicK.wav
475,192,245922,1,0,0:0:0:0:
329,192,246001,1,0,0:0:0:50:Chord B.wav
182,192,246001,1,0,0:0:0:0:
402,192,246079,1,0,0:0:0:50:Chord B.wav
475,192,246079,1,0,0:0:0:0:
36,192,246158,1,0,0:0:0:50:Chord B.wav
109,192,246158,1,0,0:0:0:0:
182,192,246237,1,0,0:0:0:50:Chord B.wav
402,192,246237,1,0,0:0:0:50:KicK.wav
329,192,246237,1,0,0:0:0:0:
36,192,246315,1,0,0:0:0:50:Chord B.wav
475,192,246315,1,0,0:0:0:0:
182,192,246394,1,0,0:0:0:50:Chord B.wav
109,192,246394,1,0,0:0:0:0:
402,192,246472,1,0,0:0:0:50:Chord B.wav
329,192,246472,1,0,0:0:0:0:
36,192,246551,1,0,0:0:0:50:Chord B.wav
475,192,246551,1,0,0:0:0:50:KicK.wav
109,192,246551,1,0,0:0:0:0:
329,192,246629,1,0,0:0:0:50:Chord B.wav
182,192,246629,1,0,0:0:0:0:
402,192,246708,1,0,0:0:0:50:Chord B.wav
36,192,246708,1,0,0:0:0:50:Snare A.wav
475,192,246708,1,0,0:0:0:0:
182,192,246786,1,0,0:0:0:50:Chord B.wav
109,192,246786,1,0,0:0:0:0:
475,192,246865,1,0,0:0:0:50:Synth.wav
402,192,246865,1,0,0:0:0:50:Chord B.wav
36,192,246865,1,0,0:0:0:50:KicK.wav
256,192,246865,1,0,0:0:0:0:
182,192,246943,1,0,0:0:0:50:Chord B.wav
329,192,246943,1,0,0:0:0:0:
109,192,247022,1,0,0:0:0:50:Chord B.wav
475,192,247022,1,0,0:0:0:0:
36,192,247022,1,0,0:0:0:0:
256,192,247100,1,0,0:0:0:50:Chord B.wav
402,192,247100,1,0,0:0:0:0:
182,192,247179,1,0,0:0:0:50:Chord B.wav
109,192,247179,1,0,0:0:0:50:KicK.wav
329,192,247179,1,0,0:0:0:0:
475,192,247179,1,0,0:0:0:0:
36,192,247179,1,0,0:0:0:0:
256,192,247336,1,0,0:0:0:50:Chord B.wav
109,192,247336,1,0,0:0:0:0:
402,192,247336,1,0,0:0:0:0:
329,192,247415,1,0,0:0:0:50:Chord B.wav
182,192,247415,1,0,0:0:0:0:
402,192,247493,1,0,0:0:0:50:Chord B.wav
36,192,247493,1,0,0:0:0:50:KicK.wav
475,192,247493,1,0,0:0:0:0:
256,192,247572,1,0,0:0:0:50:Chord B.wav
109,192,247572,1,0,0:0:0:0:
182,192,247650,1,0,0:0:0:50:Chord B.wav
36,192,247650,1,0,0:0:0:0:
329,192,247650,1,0,0:0:0:0:
402,192,247650,1,0,0:0:0:0:
475,192,247650,1,0,0:0:0:0:
109,192,247807,1,0,0:0:0:50:Chord B.wav
475,192,247807,1,0,0:0:0:50:KicK.wav
256,192,247807,1,0,0:0:0:0:
329,192,247860,1,0,0:0:0:50:Chord B.wav
182,192,247886,1,0,0:0:0:0:
402,192,247912,1,0,0:0:0:50:Chord B.wav
36,192,247964,1,0,0:0:0:50:Chord B.wav
256,192,247964,1,0,0:0:0:50:Snare A.wav
475,192,247964,1,0,0:0:0:0:
109,192,248017,1,0,0:0:0:50:Chord B.wav
329,192,248043,1,0,0:0:0:0:
182,192,248069,1,0,0:0:0:50:Chord B.wav
475,192,248121,1,0,0:0:0:50:Chord B.wav
36,192,248121,1,0,0:0:0:50:KicK.wav
402,192,248121,1,0,0:0:0:0:
256,192,248121,1,0,0:0:0:0:
109,192,248121,1,0,0:0:0:0:
329,192,248278,1,0,0:0:0:0:
182,192,248278,1,0,0:0:0:0:
36,192,248435,1,0,0:0:0:50:Chord B.wav
256,192,248435,1,0,0:0:0:50:KicK.wav
402,192,248435,1,0,0:0:0:0:
475,192,248435,1,0,0:0:0:0:
329,192,248514,1,0,0:0:0:50:Chord B.wav
109,192,248514,1,0,0:0:0:0:
402,192,248593,1,0,0:0:0:50:Chord B.wav
182,192,248593,1,0,0:0:0:0:
36,192,248593,1,0,0:0:0:0:
475,192,248671,1,0,0:0:0:0:
256,192,248671,1,0,0:0:0:50:Chord B.wav
329,192,248750,1,0,0:0:0:50:Synth.wav
36,192,248750,1,0,0:0:0:50:Chord B.wav
402,192,248750,1,0,0:0:0:50:KicK.wav
109,192,248750,1,0,0:0:0:50:Snare A.wav
256,192,248828,1,0,0:0:0:50:Chord B.wav
475,192,248828,1,0,0:0:0:0:
182,192,248907,1,0,0:0:0:50:Chord B.wav
402,192,248907,1,0,0:0:0:0:
36,192,248985,1,0,0:0:0:50:Chord B.wav
329,192,248985,1,0,0:0:0:50:Snare A.wav
109,192,248985,1,0,0:0:0:0:
475,192,249064,1,0,0:0:0:50:Synth.wav
256,192,249064,1,0,0:0:0:50:Chord B.wav
402,192,249064,1,0,0:0:0:50:KicK.wav
182,192,249142,1,0,0:0:0:50:Chord B.wav
329,192,249142,1,0,0:0:0:0:
256,192,249221,1,0,0:0:0:50:Chord B.wav
36,192,249221,1,0,0:0:0:50:Snare A.wav
475,192,249221,1,0,0:0:0:0:
109,192,249221,1,0,0:0:0:0:
182,192,249299,1,0,0:0:0:50:Chord B.wav
402,192,249299,1,0,0:0:0:0:
329,192,249378,1,0,0:0:0:50:Chord B.wav
475,192,249378,1,0,0:0:0:50:KicK.wav
109,192,249378,1,0,0:0:0:50:CrashL.wav
36,192,249378,128,0,249928:0:0:0:50:Synth.wav
256,192,249456,1,0,0:0:0:50:Chord B.wav
402,192,249535,1,0,0:0:0:50:Chord B.wav
182,192,249535,1,0,0:0:0:0:
256,192,249614,1,0,0:0:0:50:Chord B.wav
402,192,249692,1,0,0:0:0:50:Chord B.wav
475,192,249692,1,0,0:0:0:50:KicK.wav
182,192,249692,1,0,0:0:0:0:
109,192,249771,1,0,0:0:0:50:Chord B.wav
329,192,249771,1,0,0:0:0:0:
182,192,249849,1,0,0:0:0:50:Chord B.wav
402,192,249849,1,0,0:0:0:0:
256,192,249928,1,0,0:0:0:50:Chord B.wav
475,192,249928,1,0,0:0:0:0:
182,192,250006,128,0,250399:0:0:0:50:Synth.wav
402,192,250006,128,0,250085:0:0:0:50:Chord B.wav
329,192,250006,128,0,250085:0:0:0:50:KicK.wav
109,192,250006,128,0,250085:0:0:0:0:
36,192,250006,128,0,250085:0:0:0:0:
36,192,250163,128,0,250242:0:0:0:50:Chord B.wav
109,192,250163,128,0,250242:0:0:0:50:BeLL.wav
256,192,250163,128,0,250242:0:0:0:0:
402,192,250163,128,0,250242:0:0:0:0:
475,192,250163,128,0,250242:0:0:0:0:
256,192,250320,128,0,250399:0:0:0:50:Chord B.wav
329,192,250320,128,0,250399:0:0:0:50:Snare A.wav
475,192,250320,128,0,250399:0:0:0:50:KicK.wav
329,192,250477,128,0,251184:0:0:0:50:Synth.wav
182,192,250477,128,0,250556:0:0:0:50:Chord B.wav
36,192,250477,128,0,250556:0:0:0:50:BeLL.wav
475,192,250477,128,0,250556:0:0:0:0:
402,192,250477,128,0,250556:0:0:0:0:
109,192,250477,128,0,250556:0:0:0:0:
36,192,250634,1,0,0:0:0:50:CrashL.wav
402,192,250634,1,0,0:0:0:50:KicK.wav
109,192,250634,1,0,0:0:0:0:
256,192,250634,1,0,0:0:0:0:
109,192,250792,1,0,0:0:0:50:Drum.wav
402,192,250792,1,0,0:0:0:0:
182,192,250792,1,0,0:0:0:0:
475,192,250949,1,0,0:0:0:50:Chord B.wav
36,192,250949,1,0,0:0:0:50:KicK.wav
256,192,250949,1,0,0:0:0:0:
402,192,250949,1,0,0:0:0:0:
182,192,251027,1,0,0:0:0:50:Chord B.wav
109,192,251027,1,0,0:0:0:0:
475,192,251106,1,0,0:0:0:50:Chord B.wav
36,192,251106,1,0,0:0:0:50:Drum.wav
182,192,251184,1,0,0:0:0:50:Chord B.wav
256,192,251184,1,0,0:0:0:0:
402,192,251263,128,0,251498:0:0:0:50:Synth.wav
109,192,251263,1,0,0:0:0:50:Chord B.wav
36,192,251263,1,0,0:0:0:50:KicK.wav
329,192,251263,1,0,0:0:0:0:
475,192,251341,1,0,0:0:0:50:Chord B.wav
256,192,251341,1,0,0:0:0:0:
109,192,251420,1,0,0:0:0:50:Chord B.wav
182,192,251420,1,0,0:0:0:50:Drum.wav
36,192,251498,1,0,0:0:0:50:Chord B.wav
329,192,251498,1,0,0:0:0:0:
475,192,251577,128,0,251812:0:0:0:50:Synth.wav
182,192,251577,1,0,0:0:0:50:Chord B.wav
402,192,251577,1,0,0:0:0:50:KicK.wav
256,192,251577,1,0,0:0:0:0:
109,192,251655,1,0,0:0:0:50:Chord B.wav
36,192,251655,1,0,0:0:0:0:
329,192,251734,1,0,0:0:0:50:Drum.wav
256,192,251734,1,0,0:0:0:50:Chord B.wav
182,192,251812,1,0,0:0:0:50:Chord B.wav
109,192,251812,1,0,0:0:0:0:
475,192,251891,1,0,0:0:0:50:Synth.wav
402,192,251891,1,0,0:0:0:50:KicK.wav
329,192,251891,1,0,0:0:0:50:CrashL.wav
36,192,251891,1,0,0:0:0:50:Chord B.wav
182,192,251970,1,0,0:0:0:50:Drum.wav
256,192,251970,1,0,0:0:0:0:
475,192,252048,1,0,0:0:0:50:Drum.wav
36,192,252048,1,0,0:0:0:0:
109,192,252048,1,0,0:0:0:0:
402,192,252087,1,0,0:0:0:50:Drum.wav
329,192,252127,1,0,0:0:0:50:Drum.wav
256,192,252166,1,0,0:0:0:50:Drum.wav
475,192,252205,1,0,0:0:0:50:KicK.wav
109,192,252205,1,0,0:0:0:0:
36,192,252205,1,0,0:0:0:0:
329,192,252284,1,0,0:0:0:50:Drum.wav
402,192,252284,1,0,0:0:0:0:
182,192,252284,1,0,0:0:0:0:
475,192,252362,1,0,0:0:0:50:Drum.wav
109,192,252362,1,0,0:0:0:0:
36,192,252362,1,0,0:0:0:0:
256,192,252401,1,0,0:0:0:50:Drum.wav
182,192,252441,1,0,0:0:0:50:Drum.wav
109,192,252480,1,0,0:0:0:50:Drum.wav
36,192,252519,1,0,0:0:0:50:KicK.wav
402,192,252519,1,0,0:0:0:50:BeLL.wav
475,192,252519,1,0,0:0:0:0:
329,192,252519,1,0,0:0:0:0:
256,192,252598,1,0,0:0:0:50:Drum.wav
475,192,252676,1,0,0:0:0:50:Drum.wav
182,192,252676,1,0,0:0:0:50:BeLL.wav
36,192,252676,1,0,0:0:0:0:
109,192,252676,1,0,0:0:0:0:
402,192,252716,1,0,0:0:0:50:Drum.wav
329,192,252755,1,0,0:0:0:50:Drum.wav
256,192,252794,1,0,0:0:0:50:Drum.wav
182,192,252833,1,0,0:0:0:50:KicK.wav
475,192,252833,1,0,0:0:0:0:
109,192,252833,1,0,0:0:0:0:
256,192,252912,1,0,0:0:0:50:Drum.wav
329,192,252990,1,0,0:0:0:50:Synth.wav
36,192,252990,1,0,0:0:0:50:Drum.wav
402,192,252990,1,0,0:0:0:50:BeLL.wav
475,192,252990,1,0,0:0:0:0:
109,192,253030,1,0,0:0:0:50:Drum.wav
182,192,253069,1,0,0:0:0:50:Drum.wav
256,192,253108,1,0,0:0:0:50:Drum.wav
329,192,253148,1,0,0:0:0:50:KicK.wav
36,192,253148,1,0,0:0:0:50:CrashL.wav
402,192,253148,1,0,0:0:0:0:
182,192,253226,1,0,0:0:0:50:Drum.wav
475,192,253226,1,0,0:0:0:0:
109,192,253226,1,0,0:0:0:0:
402,192,253305,1,0,0:0:0:50:Drum.wav
329,192,253305,1,0,0:0:0:0:
256,192,253305,1,0,0:0:0:0:
182,192,253383,1,0,0:0:0:50:Drum.wav
36,192,253383,1,0,0:0:0:0:
109,192,253383,1,0,0:0:0:0:
475,192,253462,1,0,0:0:0:50:KicK.wav
402,192,253462,1,0,0:0:0:0:
329,192,253462,1,0,0:0:0:0:
256,192,253540,1,0,0:0:0:50:Drum.wav
182,192,253540,1,0,0:0:0:0:
109,192,253540,1,0,0:0:0:0:
475,192,253619,1,0,0:0:0:50:Drum.wav
36,192,253619,1,0,0:0:0:0:
402,192,253619,1,0,0:0:0:0:
109,192,253697,1,0,0:0:0:50:Drum.wav
329,192,253697,1,0,0:0:0:0:
182,192,253697,1,0,0:0:0:0:
256,192,253776,1,0,0:0:0:50:KicK.wav
475,192,253776,1,0,0:0:0:0:
36,192,253776,1,0,0:0:0:0:
182,192,253854,1,0,0:0:0:50:Drum.wav
402,192,253854,1,0,0:0:0:0:
329,192,253854,1,0,0:0:0:0:
475,192,253933,1,0,0:0:0:50:Drum.wav
109,192,253933,1,0,0:0:0:0:
36,192,253933,1,0,0:0:0:0:
256,192,254011,1,0,0:0:0:50:Drum.wav
329,192,254011,1,0,0:0:0:0:
402,192,254011,1,0,0:0:0:0:
36,192,254090,1,0,0:0:0:50:KicK.wav
182,192,254090,1,0,0:0:0:0:
109,192,254090,1,0,0:0:0:0:
475,192,254142,1,0,0:0:0:50:Drum.wav
402,192,254142,1,0,0:0:0:0:
256,192,254195,1,0,0:0:0:50:Drum.wav
329,192,254195,1,0,0:0:0:0:
109,192,254247,1,0,0:0:0:50:Drum.wav
182,192,254247,1,0,0:0:0:0:
36,192,254299,1,0,0:0:0:50:Drum.wav
475,192,254299,1,0,0:0:0:0:
402,192,254352,1,0,0:0:0:50:Drum.wav
329,192,254352,1,0,0:0:0:0:
109,192,254404,1,0,0:0:0:50:Cymbol.wav
182,192,254404,1,0,0:0:0:50:KicK.wav
256,192,254404,1,0,0:0:0:0:
36,192,254404,1,0,0:0:0:0:
256,192,255661,128,0,256289:0:0:0:0:
402,192,255975,128,0,256289:0:0:0:0:
109,192,256132,128,0,256446:0:0:0:0:
36,192,256210,128,0,256446:0:0:0:0:
182,192,256289,128,0,256446:0:0:0:0:
475,192,256367,128,0,256446:0:0:0:0:
402,192,256446,128,0,256525:0:0:0:0:
329,192,256525,128,0,256603:0:0:0:0:
475,192,256603,128,0,256839:0:0:0:0:
36,192,256603,128,0,256839:0:0:0:0:
256,192,256603,128,0,256839:0:0:0:50:Impact A.wav
109,192,256603,128,0,256839:0:0:0:0:
329,192,256917,1,0,0:0:0:50:Synth.wav
475,192,256917,1,0,0:0:0:50:CrashL.wav
182,192,256917,1,0,0:0:0:50:KicK.wav
36,192,256917,1,0,0:0:0:0:
109,192,256917,1,0,0:0:0:0:
329,192,257074,1,0,0:0:0:50:Synth.wav
182,192,257074,1,0,0:0:0:50:KicK.wav
109,192,257074,1,0,0:0:0:0:
36,192,257231,1,0,0:0:0:50:Synth.wav
256,192,257231,1,0,0:0:0:50:Snare A.wav
475,192,257231,1,0,0:0:0:0:
402,192,257231,1,0,0:0:0:0:
109,192,257231,1,0,0:0:0:0:
182,192,257388,1,0,0:0:0:50:Synth.wav
36,192,257388,1,0,0:0:0:50:KicK.wav
475,192,257388,1,0,0:0:0:0:
109,192,257388,1,0,0:0:0:0:
402,192,257388,1,0,0:0:0:0:
329,192,257467,1,0,0:0:0:0:
402,192,257545,1,0,0:0:0:0:
182,192,257545,1,0,0:0:0:0:
256,192,257624,1,0,0:0:0:0:
109,192,257703,1,0,0:0:0:50:Synth.wav
329,192,257703,1,0,0:0:0:50:KicK.wav
36,192,257703,1,0,0:0:0:0:
402,192,257703,1,0,0:0:0:0:
475,192,257703,1,0,0:0:0:0:
182,192,257781,1,0,0:0:0:0:
475,192,257860,1,0,0:0:0:0:
109,192,257860,1,0,0:0:0:0:
329,192,258017,1,0,0:0:0:50:Synth.wav
402,192,258017,1,0,0:0:0:50:Snare A.wav
182,192,258017,1,0,0:0:0:0:
36,192,258017,1,0,0:0:0:0:
256,192,258017,1,0,0:0:0:0:
402,192,258174,1,0,0:0:0:0:
329,192,258174,1,0,0:0:0:0:
182,192,258331,1,0,0:0:0:50:Synth.wav
36,192,258331,1,0,0:0:0:50:KicK.wav
256,192,258331,1,0,0:0:0:0:
109,192,258331,1,0,0:0:0:0:
475,192,258331,1,0,0:0:0:0:
36,192,258488,1,0,0:0:0:50:Snare A.wav
109,192,258488,1,0,0:0:0:0:
329,192,258488,1,0,0:0:0:0:
182,192,258645,1,0,0:0:0:50:Synth.wav
475,192,258645,1,0,0:0:0:50:KicK.wav
256,192,258645,1,0,0:0:0:0:
402,192,258645,1,0,0:0:0:0:
329,192,258645,1,0,0:0:0:0:
402,192,258802,1,0,0:0:0:0:
182,192,258802,1,0,0:0:0:0:
329,192,258881,1,0,0:0:0:0:
109,192,258959,1,0,0:0:0:50:Synth.wav
256,192,258959,1,0,0:0:0:50:KicK.wav
36,192,258959,1,0,0:0:0:0:
402,192,258959,1,0,0:0:0:0:
475,192,258959,1,0,0:0:0:0:
36,192,259116,1,0,0:0:0:50:Synth.wav
256,192,259116,1,0,0:0:0:50:Snare A.wav
475,192,259116,1,0,0:0:0:0:
402,192,259195,1,0,0:0:0:50:Synth.wav
109,192,259195,1,0,0:0:0:0:
329,192,259273,1,0,0:0:0:50:Synth.wav
182,192,259273,1,0,0:0:0:0:
256,192,259352,1,0,0:0:0:50:Synth.wav
109,192,259352,1,0,0:0:0:0:
182,192,259430,1,0,0:0:0:50:Synth.wav
36,192,259430,1,0,0:0:0:50:KicK.wav
329,192,259430,1,0,0:0:0:0:
402,192,259430,1,0,0:0:0:0:
475,192,259430,1,0,0:0:0:0:
182,192,259587,1,0,0:0:0:50:Synth.wav
329,192,259587,1,0,0:0:0:50:KicK.wav
475,192,259587,1,0,0:0:0:0:
256,192,259744,1,0,0:0:0:50:Synth.wav
402,192,259744,1,0,0:0:0:50:Snare A.wav
475,192,259744,1,0,0:0:0:0:
36,192,259744,1,0,0:0:0:0:
109,192,259744,1,0,0:0:0:0:
36,192,259901,1,0,0:0:0:50:Synth.wav
402,192,259901,1,0,0:0:0:50:KicK.wav
109,192,259901,1,0,0:0:0:0:
329,192,259901,1,0,0:0:0:0:
475,192,259901,1,0,0:0:0:0:
182,192,259980,1,0,0:0:0:0:
109,192,260059,1,0,0:0:0:0:
329,192,260059,1,0,0:0:0:0:
256,192,260137,1,0,0:0:0:0:
36,192,260216,1,0,0:0:0:50:Synth.wav
402,192,260216,1,0,0:0:0:50:KicK.wav
109,192,260216,1,0,0:0:0:0:
475,192,260216,1,0,0:0:0:0:
182,192,260216,1,0,0:0:0:0:
329,192,260294,1,0,0:0:0:0:
402,192,260373,1,0,0:0:0:0:
182,192,260373,1,0,0:0:0:0:
475,192,260530,1,0,0:0:0:50:Synth.wav
36,192,260530,1,0,0:0:0:50:Snare A.wav
329,192,260530,1,0,0:0:0:0:
109,192,260530,1,0,0:0:0:0:
256,192,260530,1,0,0:0:0:0:
329,192,260687,1,0,0:0:0:0:
475,192,260687,1,0,0:0:0:0:
402,192,260844,1,0,0:0:0:50:Synth.wav
36,192,260844,1,0,0:0:0:50:KicK.wav
109,192,260844,1,0,0:0:0:0:
256,192,260844,1,0,0:0:0:0:
182,192,260844,1,0,0:0:0:0:
475,192,261001,1,0,0:0:0:50:Snare A.wav
256,192,261001,1,0,0:0:0:0:
109,192,261001,1,0,0:0:0:0:
475,192,261158,1,0,0:0:0:50:Synth.wav
402,192,261158,1,0,0:0:0:50:KicK.wav
329,192,261158,1,0,0:0:0:0:
36,192,261158,1,0,0:0:0:0:
182,192,261158,1,0,0:0:0:0:
36,192,261315,1,0,0:0:0:0:
402,192,261315,1,0,0:0:0:0:
329,192,261394,1,0,0:0:0:0:
182,192,261472,1,0,0:0:0:50:Synth.wav
475,192,261472,1,0,0:0:0:50:KicK.wav
36,192,261472,1,0,0:0:0:0:
256,192,261472,1,0,0:0:0:0:
109,192,261472,1,0,0:0:0:0:
402,192,261551,1,0,0:0:0:0:
329,192,261629,1,0,0:0:0:50:Snare A.wav
182,192,261629,1,0,0:0:0:0:
109,192,261629,1,0,0:0:0:0:
402,192,261786,1,0,0:0:0:50:Synth.wav
109,192,261786,1,0,0:0:0:50:KicK.wav
475,192,261786,1,0,0:0:0:0:
256,192,261786,1,0,0:0:0:0:
36,192,261786,1,0,0:0:0:0:
36,192,261943,1,0,0:0:0:50:KicK.wav
475,192,261943,1,0,0:0:0:0:
182,192,262022,1,0,0:0:0:50:KicK.wav
329,192,262022,1,0,0:0:0:0:
36,192,262100,1,0,0:0:0:50:KicK.wav
475,192,262100,1,0,0:0:0:0:
182,192,262179,1,0,0:0:0:50:KicK.wav
329,192,262179,1,0,0:0:0:0:
109,192,262257,1,0,0:0:0:50:KicK.wav
36,192,262257,1,0,0:0:0:50:CrashL.wav
256,192,262257,1,0,0:0:0:0:
402,192,262257,1,0,0:0:0:0:
475,192,262257,1,0,0:0:0:0:
329,192,262415,1,0,0:0:0:50:Synth.wav
182,192,262415,1,0,0:0:0:0:
109,192,262415,1,0,0:0:0:0:
402,192,262493,1,0,0:0:0:50:Synth.wav
475,192,262493,1,0,0:0:0:0:
36,192,262493,1,0,0:0:0:0:
329,192,262572,1,0,0:0:0:50:Synth.wav
109,192,262572,1,0,0:0:0:0:
182,192,262572,1,0,0:0:0:0:
475,192,262729,1,0,0:0:0:50:Synth.wav
256,192,262729,1,0,0:0:0:50:KicK.wav
36,192,262729,1,0,0:0:0:0:
109,192,262729,1,0,0:0:0:0:
329,192,262729,1,0,0:0:0:0:
182,192,262886,1,0,0:0:0:50:Synth.wav
36,192,262886,1,0,0:0:0:0:
402,192,262886,1,0,0:0:0:0:
256,192,262886,1,0,0:0:0:0:
475,192,262886,1,0,0:0:0:0:
109,192,263043,1,0,0:0:0:50:Synth.wav
475,192,263043,1,0,0:0:0:50:Snare A.wav
182,192,263043,1,0,0:0:0:0:
329,192,263043,1,0,0:0:0:0:
402,192,263043,1,0,0:0:0:0:
329,192,263200,1,0,0:0:0:0:
109,192,263200,1,0,0:0:0:0:
36,192,263357,1,0,0:0:0:50:Synth.wav
182,192,263357,1,0,0:0:0:50:KicK.wav
256,192,263357,1,0,0:0:0:0:
475,192,263357,1,0,0:0:0:0:
402,192,263357,1,0,0:0:0:0:
109,192,263514,1,0,0:0:0:50:Snare A.wav
329,192,263514,1,0,0:0:0:0:
402,192,263514,1,0,0:0:0:0:
36,192,263671,1,0,0:0:0:50:Synth.wav
109,192,263671,1,0,0:0:0:0:
256,192,263671,1,0,0:0:0:0:
475,192,263671,1,0,0:0:0:0:
329,192,263671,1,0,0:0:0:0:
475,192,263828,1,0,0:0:0:50:KicK.wav
182,192,263828,1,0,0:0:0:0:
329,192,263907,1,0,0:0:0:50:Drum.wav
36,192,263907,1,0,0:0:0:0:
475,192,263985,1,0,0:0:0:50:KicK.wav
182,192,263985,1,0,0:0:0:0:
329,192,264064,1,0,0:0:0:50:Drum.wav
36,192,264064,1,0,0:0:0:0:
256,192,264142,1,0,0:0:0:50:Synth.wav
402,192,264142,1,0,0:0:0:50:Snare A.wav
109,192,264142,1,0,0:0:0:0:
475,192,264142,1,0,0:0:0:0:
182,192,264142,1,0,0:0:0:0:
329,192,264299,1,0,0:0:0:50:Synth.wav
402,192,264299,1,0,0:0:0:0:
36,192,264299,1,0,0:0:0:0:
109,192,264299,1,0,0:0:0:0:
182,192,264299,1,0,0:0:0:0:
256,192,264456,1,0,0:0:0:50:Synth.wav
109,192,264456,1,0,0:0:0:50:KicK.wav
475,192,264456,1,0,0:0:0:50:CrashL.wav
329,192,264456,1,0,0:0:0:0:
36,192,264456,1,0,0:0:0:0:
475,192,264614,1,0,0:0:0:0:
256,192,264614,1,0,0:0:0:0:
36,192,264771,1,0,0:0:0:50:KicK.wav
182,192,264771,1,0,0:0:0:0:
329,192,264771,1,0,0:0:0:0:
329,192,264928,1,0,0:0:0:50:Synth.wav
402,192,264928,1,0,0:0:0:50:CrashL.wav
475,192,264928,1,0,0:0:0:50:KicK.wav
182,192,264928,1,0,0:0:0:0:
36,192,264928,1,0,0:0:0:0:
256,192,265085,1,0,0:0:0:0:
109,192,265085,1,0,0:0:0:0:
329,192,265242,1,0,0:0:0:50:Synth.wav
256,192,265242,1,0,0:0:0:50:KicK.wav
109,192,265242,1,0,0:0:0:0:
36,192,265242,1,0,0:0:0:0:
475,192,265242,1,0,0:0:0:0:
402,192,265399,1,0,0:0:0:50:Synth.wav
109,192,265399,1,0,0:0:0:50:KicK.wav
329,192,265399,1,0,0:0:0:0:
475,192,265399,1,0,0:0:0:0:
182,192,265399,1,0,0:0:0:0:
475,192,265556,1,0,0:0:0:50:Synth.wav
256,192,265556,1,0,0:0:0:50:KicK.wav
182,192,265556,1,0,0:0:0:0:
402,192,265556,1,0,0:0:0:0:
36,192,265556,1,0,0:0:0:50:CrashL.wav
402,192,265713,1,0,0:0:0:0:
256,192,265713,1,0,0:0:0:0:
182,192,265870,1,0,0:0:0:50:Snare A.wav
475,192,265870,1,0,0:0:0:0:
329,192,265870,1,0,0:0:0:0:
109,192,265870,1,0,0:0:0:0:
36,192,265870,1,0,0:0:0:0:
256,192,266027,1,0,0:0:0:50:KicK.wav
109,192,266027,1,0,0:0:0:0:
402,192,266027,1,0,0:0:0:0:
36,192,266027,1,0,0:0:0:0:
475,192,266027,1,0,0:0:0:0:
109,192,266184,1,0,0:0:0:0:
256,192,266184,1,0,0:0:0:0:
329,192,266341,1,0,0:0:0:50:Synth.wav
36,192,266341,1,0,0:0:0:50:KicK.wav
182,192,266341,1,0,0:0:0:0:
475,192,266341,1,0,0:0:0:0:
402,192,266341,1,0,0:0:0:0:
256,192,266498,1,0,0:0:0:50:Synth.wav
109,192,266498,1,0,0:0:0:50:Drum.wav
475,192,266498,1,0,0:0:0:0:
329,192,266577,1,0,0:0:0:50:Synth.wav
182,192,266577,1,0,0:0:0:50:Drum.wav
402,192,266655,1,0,0:0:0:50:Synth.wav
256,192,266655,1,0,0:0:0:50:Drum.wav
36,192,266655,1,0,0:0:0:0:
109,192,266734,1,0,0:0:0:50:Synth.wav
475,192,266734,1,0,0:0:0:50:Drum.wav
182,192,266812,1,0,0:0:0:50:Synth.wav
329,192,266812,1,0,0:0:0:50:Drum.wav
256,192,266891,1,0,0:0:0:50:Synth.wav
402,192,266891,1,0,0:0:0:50:Drum.wav
109,192,266970,1,0,0:0:0:50:Synth.wav
182,192,266970,1,0,0:0:0:50:KicK.wav
475,192,266970,1,0,0:0:0:50:CrashL.wav
36,192,266970,1,0,0:0:0:0:
329,192,266970,1,0,0:0:0:0:
329,192,267127,1,0,0:0:0:50:Synth.wav
182,192,267127,1,0,0:0:0:50:KicK.wav
475,192,267127,1,0,0:0:0:0:
475,192,267284,1,0,0:0:0:50:Synth.wav
256,192,267284,1,0,0:0:0:50:Snare A.wav
36,192,267284,1,0,0:0:0:0:
109,192,267284,1,0,0:0:0:0:
402,192,267284,1,0,0:0:0:0:
182,192,267441,1,0,0:0:0:50:Synth.wav
36,192,267441,1,0,0:0:0:50:KicK.wav
402,192,267441,1,0,0:0:0:0:
109,192,267441,1,0,0:0:0:0:
475,192,267441,1,0,0:0:0:0:
329,192,267519,1,0,0:0:0:0:
402,192,267598,1,0,0:0:0:0:
182,192,267598,1,0,0:0:0:0:
36,192,267676,1,0,0:0:0:0:
256,192,267755,1,0,0:0:0:50:Synth.wav
402,192,267755,1,0,0:0:0:50:KicK.wav
329,192,267755,1,0,0:0:0:0:
109,192,267755,1,0,0:0:0:0:
475,192,267755,1,0,0:0:0:0:
182,192,267833,1,0,0:0:0:0:
109,192,267912,1,0,0:0:0:0:
329,192,267912,1,0,0:0:0:0:
36,192,268069,1,0,0:0:0:50:Synth.wav
256,192,268069,1,0,0:0:0:50:Snare A.wav
475,192,268069,1,0,0:0:0:0:
402,192,268069,1,0,0:0:0:0:
182,192,268069,1,0,0:0:0:0:
256,192,268226,1,0,0:0:0:0:
402,192,268226,1,0,0:0:0:0:
329,192,268383,1,0,0:0:0:50:Synth.wav
36,192,268383,1,0,0:0:0:50:KicK.wav
109,192,268383,1,0,0:0:0:0:
182,192,268383,1,0,0:0:0:0:
475,192,268383,1,0,0:0:0:0:
329,192,268540,1,0,0:0:0:50:Snare A.wav
109,192,268540,1,0,0:0:0:0:
36,192,268540,1,0,0:0:0:0:
475,192,268697,1,0,0:0:0:50:Synth.wav
182,192,268697,1,0,0:0:0:50:KicK.wav
256,192,268697,1,0,0:0:0:0:
329,192,268697,1,0,0:0:0:0:
402,192,268697,1,0,0:0:0:0:
402,192,268854,1,0,0:0:0:0:
182,192,268854,1,0,0:0:0:0:
256,192,268933,1,0,0:0:0:0:
402,192,269011,1,0,0:0:0:50:Synth.wav
329,192,269011,1,0,0:0:0:50:KicK.wav
36,192,269011,1,0,0:0:0:0:
109,192,269011,1,0,0:0:0:0:
475,192,269011,1,0,0:0:0:0:
475,192,269168,1,0,0:0:0:50:Synth.wav
256,192,269168,1,0,0:0:0:0:
36,192,269168,1,0,0:0:0:0:
402,192,269247,1,0,0:0:0:50:Synth.wav
182,192,269247,1,0,0:0:0:0:
329,192,269326,1,0,0:0:0:50:Synth.wav
109,192,269326,1,0,0:0:0:0:
256,192,269404,1,0,0:0:0:50:Synth.wav
36,192,269404,1,0,0:0:0:0:
182,192,269483,1,0,0:0:0:50:Synth.wav
109,192,269483,1,0,0:0:0:50:KicK.wav
329,192,269483,1,0,0:0:0:50:CrashL.wav
402,192,269483,1,0,0:0:0:0:
475,192,269483,1,0,0:0:0:0:
109,192,269640,1,0,0:0:0:50:Synth.wav
182,192,269640,1,0,0:0:0:50:KicK.wav
329,192,269640,1,0,0:0:0:0:
256,192,269797,1,0,0:0:0:50:Synth.wav
402,192,269797,1,0,0:0:0:50:Snare A.wav
475,192,269797,1,0,0:0:0:0:
36,192,269797,1,0,0:0:0:0:
109,192,269797,1,0,0:0:0:0:
36,192,269954,1,0,0:0:0:50:Synth.wav
402,192,269954,1,0,0:0:0:50:KicK.wav
475,192,269954,1,0,0:0:0:0:
329,192,269954,1,0,0:0:0:0:
182,192,269954,1,0,0:0:0:0:
109,192,270032,1,0,0:0:0:0:
182,192,270111,1,0,0:0:0:0:
329,192,270111,1,0,0:0:0:0:
475,192,270189,1,0,0:0:0:0:
256,192,270268,1,0,0:0:0:50:Synth.wav
36,192,270268,1,0,0:0:0:50:KicK.wav
109,192,270268,1,0,0:0:0:0:
182,192,270268,1,0,0:0:0:0:
402,192,270268,1,0,0:0:0:0:
329,192,270346,1,0,0:0:0:0:
402,192,270425,1,0,0:0:0:0:
109,192,270425,1,0,0:0:0:0:
475,192,270582,1,0,0:0:0:50:Synth.wav
182,192,270582,1,0,0:0:0:50:Snare A.wav
36,192,270582,1,0,0:0:0:0:
329,192,270582,1,0,0:0:0:0:
256,192,270582,1,0,0:0:0:0:
256,192,270739,1,0,0:0:0:0:
475,192,270739,1,0,0:0:0:0:
329,192,270896,1,0,0:0:0:50:Synth.wav
36,192,270896,1,0,0:0:0:50:KicK.wav
109,192,270896,1,0,0:0:0:0:
182,192,270896,1,0,0:0:0:0:
402,192,270896,1,0,0:0:0:0:
182,192,271053,1,0,0:0:0:50:Snare A.wav
36,192,271053,1,0,0:0:0:0:
475,192,271053,1,0,0:0:0:0:
256,192,271210,1,0,0:0:0:50:Synth.wav
109,192,271210,1,0,0:0:0:50:KicK.wav
475,192,271210,1,0,0:0:0:0:
329,192,271210,1,0,0:0:0:0:
402,192,271210,1,0,0:0:0:0:
402,192,271367,1,0,0:0:0:0:
109,192,271367,1,0,0:0:0:0:
182,192,271446,1,0,0:0:0:0:
36,192,271525,1,0,0:0:0:50:Synth.wav
402,192,271525,1,0,0:0:0:50:KicK.wav
256,192,271525,1,0,0:0:0:0:
475,192,271525,1,0,0:0:0:0:
329,192,271525,1,0,0:0:0:0:
109,192,271603,1,0,0:0:0:0:
475,192,271682,1,0,0:0:0:50:Snare A.wav
182,192,271682,1,0,0:0:0:0:
329,192,271682,1,0,0:0:0:0:
475,192,271839,1,0,0:0:0:50:Synth.wav
36,192,271839,1,0,0:0:0:50:KicK.wav
109,192,271839,1,0,0:0:0:0:
256,192,271839,1,0,0:0:0:0:
329,192,271917,1,0,0:0:0:50:Synth.wav
182,192,271917,1,0,0:0:0:0:
402,192,271917,1,0,0:0:0:0:
475,192,271996,1,0,0:0:0:50:Synth.wav
109,192,271996,1,0,0:0:0:50:CrashL.wav
256,192,271996,1,0,0:0:0:50:KicK.wav
36,192,271996,1,0,0:0:0:0:
182,192,272153,1,0,0:0:0:0:
402,192,272153,1,0,0:0:0:0:
36,192,272310,1,0,0:0:0:50:Snare A.wav
402,192,272310,1,0,0:0:0:0:
182,192,272310,1,0,0:0:0:0:
475,192,272467,1,0,0:0:0:0:
109,192,272467,1,0,0:0:0:0:
329,192,272467,1,0,0:0:0:0:
109,192,272624,1,0,0:0:0:0:
329,192,272624,1,0,0:0:0:0:
475,192,272781,1,0,0:0:0:50:Synth.wav
36,192,272781,1,0,0:0:0:50:KicK.wav
402,192,272781,1,0,0:0:0:0:
182,192,272781,1,0,0:0:0:0:
256,192,272781,1,0,0:0:0:0:
402,192,272938,1,0,0:0:0:50:Synth.wav
475,192,272938,1,0,0:0:0:0:
329,192,272938,1,0,0:0:0:0:
109,192,272938,1,0,0:0:0:0:
182,192,272938,1,0,0:0:0:0:
329,192,273095,1,0,0:0:0:50:Synth.wav
256,192,273095,1,0,0:0:0:50:Snare A.wav
36,192,273095,1,0,0:0:0:0:
109,192,273095,1,0,0:0:0:0:
475,192,273095,1,0,0:0:0:0:
402,192,273252,1,0,0:0:0:0:
182,192,273252,1,0,0:0:0:0:
36,192,273409,1,0,0:0:0:50:KicK.wav
402,192,273409,1,0,0:0:0:0:
182,192,273409,1,0,0:0:0:0:
475,192,273566,1,0,0:0:0:50:Snare A.wav
329,192,273566,1,0,0:0:0:0:
109,192,273566,1,0,0:0:0:0:
109,192,273723,1,0,0:0:0:0:
329,192,273723,1,0,0:0:0:0:
475,192,273881,1,0,0:0:0:50:KicK.wav
36,192,273881,1,0,0:0:0:0:
256,192,273881,1,0,0:0:0:0:
329,192,273959,1,0,0:0:0:0:
36,192,274038,1,0,0:0:0:50:Synth.wav
109,192,274038,1,0,0:0:0:50:KicK.wav
475,192,274038,1,0,0:0:0:0:
182,192,274038,1,0,0:0:0:0:
402,192,274038,1,0,0:0:0:0:
256,192,274116,1,0,0:0:0:0:
402,192,274195,1,0,0:0:0:50:Synth.wav
475,192,274195,1,0,0:0:0:50:Snare A.wav
329,192,274195,1,0,0:0:0:0:
109,192,274195,1,0,0:0:0:0:
36,192,274195,1,0,0:0:0:0:
475,192,274352,1,0,0:0:0:50:Synth.wav
402,192,274352,1,0,0:0:0:50:CrashL.wav
256,192,274352,1,0,0:0:0:50:KicK.wav
109,192,274352,1,0,0:0:0:0:
36,192,274352,1,0,0:0:0:0:
182,192,274509,1,0,0:0:0:50:Drum.wav
329,192,274509,1,0,0:0:0:0:
109,192,274587,5,0,0:0:0:0:
329,192,274666,1,0,0:0:0:50:KicK.wav
475,192,274666,1,0,0:0:0:0:
36,192,274666,1,0,0:0:0:0:
256,192,274744,1,0,0:0:0:0:
36,192,274823,1,0,0:0:0:50:Snare A.wav
475,192,274823,1,0,0:0:0:0:
182,192,274823,1,0,0:0:0:0:
402,192,274901,1,0,0:0:0:0:
329,192,274980,1,0,0:0:0:50:Drum.wav
256,192,274980,1,0,0:0:0:0:
182,192,275059,1,0,0:0:0:50:Drum.wav
36,192,275059,1,0,0:0:0:0:
402,192,275137,1,0,0:0:0:50:Drum.wav
329,192,275137,1,0,0:0:0:0:
256,192,275216,1,0,0:0:0:50:Drum.wav
109,192,275216,1,0,0:0:0:0:
402,192,275294,1,0,0:0:0:50:Drum.wav
475,192,275294,1,0,0:0:0:0:
329,192,275373,1,0,0:0:0:50:Drum.wav
182,192,275373,1,0,0:0:0:0:
475,192,275451,1,0,0:0:0:50:Drum.wav
109,192,275451,1,0,0:0:0:0:
36,192,275451,1,0,0:0:0:0:
402,192,275490,1,0,0:0:0:50:Drum.wav
329,192,275530,1,0,0:0:0:50:Drum.wav
109,192,275569,1,0,0:0:0:50:Drum.wav
182,192,275608,1,0,0:0:0:50:Drum.wav
256,192,275648,1,0,0:0:0:50:Drum.wav
329,192,275687,1,0,0:0:0:50:Drum.wav
402,192,275726,1,0,0:0:0:50:Drum.wav
256,192,275765,1,0,0:0:0:50:Synth.wav
109,192,275765,1,0,0:0:0:50:Drum.wav
36,192,275765,1,0,0:0:0:50:CrashL.wav
475,192,275765,1,0,0:0:0:0:
402,192,275844,5,0,0:0:0:0:
182,192,275844,1,0,0:0:0:0:
329,192,275922,1,0,0:0:0:0:
109,192,275922,1,0,0:0:0:0:
256,192,276001,1,0,0:0:0:0:
36,192,276001,1,0,0:0:0:0:
329,192,276079,1,0,0:0:0:0:
182,192,276079,1,0,0:0:0:0:
109,192,276158,1,0,0:0:0:0:
402,192,276158,1,0,0:0:0:0:
182,192,276237,1,0,0:0:0:0:
475,192,276237,1,0,0:0:0:0:
402,192,276315,1,0,0:0:0:0:
256,192,276315,1,0,0:0:0:0:
329,192,276394,1,0,0:0:0:0:
36,192,276394,1,0,0:0:0:0:
402,192,276472,1,0,0:0:0:0:
109,192,276472,1,0,0:0:0:0:
329,192,276551,1,0,0:0:0:0:
182,192,276551,1,0,0:0:0:0:
256,192,276629,1,0,0:0:0:0:
109,192,276629,1,0,0:0:0:0:
36,192,276708,1,0,0:0:0:50:KicK.wav
182,192,276708,1,0,0:0:0:0:
475,192,276708,1,0,0:0:0:0:
402,192,276760,1,0,0:0:0:0:
329,192,276812,1,0,0:0:0:0:
36,192,276865,1,0,0:0:0:50:KicK.wav
475,192,276865,1,0,0:0:0:0:
256,192,276865,1,0,0:0:0:0:
109,192,276917,1,0,0:0:0:0:
329,192,276943,1,0,0:0:0:50:Drum.wav
182,192,276970,1,0,0:0:0:0:
475,192,277022,1,0,0:0:0:50:Synth.wav
402,192,277022,1,0,0:0:0:50:KicK.wav
36,192,277022,1,0,0:0:0:50:CrashL.wav
256,192,277022,1,0,0:0:0:0:
329,192,277179,1,0,0:0:0:50:Synth.wav
109,192,277179,1,0,0:0:0:50:KicK.wav
36,192,277179,1,0,0:0:0:0:
182,192,277179,1,0,0:0:0:0:
256,192,277336,1,0,0:0:0:50:Synth.wav
475,192,277336,1,0,0:0:0:50:Snare A.wav
109,192,277336,1,0,0:0:0:0:
36,192,277336,1,0,0:0:0:0:
402,192,277336,1,0,0:0:0:0:
182,192,277415,1,0,0:0:0:0:
329,192,277493,1,0,0:0:0:50:Synth.wav
36,192,277493,1,0,0:0:0:50:KicK.wav
475,192,277493,1,0,0:0:0:0:
109,192,277493,1,0,0:0:0:0:
402,192,277493,1,0,0:0:0:0:
256,192,277572,1,0,0:0:0:0:
109,192,277650,1,0,0:0:0:0:
329,192,277650,1,0,0:0:0:0:
182,192,277729,1,0,0:0:0:0:
256,192,277807,1,0,0:0:0:50:Synth.wav
329,192,277807,1,0,0:0:0:50:KicK.wav
475,192,277807,1,0,0:0:0:0:
36,192,277807,1,0,0:0:0:0:
402,192,277807,1,0,0:0:0:0:
109,192,277886,1,0,0:0:0:0:
182,192,277964,1,0,0:0:0:0:
402,192,277964,1,0,0:0:0:0:
329,192,278043,1,0,0:0:0:0:
109,192,278121,1,0,0:0:0:50:Synth.wav
36,192,278121,1,0,0:0:0:50:Snare A.wav
475,192,278121,1,0,0:0:0:0:
182,192,278121,1,0,0:0:0:0:
256,192,278121,1,0,0:0:0:0:
402,192,278200,1,0,0:0:0:0:
36,192,278278,1,0,0:0:0:0:
329,192,278278,1,0,0:0:0:0:
109,192,278357,1,0,0:0:0:0:
329,192,278435,1,0,0:0:0:50:Synth.wav
256,192,278435,1,0,0:0:0:50:KicK.wav
402,192,278435,1,0,0:0:0:0:
182,192,278435,1,0,0:0:0:0:
475,192,278435,1,0,0:0:0:0:
109,192,278514,1,0,0:0:0:0:
36,192,278593,1,0,0:0:0:50:Snare A.wav
475,192,278593,1,0,0:0:0:0:
256,192,278593,1,0,0:0:0:0:
329,192,278671,1,0,0:0:0:0:
36,192,278750,1,0,0:0:0:50:Synth.wav
109,192,278750,1,0,0:0:0:50:KicK.wav
475,192,278750,1,0,0:0:0:0:
402,192,278750,1,0,0:0:0:0:
182,192,278750,1,0,0:0:0:0:
256,192,278828,1,0,0:0:0:0:
329,192,278907,1,0,0:0:0:0:
109,192,278907,1,0,0:0:0:0:
475,192,278985,1,0,0:0:0:0:
256,192,279064,1,0,0:0:0:50:Synth.wav
182,192,279064,1,0,0:0:0:50:KicK.wav
36,192,279064,1,0,0:0:0:0:
109,192,279064,1,0,0:0:0:0:
402,192,279064,1,0,0:0:0:0:
329,192,279142,1,0,0:0:0:0:
36,192,279221,1,0,0:0:0:50:Synth.wav
475,192,279221,1,0,0:0:0:50:Snare A.wav
182,192,279221,1,0,0:0:0:0:
402,192,279221,1,0,0:0:0:0:
109,192,279299,1,0,0:0:0:50:Synth.wav
256,192,279299,1,0,0:0:0:0:
182,192,279378,1,0,0:0:0:50:Synth.wav
329,192,279378,1,0,0:0:0:0:
256,192,279456,1,0,0:0:0:50:Synth.wav
402,192,279456,1,0,0:0:0:0:
182,192,279535,1,0,0:0:0:50:Synth.wav
329,192,279535,1,0,0:0:0:50:KicK.wav
36,192,279535,1,0,0:0:0:0:
475,192,279535,1,0,0:0:0:0:
109,192,279535,1,0,0:0:0:0:
475,192,279692,1,0,0:0:0:50:Synth.wav
109,192,279692,1,0,0:0:0:50:KicK.wav
329,192,279692,1,0,0:0:0:0:
182,192,279692,1,0,0:0:0:0:
109,192,279849,1,0,0:0:0:50:Synth.wav
475,192,279849,1,0,0:0:0:50:Snare A.wav
256,192,279849,1,0,0:0:0:0:
36,192,279849,1,0,0:0:0:0:
402,192,279849,1,0,0:0:0:0:
182,192,279928,1,0,0:0:0:0:
402,192,280006,1,0,0:0:0:50:Synth.wav
36,192,280006,1,0,0:0:0:50:KicK.wav
109,192,280006,1,0,0:0:0:0:
329,192,280006,1,0,0:0:0:0:
475,192,280006,1,0,0:0:0:0:
256,192,280085,1,0,0:0:0:0:
182,192,280163,1,0,0:0:0:0:
475,192,280163,1,0,0:0:0:0:
402,192,280242,1,0,0:0:0:0:
109,192,280320,1,0,0:0:0:50:Synth.wav
182,192,280320,1,0,0:0:0:50:KicK.wav
256,192,280320,1,0,0:0:0:0:
36,192,280320,1,0,0:0:0:0:
329,192,280320,1,0,0:0:0:0:
402,192,280399,1,0,0:0:0:0:
36,192,280477,1,0,0:0:0:50:Drum.wav
475,192,280477,1,0,0:0:0:0:
109,192,280517,1,0,0:0:0:50:Drum.wav
182,192,280556,1,0,0:0:0:50:Drum.wav
256,192,280595,1,0,0:0:0:50:Drum.wav
329,192,280634,1,0,0:0:0:50:Drum.wav
402,192,280634,1,0,0:0:0:0:
109,192,280634,1,0,0:0:0:50:Synth.wav
36,192,280634,1,0,0:0:0:50:Snare A.wav
475,192,280634,1,0,0:0:0:50:CrashS.wav
182,192,280895,1,0,0:0:0:0:
256,192,280895,1,0,0:0:0:50:Synth.wav
109,192,280895,1,0,0:0:0:50:Snare A.wav
36,192,280895,1,0,0:0:0:50:CrashS.wav
329,192,280895,1,0,0:0:0:0:
475,192,280895,1,0,0:0:0:0:
182,192,281105,1,0,0:0:0:50:Snare A.wav
256,192,281105,1,0,0:0:0:50:Synth.wav
475,192,281105,1,0,0:0:0:50:CrashS.wav
36,192,281105,1,0,0:0:0:0:
109,192,281105,1,0,0:0:0:0:
402,192,281105,1,0,0:0:0:0:
402,192,281314,1,0,0:0:0:50:Synth.wav
36,192,281314,1,0,0:0:0:50:Snare A.wav
256,192,281314,1,0,0:0:0:50:CrashS.wav
475,192,281314,1,0,0:0:0:0:
329,192,281314,1,0,0:0:0:0:
182,192,281314,1,0,0:0:0:0:
329,192,281524,1,0,0:0:0:50:Synth.wav
402,192,281524,1,0,0:0:0:50:Snare A.wav
475,192,281524,1,0,0:0:0:50:CrashS.wav
36,192,281524,1,0,0:0:0:0:
256,192,281524,1,0,0:0:0:0:
109,192,281524,1,0,0:0:0:0:
402,192,281733,1,0,0:0:0:50:Synth.wav
182,192,281733,1,0,0:0:0:50:Snare A.wav
329,192,281733,1,0,0:0:0:50:CrashS.wav
36,192,281733,1,0,0:0:0:0:
109,192,281733,1,0,0:0:0:0:
475,192,281733,1,0,0:0:0:0:
256,192,281890,128,0,282283:0:0:0:50:Synth.wav
475,192,281890,1,0,0:0:0:50:KicK.wav
402,192,281890,1,0,0:0:0:50:Snare A.wav
36,192,281969,1,0,0:0:0:50:KicK.wav
109,192,281969,1,0,0:0:0:0:
475,192,282047,1,0,0:0:0:50:KicK.wav
402,192,282047,1,0,0:0:0:0:
36,192,282126,1,0,0:0:0:50:KicK.wav
109,192,282126,1,0,0:0:0:0:
475,192,282204,1,0,0:0:0:50:KicK.wav
402,192,282204,1,0,0:0:0:0:
109,192,282283,1,0,0:0:0:50:KicK.wav
36,192,282283,1,0,0:0:0:0:
475,192,282361,1,0,0:0:0:50:KicK.wav
256,192,282361,1,0,0:0:0:50:CrashL.wav
402,192,282361,1,0,0:0:0:0:
182,192,282361,1,0,0:0:0:0:
329,192,282361,1,0,0:0:0:0:
475,192,282518,1,0,0:0:0:50:Synth.wav
256,192,282518,1,0,0:0:0:0:
36,192,282518,1,0,0:0:0:0:
402,192,282596,1,0,0:0:0:50:Synth.wav
109,192,282596,1,0,0:0:0:0:
36,192,282675,1,0,0:0:0:50:Synth.wav
329,192,282675,1,0,0:0:0:0:
182,192,282675,1,0,0:0:0:0:
402,192,282753,1,0,0:0:0:0:
109,192,282832,1,0,0:0:0:50:Synth.wav
36,192,282832,1,0,0:0:0:50:KicK.wav
256,192,282832,1,0,0:0:0:0:
475,192,282832,1,0,0:0:0:0:
329,192,282910,1,0,0:0:0:0:
182,192,282989,1,0,0:0:0:50:Synth.wav
475,192,282989,1,0,0:0:0:0:
109,192,282989,1,0,0:0:0:0:
402,192,282989,1,0,0:0:0:0:
256,192,283067,1,0,0:0:0:0:
475,192,283146,1,0,0:0:0:50:Synth.wav
329,192,283146,1,0,0:0:0:50:Snare A.wav
36,192,283146,1,0,0:0:0:0:
402,192,283146,1,0,0:0:0:0:
182,192,283146,1,0,0:0:0:0:
109,192,283224,1,0,0:0:0:0:
36,192,283303,1,0,0:0:0:0:
329,192,283303,1,0,0:0:0:0:
256,192,283381,1,0,0:0:0:0:
36,192,283460,1,0,0:0:0:50:Synth.wav
109,192,283460,1,0,0:0:0:50:KicK.wav
182,192,283460,1,0,0:0:0:0:
475,192,283460,1,0,0:0:0:0:
402,192,283460,1,0,0:0:0:0:
329,192,283539,1,0,0:0:0:0:
475,192,283617,1,0,0:0:0:50:Snare A.wav
256,192,283617,1,0,0:0:0:0:
109,192,283617,1,0,0:0:0:0:
182,192,283696,1,0,0:0:0:0:
475,192,283774,1,0,0:0:0:50:Synth.wav
402,192,283774,1,0,0:0:0:0:
36,192,283774,1,0,0:0:0:0:
329,192,283774,1,0,0:0:0:0:
256,192,283774,1,0,0:0:0:0:
109,192,283853,1,0,0:0:0:0:
182,192,283931,1,0,0:0:0:50:KicK.wav
329,192,283931,1,0,0:0:0:0:
475,192,284010,1,0,0:0:0:0:
402,192,284088,1,0,0:0:0:50:Synth.wav
109,192,284088,1,0,0:0:0:50:KicK.wav
36,192,284088,1,0,0:0:0:0:
256,192,284088,1,0,0:0:0:0:
182,192,284088,1,0,0:0:0:0:
329,192,284167,1,0,0:0:0:0:
475,192,284245,1,0,0:0:0:50:Synth.wav
402,192,284245,1,0,0:0:0:50:Snare A.wav
256,192,284245,1,0,0:0:0:0:
36,192,284245,1,0,0:0:0:0:
109,192,284245,1,0,0:0:0:0:
475,192,284402,1,0,0:0:0:0:
36,192,284402,1,0,0:0:0:0:
329,192,284402,1,0,0:0:0:0:
182,192,284402,1,0,0:0:0:0:
256,192,284559,1,0,0:0:0:50:Synth.wav
402,192,284559,1,0,0:0:0:50:CrashL.wav
109,192,284559,1,0,0:0:0:50:KicK.wav
36,192,284559,1,0,0:0:0:0:
475,192,284559,1,0,0:0:0:0:
182,192,284637,1,0,0:0:0:0:
329,192,284716,1,0,0:0:0:0:
109,192,284716,1,0,0:0:0:0:
256,192,284794,1,0,0:0:0:0:
36,192,284873,1,0,0:0:0:50:KicK.wav
402,192,284873,1,0,0:0:0:0:
182,192,284873,1,0,0:0:0:0:
329,192,284951,1,0,0:0:0:0:
475,192,285030,1,0,0:0:0:50:Synth.wav
402,192,285030,1,0,0:0:0:50:CrashL.wav
182,192,285030,1,0,0:0:0:50:KicK.wav
109,192,285030,1,0,0:0:0:0:
36,192,285030,1,0,0:0:0:0:
256,192,285108,1,0,0:0:0:0:
329,192,285187,1,0,0:0:0:0:
109,192,285187,1,0,0:0:0:0:
182,192,285265,1,0,0:0:0:0:
475,192,285344,1,0,0:0:0:50:Synth.wav
329,192,285344,1,0,0:0:0:50:KicK.wav
402,192,285344,1,0,0:0:0:0:
36,192,285344,1,0,0:0:0:0:
256,192,285344,1,0,0:0:0:0:
182,192,285422,1,0,0:0:0:0:
36,192,285501,1,0,0:0:0:50:Synth.wav
109,192,285501,1,0,0:0:0:50:KicK.wav
329,192,285501,1,0,0:0:0:0:
402,192,285501,1,0,0:0:0:0:
475,192,285501,1,0,0:0:0:0:
256,192,285579,1,0,0:0:0:0:
402,192,285658,1,0,0:0:0:50:Synth.wav
475,192,285658,1,0,0:0:0:50:CrashL.wav
109,192,285658,1,0,0:0:0:50:KicK.wav
182,192,285658,1,0,0:0:0:0:
36,192,285658,1,0,0:0:0:0:
329,192,285737,1,0,0:0:0:0:
256,192,285815,1,0,0:0:0:0:
109,192,285815,1,0,0:0:0:0:
329,192,285894,1,0,0:0:0:0:
36,192,285972,1,0,0:0:0:50:Snare A.wav
402,192,285972,1,0,0:0:0:0:
475,192,285972,1,0,0:0:0:0:
182,192,285972,1,0,0:0:0:0:
109,192,286051,1,0,0:0:0:0:
475,192,286129,1,0,0:0:0:50:KicK.wav
256,192,286129,1,0,0:0:0:0:
402,192,286129,1,0,0:0:0:0:
36,192,286129,1,0,0:0:0:0:
329,192,286286,1,0,0:0:0:0:
182,192,286286,1,0,0:0:0:0:
109,192,286443,1,0,0:0:0:50:Synth.wav
329,192,286443,1,0,0:0:0:50:KicK.wav
182,192,286443,1,0,0:0:0:0:
36,192,286443,1,0,0:0:0:0:
475,192,286443,1,0,0:0:0:0:
36,192,286600,1,0,0:0:0:50:Synth.wav
256,192,286600,1,0,0:0:0:50:Drum.wav
475,192,286600,1,0,0:0:0:0:
109,192,286679,1,0,0:0:0:50:Synth.wav
402,192,286679,1,0,0:0:0:50:Drum.wav
182,192,286757,1,0,0:0:0:50:Synth.wav
36,192,286757,1,0,0:0:0:50:Drum.wav
329,192,286757,1,0,0:0:0:0:
475,192,286757,1,0,0:0:0:0:
256,192,286836,1,0,0:0:0:50:Synth.wav
109,192,286836,1,0,0:0:0:50:Drum.wav
329,192,286915,1,0,0:0:0:50:Synth.wav
182,192,286915,1,0,0:0:0:50:Drum.wav
402,192,286993,1,0,0:0:0:50:Synth.wav
256,192,286993,1,0,0:0:0:50:Drum.wav
109,192,287072,128,0,287307:0:0:0:50:Synth.wav
36,192,287072,128,0,287307:0:0:0:50:CrashL.wav
182,192,287072,128,0,287307:0:0:0:50:KicK.wav
475,192,287072,128,0,287307:0:0:0:0:
329,192,287072,128,0,287307:0:0:0:0:
109,192,287386,1,0,0:0:0:50:Chord B.wav
36,192,287386,1,0,0:0:0:50:Snare A.wav
402,192,287386,1,0,0:0:0:0:
256,192,287464,1,0,0:0:0:50:Chord B.wav
329,192,287464,1,0,0:0:0:0:
109,192,287543,1,0,0:0:0:50:Chord B.wav
402,192,287543,1,0,0:0:0:50:BeLL.wav
475,192,287543,1,0,0:0:0:50:KicK.wav
36,192,287543,1,0,0:0:0:0:
256,192,287621,1,0,0:0:0:50:Chord B.wav
182,192,287621,1,0,0:0:0:0:
402,192,287700,1,0,0:0:0:50:Chord B.wav
475,192,287700,1,0,0:0:0:0:
109,192,287700,1,0,0:0:0:0:
256,192,287778,1,0,0:0:0:50:Chord B.wav
329,192,287778,1,0,0:0:0:0:
402,192,287857,1,0,0:0:0:50:Chord B.wav
109,192,287857,1,0,0:0:0:50:BeLL.wav
36,192,287857,1,0,0:0:0:50:KicK.wav
475,192,287857,1,0,0:0:0:0:
256,192,287935,1,0,0:0:0:50:Chord B.wav
182,192,287935,1,0,0:0:0:0:
402,192,288014,1,0,0:0:0:50:Chord B.wav
109,192,288014,1,0,0:0:0:0:
36,192,288014,1,0,0:0:0:0:
256,192,288093,1,0,0:0:0:50:Chord B.wav
329,192,288093,1,0,0:0:0:0:
109,192,288171,1,0,0:0:0:50:Chord B.wav
402,192,288171,1,0,0:0:0:50:BeLL.wav
475,192,288171,1,0,0:0:0:50:Snare A.wav
36,192,288171,1,0,0:0:0:0:
256,192,288250,1,0,0:0:0:50:Chord B.wav
182,192,288250,1,0,0:0:0:0:
329,192,288328,1,0,0:0:0:50:Chord B.wav
475,192,288328,1,0,0:0:0:0:
402,192,288328,1,0,0:0:0:0:
36,192,288407,1,0,0:0:0:50:Chord B.wav
109,192,288407,1,0,0:0:0:0:
329,192,288485,1,0,0:0:0:50:Chord B.wav
182,192,288485,1,0,0:0:0:50:BeLL.wav
402,192,288485,1,0,0:0:0:50:KicK.wav
256,192,288485,1,0,0:0:0:0:
36,192,288564,1,0,0:0:0:50:Chord B.wav
109,192,288564,1,0,0:0:0:0:
329,192,288642,1,0,0:0:0:50:Chord B.wav
402,192,288642,1,0,0:0:0:50:Snare A.wav
475,192,288642,1,0,0:0:0:0:
256,192,288721,1,0,0:0:0:50:Chord B.wav
182,192,288721,1,0,0:0:0:0:
475,192,288799,1,0,0:0:0:50:Chord B.wav
402,192,288799,1,0,0:0:0:50:BeLL.wav
109,192,288799,1,0,0:0:0:50:KicK.wav
36,192,288799,1,0,0:0:0:0:
256,192,288878,1,0,0:0:0:50:Chord B.wav
329,192,288878,1,0,0:0:0:0:
109,192,288956,1,0,0:0:0:50:Chord B.wav
182,192,288956,1,0,0:0:0:0:
36,192,288956,1,0,0:0:0:0:
402,192,289035,1,0,0:0:0:50:Chord B.wav
475,192,289035,1,0,0:0:0:0:
256,192,289113,1,0,0:0:0:50:Chord B.wav
329,192,289113,1,0,0:0:0:50:BeLL.wav
109,192,289113,1,0,0:0:0:50:KicK.wav
182,192,289113,1,0,0:0:0:0:
475,192,289192,1,0,0:0:0:50:Chord B.wav
402,192,289192,1,0,0:0:0:0:
109,192,289271,1,0,0:0:0:50:Synth.wav
256,192,289271,1,0,0:0:0:0:
36,192,289271,1,0,0:0:0:0:
182,192,289349,1,0,0:0:0:50:Synth.wav
475,192,289349,1,0,0:0:0:0:
329,192,289349,1,0,0:0:0:0:
109,192,289428,1,0,0:0:0:50:Synth.wav
256,192,289428,1,0,0:0:0:0:
402,192,289428,1,0,0:0:0:0:
36,192,289506,1,0,0:0:0:50:Synth.wav
329,192,289506,1,0,0:0:0:0:
182,192,289506,1,0,0:0:0:0:
109,192,289585,1,0,0:0:0:50:Synth.wav
256,192,289585,1,0,0:0:0:50:CrashL.wav
475,192,289585,1,0,0:0:0:50:KicK.wav
402,192,289585,1,0,0:0:0:0:
329,192,289742,1,0,0:0:0:50:Chord B.wav
402,192,289742,1,0,0:0:0:50:KicK.wav
475,192,289742,1,0,0:0:0:0:
182,192,289742,1,0,0:0:0:0:
256,192,289820,1,0,0:0:0:50:Chord B.wav
109,192,289820,1,0,0:0:0:0:
182,192,289899,1,0,0:0:0:50:Chord B.wav
36,192,289899,1,0,0:0:0:50:Snare A.wav
402,192,289899,1,0,0:0:0:0:
256,192,289977,1,0,0:0:0:50:Chord B.wav
329,192,289977,1,0,0:0:0:0:
109,192,290056,1,0,0:0:0:50:Chord B.wav
475,192,290056,1,0,0:0:0:50:BeLL.wav
402,192,290056,1,0,0:0:0:50:KicK.wav
36,192,290056,1,0,0:0:0:0:
256,192,290134,1,0,0:0:0:50:Chord B.wav
182,192,290134,1,0,0:0:0:0:
329,192,290213,1,0,0:0:0:50:Chord B.wav
109,192,290213,1,0,0:0:0:0:
475,192,290213,1,0,0:0:0:0:
256,192,290291,1,0,0:0:0:50:Chord B.wav
402,192,290291,1,0,0:0:0:0:
182,192,290370,1,0,0:0:0:50:Chord B.wav
329,192,290370,1,0,0:0:0:50:BeLL.wav
36,192,290370,1,0,0:0:0:50:KicK.wav
109,192,290370,1,0,0:0:0:0:
402,192,290449,1,0,0:0:0:50:Chord B.wav
475,192,290449,1,0,0:0:0:0:
256,192,290527,1,0,0:0:0:50:Chord B.wav
109,192,290527,1,0,0:0:0:0:
36,192,290527,1,0,0:0:0:0:
329,192,290606,1,0,0:0:0:50:Chord B.wav
182,192,290606,1,0,0:0:0:0:
109,192,290684,1,0,0:0:0:50:Synth.wav
36,192,290684,1,0,0:0:0:50:BeLL.wav
256,192,290684,1,0,0:0:0:50:Snare A.wav
475,192,290684,1,0,0:0:0:0:
402,192,290684,1,0,0:0:0:0:
182,192,290841,1,0,0:0:0:0:
402,192,290841,1,0,0:0:0:0:
329,192,290920,1,0,0:0:0:0:
256,192,290998,1,0,0:0:0:50:Synth.wav
109,192,290998,1,0,0:0:0:50:BeLL.wav
36,192,290998,1,0,0:0:0:50:KicK.wav
475,192,290998,1,0,0:0:0:0:
182,192,290998,1,0,0:0:0:0:
475,192,291155,1,0,0:0:0:50:Snare A.wav
402,192,291155,1,0,0:0:0:0:
329,192,291155,1,0,0:0:0:0:
109,192,291155,1,0,0:0:0:0:
256,192,291234,1,0,0:0:0:0:
182,192,291312,1,0,0:0:0:50:Synth.wav
109,192,291312,1,0,0:0:0:50:BeLL.wav
402,192,291312,1,0,0:0:0:50:KicK.wav
475,192,291312,1,0,0:0:0:0:
36,192,291312,1,0,0:0:0:0:
36,192,291469,1,0,0:0:0:0:
256,192,291469,1,0,0:0:0:0:
182,192,291548,1,0,0:0:0:0:
475,192,291627,1,0,0:0:0:50:Synth.wav
329,192,291627,1,0,0:0:0:50:BeLL.wav
109,192,291627,1,0,0:0:0:50:KicK.wav
36,192,291627,1,0,0:0:0:0:
402,192,291627,1,0,0:0:0:0:
256,192,291784,1,0,0:0:0:50:Snare A.wav
402,192,291784,1,0,0:0:0:0:
109,192,291784,1,0,0:0:0:0:
182,192,291941,1,0,0:0:0:50:Synth.wav
475,192,291941,1,0,0:0:0:50:KicK.wav
36,192,291941,1,0,0:0:0:0:
329,192,291941,1,0,0:0:0:0:
109,192,292019,1,0,0:0:0:50:Synth.wav
402,192,292019,1,0,0:0:0:0:
256,192,292019,1,0,0:0:0:0:
329,192,292098,1,0,0:0:0:50:Synth.wav
182,192,292098,1,0,0:0:0:50:CrashL.wav
36,192,292098,1,0,0:0:0:50:KicK.wav
475,192,292098,1,0,0:0:0:0:
109,192,292255,1,0,0:0:0:0:
402,192,292255,1,0,0:0:0:0:
475,192,292412,1,0,0:0:0:50:Snare A.wav
329,192,292412,1,0,0:0:0:0:
182,192,292412,1,0,0:0:0:0:
109,192,292490,1,0,0:0:0:0:
329,192,292569,1,0,0:0:0:0:
36,192,292569,1,0,0:0:0:0:
256,192,292648,1,0,0:0:0:0:
475,192,292726,1,0,0:0:0:0:
182,192,292726,1,0,0:0:0:0:
402,192,292805,1,0,0:0:0:0:
36,192,292883,1,0,0:0:0:50:Synth.wav
256,192,292883,1,0,0:0:0:50:KicK.wav
329,192,292883,1,0,0:0:0:0:
182,192,292883,1,0,0:0:0:0:
109,192,292883,1,0,0:0:0:0:
475,192,292962,1,0,0:0:0:0:
402,192,293040,1,0,0:0:0:50:Synth.wav
256,192,293040,1,0,0:0:0:0:
182,192,293040,1,0,0:0:0:0:
109,192,293040,1,0,0:0:0:0:
329,192,293040,1,0,0:0:0:0:
36,192,293119,1,0,0:0:0:0:
402,192,293197,1,0,0:0:0:50:Synth.wav
256,192,293197,1,0,0:0:0:50:Snare A.wav
182,192,293197,1,0,0:0:0:0:
475,192,293197,1,0,0:0:0:0:
329,192,293197,1,0,0:0:0:0:
109,192,293276,1,0,0:0:0:0:
475,192,293354,1,0,0:0:0:0:
36,192,293354,1,0,0:0:0:0:
329,192,293433,1,0,0:0:0:0:
402,192,293511,1,0,0:0:0:50:KicK.wav
36,192,293511,1,0,0:0:0:0:
182,192,293511,1,0,0:0:0:0:
256,192,293590,1,0,0:0:0:0:
109,192,293668,1,0,0:0:0:50:Snare A.wav
329,192,293668,1,0,0:0:0:0:
475,192,293668,1,0,0:0:0:0:
182,192,293747,1,0,0:0:0:0:
109,192,293826,1,0,0:0:0:0:
329,192,293826,1,0,0:0:0:0:
475,192,293904,1,0,0:0:0:0:
402,192,293983,1,0,0:0:0:50:KicK.wav
256,192,293983,1,0,0:0:0:0:
36,192,293983,1,0,0:0:0:0:
329,192,294061,1,0,0:0:0:0:
475,192,294140,1,0,0:0:0:50:Synth.wav
36,192,294140,1,0,0:0:0:50:KicK.wav
402,192,294140,1,0,0:0:0:0:
182,192,294140,1,0,0:0:0:0:
109,192,294140,1,0,0:0:0:0:
256,192,294218,1,0,0:0:0:0:
475,192,294297,1,0,0:0:0:50:Synth.wav
329,192,294297,1,0,0:0:0:50:Snare A.wav
36,192,294297,1,0,0:0:0:0:
109,192,294297,1,0,0:0:0:0:
402,192,294297,1,0,0:0:0:0:
182,192,294375,1,0,0:0:0:0:
36,192,294454,1,0,0:0:0:50:Synth.wav
256,192,294454,128,0,295789:0:0:0:50:CrashL.wav
475,192,294454,1,0,0:0:0:50:KicK.wav
109,192,294454,1,0,0:0:0:0:
402,192,294454,1,0,0:0:0:0:
329,192,294532,1,0,0:0:0:0:
109,192,294611,1,0,0:0:0:50:Drum.wav
475,192,294611,1,0,0:0:0:0:
402,192,294689,1,0,0:0:0:0:
329,192,294768,1,0,0:0:0:50:KicK.wav
182,192,294768,1,0,0:0:0:0:
36,192,294768,1,0,0:0:0:0:
402,192,294846,1,0,0:0:0:0:
109,192,294925,1,0,0:0:0:50:Snare A.wav
36,192,294925,1,0,0:0:0:50:Chord B.wav
475,192,294925,1,0,0:0:0:0:
182,192,295004,1,0,0:0:0:50:Chord B.wav
329,192,295004,1,0,0:0:0:0:
475,192,295082,1,0,0:0:0:50:Chord B.wav
402,192,295082,1,0,0:0:0:50:Drum.wav
36,192,295082,1,0,0:0:0:0:
329,192,295161,1,0,0:0:0:50:Chord B.wav
109,192,295161,1,0,0:0:0:0:
36,192,295239,1,0,0:0:0:50:Chord B.wav
182,192,295239,1,0,0:0:0:50:KicK.wav
402,192,295239,1,0,0:0:0:0:
109,192,295318,1,0,0:0:0:50:Chord B.wav
475,192,295318,1,0,0:0:0:0:
402,192,295396,1,0,0:0:0:50:Chord B.wav
182,192,295396,1,0,0:0:0:50:KicK.wav
329,192,295396,1,0,0:0:0:0:
475,192,295475,1,0,0:0:0:50:Chord B.wav
36,192,295475,1,0,0:0:0:0:
109,192,295553,1,0,0:0:0:50:Snare A.wav
182,192,295553,1,0,0:0:0:50:Chord B.wav
329,192,295553,1,0,0:0:0:0:
36,192,295632,1,0,0:0:0:50:Chord B.wav
402,192,295632,1,0,0:0:0:0:
329,192,295710,1,0,0:0:0:50:Chord B.wav
109,192,295710,1,0,0:0:0:50:KicK.wav
475,192,295710,1,0,0:0:0:0:
182,192,295789,1,0,0:0:0:50:Chord B.wav
402,192,295789,1,0,0:0:0:0:
256,192,295867,1,0,0:0:0:50:Chord B.wav
36,192,295867,1,0,0:0:0:50:Drum.wav
475,192,295867,1,0,0:0:0:0:
182,192,295946,1,0,0:0:0:50:Chord B.wav
109,192,295946,1,0,0:0:0:50:Drum.wav
329,192,295946,1,0,0:0:0:0:
475,192,296024,1,0,0:0:0:50:Chord B.wav
36,192,296024,1,0,0:0:0:50:Drum.wav
402,192,296024,1,0,0:0:0:0:
182,192,296103,1,0,0:0:0:50:Chord B.wav
329,192,296103,1,0,0:0:0:50:Drum.wav
256,192,296103,1,0,0:0:0:0:
36,192,296182,1,0,0:0:0:50:Snare A.wav
109,192,296182,1,0,0:0:0:50:Chord B.wav
475,192,296182,1,0,0:0:0:50:Drum.wav
182,192,296260,1,0,0:0:0:50:Chord B.wav
402,192,296260,1,0,0:0:0:50:Drum.wav
329,192,296260,1,0,0:0:0:0:
36,192,296339,1,0,0:0:0:50:Chord B.wav
475,192,296339,1,0,0:0:0:50:Drum.wav
256,192,296339,1,0,0:0:0:0:
109,192,296417,1,0,0:0:0:50:Chord B.wav
329,192,296417,1,0,0:0:0:50:Drum.wav
182,192,296417,1,0,0:0:0:0:
36,192,296496,1,0,0:0:0:50:Chord B.wav
475,192,296496,1,0,0:0:0:50:Drum.wav
402,192,296496,1,0,0:0:0:0:
182,192,296574,1,0,0:0:0:50:Chord B.wav
256,192,296574,1,0,0:0:0:50:Drum.wav
109,192,296574,1,0,0:0:0:0:
475,192,296653,1,0,0:0:0:50:Chord B.wav
36,192,296653,1,0,0:0:0:50:Drum.wav
402,192,296653,1,0,0:0:0:0:
182,192,296731,1,0,0:0:0:50:Chord B.wav
256,192,296731,1,0,0:0:0:50:Drum.wav
329,192,296731,1,0,0:0:0:0:
36,192,296810,1,0,0:0:0:50:Snare A.wav
475,192,296810,1,0,0:0:0:50:Chord B.wav
109,192,296810,1,0,0:0:0:50:Drum.wav
256,192,296888,1,0,0:0:0:50:Chord B.wav
402,192,296888,1,0,0:0:0:50:Drum.wav
329,192,296888,1,0,0:0:0:0:
109,192,296967,1,0,0:0:0:50:Chord B.wav
475,192,296967,1,0,0:0:0:50:Drum.wav
36,192,296967,1,0,0:0:0:0:
329,192,297045,1,0,0:0:0:50:Chord B.wav
182,192,297045,1,0,0:0:0:50:Drum.wav
402,192,297045,1,0,0:0:0:0:
256,192,297124,1,0,0:0:0:50:Chord B.wav
36,192,297124,1,0,0:0:0:50:Drum.wav
475,192,297124,1,0,0:0:0:0:
182,192,297202,1,0,0:0:0:50:Chord B.wav
329,192,297202,1,0,0:0:0:50:Drum.wav
109,192,297202,1,0,0:0:0:0:
475,192,297281,1,0,0:0:0:50:Chord B.wav
402,192,297281,1,0,0:0:0:50:Drum.wav
36,192,297281,1,0,0:0:0:0:
329,192,297320,1,0,0:0:0:50:Drum.wav
256,192,297360,1,0,0:0:0:50:Chord B.wav
182,192,297360,1,0,0:0:0:50:Drum.wav
109,192,297399,1,0,0:0:0:50:Drum.wav
475,192,297438,1,0,0:0:0:50:Snare A.wav
402,192,297438,1,0,0:0:0:50:Chord B.wav
36,192,297438,1,0,0:0:0:50:Drum.wav
256,192,297517,1,0,0:0:0:50:Chord B.wav
329,192,297517,1,0,0:0:0:50:Drum.wav
182,192,297517,1,0,0:0:0:0:
109,192,297595,1,0,0:0:0:50:Drum.wav
36,192,297595,1,0,0:0:0:50:Chord B.wav
475,192,297595,1,0,0:0:0:0:
182,192,297634,1,0,0:0:0:50:Drum.wav
256,192,297674,1,0,0:0:0:50:Chord B.wav
329,192,297674,1,0,0:0:0:50:Drum.wav
402,192,297713,1,0,0:0:0:50:Drum.wav
475,192,297752,1,0,0:0:0:50:Chord B.wav
109,192,297752,1,0,0:0:0:50:Drum.wav
36,192,297752,1,0,0:0:0:0:
329,192,297831,1,0,0:0:0:50:Chord B.wav
256,192,297831,1,0,0:0:0:50:Drum.wav
182,192,297831,1,0,0:0:0:0:
109,192,297909,1,0,0:0:0:50:Chord B.wav
36,192,297909,1,0,0:0:0:50:Drum.wav
475,192,297909,1,0,0:0:0:0:
182,192,297988,1,0,0:0:0:50:Chord B.wav
402,192,297988,1,0,0:0:0:50:Drum.wav
329,192,297988,1,0,0:0:0:0:
36,192,298066,1,0,0:0:0:50:Snare A.wav
475,192,298066,1,0,0:0:0:50:Chord B.wav
256,192,298066,1,0,0:0:0:50:Drum.wav
182,192,298106,1,0,0:0:0:50:Drum.wav
109,192,298145,1,0,0:0:0:50:Chord B.wav
329,192,298145,1,0,0:0:0:50:Drum.wav
402,192,298184,1,0,0:0:0:50:Drum.wav
475,192,298223,1,0,0:0:0:50:Chord B.wav
36,192,298223,1,0,0:0:0:50:Drum.wav
256,192,298223,1,0,0:0:0:0:
109,192,298263,1,0,0:0:0:50:Drum.wav
182,192,298302,1,0,0:0:0:50:Chord B.wav
402,192,298302,1,0,0:0:0:50:Drum.wav
329,192,298341,1,0,0:0:0:50:Drum.wav
109,192,298380,128,0,299166:0:0:0:50:Synth.wav
256,192,298380,1,0,0:0:0:50:KicK.wav
36,192,298380,128,0,299480:0:0:0:50:CrashL.wav
475,192,298380,128,0,298538:0:0:0:50:Chord B.wav
402,192,298459,128,0,298616:0:0:0:0:
329,192,298538,128,0,298695:0:0:0:0:
256,192,298616,128,0,298773:0:0:0:0:
402,192,298695,128,0,298852:0:0:0:0:
329,192,298773,128,0,298930:0:0:0:0:
256,192,298852,128,0,299009:0:0:0:0:
182,192,298930,128,0,299087:0:0:0:0:
329,192,299009,128,0,299166:0:0:0:0:
256,192,299087,128,0,299244:0:0:0:0:
182,192,299166,128,0,299323:0:0:0:0:
109,192,299244,128,0,299401:0:0:0:0:
329,192,299323,128,0,299401:0:0:0:0:
475,192,299323,128,0,299559:0:0:0:0:
402,192,299323,1,0,0:0:0:50:Drum.wav
182,192,299401,1,0,0:0:0:50:Drum.wav
256,192,299401,128,0,299480:0:0:0:0:
109,192,299480,1,0,0:0:0:50:Drum.wav
402,192,299480,128,0,299559:0:0:0:0:
256,192,299559,1,0,0:0:0:50:Drum.wav
329,192,299559,128,0,299637:0:0:0:0:
182,192,299637,1,0,0:0:0:50:KicK.wav
475,192,299637,1,0,0:0:0:0:
36,192,299637,1,0,0:0:0:0:
36,192,299951,128,0,303093:0:0:0:50:Impact A.wav
109,192,299951,128,0,303093:0:0:0:50:CrashL.wav
182,192,299951,128,0,303093:0:0:0:50:KicK.wav
475,192,299951,128,0,303093:0:0:0:50:Synth.wav
402,192,299951,128,0,303093:0:0:0:0:
329,192,299951,128,0,303093:0:0:0:0:
