osu file format v14

[General]
AudioFilename: audio.mp3
AudioLeadIn: 0
PreviewTime: 109948
Countdown: 0
SampleSet: None
StackLeniency: 0.3
Mode: 0
LetterboxInBreaks: 0
WidescreenStoryboard: 1

[Editor]
Bookmarks: 50106,68482,88587,108692,140420,147959,155184
DistanceSpacing: 1.2
BeatDivisor: 4
GridSize: 8
TimelineZoom: 3.4

[Metadata]
Title:Halcyon
TitleUnicode:Halcyon
Artist:xi
ArtistUnicode:xi
Creator:MrMenda
Version:yaspo's Hard
Source:BMS
Tags:Celektus MaridiuS ailv Cytus yaspo KnightC0re IceKalt BOF2010 BMS of Fighters 2010 Jory -Jordan-
BeatmapID:1505946
BeatmapSetID:684013

[Difficulty]
HPDrainRate:5
CircleSize:3.5
OverallDifficulty:6
ApproachRate:8
SliderMultiplier:1.4
SliderTickRate:1

[Events]
//Background and Video events
0,0,"halcyon bg.jpg",0,0
//Break Periods
//Storyboard Layer 0 (Background)
//Storyboard Layer 1 (Fail)
//Storyboard Layer 2 (Pass)
//Storyboard Layer 3 (Foreground)
//Storyboard Sound Samples

[TimingPoints]
3784,628.272251308901,4,2,0,15,1,0
5042,628.272251308901,4,2,0,60,1,0
15094,628.272251308901,4,2,0,25,1,0
21280,628.272251308901,4,2,0,25,1,0
21430,705.882352941176,4,2,0,25,1,0
21959,705.882352941176,4,2,0,25,1,0
22393,923.076923076923,4,2,0,15,1,0
22863,800,4,2,0,30,1,0
23663,857.142857142857,4,2,0,30,1,0
24517,1000,4,2,0,25,1,0
25017,1132.07547169811,4,2,0,25,1,0
25300,967.741935483871,4,2,0,25,1,0
27017,314.13612565445,4,2,0,60,1,0
28273,-100,4,3,0,60,0,1
47121,-100,4,3,0,60,0,0
48692,-83.3333333333333,4,3,0,60,0,1
49006,-100,4,3,0,50,0,0
53718,-83.3333333333333,4,1,0,80,0,0
53954,-100,4,3,0,5,0,0
54032,-100,4,3,0,50,0,0
58744,-83.3333333333333,4,1,0,50,0,0
58980,-100,4,3,0,5,0,0
59058,-100,4,3,0,50,0,0
63770,-83.3333333333333,4,3,0,60,0,0
64085,-100,4,3,0,60,0,0
68797,-83.3333333333333,4,3,0,60,0,0
69268,-100,4,3,0,60,0,0
78849,-83.3333333333333,4,3,0,60,0,0
79320,-100,4,3,0,60,0,0
87645,-83.3333333333333,4,3,0,60,0,0
88587,-100,4,3,0,60,0,0
100446,-100,4,1,0,80,0,0
109870,-100,4,1,0,5,0,0
109948,-100,4,3,0,60,0,1
110263,-100,4,3,0,60,0,1
128797,-100,4,3,0,60,0,0
130053,-100,4,3,0,60,0,1
148901,-100,4,3,0,60,0,0
150472,-100,4,3,0,60,0,1
150786,-100,4,3,0,5,0,0

[Colours]
Combo1 : 128,255,255
Combo2 : 128,128,192
Combo3 : 0,255,128

[HitObjects]
128,310,27645,5,2,1:2:0:0:
207,338,27802,1,2,1:2:0:0:
266,279,27959,2,0,P|295:271|359:286,1,70,2|2,1:2|1:2,0:0:0:0:
374,289,28195,1,2,1:2:0:0:
406,314,28273,6,0,L|420:245,1,70,6|0,1:2|0:0,0:0:0:0:
441,164,28587,1,10,0:2:0:0:
505,217,28744,1,2,0:2:0:0:
460,26,29058,5,2,0:2:0:0:
305,35,29373,6,0,L|298:123,1,70,10|0,0:2|0:0,0:0:0:0:
215,110,29687,2,0,L|231:196,1,70,2|8,0:2|0:2,0:0:0:0:
147,205,30001,2,0,L|184:283,1,70,2|8,0:2|0:2,0:0:0:0:
217,341,30315,1,2,0:2:0:0:
133,342,30472,6,0,P|102:339|47:303,1,70,2|2,1:2|1:2,0:0:0:0:
36,294,30708,1,2,1:2:0:0:
32,252,30786,2,0,L|46:183,1,70,2|2,1:2|0:2,0:0:0:0:
61,106,31100,1,10,0:2:0:0:
122,155,31257,1,2,0:2:0:0:
161,0,31571,5,2,0:2:0:0:
308,0,31886,6,0,L|315:88,1,70,10|0,0:2|0:0,0:0:0:0:
398,75,32200,2,0,L|382:161,1,70,2|8,0:2|0:2,0:0:0:0:
466,170,32514,2,0,L|428:248,1,70,2|8,0:2|0:2,0:0:0:0:
507,279,32828,2,0,L|450:345,1,70,2|8,1:2|0:2,1:1:0:0:
374,303,33142,5,2,1:2:0:0:
374,303,33221,1,0,1:0:0:0:
374,303,33299,2,0,P|321:350|251:306,1,140,0|8,1:0|0:2,0:0:0:0:
228,251,33770,5,2,0:2:0:0:
174,315,33927,2,0,P|151:281|148:233,1,70,2|2,0:2|0:2,0:0:0:0:
186,178,34242,1,2,1:2:0:0:
269,180,34399,6,0,P|309:182|353:161,1,70,10|0,0:2|0:0,0:0:0:0:
395,239,34713,2,0,P|418:205|421:157,1,70,2|8,0:2|0:2,0:0:0:0:
466,103,35027,2,0,P|491:126|505:158,2,70,2|8|0,0:2|0:2|1:0,0:0:0:0:
399,51,35498,5,2,1:2:0:0:
322,86,35655,1,2,1:2:0:0:
255,34,35812,2,0,P|191:13|143:58,1,140,6|8,1:2|0:2,0:0:0:0:
210,110,36284,2,0,P|146:88|98:134,1,140,10|10,0:2|0:2,0:0:0:0:
92,218,36755,5,10,0:2:0:0:
158,269,36912,2,0,P|94:247|46:293,1,140,6|8,0:2|0:2,0:0:0:0:
32,374,37383,1,0,1:0:0:0:
211,337,37697,5,0,1:0:0:0:
283,293,37854,1,2,1:2:0:0:
342,352,38011,2,2,P|371:360|435:345,1,70,2|2,1:2|1:2,0:0:0:0:
447,335,38247,1,2,1:2:0:0:
465,297,38325,6,0,L|451:228,1,70,6|0,0:2|0:0,0:0:0:0:
433,146,38639,1,10,0:2:0:0:
372,204,38796,1,2,0:2:0:0:
391,8,39111,5,2,0:2:0:0:
228,30,39425,6,0,L|142:52,1,70,10|0,0:2|0:0,0:0:0:0:
179,129,39739,2,0,L|102:172,1,70,2|8,0:2|0:2,0:0:0:0:
149,241,40053,2,0,L|86:303,1,70,2|8,0:2|0:2,0:0:0:0:
206,301,40367,1,2,1:2:0:0:
143,360,40524,6,0,P|114:373|49:369,1,70,2|2,1:2|1:2,0:0:0:0:
36,360,40760,1,2,1:2:0:0:
10,326,40838,2,0,L|24:257,1,70,6|0,1:2|0:0,0:0:0:0:
48,173,41153,1,2,0:2:0:0:
108,231,41310,1,2,0:2:0:0:
189,54,41624,5,2,1:2:0:0:
360,70,41938,6,0,L|372:2,1,70,10|0,0:2|0:0,0:0:0:0:
410,157,42252,2,0,L|439:93,1,70,2|0,1:2|0:0,0:0:0:0:
436,254,42566,2,0,L|480:200,1,70,10|0,0:2|1:0,1:1:0:0:
435,354,42880,2,0,L|492:313,1,70,2|8,1:2|0:2,0:0:0:0:
359,305,43195,5,2,1:2:0:0:
359,305,43273,1,2,1:2:0:0:
359,305,43352,2,0,P|320:291|273:301,1,70,6|2,1:2|0:2,0:0:0:0:
231,351,43666,2,0,L|73:323,1,140,10|2,0:2|0:0,0:0:0:0:
23,279,44137,1,2,1:2:0:0:
13,195,44294,1,2,0:2:0:0:
118,220,44451,6,0,P|174:256|232:225,1,140,10|0,2:2|1:0,2:2:0:0:
312,198,44922,2,0,L|449:173,1,140,8|0,0:2|1:0,2:2:0:0:
511,115,45393,1,2,1:2:0:0:
510,31,45550,1,10,0:2:0:0:
411,68,45708,6,0,P|355:104|296:73,1,140,6|0,0:2|1:0,0:0:0:0:
250,1,46179,1,8,0:2:0:0:
181,49,46336,2,0,B|170:87|170:87|154:116|154:116|154:149|154:149|143:188,1,140,0|0,1:0|1:0,0:0:0:0:
72,140,46807,2,0,B|56:195|56:195|59:253,1,105,8|0,0:2|0:0,0:0:0:0:
67,284,47121,6,0,P|96:276|160:291,1,70,6|2,1:2|2:2,0:0:0:0:
162,312,47357,1,2,2:2:0:0:
191,341,47435,2,0,P|225:344|259:336,1,70,2|2,2:2|2:2,0:0:0:0:
298,318,47671,1,2,2:2:0:0:
332,294,47749,2,0,P|365:285|400:288,1,70,2|2,1:2|1:2,0:0:0:0:
480,315,48064,5,2,0:3:0:0:
467,231,48221,1,0,0:0:0:0:
451,148,48378,1,4,0:1:0:0:
231,257,48692,6,0,B|280:213|280:213|261:119,1,125.999996154785,6|0,0:1|0:0,0:0:0:0:
257,113,49006,1,2,1:2:0:0:
177,140,49163,2,0,P|142:143|108:135,1,70,0|0,1:0|1:0,0:0:0:0:
35,93,49477,1,6,0:2:0:0:
26,260,49791,6,0,P|61:257|95:265,1,70,2|8,1:2|0:2,0:0:0:0:
125,343,50106,2,0,P|90:346|56:338,2,70,2|0|0,0:2|1:0|1:0,0:0:0:0:
176,277,50577,1,8,0:2:0:0:
329,260,50891,1,2,1:2:0:0:
486,330,51205,6,0,P|469:263|482:207,1,105,10|0,0:2|0:0,0:0:0:0:
495,191,51519,1,2,1:2:0:0:
413,170,51676,2,0,P|378:166|344:174,1,70,0|0,1:0|1:0,0:0:0:0:
266,205,51990,1,10,0:2:0:0:
114,131,52304,5,0,1:0:0:0:
114,131,52462,1,8,0:2:0:0:
242,22,52776,2,0,P|277:18|311:26,1,70,2|2,1:2|1:2,0:0:0:0:
346,47,53011,1,2,1:2:0:0:
381,70,53090,2,0,P|416:74|450:66,1,70,2|2,1:2|1:2,0:0:0:0:
488,140,53404,1,6,1:2:0:0:
410,345,53718,6,2,B|353:329|353:329|343:335|343:335|289:320,1,125.999996154785,6|0,0:2|0:0,0:0:0:0:
248,310,54032,1,2,0:2:0:0:
172,271,54189,2,0,P|164:304|168:339,2,70,2|2|10,0:2|0:2|0:2,0:0:0:0:
119,205,54660,6,0,L|80:182,2,35,2|2|2,2:2|2:2|1:2,0:0:0:0:
137,122,54975,2,0,L|114:83,2,35,10|2|2,2:2|2:2|2:2,0:0:0:0:
194,58,55289,2,0,L|193:12,2,35,2|2|2,1:2|2:2|1:2,0:0:0:0:
275,29,55603,2,0,L|297:-9,2,35,10|2|2,2:2|2:2|2:2,0:0:0:0:
344,75,55917,6,0,L|436:94,1,70,6|2,1:2|0:2,0:0:0:0:
471,29,56231,2,0,P|494:77|475:148,1,105,10|0,0:2|0:0,0:0:0:0:
466,163,56545,1,2,0:2:0:0:
382,173,56702,2,0,L|288:155,1,70,2|2,0:2|0:2,0:0:0:0:
282,188,56938,1,2,0:2:0:0:
251,216,57016,6,0,L|164:200,1,70,10|2,0:2|0:2,0:0:0:0:
132,277,57331,2,0,L|200:289,1,70,0|10,1:0|1:2,0:0:0:0:
283,302,57645,1,2,0:2:0:0:
351,350,57802,2,0,L|330:403,2,35,2|2|2,2:2|2:2|2:2,0:0:0:0:
424,308,58116,2,0,L|432:364,2,35,2|2|2,1:2|2:2|2:2,0:0:0:0:
408,225,58430,1,4,1:2:0:0:
200,289,58744,6,0,B|249:245|249:245|230:151,1,125.999996154785,6|0,0:1|0:0,0:0:0:0:
226,145,59058,1,2,0:2:0:0:
299,104,59215,2,0,P|332:93|367:93,1,70,0|0,0:0|0:0,0:0:0:0:
449,107,59530,1,10,0:2:0:0:
486,246,59844,6,0,P|451:243|417:251,1,70,2|8,1:2|0:2,0:0:0:0:
387,329,60159,2,0,P|422:332|456:324,2,70,2|0|0,0:2|0:0|1:0,0:0:0:0:
334,261,60629,1,8,0:2:0:0:
183,334,60943,1,2,1:2:0:0:
22,283,61257,6,0,P|39:216|26:160,1,105,10|0,0:2|0:0,0:0:0:0:
13,144,61571,1,2,0:2:0:0:
95,123,61728,2,0,P|130:119|164:127,1,70,0|0,1:0|1:0,0:0:0:0:
242,158,62042,1,10,0:2:0:0:
259,325,62357,6,0,L|171:325,2,70,0|10|0,1:0|0:2|1:0,0:0:0:0:
342,325,62828,2,0,P|353:291|355:257,1,70,2|2,2:2|2:2,0:0:0:0:
345,216,63064,1,2,2:2:0:0:
333,175,63142,2,0,P|333:139|345:107,1,70,2|2,1:2|1:2,0:0:0:0:
373,75,63378,1,2,1:2:0:0:
373,75,63456,1,6,1:2:0:0:
266,246,63770,6,2,B|209:230|209:230|199:236|199:236|145:221,1,125.999996154785,6|0,0:2|0:0,0:0:0:0:
102,214,64085,1,2,0:2:0:0:
21,208,64242,2,0,P|27:244|45:274,2,70,2|2|10,0:2|0:2|0:2,0:0:0:0:
21,124,64713,6,0,L|-4:93,2,35,2|2|10,2:2|2:2|2:2,0:0:0:0:
81,67,65027,2,0,L|74:27,2,35,10|2|2,2:2|2:2|2:2,0:0:0:0:
162,50,65341,2,0,L|175:12,2,35,2|2|2,1:2|2:2|1:2,0:0:0:0:
239,75,65655,2,0,L|269:49,2,35,10|2|2,2:2|2:2|1:2,0:0:0:0:
287,143,65969,6,0,L|379:162,1,70,6|2,1:2|0:2,0:0:0:0:
414,97,66283,2,0,P|437:145|418:216,1,105,10|0,0:2|0:0,0:0:0:0:
409,231,66597,1,2,1:2:0:0:
324,236,66755,1,2,1:2:0:0:
275,304,66912,6,0,L|291:340,2,35,2|0|2,1:2|0:0|1:2,0:0:0:0:
192,318,67226,2,0,L|180:355,2,35,2|2|2,1:2|1:2|1:2,0:0:0:0:
117,279,67540,2,0,L|83:299,2,35,6|2|0,1:1|1:2|1:0,1:1:0:0:
98,197,67854,2,0,L|58:191,2,35,6|2|2,0:1|1:2|1:2,0:0:0:0:
156,137,68168,2,0,L|129:107,2,35,6|2|2,0:1|1:2|1:2,0:0:0:0:
190,158,68404,1,0,0:0:0:0:
229,155,68482,2,2,P|264:118|279:73,1,70,2|0,2:2|2:0,2:2:0:0:
387,69,68797,6,0,B|355:153|355:153|402:236,1,167.999994873047,6|0,2:2|2:0,2:2:0:0:
355,295,69268,2,0,P|320:294|286:302,1,70,2|2,0:2|0:2,0:0:0:0:
219,353,69582,2,0,P|184:360|150:360,1,70,2|2,0:2|0:2,0:0:0:0:
71,321,69896,5,2,1:2:0:0:
71,321,69975,2,0,P|64:286|64:252,1,70,2|0,0:2|0:0,0:0:0:0:
94,211,70210,2,0,P|87:176|87:142,1,70,2|2,0:2|1:2,0:0:0:0:
119,97,70446,2,0,P|112:62|112:28,1,70,2|2,0:2|0:2,0:0:0:0:
154,0,70681,5,10,0:2:0:0:
218,53,70838,1,10,0:2:0:0:
296,83,70996,2,0,P|331:90|365:90,1,70,6|0,0:2|0:0,0:0:0:0:
447,74,71310,1,8,0:2:0:0:
457,334,71781,5,0,1:0:0:0:
420,170,72095,2,0,L|325:186,1,70,8|2,0:2|2:2,0:0:0:0:
268,198,72409,1,2,1:2:0:0:
244,278,72566,2,0,L|149:294,1,70,10|2,2:2|2:2,0:0:0:0:
91,302,72880,5,2,1:2:0:0:
29,245,73037,1,2,1:2:0:0:
58,165,73195,2,0,P|92:154|126:152,1,70,10|10,2:2|2:2,0:0:0:0:
164,169,73430,1,2,2:2:0:0:
200,190,73509,2,0,P|234:186|268:177,1,70,6|0,1:2|0:0,0:0:0:0:
336,129,73823,1,8,0:2:0:0:
469,357,74294,5,2,1:2:0:0:
414,199,74608,2,0,L|319:215,1,70,10|0,0:2|0:0,0:0:0:0:
261,222,74922,1,2,1:2:0:0:
237,302,75079,2,0,L|142:318,1,70,10|2,0:2|0:2,0:0:0:0:
74,345,75393,6,0,P|85:311|87:277,1,70,10|2,0:2|1:2,0:0:0:0:
75,236,75629,1,2,1:2:0:0:
59,196,75708,2,0,P|61:161|71:127,1,70,10|2,0:2|0:2,0:0:0:0:
93,92,75943,1,2,0:2:0:0:
126,66,76022,2,0,P|160:58|195:58,1,70,6|0,0:2|0:0,0:0:0:0:
250,120,76336,2,0,L|225:212,1,70,8|0,0:2|0:0,0:0:0:0:
90,277,76807,5,0,1:0:0:0:
162,336,76964,1,2,2:2:0:0:
162,336,77043,1,2,2:2:0:0:
162,336,77121,2,0,P|196:344|231:344,1,70,2|2,2:2|0:1,0:0:0:0:
305,306,77435,1,0,1:0:0:0:
373,355,77592,6,0,L|402:374,2,35,10|2|2,2:2|2:2|1:2,0:0:0:0:
441,302,77907,2,0,L|504:306,2,35,2|10|2,1:2|2:2|1:2,0:0:0:0:
473,223,78221,2,0,L|530:195,2,35,10|2|2,1:2|1:2|1:2,0:0:0:0:
456,140,78535,1,6,0:2:0:0:
257,106,78849,6,0,B|275:194|275:194|213:268,1,167.999994873047,6|0,0:1|0:0,0:0:0:0:
136,334,79320,2,2,P|170:329|205:334,1,70,2|2,0:2|0:2,0:0:0:0:
276,379,79634,2,0,P|311:382|345:379,1,70,10|2,0:2|2:2,0:0:0:0:
417,336,79948,5,2,1:2:0:0:
417,336,80027,2,0,P|424:301|425:259,1,70,2|0,2:2|0:0,0:0:0:0:
394,226,80262,2,0,P|401:191|401:157,1,70,2|0,2:2|0:0,0:0:0:0:
369,112,80498,2,0,P|376:77|376:43,1,70,2|0,2:2|0:0,0:0:0:0:
346,3,80734,5,10,2:2:0:0:
287,69,80891,1,10,2:2:0:0:
206,93,81048,2,0,P|171:100|137:100,1,70,6|0,1:2|0:0,0:0:0:0:
53,90,81362,2,0,L|65:191,1,70,10|2,2:2|2:2,0:0:0:0:
98,328,81833,6,2,P|63:328|28:334,2,70,2|2|10,1:2|2:2|2:2,2:2:0:0:
137,343,82226,1,2,2:2:0:0:
174,360,82304,2,0,P|208:359|243:353,1,70,2|0,0:2|1:0,0:0:0:0:
303,293,82619,2,0,P|337:285|372:285,1,70,10|2,0:2|2:2,0:0:0:0:
427,211,82933,2,0,L|357:197,1,70,2|2,1:2|1:2,0:0:0:0:
319,124,83247,2,0,L|249:110,1,70,10|10,2:2|2:2,0:0:0:0:
208,109,83482,5,2,2:2:0:0:
208,109,83561,1,6,1:2:0:0:
45,151,83875,1,8,0:2:0:0:
32,316,84189,5,0,0:0:0:0:
95,258,84346,2,0,L|51:225,2,35,10|2|10,2:2|2:2|2:2,0:0:0:0:
159,312,84660,1,10,2:2:0:0:
227,361,84818,6,0,L|299:361,2,70,2|8|8,1:2|0:2|0:2,0:0:0:0:
225,170,85446,1,2,1:2:0:0:
159,312,85760,6,0,L|115:279,2,35,10|2|10,2:2|2:2|2:2,0:0:0:0:
227,361,86074,1,2,1:2:0:0:
294,310,86231,1,0,1:0:0:0:
362,359,86389,6,0,L|434:359,2,70,2|2|2,1:2|1:2|1:2,0:0:0:0:
375,276,86859,1,2,1:2:0:0:
438,221,87016,2,0,L|493:259,2,35,2|0|0,1:2|1:2|1:2,1:1:0:0:
373,166,87331,1,4,1:2:0:0:
181,177,87645,6,2,P|57:158|165:243,1,335.999989746094,6|10,2:2|2:2,2:2:0:0:
253,381,88587,6,0,L|339:365,1,70,6|0,1:2|0:0,0:0:0:0:
403,350,88901,2,0,L|489:334,1,70,0|0,1:0|0:0,0:0:0:0:
495,248,89215,2,0,L|408:264,1,70,0|0,1:0|0:0,0:0:0:0:
343,280,89530,2,0,L|257:296,1,70,0|0,1:0|0:0,0:0:0:0:
257,210,89844,6,0,L|171:194,1,70,0|0,1:0|0:0,0:0:0:0:
105,182,90158,2,0,L|19:166,1,70,0|0,1:0|0:0,0:0:0:0:
16,83,90472,2,0,L|102:99,1,70,2|0,1:2|0:0,0:0:0:0:
167,107,90786,1,0,0:0:0:0:
249,122,90943,1,2,0:3:0:0:
328,64,91100,6,0,L|340:132,1,70,2|0,1:3|0:0,0:0:0:0:
357,215,91414,2,0,L|369:283,1,70,0|0,1:0|0:0,0:0:0:0:
290,342,91729,2,0,L|277:273,1,70,0|0,1:0|0:0,0:0:0:0:
261,190,92043,2,0,L|248:121,1,70,0|0,1:0|0:0,0:0:0:0:
176,58,92357,6,0,L|163:126,1,70,2|2,1:2|2:2,0:0:0:0:
145,208,92671,2,0,L|132:276,1,70,2|2,1:2|2:2,0:0:0:0:
67,330,92985,2,0,P|56:311|51:258,1,70,2|2,1:2|1:2,0:0:0:0:
54,221,93221,1,2,1:2:0:0:
62,180,93299,2,0,P|60:145|46:113,1,70,2|2,1:2|1:2,0:0:0:0:
24,77,93535,1,2,1:2:0:0:
30,35,93613,6,0,P|49:24|102:19,1,70,6|0,1:1|0:0,0:0:0:0:
179,28,93927,2,0,L|247:40,1,70,0|0,1:0|0:0,0:0:0:0:
282,117,94242,2,0,L|351:130,1,70,0|0,1:0|0:0,0:0:0:0:
432,150,94556,2,0,L|501:163,1,70,0|0,1:0|0:0,0:0:0:0:
504,246,94870,6,0,L|435:259,1,70,2|2,1:2|2:2,0:0:0:0:
416,296,95106,1,2,2:2:0:0:
399,334,95184,2,0,L|330:347,1,70,2|2,1:2|2:2,0:0:0:0:
259,288,95498,1,2,1:2:0:0:
177,309,95655,2,0,L|108:322,1,70,0|0,0:0|0:0,0:0:0:0:
25,334,95969,1,2,0:3:0:0:
0,253,96126,6,0,L|13:184,1,70,2|0,1:3|0:0,0:0:0:0:
32,102,96441,2,0,L|45:33,1,70,2|2,1:2|2:2,0:0:0:0:
127,10,96755,2,0,L|140:79,1,70,2|2,1:2|2:2,0:0:0:0:
156,161,97069,1,2,1:2:0:0:
172,243,97226,1,2,2:2:0:0:
119,308,97383,6,0,L|72:295,2,35,6|2|2,1:2|2:2|2:2,2:2:0:0:
202,319,97697,2,2,P|233:303|268:301,1,70,2|2,1:2|2:2,2:2:0:0:
302,323,97933,1,2,2:2:0:0:
334,348,98011,2,0,P|368:346|400:330,1,70,6|6,1:2|1:2,0:0:0:0:
432,303,98247,1,2,1:2:0:0:
473,304,98325,2,0,P|488:273|490:237,1,70,6|6,1:2|1:2,0:0:0:0:
471,155,98640,5,6,1:1:0:0:
407,210,98797,1,0,0:0:0:0:
371,134,98954,2,0,P|351:105|321:85,1,70,2|0,1:2|0:0,0:0:0:0:
246,122,99268,5,2,1:2:0:0:
173,80,99425,2,0,P|141:64|105:62,1,70,0|2,0:0|1:2,0:0:0:0:
24,80,99739,1,0,0:0:0:0:
0,161,99896,1,2,1:1:0:0:
112,315,100210,6,2,L|99:268,1,35,2|2,1:2|2:2,2:2:0:0:
180,249,100446,2,2,L|179:200,1,35,2|2,2:2|1:2,2:2:0:0:
262,204,100681,2,2,L|274:157,1,35,2|2,2:2|2:2,2:2:0:0:
353,181,100917,2,2,L|377:139,1,35,2|10,2:2|2:2,2:2:0:0:
421,83,101153,2,0,L|396:41,2,35,10|2|2,2:2|2:2|2:2,0:0:0:0:
458,157,101467,1,2,1:2:0:0:
301,96,101781,5,2,1:2:0:0:
301,96,101859,1,2,0:2:0:0:
301,96,101938,2,0,P|251:93|214:116,1,70,2|0,0:2|1:0,0:0:0:0:
158,139,102252,1,2,1:2:0:0:
75,152,102409,2,0,P|26:141|-3:110,1,70,10|0,0:2|0:0,0:0:0:0:
0,46,102723,1,10,2:2:0:0:
167,52,103037,5,10,2:2:0:0:
242,202,103352,1,2,1:2:0:0:
324,186,103509,1,10,2:2:0:0:
369,256,103666,6,0,L|402:264,2,35,6|0|2,2:2|0:0|1:2,0:0:0:0:
318,323,103980,2,0,L|348:340,2,35,2|0|0,1:2|0:0|0:0,0:0:0:0:
240,291,104294,1,2,1:2:0:0:
175,345,104451,2,0,P|126:334|96:303,1,70,2|0,1:2|1:0,0:0:0:0:
82,243,104765,1,2,0:2:0:0:
0,242,104922,1,6,0:2:0:0:
44,80,105236,6,0,L|38:16,2,35,2|2|2,2:2|2:2|1:2,0:0:0:0:
125,56,105551,2,0,L|136:-7,2,35,2|2|2,2:2|2:2|2:2,0:0:0:0:
209,53,105865,2,0,L|236:-5,2,35,2|2|2,1:2|2:2|2:2,0:0:0:0:
251,125,106179,2,2,P|283:134|318:129,1,70,2|0,0:2|0:0,0:0:0:0:
359,120,106414,1,0,0:0:0:0:
399,133,106493,2,0,P|423:109|436:76,1,70,0|0,0:0|0:0,0:0:0:0:
442,34,106729,1,0,0:0:0:0:
442,34,106807,1,2,0:2:0:0:
256,192,106964,12,2,108378,1:2:0:0:
256,192,108692,5,2,1:2:0:0:
480,335,109634,6,0,B|436:366|436:366|364:366,1,105,0|0,0:0|0:0,0:0:0:0:
342,362,109948,1,6,1:2:0:0:
257,361,110106,1,0,0:0:0:0:
219,286,110263,1,6,0:1:0:0:
135,288,110420,1,2,0:2:0:0:
62,135,110734,5,2,0:2:0:0:
212,23,111048,6,0,L|219:111,1,70,10|0,0:2|0:0,0:0:0:0:
302,98,111362,2,0,L|286:184,1,70,2|8,0:2|0:2,0:0:0:0:
370,193,111676,2,0,L|333:271,1,70,2|8,0:2|0:2,0:0:0:0:
298,329,111990,1,2,0:2:0:0:
381,328,112147,6,0,P|415:327|448:314,1,70,2|2,1:2|1:2,0:0:0:0:
480,287,112383,1,2,1:2:0:0:
491,245,112462,2,0,L|466:152,1,70,2|2,1:2|0:2,0:0:0:0:
448,97,112776,1,10,0:2:0:0:
391,158,112933,1,2,0:2:0:0:
350,0,113247,5,2,0:2:0:0:
197,10,113561,6,0,L|190:98,1,70,10|0,0:2|0:0,0:0:0:0:
107,85,113875,2,0,L|123:171,1,70,2|8,0:2|0:2,0:0:0:0:
39,180,114189,2,0,L|76:258,1,70,2|8,0:2|0:2,0:0:0:0:
0,288,114503,2,0,L|55:353,1,70,2|8,1:2|0:2,1:1:0:0:
126,316,114818,5,2,1:2:0:0:
195,361,114975,2,0,P|260:370|299:317,1,140,0|8,1:0|0:2,0:0:0:0:
307,232,115446,5,2,0:2:0:0:
378,274,115603,2,0,P|388:240|384:206,1,70,2|2,0:2|0:2,0:0:0:0:
321,149,115918,1,2,1:2:0:0:
243,179,116075,6,0,P|208:182|175:172,1,70,10|0,0:2|0:0,0:0:0:0:
117,239,116389,2,0,P|96:210|88:177,1,70,2|8,1:2|0:2,0:0:0:0:
46,102,116703,2,0,P|20:126|6:158,2,70,2|8|0,0:2|0:2|1:0,0:0:0:0:
113,51,117174,5,2,1:2:0:0:
190,86,117331,1,2,1:2:0:0:
257,35,117488,2,0,P|321:14|370:59,1,140,6|8,1:2|0:2,0:0:0:0:
303,110,117960,2,0,P|365:88|414:134,1,140,10|10,0:2|0:2,0:0:0:0:
421,219,118431,5,10,0:2:0:0:
355,269,118588,2,0,P|417:247|466:293,1,140,6|8,0:2|0:2,0:0:0:0:
481,375,119059,1,0,1:0:0:0:
300,335,119373,5,0,1:0:0:0:
229,291,119530,1,2,1:2:0:0:
170,350,119687,2,2,P|141:358|77:343,1,70,2|2,1:2|1:2,0:0:0:0:
65,333,119923,1,2,1:2:0:0:
47,295,120001,6,0,L|61:226,1,70,6|0,0:2|0:0,0:0:0:0:
79,144,120315,1,10,0:2:0:0:
140,202,120472,1,2,0:2:0:0:
121,6,120787,5,2,0:2:0:0:
284,28,121101,6,0,L|370:50,1,70,10|0,0:2|0:0,0:0:0:0:
333,127,121415,2,0,L|410:170,1,70,2|8,0:2|0:2,0:0:0:0:
363,239,121729,2,0,L|426:301,1,70,10|8,0:2|0:2,0:0:0:0:
304,298,122043,1,2,1:2:0:0:
364,356,122200,6,0,P|393:369|458:365,1,70,2|2,1:2|1:2,0:0:0:0:
471,356,122436,1,2,1:2:0:0:
497,322,122514,2,0,L|483:253,1,70,6|0,1:2|0:0,0:0:0:0:
464,171,122829,1,2,0:2:0:0:
404,229,122986,1,2,0:2:0:0:
323,52,123300,5,2,1:2:0:0:
152,68,123614,6,0,L|140:0,1,70,10|0,0:2|0:0,0:0:0:0:
102,155,123928,2,0,L|73:91,1,70,2|0,1:2|0:0,0:0:0:0:
76,252,124242,2,0,L|32:198,1,70,10|0,0:2|1:0,1:1:0:0:
77,352,124556,2,0,L|20:311,1,70,2|8,1:2|0:2,0:0:0:0:
153,303,124871,5,2,1:2:0:0:
153,303,124949,1,2,1:2:0:0:
153,303,125028,2,0,P|192:289|239:299,1,70,6|2,1:2|0:2,0:0:0:0:
281,351,125341,2,2,L|439:323,1,140,8|0,0:2|0:0,0:0:0:0:
489,279,125812,1,2,1:2:0:0:
499,195,125969,1,2,0:2:0:0:
394,220,126126,6,0,P|338:256|280:225,1,140,10|0,2:2|1:0,2:2:0:0:
200,198,126597,2,0,L|63:173,1,140,8|0,0:2|1:0,2:2:0:0:
1,115,127068,1,2,1:2:0:0:
2,31,127225,1,10,0:2:0:0:
101,68,127383,6,0,P|157:104|216:73,1,140,6|0,0:2|1:0,0:0:0:0:
262,1,127854,1,8,0:2:0:0:
331,49,128011,2,0,B|342:87|342:87|358:116|358:116|358:149|358:149|369:188,1,140,0|0,1:0|1:0,0:0:0:0:
440,140,128482,2,0,B|456:195|456:195|453:253,1,105,8|0,0:2|0:0,0:0:0:0:
445,284,128796,6,0,P|416:276|352:291,1,70,6|2,1:2|2:2,0:0:0:0:
350,312,129032,1,2,2:2:0:0:
321,341,129110,2,0,P|287:344|253:336,1,70,2|2,2:2|2:2,0:0:0:0:
214,318,129346,1,2,2:2:0:0:
180,294,129424,2,0,P|147:285|112:288,1,70,2|2,1:2|1:2,0:0:0:0:
25,300,129739,6,0,L|32:230,1,70,2|0,0:3|0:0,0:0:0:0:
68,154,130053,1,6,0:1:0:0:
151,153,130210,1,0,0:0:0:0:
203,218,130367,1,4,0:1:0:0:
284,219,130524,1,2,0:2:0:0:
197,75,130838,5,2,0:2:0:0:
362,23,131153,6,0,L|381:92,1,70,10|0,0:2|0:0,0:0:0:0:
496,92,131467,2,0,L|445:142,1,70,2|8,0:2|0:2,0:0:0:0:
503,242,131781,2,0,L|433:223,1,70,2|0,0:2|0:0,0:0:0:0:
482,322,132095,1,2,1:2:0:0:
402,300,132252,6,0,P|367:296|333:304,1,70,2|2,1:2|1:2,0:0:0:0:
299,327,132488,1,2,1:2:0:0:
269,355,132566,2,0,L|248:277,1,70,2|0,1:2|1:0,0:0:0:0:
233,205,132880,1,2,0:2:0:0:
314,225,133037,1,2,0:2:0:0:
374,67,133352,5,2,1:2:0:0:
197,10,133666,6,0,L|190:98,1,70,10|0,0:2|0:0,0:0:0:0:
107,85,133980,2,0,L|123:171,1,70,2|8,1:2|0:2,0:0:0:0:
39,180,134294,2,0,L|76:258,1,70,2|0,1:2|0:0,0:0:0:0:
0,288,134608,2,0,L|55:353,1,70,2|8,1:2|0:2,0:0:0:0:
122,308,134922,5,2,1:2:0:0:
190,355,135079,2,0,P|255:347|280:285,1,140,0|6,1:0|0:2,1:1:0:0:
249,207,135551,1,2,0:2:0:0:
249,207,135629,1,2,0:2:0:0:
249,207,135708,2,0,P|284:203|318:211,1,70,2|2,0:2|0:2,0:0:0:0:
392,248,136022,1,2,0:2:0:0:
455,311,136179,6,0,P|477:268|470:208,1,105,10|0,0:2|0:0,0:0:0:0:
450,176,136493,2,0,P|414:159|375:158,1,70,0|8,1:0|0:2,0:0:0:0:
305,128,136807,2,0,P|327:85|320:25,1,105,2|0,0:2|0:0,0:0:0:0:
291,0,137121,1,2,0:2:0:0:
238,65,137278,2,0,P|206:49|172:45,1,70,2|0,0:2|0:0,0:0:0:0:
112,105,137592,6,0,P|49:84|1:130,1,140,6|8,0:2|0:2,0:0:0:0:
97,177,138064,2,0,P|144:130|201:148,1,105,6|0,0:2|0:0,0:0:0:0:
216,163,138378,1,2,1:2:0:0:
280,217,138535,1,2,1:2:0:0:
241,289,138692,6,0,P|288:242|352:263,1,140,6|8,0:2|0:2,0:0:0:0:
331,343,139163,2,0,P|381:300|437:323,1,105,8|0,0:2|0:0,0:0:0:0:
453,309,139477,6,0,P|468:278|466:227,1,70,2|2,1:2|1:2,0:0:0:0:
453,204,139713,1,2,1:2:0:0:
437,165,139791,2,0,P|438:130|453:98,1,70,2|0,1:2|1:0,1:1:0:0:
479,66,140027,1,0,1:0:0:0:
464,26,140106,6,0,L|385:12,1,70,6|0,1:2|0:0,0:0:0:0:
310,8,140420,1,10,0:2:0:0:
348,80,140577,2,0,L|379:137,2,35,2|2|2,1:2|0:2|0:2,0:0:0:0:
301,158,140891,6,0,L|316:221,2,35,2|2|2,1:2|0:2|0:2,0:0:0:0:
235,221,141205,2,0,L|233:285,2,35,10|2|2,0:2|0:2|0:2,0:0:0:0:
154,264,141519,2,0,L|135:326,2,35,2|2|2,1:2|0:2|0:2,0:0:0:0:
64,284,141833,2,0,L|30:339,2,35,2|2|2,1:2|0:2|0:2,0:0:0:0:
5,233,142147,2,2,L|-24:252,2,35,2|2|10,1:2|0:2|0:2,0:0:0:0:
16,152,142462,1,2,0:2:0:0:
16,152,142540,1,2,0:2:0:0:
16,152,142619,6,0,P|1:121|3:70,1,70,6|2,1:2|1:2,0:0:0:0:
20,50,142854,1,2,0:2:0:0:
20,50,142933,1,10,0:2:0:0:
102,33,143090,2,0,L|105:-1,2,35,2|2|2,1:2|0:2|0:2,0:0:0:0:
185,32,143404,2,0,L|204:-20,2,35,2|2|2,1:2|0:2|0:2,0:0:0:0:
245,95,143718,6,0,P|265:63|272:19,1,70,10|0,0:2|0:0,0:0:0:0:
267,177,144032,2,0,P|300:160|328:125,1,70,2|8,1:2|0:2,0:0:0:0:
245,257,144346,2,0,P|282:259|323:243,1,70,2|0,1:2|0:0,0:0:0:0:
183,316,144660,2,0,P|214:336|258:343,1,70,2|0,1:2|0:0,0:0:0:0:
103,351,144975,1,2,1:2:0:0:
103,351,145053,1,2,0:2:0:0:
103,351,145132,6,0,P|68:333|40:299,1,70,10|0,0:2|0:0,0:0:0:0:
19,231,145446,2,0,L|178:217,1,140,8|0,0:2|0:0,0:0:0:0:
242,211,145917,1,2,1:2:0:0:
297,147,146074,1,2,0:2:0:0:
381,196,146231,6,0,P|444:217|492:171,1,140,10|0,0:2|1:0,0:0:0:0:
509,88,146702,2,0,L|350:74,1,140,8|0,0:2|1:0,0:0:0:0:
286,62,147174,1,2,1:2:0:0:
225,4,147331,1,10,0:2:0:0:
149,59,147488,6,0,P|86:38|38:84,1,140,6|0,0:2|1:0,0:0:0:0:
17,165,147959,1,0,1:0:0:0:
101,154,148116,2,0,B|139:144|139:144|172:143|172:143|201:127|201:127|240:117,1,140,0|0,1:0|1:0,0:0:0:0:
234,203,148587,2,0,B|289:189|289:189|338:157,1,105,0|0,1:0|1:0,1:1:0:0:
368,146,148901,6,0,P|358:179|360:214,1,70,2|2,2:2|2:2,0:0:0:0:
370,254,149137,1,2,2:2:0:0:
378,294,149215,2,0,P|371:327|352:357,1,70,2|2,2:2|2:2,0:0:0:0:
318,382,149451,1,2,2:2:0:0:
275,381,149530,2,0,P|241:374|211:355,1,70,2|2,2:2|2:2,0:0:0:0:
163,286,149844,6,0,B|127:303|80:295|80:295|56:308,1,105,2|0,0:3|0:0,0:0:0:0:
27,328,150158,1,4,0:3:0:0:
21,137,150472,5,6,0:1:0:0:
256,192,150551,12,0,152985,0:0:0:0:
